  0
SECTION
  2
HEADER
  9
$ACADVER
  1
AC1015
  9
$ACADMAINTVER
 70
    20
  9
$DWGCODEPAGE
  3
ANSI_1252
  9
$INSBASE
 10
0.0
 20
0.0
 30
0.0
  9
$EXTMIN
 10
-84793.55864270152
 20
-74974.40029944558
 30
-0.0000000000000055
  9
$EXTMAX
 10
-83740.8486118834
 20
-74356.9105864748
 30
0.0000000000000135
  9
$LIMMIN
 10
0.0
 20
0.0
  9
$LIMMAX
 10
1189.0
 20
841.0
  9
$ORTHOMODE
 70
     1
  9
$REGENMODE
 70
     1
  9
$FILLMODE
 70
     1
  9
$QTEXTMODE
 70
     0
  9
$MIRRTEXT
 70
     1
  9
$LTSCALE
 40
1.0
  9
$ATTMODE
 70
     1
  9
$TEXTSIZE
 40
30.0
  9
$TRACEWID
 40
1.0
  9
$TEXTSTYLE
  7
ROMANS
  9
$CLAYER
  8
0
  9
$CELTYPE
  6
BYLAYER
  9
$CECOLOR
 62
   256
  9
$CELTSCALE
 40
1.0
  9
$DISPSILH
 70
     0
  9
$DIMSCALE
 40
1.0
  9
$DIMASZ
 40
30.0
  9
$DIMEXO
 40
0.0
  9
$DIMDLI
 40
3.75
  9
$DIMRND
 40
0.0
  9
$DIMDLE
 40
0.0
  9
$DIMEXE
 40
10.0
  9
$DIMTP
 40
0.0
  9
$DIMTM
 40
0.0
  9
$DIMTXT
 40
30.0
  9
$DIMCEN
 40
2.5
  9
$DIMTSZ
 40
0.0
  9
$DIMTOL
 70
     0
  9
$DIMLIM
 70
     0
  9
$DIMTIH
 70
     0
  9
$DIMTOH
 70
     0
  9
$DIMSE1
 70
     0
  9
$DIMSE2
 70
     0
  9
$DIMTAD
 70
     1
  9
$DIMZIN
 70
     0
  9
$DIMBLK
  1

  9
$DIMASO
 70
     1
  9
$DIMSHO
 70
     1
  9
$DIMPOST
  1

  9
$DIMAPOST
  1

  9
$DIMALT
 70
     0
  9
$DIMALTD
 70
     2
  9
$DIMALTF
 40
25.4
  9
$DIMLFAC
 40
1.0
  9
$DIMTOFL
 70
     1
  9
$DIMTVP
 40
0.0
  9
$DIMTIX
 70
     0
  9
$DIMSOXD
 70
     0
  9
$DIMSAH
 70
     0
  9
$DIMBLK1
  1

  9
$DIMBLK2
  1

  9
$DIMSTYLE
  2
STANDARD
  9
$DIMCLRD
 70
     0
  9
$DIMCLRE
 70
     0
  9
$DIMCLRT
 70
     0
  9
$DIMTFAC
 40
1.0
  9
$DIMGAP
 40
10.0
  9
$DIMJUST
 70
     0
  9
$DIMSD1
 70
     0
  9
$DIMSD2
 70
     0
  9
$DIMTOLJ
 70
     1
  9
$DIMTZIN
 70
     0
  9
$DIMALTZ
 70
     0
  9
$DIMALTTZ
 70
     0
  9
$DIMUPT
 70
     0
  9
$DIMDEC
 70
     0
  9
$DIMTDEC
 70
     0
  9
$DIMALTU
 70
     2
  9
$DIMALTTD
 70
     2
  9
$DIMTXSTY
  7
STANDARD
  9
$DIMAUNIT
 70
     0
  9
$DIMADEC
 70
     0
  9
$DIMALTRND
 40
0.0
  9
$DIMAZIN
 70
     0
  9
$DIMDSEP
 70
    46
  9
$DIMATFIT
 70
     3
  9
$DIMFRAC
 70
     0
  9
$DIMLDRBLK
  1

  9
$DIMLUNIT
 70
     2
  9
$DIMLWD
 70
    -2
  9
$DIMLWE
 70
    -2
  9
$DIMTMOVE
 70
     0
  9
$LUNITS
 70
     2
  9
$LUPREC
 70
     4
  9
$SKETCHINC
 40
1.0
  9
$FILLETRAD
 40
0.0
  9
$AUNITS
 70
     0
  9
$AUPREC
 70
     0
  9
$MENU
  1
C:\ACADR13\WIN\SUPPORT\ACADFULL
  9
$ELEVATION
 40
0.0
  9
$PELEVATION
 40
0.0
  9
$THICKNESS
 40
0.0
  9
$LIMCHECK
 70
     0
  9
$CHAMFERA
 40
10.0
  9
$CHAMFERB
 40
10.0
  9
$CHAMFERC
 40
0.0
  9
$CHAMFERD
 40
0.0
  9
$SKPOLY
 70
     0
  9
$TDCREATE
 40
2450382.434570139
  9
$TDUCREATE
 40
2450382.351236806
  9
$TDUPDATE
 40
2456437.579994838
  9
$TDUUPDATE
 40
2456437.496661505
  9
$TDINDWG
 40
0.8203956134
  9
$TDUSRTIMER
 40
0.8203923843
  9
$USRTIMER
 70
     1
  9
$ANGBASE
 50
0.0
  9
$ANGDIR
 70
     0
  9
$PDMODE
 70
     0
  9
$PDSIZE
 40
0.0
  9
$PLINEWID
 40
0.0
  9
$SPLFRAME
 70
     0
  9
$SPLINETYPE
 70
     6
  9
$SPLINESEGS
 70
     8
  9
$HANDSEED
  5
3D992
  9
$SURFTAB1
 70
     6
  9
$SURFTAB2
 70
     6
  9
$SURFTYPE
 70
     6
  9
$SURFU
 70
     6
  9
$SURFV
 70
     6
  9
$UCSBASE
  2

  9
$UCSNAME
  2

  9
$UCSORG
 10
0.0
 20
0.0
 30
0.0
  9
$UCSXDIR
 10
1.0
 20
0.0
 30
0.0
  9
$UCSYDIR
 10
0.0
 20
1.0
 30
0.0
  9
$UCSORTHOREF
  2

  9
$UCSORTHOVIEW
 70
     0
  9
$UCSORGTOP
 10
0.0
 20
0.0
 30
0.0
  9
$UCSORGBOTTOM
 10
0.0
 20
0.0
 30
0.0
  9
$UCSORGLEFT
 10
0.0
 20
0.0
 30
0.0
  9
$UCSORGRIGHT
 10
0.0
 20
0.0
 30
0.0
  9
$UCSORGFRONT
 10
0.0
 20
0.0
 30
0.0
  9
$UCSORGBACK
 10
0.0
 20
0.0
 30
0.0
  9
$PUCSBASE
  2

  9
$PUCSNAME
  2

  9
$PUCSORG
 10
0.0
 20
0.0
 30
0.0
  9
$PUCSXDIR
 10
1.0
 20
0.0
 30
0.0
  9
$PUCSYDIR
 10
0.0
 20
1.0
 30
0.0
  9
$PUCSORTHOREF
  2

  9
$PUCSORTHOVIEW
 70
     0
  9
$PUCSORGTOP
 10
0.0
 20
0.0
 30
0.0
  9
$PUCSORGBOTTOM
 10
0.0
 20
0.0
 30
0.0
  9
$PUCSORGLEFT
 10
0.0
 20
0.0
 30
0.0
  9
$PUCSORGRIGHT
 10
0.0
 20
0.0
 30
0.0
  9
$PUCSORGFRONT
 10
0.0
 20
0.0
 30
0.0
  9
$PUCSORGBACK
 10
0.0
 20
0.0
 30
0.0
  9
$USERI1
 70
     0
  9
$USERI2
 70
     0
  9
$USERI3
 70
     0
  9
$USERI4
 70
     0
  9
$USERI5
 70
     0
  9
$USERR1
 40
0.0
  9
$USERR2
 40
0.0
  9
$USERR3
 40
0.0
  9
$USERR4
 40
0.0
  9
$USERR5
 40
0.0
  9
$WORLDVIEW
 70
     1
  9
$SHADEDGE
 70
     3
  9
$SHADEDIF
 70
    70
  9
$TILEMODE
 70
     1
  9
$MAXACTVP
 70
    16
  9
$PINSBASE
 10
0.0
 20
0.0
 30
0.0
  9
$PLIMCHECK
 70
     0
  9
$PEXTMIN
 10
1.000000000000000E+20
 20
1.000000000000000E+20
 30
1.000000000000000E+20
  9
$PEXTMAX
 10
-1.000000000000000E+20
 20
-1.000000000000000E+20
 30
-1.000000000000000E+20
  9
$PLIMMIN
 10
-0.0980265521206203
 20
-3.678311471965383
  9
$PLIMMAX
 10
207.2988188848241
 20
289.6460551372062
  9
$UNITMODE
 70
     0
  9
$VISRETAIN
 70
     0
  9
$PLINEGEN
 70
     0
  9
$PSLTSCALE
 70
     1
  9
$TREEDEPTH
 70
  3020
  9
$CMLSTYLE
  2
STANDARD
  9
$CMLJUST
 70
     0
  9
$CMLSCALE
 40
1.0
  9
$PROXYGRAPHICS
 70
     1
  9
$MEASUREMENT
 70
     0
  9
$CELWEIGHT
370
    -1
  9
$ENDCAPS
280
     0
  9
$JOINSTYLE
280
     0
  9
$LWDISPLAY
290
     0
  9
$INSUNITS
 70
     0
  9
$HYPERLINKBASE
  1

  9
$STYLESHEET
  1

  9
$XEDIT
290
     1
  9
$CEPSNTYPE
380
     0
  9
$PSTYLEMODE
290
     1
  9
$FINGERPRINTGUID
  2
{408A79E2-F00F-47E2-9806-578BB6257B10}
  9
$VERSIONGUID
  2
{BA14CF72-F50B-4BD4-B52B-EE580E404CDB}
  9
$EXTNAMES
290
     1
  9
$PSVPSCALE
 40
0.0
  9
$OLESTARTUP
290
     0
  0
ENDSEC
  0
SECTION
  2
CLASSES
  0
CLASS
  1
DICTIONARYVAR
  2
AcDbDictionaryVar
  3
ObjectDBX Classes
 90
        0
280
     0
281
     0
  0
CLASS
  1
ACDBDICTIONARYWDFLT
  2
AcDbDictionaryWithDefault
  3
ObjectDBX Classes
 90
        0
280
     0
281
     0
  0
CLASS
  1
ACDBPLACEHOLDER
  2
AcDbPlaceHolder
  3
ObjectDBX Classes
 90
        0
280
     0
281
     0
  0
CLASS
  1
LAYOUT
  2
AcDbLayout
  3
ObjectDBX Classes
 90
        0
280
     0
281
     0
  0
CLASS
  1
MATERIAL
  2
AcDbMaterial
  3
ObjectDBX Classes
 90
     1024
280
     0
281
     0
  0
CLASS
  1
VISUALSTYLE
  2
AcDbVisualStyle
  3
ObjectDBX Classes
 90
     4095
280
     0
281
     0
  0
CLASS
  1
TABLESTYLE
  2
AcDbTableStyle
  3
ObjectDBX Classes
 90
     4095
280
     0
281
     0
  0
CLASS
  1
SORTENTSTABLE
  2
AcDbSortentsTable
  3
ObjectDBX Classes
 90
        0
280
     0
281
     0
  0
ENDSEC
  0
SECTION
  2
TABLES
  0
TABLE
  2
VPORT
  5
8
330
0
100
AcDbSymbolTable
 70
     1
  0
VPORT
  5
39C01
330
8
100
AcDbSymbolTableRecord
100
AcDbViewportTableRecord
  2
*Active
 70
     0
 10
0.0
 20
0.0
 11
1.0
 21
1.0
 12
-84430.65961770548
 22
-74520.17144997226
 13
0.0
 23
0.0
 14
10.0
 24
10.0
 15
10.0
 25
10.0
 16
0.0
 26
0.0
 36
1.0
 17
0.0
 27
0.0
 37
0.0
 40
895.7579599373378
 41
2.047451669595782
 42
50.0
 43
0.0
 44
0.0
 50
0.0
 51
0.0
 71
     0
 72
 20000
 73
     1
 74
     1
 75
     0
 76
     0
 77
     0
 78
     0
281
     0
 65
     1
110
0.0
120
0.0
130
0.0
111
1.0
121
0.0
131
0.0
112
0.0
122
1.0
132
0.0
 79
     0
146
0.0
  0
ENDTAB
  0
TABLE
  2
LTYPE
  5
5
330
0
100
AcDbSymbolTable
 70
     3
  0
LTYPE
  5
14
330
5
100
AcDbSymbolTableRecord
100
AcDbLinetypeTableRecord
  2
BYBLOCK
 70
     0
  3

 72
    65
 73
     0
 40
0.0
  0
LTYPE
  5
15
330
5
100
AcDbSymbolTableRecord
100
AcDbLinetypeTableRecord
  2
BYLAYER
 70
     0
  3

 72
    65
 73
     0
 40
0.0
  0
LTYPE
  5
16
330
5
100
AcDbSymbolTableRecord
100
AcDbLinetypeTableRecord
  2
CONTINUOUS
 70
     0
  3
Solid line
 72
    65
 73
     0
 40
0.0
  0
LTYPE
  5
3CF89
330
5
100
AcDbSymbolTableRecord
100
AcDbLinetypeTableRecord
  2
CENTER
 70
     0
  3
Mitte ____ _ ____ _ ____ _ ____ _ ____ _ ____
 72
    65
 73
     4
 40
50.8
 49
31.75
 74
     0
 49
-6.349999999999998
 74
     0
 49
6.349999999999998
 74
     0
 49
-6.349999999999998
 74
     0
  0
LTYPE
  5
3D394
330
5
100
AcDbSymbolTableRecord
100
AcDbLinetypeTableRecord
  2
VOLLINIE_SCHMAL_0_18
 70
     0
  3

 72
    65
 73
     0
 40
0.0
  0
ENDTAB
  0
TABLE
  2
LAYER
  5
2
102
{ACAD_XDICTIONARY
360
39C3D
102
}
330
0
100
AcDbSymbolTable
 70
     3
  0
LAYER
  5
F
330
2
100
AcDbSymbolTableRecord
100
AcDbLayerTableRecord
  2
0
 70
     0
 62
     7
  6
CONTINUOUS
370
    -3
390
39BF2
  0
LAYER
  5
3FD
330
2
100
AcDbSymbolTableRecord
100
AcDbLayerTableRecord
  2
DEFPOINTS
 70
     0
 62
     7
  6
CONTINUOUS
290
     0
370
    -3
390
39BF2
  0
LAYER
  5
3CAA4
330
2
100
AcDbSymbolTableRecord
100
AcDbLayerTableRecord
  2
HEWI
 70
     0
 62
     7
  6
CONTINUOUS
370
    -3
390
39BF2
  0
ENDTAB
  0
TABLE
  2
STYLE
  5
3
330
0
100
AcDbSymbolTable
 70
     4
  0
STYLE
  5
10
330
3
100
AcDbSymbolTableRecord
100
AcDbTextStyleTableRecord
  2
STANDARD
 70
     0
 40
0.0
 41
1.0
 50
0.0
 71
     0
 42
2.5
  3
ISOCP
  4

  0
STYLE
  5
3F
330
3
100
AcDbSymbolTableRecord
100
AcDbTextStyleTableRecord
  2
ROMANS
 70
     0
 40
0.0
 41
0.8
 50
0.0
 71
     0
 42
30.0
  3
romans.shx
  4

  0
STYLE
  5
3CF8A
330
3
100
AcDbSymbolTableRecord
100
AcDbTextStyleTableRecord
  2
Entro
 70
     0
 40
0.0
 41
1.0
 50
0.0
 71
     0
 42
3.0
  3
isocpeur.ttf
  4

1001
ACAD
1000
ISOCPEUR
1071
       34
  0
STYLE
  5
3D395
330
3
100
AcDbSymbolTableRecord
100
AcDbTextStyleTableRecord
  2
ARIAL
 70
     0
 40
0.0
 41
1.0
 50
0.0
 71
     0
 42
0.18
  3
ARIAL.TTF
  4

1001
ACAD
1000
Arial
1071
       34
  0
ENDTAB
  0
TABLE
  2
VIEW
  5
6
330
0
100
AcDbSymbolTable
 70
     0
  0
ENDTAB
  0
TABLE
  2
UCS
  5
7
330
0
100
AcDbSymbolTable
 70
     0
  0
ENDTAB
  0
TABLE
  2
APPID
  5
9
330
0
100
AcDbSymbolTable
 70
     7
  0
APPID
  5
11
330
9
100
AcDbSymbolTableRecord
100
AcDbRegAppTableRecord
  2
ACAD
 70
     0
  0
APPID
  5
36496
330
9
100
AcDbSymbolTableRecord
100
AcDbRegAppTableRecord
  2
ACADIGES
 70
     0
  0
APPID
  5
36497
330
9
100
AcDbSymbolTableRecord
100
AcDbRegAppTableRecord
  2
AUTOCAD_POSTSCRIPT_FIGURE
 70
     0
  0
APPID
  5
3A910
330
9
100
AcDbSymbolTableRecord
100
AcDbRegAppTableRecord
  2
ACAD_PSEXT
 70
     0
  0
APPID
  5
3AB52
330
9
100
AcDbSymbolTableRecord
100
AcDbRegAppTableRecord
  2
AcAecLayerStandard
 70
     0
  0
APPID
  5
3CECD
330
9
100
AcDbSymbolTableRecord
100
AcDbRegAppTableRecord
  2
ACAD_EXEMPT_FROM_CAD_STANDARDS
 70
     0
  0
APPID
  5
3CF8C
330
9
100
AcDbSymbolTableRecord
100
AcDbRegAppTableRecord
  2
ACAD_DSTYLE_DIMJOGGED_JOGANGLE_SYMBOL
 70
     0
  0
ENDTAB
  0
TABLE
  2
DIMSTYLE
  5
A
330
0
100
AcDbSymbolTable
 70
     3
100
AcDbDimStyleTable
 71
     1
340
1D
  0
DIMSTYLE
105
1D
102
{ACAD_REACTORS
330
3D66E
102
}
330
A
100
AcDbSymbolTableRecord
100
AcDbDimStyleTableRecord
  2
STANDARD
 70
     0
340
10
  0
DIMSTYLE
105
3CF8B
330
A
100
AcDbSymbolTableRecord
100
AcDbDimStyleTableRecord
  2
AM_DIN
 70
     0
  4
"
 41
2.5
 42
1.0
 43
10.0
 44
1.0
 47
0.1
 48
0.1
 73
     0
 74
     0
 77
     1
 78
     8
 79
     2
140
3.5
141
0.0
143
0.0393701
146
0.71
147
1.5
172
     1
176
   256
177
   256
178
     2
271
     2
272
     3
274
     4
283
     0
284
     8
340
10
371
    -1
372
    -1
1001
ACAD_DSTYLE_DIMJOGGED_JOGANGLE_SYMBOL
1070
   384
1040
1.570796326794896
  0
DIMSTYLE
105
3D396
330
A
100
AcDbSymbolTableRecord
100
AcDbDimStyleTableRecord
  2
NEU
 70
     0
 41
35.0
 42
0.625
 43
3.75
 44
10.0
 73
     0
 74
     0
 77
     1
 78
     8
140
35.0
141
2.5
143
0.0394
145
1.0
147
10.0
172
     1
271
     0
340
10
  0
ENDTAB
  0
TABLE
  2
BLOCK_RECORD
  5
1
330
0
100
AcDbSymbolTable
 70
    14
  0
BLOCK_RECORD
  5
1A
102
{ACAD_XDICTIONARY
360
3B151
102
}
330
1
100
AcDbSymbolTableRecord
100
AcDbBlockTableRecord
  2
*MODEL_SPACE
340
39BF5
  0
BLOCK_RECORD
  5
17
330
1
100
AcDbSymbolTableRecord
100
AcDbBlockTableRecord
  2
*PAPER_SPACE
340
39BF6
  0
BLOCK_RECORD
  5
3CEF7
330
1
100
AcDbSymbolTableRecord
100
AcDbBlockTableRecord
  2
*D0
340
0
  0
BLOCK_RECORD
  5
3CF10
330
1
100
AcDbSymbolTableRecord
100
AcDbBlockTableRecord
  2
*D1
340
0
  0
BLOCK_RECORD
  5
3CF22
330
1
100
AcDbSymbolTableRecord
100
AcDbBlockTableRecord
  2
*D2
340
0
  0
BLOCK_RECORD
  5
3CF38
330
1
100
AcDbSymbolTableRecord
100
AcDbBlockTableRecord
  2
*D3
340
0
  0
BLOCK_RECORD
  5
3CF57
330
1
100
AcDbSymbolTableRecord
100
AcDbBlockTableRecord
  2
*D4
340
0
  0
BLOCK_RECORD
  5
3CF64
330
1
100
AcDbSymbolTableRecord
100
AcDbBlockTableRecord
  2
*D5
340
0
  0
BLOCK_RECORD
  5
3D16A
330
1
100
AcDbSymbolTableRecord
100
AcDbBlockTableRecord
  2
*D6
340
0
  0
BLOCK_RECORD
  5
3D177
330
1
100
AcDbSymbolTableRecord
100
AcDbBlockTableRecord
  2
*D7
340
0
  0
BLOCK_RECORD
  5
3D19F
330
1
100
AcDbSymbolTableRecord
100
AcDbBlockTableRecord
  2
*D8
340
0
  0
BLOCK_RECORD
  5
3D1AC
330
1
100
AcDbSymbolTableRecord
100
AcDbBlockTableRecord
  2
*D9
340
0
  0
BLOCK_RECORD
  5
3D1B9
330
1
100
AcDbSymbolTableRecord
100
AcDbBlockTableRecord
  2
*D10
340
0
  0
BLOCK_RECORD
  5
3D388
330
1
100
AcDbSymbolTableRecord
100
AcDbBlockTableRecord
  2
*D11
340
0
  0
BLOCK_RECORD
  5
3D66F
330
1
100
AcDbSymbolTableRecord
100
AcDbBlockTableRecord
  2
*D12
340
0
  0
BLOCK_RECORD
  5
3D846
330
1
100
AcDbSymbolTableRecord
100
AcDbBlockTableRecord
  2
*D13
340
0
  0
ENDTAB
  0
ENDSEC
  0
SECTION
  2
BLOCKS
  0
BLOCK
  5
1B
330
1A
100
AcDbEntity
  8
0
100
AcDbBlockBegin
  2
*MODEL_SPACE
 70
     0
 10
0.0
 20
0.0
 30
0.0
  3
*MODEL_SPACE
  1

  0
ENDBLK
  5
1C
330
1A
100
AcDbEntity
  8
0
100
AcDbBlockEnd
  0
BLOCK
  5
18
330
17
100
AcDbEntity
 67
     1
  8
0
100
AcDbBlockBegin
  2
*PAPER_SPACE
 70
     0
 10
0.0
 20
0.0
 30
0.0
  3
*PAPER_SPACE
  1

  0
ENDBLK
  5
19
330
17
100
AcDbEntity
 67
     1
  8
0
100
AcDbBlockEnd
  0
BLOCK
  5
3CF03
330
3CEF7
100
AcDbEntity
  8
0
100
AcDbBlockBegin
  2
*D0
 70
     1
 10
0.0
 20
0.0
 30
0.0
  3
*D0
  1

  0
LINE
  5
3CEF8
330
3CEF7
100
AcDbEntity
  8
0
 62
     0
370
    -2
100
AcDbLine
 10
-77795.40149458569
 20
-74350.29120157982
 30
0.0
 11
-77302.59966689322
 21
-74350.29120157982
 31
0.0
  0
LINE
  5
3CEF9
330
3CEF7
100
AcDbEntity
  8
0
 62
     0
370
    -2
100
AcDbLine
 10
-77795.40149458569
 20
-74369.29120157982
 30
0.0
 11
-77302.59966689322
 21
-74369.29120157982
 31
0.0
  0
LINE
  5
3CEFA
330
3CEF7
100
AcDbEntity
  8
0
 62
     0
370
    -2
100
AcDbLine
 10
-77312.59966689322
 20
-74320.29120157982
 30
0.0
 11
-77312.59966689322
 21
-74290.29120157982
 31
0.0
  0
LINE
  5
3CEFB
330
3CEF7
100
AcDbEntity
  8
0
 62
     0
370
    -2
100
AcDbLine
 10
-77312.59966689322
 20
-74399.29120157982
 30
0.0
 11
-77312.59966689322
 21
-74478.43900594987
 31
0.0
  0
LINE
  5
3CEFC
330
3CEF7
100
AcDbEntity
  8
0
 62
     0
370
    -2
100
AcDbLine
 10
-77312.59966689322
 20
-74350.29120157982
 30
0.0
 11
-77312.59966689322
 21
-74369.29120157982
 31
0.0
  0
SOLID
  5
3CEFD
330
3CEF7
100
AcDbEntity
  8
0
 62
     0
100
AcDbTrace
 10
-77317.59966689322
 20
-74320.29120157982
 30
0.0
 11
-77307.59966689322
 21
-74320.29120157982
 31
0.0
 12
-77312.59966689322
 22
-74350.29120157982
 32
0.0
 13
-77312.59966689322
 23
-74350.29120157982
 33
0.0
  0
SOLID
  5
3CEFE
330
3CEF7
100
AcDbEntity
  8
0
 62
     0
100
AcDbTrace
 10
-77317.59966689322
 20
-74399.29120157982
 30
0.0
 11
-77307.59966689322
 21
-74399.29120157982
 31
0.0
 12
-77312.59966689322
 22
-74369.29120157982
 32
0.0
 13
-77312.59966689322
 23
-74369.29120157982
 33
0.0
  0
MTEXT
  5
3CEFF
330
3CEF7
100
AcDbEntity
  8
0
 62
     0
100
AcDbMText
 10
-77337.5996668932
 20
-74453.86510376486
 30
0.0
 40
30.0
 41
0.0
 71
     5
 72
     1
  1
\A1;19
 11
0.0000000000000001
 21
1.0
 31
0.0
 73
     1
 44
1.0
1001
ACAD
1000
MTEXTBEGIN
1070
    73
1070
     1
1070
    44
1040
1.0
1070
    74
1070
     0
1000
MTEXTEND
  0
POINT
  5
3CF00
330
3CEF7
100
AcDbEntity
  8
DEFPOINTS
 62
     0
100
AcDbPoint
 10
-77795.40149458569
 20
-74350.29120157982
 30
0.0
  0
POINT
  5
3CF01
330
3CEF7
100
AcDbEntity
  8
DEFPOINTS
 62
     0
100
AcDbPoint
 10
-77795.40149458569
 20
-74369.29120157982
 30
0.0
  0
POINT
  5
3CF02
330
3CEF7
100
AcDbEntity
  8
DEFPOINTS
 62
     0
100
AcDbPoint
 10
-77312.59966689322
 20
-74369.29120157982
 30
0.0
  0
ENDBLK
  5
3CF04
330
3CEF7
100
AcDbEntity
  8
0
100
AcDbBlockEnd
  0
BLOCK
  5
3CF1A
330
3CF10
100
AcDbEntity
  8
0
100
AcDbBlockBegin
  2
*D1
 70
     1
 10
0.0
 20
0.0
 30
0.0
  3
*D1
  1

  0
LINE
  5
3CF11
330
3CF10
100
AcDbEntity
  8
0
 62
     0
370
    -2
100
AcDbLine
 10
-78008.6390963593
 20
-74203.29799436197
 30
0.0
 11
-78008.6390963593
 21
-74161.33668894246
 31
0.0
  0
LINE
  5
3CF12
330
3CF10
100
AcDbEntity
  8
0
 62
     0
370
    -2
100
AcDbLine
 10
-77448.6390963593
 20
-74203.29799436197
 30
0.0
 11
-77448.6390963593
 21
-74161.33668894246
 31
0.0
  0
LINE
  5
3CF13
330
3CF10
100
AcDbEntity
  8
0
 62
     0
370
    -2
100
AcDbLine
 10
-77978.6390963593
 20
-74171.33668894247
 30
0.0
 11
-77478.6390963593
 21
-74171.33668894247
 31
0.0
  0
SOLID
  5
3CF14
330
3CF10
100
AcDbEntity
  8
0
 62
     0
100
AcDbTrace
 10
-77978.6390963593
 20
-74166.33668894246
 30
0.0
 11
-77978.6390963593
 21
-74176.33668894247
 31
0.0
 12
-78008.6390963593
 22
-74171.33668894247
 32
0.0
 13
-78008.6390963593
 23
-74171.33668894247
 33
0.0
  0
SOLID
  5
3CF15
330
3CF10
100
AcDbEntity
  8
0
 62
     0
100
AcDbTrace
 10
-77478.6390963593
 20
-74166.33668894246
 30
0.0
 11
-77478.6390963593
 21
-74176.33668894247
 31
0.0
 12
-77448.6390963593
 22
-74171.33668894247
 32
0.0
 13
-77448.6390963593
 23
-74171.33668894247
 33
0.0
  0
MTEXT
  5
3CF16
330
3CF10
100
AcDbEntity
  8
0
 62
     0
100
AcDbMText
 10
-77728.6390963593
 20
-74146.33668894246
 30
0.0
 40
30.0
 41
0.0
 71
     5
 72
     1
  1
\A1;560
 73
     1
 44
1.0
1001
ACAD
1000
MTEXTBEGIN
1070
    73
1070
     1
1070
    44
1040
1.0
1070
    74
1070
     0
1000
MTEXTEND
  0
POINT
  5
3CF17
330
3CF10
100
AcDbEntity
  8
DEFPOINTS
 62
     0
100
AcDbPoint
 10
-78008.6390963593
 20
-74203.29799436197
 30
0.0
  0
POINT
  5
3CF18
330
3CF10
100
AcDbEntity
  8
DEFPOINTS
 62
     0
100
AcDbPoint
 10
-77448.6390963593
 20
-74203.29799436197
 30
0.0
  0
POINT
  5
3CF19
330
3CF10
100
AcDbEntity
  8
DEFPOINTS
 62
     0
100
AcDbPoint
 10
-77448.6390963593
 20
-74171.33668894247
 30
0.0
  0
ENDBLK
  5
3CF1B
330
3CF10
100
AcDbEntity
  8
0
100
AcDbBlockEnd
  0
BLOCK
  5
3CF2E
330
3CF22
100
AcDbEntity
  8
0
100
AcDbBlockBegin
  2
*D2
 70
     1
 10
0.0
 20
0.0
 30
0.0
  3
*D2
  1

  0
LINE
  5
3CF23
330
3CF22
100
AcDbEntity
  8
0
 62
     0
370
    -2
100
AcDbLine
 10
-77742.08151469922
 20
-74350.29120157982
 30
0.0
 11
-77308.13025603105
 21
-74350.29120157982
 31
0.0
  0
LINE
  5
3CF24
330
3CF22
100
AcDbEntity
  8
0
 62
     0
370
    -2
100
AcDbLine
 10
-77742.08151469922
 20
-74369.29120157982
 30
0.0
 11
-77308.13025603105
 21
-74369.29120157982
 31
0.0
  0
LINE
  5
3CF25
330
3CF22
100
AcDbEntity
  8
0
 62
     0
370
    -2
100
AcDbLine
 10
-77318.13025603106
 20
-74320.29120157982
 30
0.0
 11
-77318.13025603106
 21
-74290.29120157982
 31
0.0
  0
LINE
  5
3CF26
330
3CF22
100
AcDbEntity
  8
0
 62
     0
370
    -2
100
AcDbLine
 10
-77318.13025603106
 20
-74399.29120157982
 30
0.0
 11
-77318.13025603106
 21
-74478.43900594987
 31
0.0
  0
LINE
  5
3CF27
330
3CF22
100
AcDbEntity
  8
0
 62
     0
370
    -2
100
AcDbLine
 10
-77318.13025603106
 20
-74350.29120157982
 30
0.0
 11
-77318.13025603106
 21
-74369.29120157982
 31
0.0
  0
SOLID
  5
3CF28
330
3CF22
100
AcDbEntity
  8
0
 62
     0
100
AcDbTrace
 10
-77323.13025603105
 20
-74320.29120157982
 30
0.0
 11
-77313.13025603106
 21
-74320.29120157982
 31
0.0
 12
-77318.13025603106
 22
-74350.29120157982
 32
0.0
 13
-77318.13025603106
 23
-74350.29120157982
 33
0.0
  0
SOLID
  5
3CF29
330
3CF22
100
AcDbEntity
  8
0
 62
     0
100
AcDbTrace
 10
-77323.13025603105
 20
-74399.29120157982
 30
0.0
 11
-77313.13025603106
 21
-74399.29120157982
 31
0.0
 12
-77318.13025603106
 22
-74369.29120157982
 32
0.0
 13
-77318.13025603106
 23
-74369.29120157982
 33
0.0
  0
MTEXT
  5
3CF2A
330
3CF22
100
AcDbEntity
  8
0
 62
     0
100
AcDbMText
 10
-77343.13025603102
 20
-74453.86510376486
 30
0.0
 40
30.0
 41
0.0
 71
     5
 72
     1
  1
\A1;19
 11
0.0000000000000001
 21
1.0
 31
0.0
 73
     1
 44
1.0
1001
ACAD
1000
MTEXTBEGIN
1070
    73
1070
     1
1070
    44
1040
1.0
1070
    74
1070
     0
1000
MTEXTEND
  0
POINT
  5
3CF2B
330
3CF22
100
AcDbEntity
  8
DEFPOINTS
 62
     0
100
AcDbPoint
 10
-77742.08151469922
 20
-74350.29120157982
 30
0.0
  0
POINT
  5
3CF2C
330
3CF22
100
AcDbEntity
  8
DEFPOINTS
 62
     0
100
AcDbPoint
 10
-77742.08151469922
 20
-74369.29120157982
 30
0.0
  0
POINT
  5
3CF2D
330
3CF22
100
AcDbEntity
  8
DEFPOINTS
 62
     0
100
AcDbPoint
 10
-77318.13025603106
 20
-74369.29120157982
 30
0.0
  0
ENDBLK
  5
3CF2F
330
3CF22
100
AcDbEntity
  8
0
100
AcDbBlockEnd
  0
BLOCK
  5
3CF42
330
3CF38
100
AcDbEntity
  8
0
100
AcDbBlockBegin
  2
*D3
 70
     1
 10
0.0
 20
0.0
 30
0.0
  3
*D3
  1

  0
LINE
  5
3CF39
330
3CF38
100
AcDbEntity
  8
0
 62
     0
370
    -2
100
AcDbLine
 10
-78276.39965993805
 20
-73883.20637588031
 30
0.0
 11
-78276.39965993805
 21
-73926.48306328972
 31
0.0
  0
LINE
  5
3CF3A
330
3CF38
100
AcDbEntity
  8
0
 62
     0
370
    -2
100
AcDbLine
 10
-78176.39965993805
 20
-73878.14251657948
 30
0.0
 11
-78176.39965993805
 21
-73926.48306328972
 31
0.0
  0
LINE
  5
3CF3B
330
3CF38
100
AcDbEntity
  8
0
 62
     0
370
    -2
100
AcDbLine
 10
-78246.39965993805
 20
-73916.48306328972
 30
0.0
 11
-78206.39965993803
 21
-73916.48306328972
 31
0.0
  0
SOLID
  5
3CF3C
330
3CF38
100
AcDbEntity
  8
0
 62
     0
100
AcDbTrace
 10
-78246.39965993805
 20
-73911.48306328972
 30
0.0
 11
-78246.39965993805
 21
-73921.48306328969
 31
0.0
 12
-78276.39965993805
 22
-73916.48306328972
 32
0.0
 13
-78276.39965993805
 23
-73916.48306328972
 33
0.0
  0
SOLID
  5
3CF3D
330
3CF38
100
AcDbEntity
  8
0
 62
     0
100
AcDbTrace
 10
-78206.39965993803
 20
-73911.48306328972
 30
0.0
 11
-78206.39965993803
 21
-73921.48306328969
 31
0.0
 12
-78176.39965993805
 22
-73916.48306328972
 32
0.0
 13
-78176.39965993805
 23
-73916.48306328972
 33
0.0
  0
MTEXT
  5
3CF3E
330
3CF38
100
AcDbEntity
  8
0
 62
     0
100
AcDbMText
 10
-78226.39965993805
 20
-73891.48306328969
 30
0.0
 40
30.0
 41
0.0
 71
     5
 72
     1
  1
\A1;100
 73
     1
 44
1.0
1001
ACAD
1000
MTEXTBEGIN
1070
    73
1070
     1
1070
    44
1040
1.0
1070
    74
1070
     0
1000
MTEXTEND
  0
POINT
  5
3CF3F
330
3CF38
100
AcDbEntity
  8
DEFPOINTS
 62
     0
100
AcDbPoint
 10
-78276.39965993805
 20
-73883.20637588031
 30
0.0
  0
POINT
  5
3CF40
330
3CF38
100
AcDbEntity
  8
DEFPOINTS
 62
     0
100
AcDbPoint
 10
-78176.39965993805
 20
-73878.14251657948
 30
0.0
  0
POINT
  5
3CF41
330
3CF38
100
AcDbEntity
  8
DEFPOINTS
 62
     0
100
AcDbPoint
 10
-78176.39965993805
 20
-73916.48306328972
 30
0.0
  0
ENDBLK
  5
3CF43
330
3CF38
100
AcDbEntity
  8
0
100
AcDbBlockEnd
  0
BLOCK
  5
3CF60
330
3CF57
100
AcDbEntity
  8
0
100
AcDbBlockBegin
  2
*D4
 70
     1
 10
0.0
 20
0.0
 30
0.0
  3
*D4
  1

  0
LINE
  5
3CF58
330
3CF57
100
AcDbEntity
  8
0
 62
     0
370
    -2
100
AcDbLine
 10
-77838.73139085438
 20
-73915.8454673038
 30
0.0
 11
-77948.92282408803
 21
-73948.05252890067
 31
0.0
  0
LINE
  5
3CF59
330
3CF57
100
AcDbEntity
  8
0
 62
     0
370
    -2
100
AcDbLine
 10
-78046.59580904593
 20
-73976.60066327532
 30
0.0
 11
-78075.39103536862
 21
-73985.01701290119
 31
0.0
  0
MTEXT
  5
3CF5A
330
3CF57
100
AcDbEntity
  8
0
 62
     0
100
AcDbMText
 10
-77886.44394737897
 20
-73903.74196717789
 30
0.0
 40
30.0
 41
0.0
 71
     5
 72
     1
  1
\A1;\U+220542
 11
0.9598408774230465
 21
0.2805449875291948
 31
0.0
 73
     1
 44
1.0
1001
ACAD
1000
MTEXTBEGIN
1070
    73
1070
     1
1070
    44
1040
1.0
1070
    74
1070
     0
1000
MTEXTEND
  0
LINE
  5
3CF5B
330
3CF57
100
AcDbEntity
  8
0
 62
     0
370
    -2
100
AcDbLine
 10
-78017.80058272325
 20
-73968.18431364946
 30
0.0
 11
-77977.71805041072
 21
-73956.46887852656
 31
0.0
  0
SOLID
  5
3CF5C
330
3CF57
100
AcDbEntity
  8
0
 62
     0
100
AcDbTrace
 10
-78047.99853398359
 20
-73971.8014588882
 30
0.0
 11
-78045.1930841083
 21
-73981.39986766245
 31
0.0
 12
-78017.80058272325
 22
-73968.18431364946
 32
0.0
 13
-78017.80058272325
 23
-73968.18431364946
 33
0.0
  0
SOLID
  5
3CF5D
330
3CF57
100
AcDbEntity
  8
0
 62
     0
100
AcDbTrace
 10
-77950.32554902569
 20
-73943.25332451355
 30
0.0
 11
-77947.5200991504
 21
-73952.8517332878
 31
0.0
 12
-77977.71805041072
 22
-73956.46887852656
 32
0.0
 13
-77977.71805041072
 23
-73956.46887852656
 33
0.0
  0
POINT
  5
3CF5E
330
3CF57
100
AcDbEntity
  8
DEFPOINTS
 62
     0
100
AcDbPoint
 10
-77977.71805041072
 20
-73956.46887852656
 30
0.0
  0
POINT
  5
3CF5F
330
3CF57
100
AcDbEntity
  8
DEFPOINTS
 62
     0
100
AcDbPoint
 10
-78017.80058272325
 20
-73968.18431364946
 30
0.0
  0
ENDBLK
  5
3CF61
330
3CF57
100
AcDbEntity
  8
0
100
AcDbBlockEnd
  0
BLOCK
  5
3CF70
330
3CF64
100
AcDbEntity
  8
0
100
AcDbBlockBegin
  2
*D5
 70
     1
 10
0.0
 20
0.0
 30
0.0
  3
*D5
  1

  0
LINE
  5
3CF65
330
3CF64
100
AcDbEntity
  8
0
 62
     0
370
    -2
100
AcDbLine
 10
-77989.30387496
 20
-73973.20637588031
 30
0.0
 11
-77974.96605081165
 21
-73973.20637588031
 31
0.0
  0
LINE
  5
3CF66
330
3CF64
100
AcDbEntity
  8
0
 62
     0
370
    -2
100
AcDbLine
 10
-77989.30387496
 20
-73983.20637588031
 30
0.0
 11
-77974.96605081165
 21
-73983.20637588031
 31
0.0
  0
LINE
  5
3CF67
330
3CF64
100
AcDbEntity
  8
0
 62
     0
370
    -2
100
AcDbLine
 10
-77984.96605081165
 20
-73943.20637588031
 30
0.0
 11
-77984.96605081165
 21
-73913.20637588031
 31
0.0
  0
LINE
  5
3CF68
330
3CF64
100
AcDbEntity
  8
0
 62
     0
370
    -2
100
AcDbLine
 10
-77984.96605081165
 20
-74013.20637588031
 30
0.0
 11
-77984.96605081165
 21
-74090.22999792756
 31
0.0
  0
LINE
  5
3CF69
330
3CF64
100
AcDbEntity
  8
0
 62
     0
370
    -2
100
AcDbLine
 10
-77984.96605081165
 20
-73973.20637588031
 30
0.0
 11
-77984.96605081165
 21
-73983.20637588031
 31
0.0
  0
SOLID
  5
3CF6A
330
3CF64
100
AcDbEntity
  8
0
 62
     0
100
AcDbTrace
 10
-77989.96605081165
 20
-73943.20637588031
 30
0.0
 11
-77979.96605081165
 21
-73943.20637588031
 31
0.0
 12
-77984.96605081165
 22
-73973.20637588031
 32
0.0
 13
-77984.96605081165
 23
-73973.20637588031
 33
0.0
  0
SOLID
  5
3CF6B
330
3CF64
100
AcDbEntity
  8
0
 62
     0
100
AcDbTrace
 10
-77989.96605081165
 20
-74013.20637588031
 30
0.0
 11
-77979.96605081165
 21
-74013.20637588031
 31
0.0
 12
-77984.96605081165
 22
-73983.20637588031
 32
0.0
 13
-77984.96605081165
 23
-73983.20637588031
 33
0.0
  0
MTEXT
  5
3CF6C
330
3CF64
100
AcDbEntity
  8
0
 62
     0
100
AcDbMText
 10
-78009.96605081164
 20
-74066.71818690392
 30
0.0
 40
30.0
 41
0.0
 71
     5
 72
     1
  1
\A1;10
 11
0.0000000000000001
 21
1.0
 31
0.0
 73
     1
 44
1.0
1001
ACAD
1000
MTEXTBEGIN
1070
    73
1070
     1
1070
    44
1040
1.0
1070
    74
1070
     0
1000
MTEXTEND
  0
POINT
  5
3CF6D
330
3CF64
100
AcDbEntity
  8
DEFPOINTS
 62
     0
100
AcDbPoint
 10
-77989.30387496
 20
-73973.20637588031
 30
0.0
  0
POINT
  5
3CF6E
330
3CF64
100
AcDbEntity
  8
DEFPOINTS
 62
     0
100
AcDbPoint
 10
-77989.30387496
 20
-73983.20637588031
 30
0.0
  0
POINT
  5
3CF6F
330
3CF64
100
AcDbEntity
  8
DEFPOINTS
 62
     0
100
AcDbPoint
 10
-77984.96605081165
 20
-73983.20637588031
 30
0.0
  0
ENDBLK
  5
3CF71
330
3CF64
100
AcDbEntity
  8
0
100
AcDbBlockEnd
  0
BLOCK
  5
3D174
330
3D16A
100
AcDbEntity
  8
0
100
AcDbBlockBegin
  2
*D6
 70
     1
 10
0.0
 20
0.0
 30
0.0
  3
*D6
  1

  0
LINE
  5
3D18C
330
3D16A
100
AcDbEntity
  8
0
 62
     0
370
    -2
100
AcDbLine
 10
-83547.24223724979
 20
-74523.82089850454
 30
0.0
 11
-83547.24223724979
 21
-74593.41639855466
 31
0.0
  0
LINE
  5
3D18D
330
3D16A
100
AcDbEntity
  8
0
 62
     0
370
    -2
100
AcDbLine
 10
-83277.24223724978
 20
-74523.82089850454
 30
0.0
 11
-83277.24223724978
 21
-74593.41639855466
 31
0.0
  0
LINE
  5
3D18E
330
3D16A
100
AcDbEntity
  8
0
 62
     0
370
    -2
100
AcDbLine
 10
-83517.24223724978
 20
-74583.41639855466
 30
0.0
 11
-83307.24223724978
 21
-74583.41639855466
 31
0.0
  0
SOLID
  5
3D18F
330
3D16A
100
AcDbEntity
  8
0
 62
     0
100
AcDbTrace
 10
-83517.24223724978
 20
-74578.41639855466
 30
0.0
 11
-83517.24223724978
 21
-74588.41639855466
 31
0.0
 12
-83547.24223724979
 22
-74583.41639855466
 32
0.0
 13
-83547.24223724979
 23
-74583.41639855466
 33
0.0
  0
SOLID
  5
3D190
330
3D16A
100
AcDbEntity
  8
0
 62
     0
100
AcDbTrace
 10
-83307.24223724978
 20
-74578.41639855466
 30
0.0
 11
-83307.24223724978
 21
-74588.41639855466
 31
0.0
 12
-83277.24223724978
 22
-74583.41639855466
 32
0.0
 13
-83277.24223724978
 23
-74583.41639855466
 33
0.0
  0
MTEXT
  5
3D191
330
3D16A
100
AcDbEntity
  8
0
 62
     0
100
AcDbMText
 10
-83412.24223724978
 20
-74558.41344579875
 30
0.0
 40
30.0
 41
0.0
 71
     5
 72
     1
  1
\A1;270
 73
     1
 44
1.0
1001
ACAD
1000
MTEXTBEGIN
1070
    73
1070
     1
1070
    44
1040
1.0
1070
    74
1070
     0
1000
MTEXTEND
  0
POINT
  5
3D192
330
3D16A
100
AcDbEntity
  8
DEFPOINTS
 62
     0
100
AcDbPoint
 10
-83547.24223724979
 20
-74523.82089850454
 30
0.0
  0
POINT
  5
3D193
330
3D16A
100
AcDbEntity
  8
DEFPOINTS
 62
     0
100
AcDbPoint
 10
-83277.24223724978
 20
-74523.82089850454
 30
0.0
  0
POINT
  5
3D194
330
3D16A
100
AcDbEntity
  8
DEFPOINTS
 62
     0
100
AcDbPoint
 10
-83277.24223724978
 20
-74583.41639855466
 30
0.0
  0
ENDBLK
  5
3D175
330
3D16A
100
AcDbEntity
  8
0
100
AcDbBlockEnd
  0
BLOCK
  5
3D181
330
3D177
100
AcDbEntity
  8
0
100
AcDbBlockBegin
  2
*D7
 70
     1
 10
0.0
 20
0.0
 30
0.0
  3
*D7
  1

  0
LINE
  5
3D195
330
3D177
100
AcDbEntity
  8
0
 62
     0
370
    -2
100
AcDbLine
 10
-83087.24223724977
 20
-74523.82089850454
 30
0.0
 11
-83087.24223724977
 21
-74593.41639855466
 31
0.0
  0
LINE
  5
3D196
330
3D177
100
AcDbEntity
  8
0
 62
     0
370
    -2
100
AcDbLine
 10
-82487.24223724979
 20
-74523.82089850454
 30
0.0
 11
-82487.24223724979
 21
-74593.41639855466
 31
0.0
  0
LINE
  5
3D197
330
3D177
100
AcDbEntity
  8
0
 62
     0
370
    -2
100
AcDbLine
 10
-83057.24223724977
 20
-74583.41639855466
 30
0.0
 11
-82517.24223724979
 21
-74583.41639855466
 31
0.0
  0
SOLID
  5
3D198
330
3D177
100
AcDbEntity
  8
0
 62
     0
100
AcDbTrace
 10
-83057.24223724977
 20
-74578.41639855466
 30
0.0
 11
-83057.24223724977
 21
-74588.41639855466
 31
0.0
 12
-83087.24223724977
 22
-74583.41639855466
 32
0.0
 13
-83087.24223724977
 23
-74583.41639855466
 33
0.0
  0
SOLID
  5
3D199
330
3D177
100
AcDbEntity
  8
0
 62
     0
100
AcDbTrace
 10
-82517.24223724979
 20
-74578.41639855466
 30
0.0
 11
-82517.24223724979
 21
-74588.41639855466
 31
0.0
 12
-82487.24223724979
 22
-74583.41639855466
 32
0.0
 13
-82487.24223724979
 23
-74583.41639855466
 33
0.0
  0
MTEXT
  5
3D19A
330
3D177
100
AcDbEntity
  8
0
 62
     0
100
AcDbMText
 10
-82787.24223724978
 20
-74555.41639855466
 30
0.0
 40
30.0
 41
0.0
 71
     5
 72
     1
  1
\A1;600 (800, 1000, 1200)
 73
     1
 44
1.0
1001
ACAD
1000
MTEXTBEGIN
1070
    73
1070
     1
1070
    44
1040
1.0
1070
    74
1070
     0
1000
MTEXTEND
  0
POINT
  5
3D19B
330
3D177
100
AcDbEntity
  8
DEFPOINTS
 62
     0
100
AcDbPoint
 10
-83087.24223724977
 20
-74523.82089850454
 30
0.0
  0
POINT
  5
3D19C
330
3D177
100
AcDbEntity
  8
DEFPOINTS
 62
     0
100
AcDbPoint
 10
-82487.24223724979
 20
-74523.82089850454
 30
0.0
  0
POINT
  5
3D19D
330
3D177
100
AcDbEntity
  8
DEFPOINTS
 62
     0
100
AcDbPoint
 10
-82487.24223724979
 20
-74583.41639855466
 30
0.0
  0
ENDBLK
  5
3D182
330
3D177
100
AcDbEntity
  8
0
100
AcDbBlockEnd
  0
BLOCK
  5
3D1A9
330
3D19F
100
AcDbEntity
  8
0
100
AcDbBlockBegin
  2
*D8
 70
     1
 10
0.0
 20
0.0
 30
0.0
  3
*D8
  1

  0
LINE
  5
3D1E0
330
3D19F
100
AcDbEntity
  8
0
 62
     0
370
    -2
100
AcDbLine
 10
-83587.24223724978
 20
-74823.76181718608
 30
0.0
 11
-83587.24223724978
 21
-74762.71760121133
 31
0.0
  0
LINE
  5
3D1E1
330
3D19F
100
AcDbEntity
  8
0
 62
     0
370
    -2
100
AcDbLine
 10
-83187.24223724979
 20
-74823.76181718608
 30
0.0
 11
-83187.24223724979
 21
-74762.71760121133
 31
0.0
  0
LINE
  5
3D1E2
330
3D19F
100
AcDbEntity
  8
0
 62
     0
370
    -2
100
AcDbLine
 10
-83557.24223724978
 20
-74772.71760121134
 30
0.0
 11
-83217.24223724977
 21
-74772.71760121134
 31
0.0
  0
SOLID
  5
3D1E3
330
3D19F
100
AcDbEntity
  8
0
 62
     0
100
AcDbTrace
 10
-83557.24223724978
 20
-74767.71760121133
 30
0.0
 11
-83557.24223724978
 21
-74777.71760121133
 31
0.0
 12
-83587.24223724978
 22
-74772.71760121134
 32
0.0
 13
-83587.24223724978
 23
-74772.71760121134
 33
0.0
  0
SOLID
  5
3D1E4
330
3D19F
100
AcDbEntity
  8
0
 62
     0
100
AcDbTrace
 10
-83217.24223724977
 20
-74767.71760121133
 30
0.0
 11
-83217.24223724977
 21
-74777.71760121133
 31
0.0
 12
-83187.24223724979
 22
-74772.71760121134
 32
0.0
 13
-83187.24223724979
 23
-74772.71760121134
 33
0.0
  0
MTEXT
  5
3D1E5
330
3D19F
100
AcDbEntity
  8
0
 62
     0
100
AcDbMText
 10
-83387.24223724979
 20
-74747.71760121133
 30
0.0
 40
30.0
 41
0.0
 71
     5
 72
     1
  1
\A1;400
 73
     1
 44
1.0
1001
ACAD
1000
MTEXTBEGIN
1070
    73
1070
     1
1070
    44
1040
1.0
1070
    74
1070
     0
1000
MTEXTEND
  0
POINT
  5
3D1E6
330
3D19F
100
AcDbEntity
  8
DEFPOINTS
 62
     0
100
AcDbPoint
 10
-83587.24223724978
 20
-74823.76181718608
 30
0.0
  0
POINT
  5
3D1E7
330
3D19F
100
AcDbEntity
  8
DEFPOINTS
 62
     0
100
AcDbPoint
 10
-83187.24223724979
 20
-74823.76181718608
 30
0.0
  0
POINT
  5
3D1E8
330
3D19F
100
AcDbEntity
  8
DEFPOINTS
 62
     0
100
AcDbPoint
 10
-83187.24223724979
 20
-74772.71760121134
 30
0.0
  0
ENDBLK
  5
3D1AA
330
3D19F
100
AcDbEntity
  8
0
100
AcDbBlockEnd
  0
BLOCK
  5
3D1B6
330
3D1AC
100
AcDbEntity
  8
0
100
AcDbBlockBegin
  2
*D9
 70
     1
 10
0.0
 20
0.0
 30
0.0
  3
*D9
  1

  0
LINE
  5
3D1FB
330
3D1AC
100
AcDbEntity
  8
0
 62
     0
370
    -2
100
AcDbLine
 10
-83587.24223724978
 20
-74823.76181718608
 30
0.0
 11
-83587.24223724978
 21
-74702.07890973182
 31
0.0
  0
LINE
  5
3D1FC
330
3D1AC
100
AcDbEntity
  8
0
 62
     0
370
    -2
100
AcDbLine
 10
-82387.24223724979
 20
-74823.76181718608
 30
0.0
 11
-82387.24223724979
 21
-74702.07890973182
 31
0.0
  0
LINE
  5
3D1FD
330
3D1AC
100
AcDbEntity
  8
0
 62
     0
370
    -2
100
AcDbLine
 10
-83557.24223724978
 20
-74712.07890973182
 30
0.0
 11
-82417.24223724979
 21
-74712.07890973182
 31
0.0
  0
SOLID
  5
3D1FE
330
3D1AC
100
AcDbEntity
  8
0
 62
     0
100
AcDbTrace
 10
-83557.24223724978
 20
-74707.07890973182
 30
0.0
 11
-83557.24223724978
 21
-74717.07890973182
 31
0.0
 12
-83587.24223724978
 22
-74712.07890973182
 32
0.0
 13
-83587.24223724978
 23
-74712.07890973182
 33
0.0
  0
SOLID
  5
3D1FF
330
3D1AC
100
AcDbEntity
  8
0
 62
     0
100
AcDbTrace
 10
-82417.24223724979
 20
-74707.07890973182
 30
0.0
 11
-82417.24223724979
 21
-74717.07890973182
 31
0.0
 12
-82387.24223724979
 22
-74712.07890973182
 32
0.0
 13
-82387.24223724979
 23
-74712.07890973182
 33
0.0
  0
MTEXT
  5
3D200
330
3D1AC
100
AcDbEntity
  8
0
 62
     0
100
AcDbMText
 10
-82987.24223724978
 20
-74687.07890973182
 30
0.0
 40
30.0
 41
0.0
 71
     5
 72
     1
  1
\A1;L 1
 73
     1
 44
1.0
1001
ACAD
1000
MTEXTBEGIN
1070
    73
1070
     1
1070
    44
1040
1.0
1070
    74
1070
     0
1000
MTEXTEND
  0
POINT
  5
3D201
330
3D1AC
100
AcDbEntity
  8
DEFPOINTS
 62
     0
100
AcDbPoint
 10
-83587.24223724978
 20
-74823.76181718608
 30
0.0
  0
POINT
  5
3D202
330
3D1AC
100
AcDbEntity
  8
DEFPOINTS
 62
     0
100
AcDbPoint
 10
-82387.24223724979
 20
-74823.76181718608
 30
0.0
  0
POINT
  5
3D203
330
3D1AC
100
AcDbEntity
  8
DEFPOINTS
 62
     0
100
AcDbPoint
 10
-82387.24223724979
 20
-74712.07890973182
 30
0.0
  0
ENDBLK
  5
3D1B7
330
3D1AC
100
AcDbEntity
  8
0
100
AcDbBlockEnd
  0
BLOCK
  5
3D1C3
330
3D1B9
100
AcDbEntity
  8
0
100
AcDbBlockBegin
  2
*D10
 70
     1
 10
0.0
 20
0.0
 30
0.0
  3
*D10
  1

  0
LINE
  5
3D204
330
3D1B9
100
AcDbEntity
  8
0
 62
     0
370
    -2
100
AcDbLine
 10
-83618.90052297278
 20
-74844.85353453105
 30
0.0
 11
-83711.510481791
 21
-74844.85353453105
 31
0.0
  0
LINE
  5
3D205
330
3D1B9
100
AcDbEntity
  8
0
 62
     0
370
    -2
100
AcDbLine
 10
-83618.90052297278
 20
-76044.85353453105
 30
0.0
 11
-83711.510481791
 21
-76044.85353453105
 31
0.0
  0
LINE
  5
3D206
330
3D1B9
100
AcDbEntity
  8
0
 62
     0
370
    -2
100
AcDbLine
 10
-83701.51048179101
 20
-74874.85353453105
 30
0.0
 11
-83701.51048179101
 21
-76014.85353453105
 31
0.0
  0
SOLID
  5
3D207
330
3D1B9
100
AcDbEntity
  8
0
 62
     0
100
AcDbTrace
 10
-83706.510481791
 20
-74874.85353453105
 30
0.0
 11
-83696.510481791
 21
-74874.85353453105
 31
0.0
 12
-83701.51048179101
 22
-74844.85353453105
 32
0.0
 13
-83701.51048179101
 23
-74844.85353453105
 33
0.0
  0
SOLID
  5
3D208
330
3D1B9
100
AcDbEntity
  8
0
 62
     0
100
AcDbTrace
 10
-83706.510481791
 20
-76014.85353453105
 30
0.0
 11
-83696.510481791
 21
-76014.85353453105
 31
0.0
 12
-83701.51048179101
 22
-76044.85353453105
 32
0.0
 13
-83701.51048179101
 23
-76044.85353453105
 33
0.0
  0
MTEXT
  5
3D209
330
3D1B9
100
AcDbEntity
  8
0
 62
     0
100
AcDbMText
 10
-83726.51343454688
 20
-75444.85353453106
 30
0.0
 40
30.0
 41
0.0
 71
     5
 72
     1
  1
\A1;L 2
 11
0.0000000000000001
 21
1.0
 31
0.0
 73
     1
 44
1.0
1001
ACAD
1000
MTEXTBEGIN
1070
    73
1070
     1
1070
    44
1040
1.0
1070
    74
1070
     0
1000
MTEXTEND
  0
POINT
  5
3D20A
330
3D1B9
100
AcDbEntity
  8
DEFPOINTS
 62
     0
100
AcDbPoint
 10
-83618.90052297278
 20
-74844.85353453105
 30
0.0
  0
POINT
  5
3D20B
330
3D1B9
100
AcDbEntity
  8
DEFPOINTS
 62
     0
100
AcDbPoint
 10
-83618.90052297278
 20
-76044.85353453105
 30
0.0
  0
POINT
  5
3D20C
330
3D1B9
100
AcDbEntity
  8
DEFPOINTS
 62
     0
100
AcDbPoint
 10
-83701.51048179101
 20
-76044.85353453105
 30
0.0
  0
ENDBLK
  5
3D1C4
330
3D1B9
100
AcDbEntity
  8
0
100
AcDbBlockEnd
  0
BLOCK
  5
3D389
330
3D388
100
AcDbEntity
  8
0
100
AcDbBlockBegin
  2
*D11
 70
     1
 10
0.0
 20
0.0
 30
0.0
  3
*D11
  1

  0
LINE
  5
3D38A
330
3D388
100
AcDbEntity
  8
0
  6
VOLLINIE_SCHMAL_0_18
 62
     0
370
    -2
100
AcDbLine
 10
-765.9486486551123
 20
-2264.237085192729
 30
0.0
 11
-765.9486486551123
 21
-2345.433971365368
 31
0.0
  0
LINE
  5
3D38B
330
3D388
100
AcDbEntity
  8
0
  6
VOLLINIE_SCHMAL_0_18
 62
     0
370
    -2
100
AcDbLine
 10
-615.9486486551127
 20
-2264.237085192729
 30
0.0
 11
-615.9486486551127
 21
-2345.433971365368
 31
0.0
  0
LINE
  5
3D38C
330
3D388
100
AcDbEntity
  8
0
  6
VOLLINIE_SCHMAL_0_18
 62
     0
370
    -2
100
AcDbLine
 10
-730.9486486551125
 20
-2335.433971365369
 30
0.0
 11
-650.9486486551127
 21
-2335.433971365369
 31
0.0
  0
SOLID
  5
3D38D
330
3D388
100
AcDbEntity
  8
0
  6
VOLLINIE_SCHMAL_0_18
 62
     0
100
AcDbTrace
 10
-730.9486486551125
 20
-2329.600638032035
 30
0.0
 11
-730.9486486551125
 21
-2341.267304698702
 31
0.0
 12
-765.9486486551123
 22
-2335.433971365369
 32
0.0
 13
-765.9486486551123
 23
-2335.433971365369
 33
0.0
  0
SOLID
  5
3D38E
330
3D388
100
AcDbEntity
  8
0
  6
VOLLINIE_SCHMAL_0_18
 62
     0
100
AcDbTrace
 10
-650.9486486551127
 20
-2329.600638032035
 30
0.0
 11
-650.9486486551127
 21
-2341.267304698702
 31
0.0
 12
-615.9486486551127
 22
-2335.433971365369
 32
0.0
 13
-615.9486486551127
 23
-2335.433971365369
 33
0.0
  0
MTEXT
  5
3D38F
330
3D388
100
AcDbEntity
  8
0
  6
VOLLINIE_SCHMAL_0_18
 62
     0
100
AcDbMText
 10
-690.9486486551124
 20
-2299.905321979284
 30
0.0
 40
50.0
 41
0.0
 71
     5
 72
     1
  1
\A1;150
  7
ARIAL
 73
     1
 44
1.0
1001
ACAD
1000
MTEXTBEGIN
1070
    73
1070
     1
1070
    44
1040
1.0
1070
    74
1070
     0
1000
MTEXTEND
  0
POINT
  5
3D390
330
3D388
100
AcDbEntity
  8
DEFPOINTS
  6
VOLLINIE_SCHMAL_0_18
 62
     0
100
AcDbPoint
 10
-765.9486486551123
 20
-2263.612085192729
 30
0.0
  0
POINT
  5
3D391
330
3D388
100
AcDbEntity
  8
DEFPOINTS
  6
VOLLINIE_SCHMAL_0_18
 62
     0
100
AcDbPoint
 10
-615.9486486551127
 20
-2263.612085192729
 30
0.0
  0
POINT
  5
3D392
330
3D388
100
AcDbEntity
  8
DEFPOINTS
  6
VOLLINIE_SCHMAL_0_18
 62
     0
100
AcDbPoint
 10
-615.9486486551127
 20
-2335.433971365369
 30
0.0
  0
ENDBLK
  5
3D393
330
3D388
100
AcDbEntity
  8
0
100
AcDbBlockEnd
  0
BLOCK
  5
3D679
330
3D66F
100
AcDbEntity
  8
0
100
AcDbBlockBegin
  2
*D12
 70
     1
 10
0.0
 20
0.0
 30
0.0
  3
*D12
  1

  0
LINE
  5
3D6C7
330
3D66F
100
AcDbEntity
  8
0
 62
     0
370
    -2
100
AcDbLine
 10
-84608.5932983594
 20
-74892.57841327295
 30
0.0
 11
-84608.5932983594
 21
-74974.40029944558
 31
0.0
  0
LINE
  5
3D6C8
330
3D66F
100
AcDbEntity
  8
0
 62
     0
370
    -2
100
AcDbLine
 10
-84458.59329835942
 20
-74892.57841327295
 30
0.0
 11
-84458.59329835942
 21
-74974.40029944558
 31
0.0
  0
LINE
  5
3D6C9
330
3D66F
100
AcDbEntity
  8
0
 62
     0
370
    -2
100
AcDbLine
 10
-84578.5932983594
 20
-74964.40029944558
 30
0.0
 11
-84488.59329835942
 21
-74964.40029944558
 31
0.0
  0
SOLID
  5
3D6CA
330
3D66F
100
AcDbEntity
  8
0
 62
     0
100
AcDbTrace
 10
-84578.5932983594
 20
-74959.40029944557
 30
0.0
 11
-84578.5932983594
 21
-74969.40029944558
 31
0.0
 12
-84608.5932983594
 22
-74964.40029944558
 32
0.0
 13
-84608.5932983594
 23
-74964.40029944558
 33
0.0
  0
SOLID
  5
3D6CB
330
3D66F
100
AcDbEntity
  8
0
 62
     0
100
AcDbTrace
 10
-84488.59329835942
 20
-74959.40029944557
 30
0.0
 11
-84488.59329835942
 21
-74969.40029944558
 31
0.0
 12
-84458.59329835942
 22
-74964.40029944558
 32
0.0
 13
-84458.59329835942
 23
-74964.40029944558
 33
0.0
  0
MTEXT
  5
3D6CC
330
3D66F
100
AcDbEntity
  8
0
 62
     0
100
AcDbMText
 10
-84533.5932983594
 20
-74939.40029944558
 30
0.0
 40
30.0
 41
0.0
 71
     5
 72
     1
  1
\A1;150
 73
     1
 44
1.0
1001
ACAD
1000
MTEXTBEGIN
1070
    73
1070
     1
1070
    44
1040
1.0
1070
    74
1070
     0
1000
MTEXTEND
  0
POINT
  5
3D6CD
330
3D66F
100
AcDbEntity
  8
DEFPOINTS
 62
     0
100
AcDbPoint
 10
-84608.5932983594
 20
-74892.57841327295
 30
0.0
  0
POINT
  5
3D6CE
330
3D66F
100
AcDbEntity
  8
DEFPOINTS
 62
     0
100
AcDbPoint
 10
-84458.59329835942
 20
-74892.57841327295
 30
0.0
  0
POINT
  5
3D6CF
330
3D66F
100
AcDbEntity
  8
DEFPOINTS
 62
     0
100
AcDbPoint
 10
-84458.59329835942
 20
-74964.40029944558
 30
0.0
  0
ENDBLK
  5
3D67A
330
3D66F
100
AcDbEntity
  8
0
100
AcDbBlockEnd
  0
BLOCK
  5
3D850
330
3D846
100
AcDbEntity
  8
0
100
AcDbBlockBegin
  2
*D13
 70
     1
 10
0.0
 20
0.0
 30
0.0
  3
*D13
  1

  0
LINE
  5
3D847
330
3D846
100
AcDbEntity
  8
0
 62
     0
370
    -2
100
AcDbLine
 10
-83891.85424850689
 20
-74446.91058647468
 30
0.0
 11
-83891.85424850689
 21
-74327.42821833567
 31
0.0
  0
LINE
  5
3D848
330
3D846
100
AcDbEntity
  8
0
 62
     0
370
    -2
100
AcDbLine
 10
-83801.85424850688
 20
-74446.91058647468
 30
0.0
 11
-83801.85424850688
 21
-74327.42821833567
 31
0.0
  0
LINE
  5
3D849
330
3D846
100
AcDbEntity
  8
0
 62
     0
370
    -2
100
AcDbLine
 10
-83861.85424850689
 20
-74337.42821833567
 30
0.0
 11
-83831.85424850687
 21
-74337.42821833567
 31
0.0
  0
SOLID
  5
3D84A
330
3D846
100
AcDbEntity
  8
0
 62
     0
100
AcDbTrace
 10
-83861.85424850689
 20
-74332.42821833567
 30
0.0
 11
-83861.85424850689
 21
-74342.42821833567
 31
0.0
 12
-83891.85424850689
 22
-74337.42821833567
 32
0.0
 13
-83891.85424850689
 23
-74337.42821833567
 33
0.0
  0
SOLID
  5
3D84B
330
3D846
100
AcDbEntity
  8
0
 62
     0
100
AcDbTrace
 10
-83831.85424850687
 20
-74332.42821833567
 30
0.0
 11
-83831.85424850687
 21
-74342.42821833567
 31
0.0
 12
-83801.85424850688
 22
-74337.42821833567
 32
0.0
 13
-83801.85424850688
 23
-74337.42821833567
 33
0.0
  0
MTEXT
  5
3D84C
330
3D846
100
AcDbEntity
  8
0
 62
     0
100
AcDbMText
 10
-83846.85424850689
 20
-74312.42821833567
 30
0.0
 40
30.0
 41
0.0
 71
     5
 72
     1
  1
\A1;90
 73
     1
 44
1.0
1001
ACAD
1000
MTEXTBEGIN
1070
    73
1070
     1
1070
    44
1040
1.0
1070
    74
1070
     0
1000
MTEXTEND
  0
POINT
  5
3D84D
330
3D846
100
AcDbEntity
  8
DEFPOINTS
 62
     0
100
AcDbPoint
 10
-83891.85424850689
 20
-74446.91058647468
 30
0.0
  0
POINT
  5
3D84E
330
3D846
100
AcDbEntity
  8
DEFPOINTS
 62
     0
100
AcDbPoint
 10
-83801.85424850688
 20
-74446.91058647468
 30
0.0000000000000135
  0
POINT
  5
3D84F
330
3D846
100
AcDbEntity
  8
DEFPOINTS
 62
     0
100
AcDbPoint
 10
-83801.85424850688
 20
-74337.42821833567
 30
0.0
  0
ENDBLK
  5
3D851
330
3D846
100
AcDbEntity
  8
0
100
AcDbBlockEnd
  0
ENDSEC
  0
SECTION
  2
ENTITIES
  0
LINE
  5
3D513
330
1A
100
AcDbEntity
  8
HEWI
100
AcDbLine
 10
-84723.55853550572
 20
-74759.49651093142
 30
0.0
 11
-84793.55853550572
 21
-74759.49651093142
 31
0.0
  0
LINE
  5
3D514
330
1A
100
AcDbEntity
  8
HEWI
100
AcDbLine
 10
-84723.55853550572
 20
-74747.49654144899
 30
0.0
 11
-84793.55853550572
 21
-74747.49654144899
 31
0.0
  0
LINE
  5
3D515
330
1A
100
AcDbEntity
  8
HEWI
100
AcDbLine
 10
-84775.05069248815
 20
-74771.71658844605
 30
0.0
 11
-84775.05069248815
 21
-74759.49651093142
 31
0.0
  0
LINE
  5
3D516
330
1A
100
AcDbEntity
  8
HEWI
100
AcDbLine
 10
-84742.05852024692
 20
-74770.27608246461
 30
0.0
 11
-84742.05852024692
 21
-74759.49651093142
 31
0.0
  0
LINE
  5
3D517
330
1A
100
AcDbEntity
  8
HEWI
100
AcDbLine
 10
-84793.55853550572
 20
-74759.49651093142
 30
0.0
 11
-84793.55853550572
 21
-74747.49654144899
 31
0.0
  0
LINE
  5
3D518
330
1A
100
AcDbEntity
  8
HEWI
100
AcDbLine
 10
-84723.55853550572
 20
-74759.49651093142
 30
0.0
 11
-84723.55853550572
 21
-74747.49654144899
 31
0.0
  0
LINE
  5
3D519
330
1A
100
AcDbEntity
  8
HEWI
100
AcDbLine
 10
-84710.77861302038
 20
-74835.98866791383
 30
0.0
 11
-84721.35524265905
 21
-74835.06329865114
 31
0.0
  0
LINE
  5
3D51A
330
1A
100
AcDbEntity
  8
HEWI
100
AcDbLine
 10
-84709.33810703893
 20
-74802.99649567261
 30
0.0
 11
-84715.60435764928
 21
-74802.44832367555
 31
0.0
  0
LINE
  5
3D51B
330
1A
100
AcDbEntity
  8
HEWI
100
AcDbLine
 10
-84774.12532322546
 20
-74782.29321808472
 30
0.0
 11
-84775.05069248815
 21
-74771.71658844605
 31
0.0
  0
LINE
  5
3D51C
330
1A
100
AcDbEntity
  8
HEWI
100
AcDbLine
 10
-84741.51034824986
 20
-74776.54233307496
 30
0.0
 11
-84742.05852024692
 21
-74770.27608246461
 31
0.0
  0
ARC
  5
3D51D
330
1A
100
AcDbEntity
  8
HEWI
100
AcDbCircle
 10
-84710.05868746887
 20
-74770.99666289457
 30
0.0
 40
65.05494582527514
100
AcDbArc
 50
189.9998948275627
 51
260.000105172424
  0
ARC
  5
3D51E
330
1A
100
AcDbEntity
  8
HEWI
100
AcDbCircle
 10
-84710.05822710653
 20
-74770.9962025322
 30
0.0
 40
31.93736821362885
100
AcDbArc
 50
190.0004822954768
 51
259.9995177045165
  0
LWPOLYLINE
  5
3D51F
330
1A
100
AcDbEntity
  8
HEWI
100
AcDbPolyline
 90
        2
 70
     0
 43
0.0
 10
-84710.77861302038
 20
-74835.98866791383
 10
-84691.55856602331
 20
-74835.98866791383
  0
LWPOLYLINE
  5
3D522
330
1A
100
AcDbEntity
  8
HEWI
100
AcDbPolyline
 90
        2
 70
     0
 43
0.0
 10
-84550.6927591086
 20
-74802.98866791383
 10
-84640.42431190286
 20
-74802.98866791383
  0
LWPOLYLINE
  5
3D523
330
1A
100
AcDbEntity
  8
HEWI
100
AcDbPolyline
 90
        2
 70
     0
 43
0.0
 10
-84710.77861302038
 20
-74835.98866791383
 10
-84055.28586239473
 20
-74835.98866791383
  0
LINE
  5
3D526
330
1A
100
AcDbEntity
  8
HEWI
100
AcDbLine
 10
-84758.55864270153
 20
-74463.41264615074
 30
0.0
 11
-84710.05864270154
 21
-74463.41264615074
 31
0.0000000000000059
210
0.0
220
1.0
230
0.0
  0
LINE
  5
3D527
330
1A
100
AcDbEntity
  8
HEWI
100
AcDbLine
 10
-84710.05864270154
 20
-74430.41264615074
 30
0.0000000000000059
 11
-84758.55864270153
 21
-74430.41264615074
 31
0.0
210
0.0
220
1.0
230
0.0
  0
ARC
  5
3D528
330
1A
100
AcDbEntity
  8
HEWI
100
AcDbCircle
 10
-84758.55864270153
 20
-74446.91264615074
 30
0.0
 40
16.5
100
AcDbArc
 50
90.0
 51
270.0
  0
ARC
  5
3D529
330
1A
100
AcDbEntity
  8
HEWI
100
AcDbCircle
 10
-84758.55864270153
 20
-74446.91264615074
 30
0.0
 40
16.8
100
AcDbArc
 50
180.0
 51
280.8440625636748
  0
ARC
  5
3D52A
330
1A
100
AcDbEntity
  8
HEWI
100
AcDbCircle
 10
-84758.55864270153
 20
-74446.91264615074
 30
0.0
 40
16.8
100
AcDbArc
 50
79.15593743632522
 51
180.0
  0
ARC
  5
3D52B
330
1A
100
AcDbEntity
  8
HEWI
100
AcDbCircle
 10
-84758.55864270153
 20
-74446.91264615074
 30
0.0
 40
35.0
100
AcDbArc
 50
180.0
 51
331.8729317811971
  0
ARC
  5
3D52C
330
1A
100
AcDbEntity
  8
HEWI
100
AcDbCircle
 10
-84758.55864270153
 20
-74446.91264615074
 30
0.0
 40
35.0
100
AcDbArc
 50
28.1270682188029
 51
180.0
  0
LINE
  5
3D52D
330
1A
100
AcDbEntity
  8
HEWI
100
AcDbLine
 10
-84762.96069916957
 20
-74462.79387962655
 30
0.0
 11
-84762.82916840787
 21
-74462.84837257699
 31
0.0
  0
LINE
  5
3D52E
330
1A
100
AcDbEntity
  8
HEWI
100
AcDbLine
 10
-84775.05863007777
 20
-74446.91058647468
 30
0.0
 11
-84775.02506074188
 21
-74446.65600311593
 31
0.0
  0
LINE
  5
3D52F
330
1A
100
AcDbEntity
  8
HEWI
100
AcDbLine
 10
-84774.52686127898
 20
-74451.18110191659
 30
0.0
 11
-84774.49634370085
 21
-74450.94992172555
 31
0.0
  0
LINE
  5
3D530
330
1A
100
AcDbEntity
  8
HEWI
100
AcDbLine
 10
-84772.92835053678
 20
-74455.16058456735
 30
0.0
 11
-84772.84808930631
 21
-74454.96673118905
 31
0.0
  0
LINE
  5
3D531
330
1A
100
AcDbEntity
  8
HEWI
100
AcDbLine
 10
-84770.33969697233
 20
-74458.42960846261
 30
0.0
 11
-84770.2258664059
 21
-74458.57784759835
 31
0.0
  0
LINE
  5
3D532
330
1A
100
AcDbEntity
  8
HEWI
100
AcDbLine
 10
-84772.84808930631
 20
-74455.16058456735
 30
0.0
 11
-84771.61807831999
 21
-74456.76352989512
 31
0.0
  0
LINE
  5
3D533
330
1A
100
AcDbEntity
  8
HEWI
100
AcDbLine
 10
-84768.03134736295
 20
-74433.55947029427
 30
0.0
 11
-84766.80866059536
 21
-74432.62116920785
 31
0.0
  0
LINE
  5
3D534
330
1A
100
AcDbEntity
  8
HEWI
100
AcDbLine
 10
-84770.2258664059
 20
-74435.24332535104
 30
0.0
 11
-84769.56744965788
 21
-74434.7380686982
 31
0.0
  0
LINE
  5
3D535
330
1A
100
AcDbEntity
  8
HEWI
100
AcDbLine
 10
-84666.24771699184
 20
-74429.4105864747
 30
0.0
 11
-84665.71945771452
 21
-74430.54329407052
 31
0.0
  0
LINE
  5
3D536
330
1A
100
AcDbEntity
  8
HEWI
100
AcDbLine
 10
-84774.49634370085
 20
-74451.18110191659
 30
0.0
 11
-84773.7271481442
 21
-74453.03803932504
 31
0.0
  0
LINE
  5
3D537
330
1A
100
AcDbEntity
  8
HEWI
100
AcDbLine
 10
-84764.05826386686
 20
-74431.48194801643
 30
0.0
 11
-84762.82916840787
 21
-74430.97280990914
 31
0.0
  0
LINE
  5
3D538
330
1A
100
AcDbEntity
  8
HEWI
100
AcDbLine
 10
-84766.80866059536
 20
-74432.62116920785
 30
0.0
 11
-84765.86292084927
 21
-74432.22943794562
 31
0.0
  0
LINE
  5
3D539
330
1A
100
AcDbEntity
  8
HEWI
100
AcDbLine
 10
-84775.05863007777
 20
-74446.91058647468
 30
0.0
 11
-84774.79770478483
 21
-74448.89271271065
 31
0.0
  0
LINE
  5
3D53A
330
1A
100
AcDbEntity
  8
HEWI
100
AcDbLine
 10
-84759.56668671841
 20
-74430.54329407052
 30
0.0
 11
-84758.55853852506
 21
-74430.41059028938
 31
0.0
  0
LINE
  5
3D53B
330
1A
100
AcDbEntity
  8
HEWI
100
AcDbLine
 10
-84762.82916840787
 20
-74430.97280990914
 30
0.0
 11
-84761.61716279264
 21
-74430.813260196
 31
0.0
  0
LINE
  5
3D53C
330
1A
100
AcDbEntity
  8
HEWI
100
AcDbLine
 10
-84774.80869111294
 20
-74445.01190674142
 30
0.0
 11
-84774.49634370085
 21
-74442.64008056954
 31
0.0
  0
LINE
  5
3D53D
330
1A
100
AcDbEntity
  8
HEWI
100
AcDbLine
 10
-84762.82916840787
 20
-74462.84837257699
 30
0.0
 11
-84760.77960786097
 21
-74463.11819565133
 31
0.0
  0
LINE
  5
3D53E
330
1A
100
AcDbEntity
  8
HEWI
100
AcDbLine
 10
-84758.55853852506
 20
-74430.41059028938
 30
0.0
 11
-84757.55054291958
 21
-74430.54329407052
 31
0.0
  0
LINE
  5
3D53F
330
1A
100
AcDbEntity
  8
HEWI
100
AcDbLine
 10
-84773.62674531219
 20
-74440.54047119454
 30
0.0
 11
-84772.84808930631
 21
-74438.66058838204
 31
0.0
  0
LINE
  5
3D540
330
1A
100
AcDbEntity
  8
HEWI
100
AcDbLine
 10
-84774.49634370085
 20
-74442.64008056954
 30
0.0
 11
-84774.32330903287
 21
-74442.22226631477
 31
0.0
  0
LINE
  5
3D541
330
1A
100
AcDbEntity
  8
HEWI
100
AcDbLine
 10
-84766.80866059536
 20
-74461.20000374152
 30
0.0
 11
-84764.91748627896
 21
-74461.98335182502
 31
0.0
  0
LINE
  5
3D542
330
1A
100
AcDbEntity
  8
HEWI
100
AcDbLine
 10
-84666.24771699184
 20
-74464.4105864747
 30
0.0
 11
-84665.78140839812
 21
-74463.41059219674
 31
0.0
  0
LINE
  5
3D543
330
1A
100
AcDbEntity
  8
HEWI
100
AcDbLine
 10
-84771.30328950162
 20
-74436.64748680427
 30
0.0
 11
-84770.2258664059
 21
-74435.24332535104
 31
0.0
  0
LINE
  5
3D544
330
1A
100
AcDbEntity
  8
HEWI
100
AcDbLine
 10
-84772.84808930631
 20
-74438.66058838204
 30
0.0
 11
-84772.45853242154
 21
-74438.15297615365
 31
0.0
  0
LINE
  5
3D545
330
1A
100
AcDbEntity
  8
HEWI
100
AcDbLine
 10
-84766.93897065398
 20
-74461.099953769
 30
0.0
 11
-84766.80866059536
 21
-74461.20000374152
 31
0.0
  0
LINE
  5
3D546
330
1A
100
AcDbEntity
  8
HEWI
100
AcDbLine
 10
-84770.2258664059
 20
-74458.57784759835
 30
0.0
 11
-84768.61362275357
 21
-74459.81497299508
 31
0.0
  0
ARC
  5
3D547
330
1A
100
AcDbEntity
  8
HEWI
100
AcDbCircle
 10
-84758.55856989799
 20
-74446.91058647468
 30
0.0
 40
34.99996862708043
100
AcDbArc
 50
30.0000296517833
 51
329.9999703482167
  0
ARC
  5
3D548
330
1A
100
AcDbEntity
  8
HEWI
100
AcDbCircle
 10
-84758.55864270153
 20
-74446.91264615074
 30
0.0
 40
16.49990755788352
100
AcDbArc
 50
178.2320078104443
 51
269.1165201493637
  0
ARC
  5
3D549
330
1A
100
AcDbEntity
  8
HEWI
100
AcDbCircle
 10
-84758.55853550573
 20
-74446.91255823262
 30
0.0
 40
16.50001199043719
100
AcDbArc
 50
97.21771854775818
 51
178.2323244427122
  0
LWPOLYLINE
  5
3D54A
330
1A
100
AcDbEntity
  8
HEWI
  6
Continuous
100
AcDbPolyline
 90
        2
 70
     0
 43
0.0
 10
-84758.55856989799
 20
-74463.4105864747
 10
-84653.55864270154
 20
-74463.4105864747
  0
ARC
  5
3D59C
330
1A
100
AcDbEntity
  8
HEWI
100
AcDbCircle
 10
-83881.85424850689
 20
-74413.9105864747
 30
0.0000000000000018
 40
2.0
100
AcDbArc
 50
0.0
 51
90.0
  0
ARC
  5
3D59D
330
1A
100
AcDbEntity
  8
HEWI
100
AcDbCircle
 10
-83881.85424850689
 20
-74479.9105864747
 30
0.0000000000000018
 40
2.0
100
AcDbArc
 50
270.0
 51
0.0
  0
LINE
  5
3D59E
330
1A
100
AcDbEntity
  8
HEWI
100
AcDbLine
 10
-83866.85424850689
 20
-74463.4105864747
 30
0.0000000000000046
 11
-83818.35424850688
 21
-74463.4105864747
 31
0.0000000000000135
210
0.0
220
1.0
230
0.0
  0
LINE
  5
3D59F
330
1A
100
AcDbEntity
  8
HEWI
100
AcDbLine
 10
-83818.35424850688
 20
-74430.4105864747
 30
0.0000000000000135
 11
-83866.85424850689
 21
-74430.4105864747
 31
0.0000000000000046
210
0.0
220
1.0
230
0.0
  0
LINE
  5
3D5A9
330
1A
100
AcDbEntity
  8
HEWI
100
AcDbLine
 10
-83881.85424850689
 20
-74481.91058647468
 30
0.0000000000000018
 11
-83891.85424850689
 21
-74481.91058647468
 31
0.0
210
0.0
220
1.0
230
0.0
  0
LINE
  5
3D5AA
330
1A
100
AcDbEntity
  8
HEWI
100
AcDbLine
 10
-83881.85424850689
 20
-74411.91058647468
 30
0.0000000000000018
 11
-83891.85424850689
 21
-74411.91058647468
 31
0.0
210
0.0
220
1.0
230
0.0
  0
LINE
  5
3D5AB
330
1A
100
AcDbEntity
  8
HEWI
100
AcDbLine
 10
-83879.8542485069
 20
-74430.4105864747
 30
0.0000000000000022
 11
-83866.85424850689
 21
-74430.4105864747
 31
0.0000000000000046
210
0.0
220
1.0
230
0.0
  0
LINE
  5
3D5AC
330
1A
100
AcDbEntity
  8
HEWI
100
AcDbLine
 10
-83879.8542485069
 20
-74463.4105864747
 30
0.0000000000000022
 11
-83866.85424850689
 21
-74463.4105864747
 31
0.0000000000000046
210
0.0
220
1.0
230
0.0
  0
ARC
  5
3D5BD
330
1A
100
AcDbEntity
  8
HEWI
100
AcDbCircle
 10
-83818.35424850688
 20
-74446.91058647468
 30
0.0000000000000135
 40
16.5
100
AcDbArc
 50
270.0
 51
90.0
  0
LINE
  5
3D5BE
330
1A
100
AcDbEntity
  8
HEWI
100
AcDbLine
 10
-83879.8542485069
 20
-74479.9105864747
 30
0.0000000000000022
 11
-83879.8542485069
 21
-74446.91058647468
 31
0.0000000000000022
210
0.0
220
1.0
230
0.0
  0
LINE
  5
3D5BF
330
1A
100
AcDbEntity
  8
HEWI
100
AcDbLine
 10
-83879.8542485069
 20
-74446.91058647468
 30
0.0000000000000022
 11
-83879.8542485069
 21
-74413.9105864747
 31
0.0000000000000022
210
0.0
220
1.0
230
0.0
  0
LINE
  5
3D5C0
330
1A
100
AcDbEntity
  8
HEWI
100
AcDbLine
 10
-83891.85424850689
 20
-74481.91058647468
 30
0.0
 11
-83891.85424850689
 21
-74446.91058647468
 31
0.0
210
0.0
220
1.0
230
0.0
  0
LINE
  5
3D5C1
330
1A
100
AcDbEntity
  8
HEWI
100
AcDbLine
 10
-83891.85424850689
 20
-74446.91058647468
 30
0.0
 11
-83891.85424850689
 21
-74411.91058647468
 31
0.0
210
0.0
220
1.0
230
0.0
  0
ARC
  5
3D5C2
330
1A
100
AcDbEntity
  8
HEWI
100
AcDbCircle
 10
-84608.55864270154
 20
-74401.91255823262
 30
0.0
 40
45.0
100
AcDbArc
 50
0.0
 51
180.0
  0
ARC
  5
3D5C3
330
1A
100
AcDbEntity
  8
HEWI
100
AcDbCircle
 10
-84608.55864270154
 20
-74401.91255823262
 30
0.0
 40
30.0
100
AcDbArc
 50
0.0
 51
180.0
  0
ARC
  5
3D5C4
330
1A
100
AcDbEntity
  8
HEWI
100
AcDbCircle
 10
-84646.05864270154
 20
-74514.41255823262
 30
-0.0000000000000046
 40
7.5
100
AcDbArc
 50
180.0
 51
0.0
  0
LINE
  5
3D5C5
330
1A
100
AcDbEntity
  8
HEWI
100
AcDbLine
 10
-84653.55864270154
 20
-74496.91255823262
 30
-0.0000000000000055
 11
-84653.55864270154
 21
-74514.41255823262
 31
-0.0000000000000055
210
0.0
220
1.0
230
0.0
  0
LINE
  5
3D5C6
330
1A
100
AcDbEntity
  8
HEWI
100
AcDbLine
 10
-84638.55864270154
 20
-74514.41255823262
 30
-0.0000000000000037
 11
-84638.55864270154
 21
-74496.91255823262
 31
-0.0000000000000037
210
0.0
220
1.0
230
0.0
  0
ARC
  5
3D5C7
330
1A
100
AcDbEntity
  8
HEWI
100
AcDbCircle
 10
-84571.05864270154
 20
-74514.41255823262
 30
0.0000000000000046
 40
7.5
100
AcDbArc
 50
180.0
 51
0.0
  0
LINE
  5
3D5C8
330
1A
100
AcDbEntity
  8
HEWI
100
AcDbLine
 10
-84578.55864270154
 20
-74496.91255823262
 30
0.0000000000000036
 11
-84578.55864270154
 21
-74514.41255823262
 31
0.0000000000000036
210
0.0
220
1.0
230
0.0
  0
LINE
  5
3D5C9
330
1A
100
AcDbEntity
  8
HEWI
100
AcDbLine
 10
-84563.55864270154
 20
-74514.41255823262
 30
0.0000000000000055
 11
-84563.55864270154
 21
-74496.91255823262
 31
0.0000000000000055
210
0.0
220
1.0
230
0.0
  0
LINE
  5
3D5CA
330
1A
100
AcDbEntity
  8
HEWI
100
AcDbLine
 10
-84638.55864270154
 20
-74430.41255823263
 30
-0.0000000000000037
 11
-84578.55864270154
 21
-74430.41255823263
 31
0.0000000000000036
210
0.0
220
1.0
230
0.0
  0
LINE
  5
3D5CB
330
1A
100
AcDbEntity
  8
HEWI
100
AcDbLine
 10
-84638.55864270154
 20
-74463.41255823262
 30
-0.0000000000000037
 11
-84578.55864270154
 21
-74463.41255823262
 31
0.0000000000000036
210
0.0
220
1.0
230
0.0
  0
LINE
  5
3D5CC
330
1A
100
AcDbEntity
  8
HEWI
100
AcDbLine
 10
-84653.55864270154
 20
-74436.91255823262
 30
-0.0000000000000055
 11
-84653.55864270154
 21
-74401.91255823262
 31
-0.0000000000000055
210
0.0
220
1.0
230
0.0
  0
LINE
  5
3D5CD
330
1A
100
AcDbEntity
  8
HEWI
100
AcDbLine
 10
-84653.55864270154
 20
-74496.91255823262
 30
-0.0000000000000055
 11
-84653.55864270154
 21
-74456.91255823263
 31
-0.0000000000000055
210
0.0
220
1.0
230
0.0
  0
LINE
  5
3D5CE
330
1A
100
AcDbEntity
  8
HEWI
100
AcDbLine
 10
-84638.55864270154
 20
-74436.91255823262
 30
-0.0000000000000037
 11
-84638.55864270154
 21
-74401.91255823262
 31
-0.0000000000000037
210
0.0
220
1.0
230
0.0
  0
LINE
  5
3D5CF
330
1A
100
AcDbEntity
  8
HEWI
100
AcDbLine
 10
-84638.55864270154
 20
-74496.91255823262
 30
-0.0000000000000037
 11
-84638.55864270154
 21
-74456.91255823263
 31
-0.0000000000000037
210
0.0
220
1.0
230
0.0
  0
LINE
  5
3D5D0
330
1A
100
AcDbEntity
  8
HEWI
100
AcDbLine
 10
-84563.55864270154
 20
-74456.91255823263
 30
0.0000000000000055
 11
-84563.55864270154
 21
-74496.91255823262
 31
0.0000000000000055
210
0.0
220
1.0
230
0.0
  0
LINE
  5
3D5D1
330
1A
100
AcDbEntity
  8
HEWI
100
AcDbLine
 10
-84563.55864270154
 20
-74401.91255823262
 30
0.0000000000000055
 11
-84563.55864270154
 21
-74436.91255823262
 31
0.0000000000000055
210
0.0
220
1.0
230
0.0
  0
LINE
  5
3D5D2
330
1A
100
AcDbEntity
  8
HEWI
100
AcDbLine
 10
-84578.55864270154
 20
-74456.91255823263
 30
0.0000000000000036
 11
-84578.55864270154
 21
-74496.91255823262
 31
0.0000000000000036
210
0.0
220
1.0
230
0.0
  0
LINE
  5
3D5D3
330
1A
100
AcDbEntity
  8
HEWI
100
AcDbLine
 10
-84578.55864270154
 20
-74401.91255823262
 30
0.0000000000000036
 11
-84578.55864270154
 21
-74436.91255823262
 31
0.0000000000000036
210
0.0
220
1.0
230
0.0
  0
CIRCLE
  5
3D5D4
330
1A
100
AcDbEntity
  8
HEWI
100
AcDbCircle
 10
-84571.05864270154
 20
-74446.91255823262
 30
0.0000000000000046
 40
12.5
  0
CIRCLE
  5
3D5D5
330
1A
100
AcDbEntity
  8
HEWI
100
AcDbCircle
 10
-84646.05864270154
 20
-74446.91255823262
 30
-0.0000000000000046
 40
12.5
  0
CIRCLE
  5
3D5D7
330
1A
100
AcDbEntity
  8
HEWI
100
AcDbCircle
 10
-84421.05864270152
 20
-74446.91255823262
 30
0.0000000000000046
 40
12.5
  0
LINE
  5
3D5D8
330
1A
100
AcDbEntity
  8
HEWI
100
AcDbLine
 10
-84428.55864270152
 20
-74401.91255823262
 30
0.0000000000000036
 11
-84428.55864270152
 21
-74436.91255823262
 31
0.0000000000000036
210
0.0
220
1.0
230
0.0
  0
LINE
  5
3D5D9
330
1A
100
AcDbEntity
  8
HEWI
100
AcDbLine
 10
-84428.55864270152
 20
-74456.91255823263
 30
0.0000000000000036
 11
-84428.55864270152
 21
-74496.91255823262
 31
0.0000000000000036
210
0.0
220
1.0
230
0.0
  0
LINE
  5
3D5DA
330
1A
100
AcDbEntity
  8
HEWI
100
AcDbLine
 10
-84413.55864270152
 20
-74401.91255823262
 30
0.0000000000000055
 11
-84413.55864270152
 21
-74436.91255823262
 31
0.0000000000000055
210
0.0
220
1.0
230
0.0
  0
LINE
  5
3D5DB
330
1A
100
AcDbEntity
  8
HEWI
100
AcDbLine
 10
-84413.55864270152
 20
-74456.91255823263
 30
0.0000000000000055
 11
-84413.55864270152
 21
-74496.91255823262
 31
0.0000000000000055
210
0.0
220
1.0
230
0.0
  0
LINE
  5
3D5DC
330
1A
100
AcDbEntity
  8
HEWI
100
AcDbLine
 10
-84488.55864270154
 20
-74496.91255823262
 30
-0.0000000000000037
 11
-84488.55864270154
 21
-74456.91255823263
 31
-0.0000000000000037
210
0.0
220
1.0
230
0.0
  0
LINE
  5
3D5DD
330
1A
100
AcDbEntity
  8
HEWI
100
AcDbLine
 10
-84488.55864270154
 20
-74436.91255823262
 30
-0.0000000000000037
 11
-84488.55864270154
 21
-74401.91255823262
 31
-0.0000000000000037
210
0.0
220
1.0
230
0.0
  0
LINE
  5
3D5DE
330
1A
100
AcDbEntity
  8
HEWI
100
AcDbLine
 10
-84503.55864270154
 20
-74496.91255823262
 30
-0.0000000000000055
 11
-84503.55864270154
 21
-74456.91255823263
 31
-0.0000000000000055
210
0.0
220
1.0
230
0.0
  0
LINE
  5
3D5DF
330
1A
100
AcDbEntity
  8
HEWI
100
AcDbLine
 10
-84503.55864270154
 20
-74436.91255823262
 30
-0.0000000000000055
 11
-84503.55864270154
 21
-74401.91255823262
 31
-0.0000000000000055
210
0.0
220
1.0
230
0.0
  0
LINE
  5
3D5E0
330
1A
100
AcDbEntity
  8
HEWI
100
AcDbLine
 10
-84488.55864270154
 20
-74463.41255823262
 30
-0.0000000000000037
 11
-84428.55864270152
 21
-74463.41255823262
 31
0.0000000000000036
210
0.0
220
1.0
230
0.0
  0
LINE
  5
3D5E1
330
1A
100
AcDbEntity
  8
HEWI
100
AcDbLine
 10
-84488.55864270154
 20
-74430.41255823263
 30
-0.0000000000000037
 11
-84428.55864270152
 21
-74430.41255823263
 31
0.0000000000000036
210
0.0
220
1.0
230
0.0
  0
LINE
  5
3D5E2
330
1A
100
AcDbEntity
  8
HEWI
100
AcDbLine
 10
-84413.55864270152
 20
-74514.41255823262
 30
0.0000000000000055
 11
-84413.55864270152
 21
-74496.91255823262
 31
0.0000000000000055
210
0.0
220
1.0
230
0.0
  0
LINE
  5
3D5E3
330
1A
100
AcDbEntity
  8
HEWI
100
AcDbLine
 10
-84428.55864270152
 20
-74496.91255823262
 30
0.0000000000000036
 11
-84428.55864270152
 21
-74514.41255823262
 31
0.0000000000000036
210
0.0
220
1.0
230
0.0
  0
ARC
  5
3D5E4
330
1A
100
AcDbEntity
  8
HEWI
100
AcDbCircle
 10
-84421.05864270152
 20
-74514.41255823262
 30
0.0000000000000046
 40
7.5
100
AcDbArc
 50
180.0
 51
0.0
  0
LINE
  5
3D5E5
330
1A
100
AcDbEntity
  8
HEWI
100
AcDbLine
 10
-84488.55864270154
 20
-74514.41255823262
 30
-0.0000000000000037
 11
-84488.55864270154
 21
-74496.91255823262
 31
-0.0000000000000037
210
0.0
220
1.0
230
0.0
  0
LINE
  5
3D5E6
330
1A
100
AcDbEntity
  8
HEWI
100
AcDbLine
 10
-84503.55864270154
 20
-74496.91255823262
 30
-0.0000000000000055
 11
-84503.55864270154
 21
-74514.41255823262
 31
-0.0000000000000055
210
0.0
220
1.0
230
0.0
  0
ARC
  5
3D5E7
330
1A
100
AcDbEntity
  8
HEWI
100
AcDbCircle
 10
-84496.05864270154
 20
-74514.41255823262
 30
-0.0000000000000046
 40
7.5
100
AcDbArc
 50
180.0
 51
0.0
  0
ARC
  5
3D5E8
330
1A
100
AcDbEntity
  8
HEWI
100
AcDbCircle
 10
-84458.55864270154
 20
-74401.91255823262
 30
0.0
 40
30.0
100
AcDbArc
 50
0.0
 51
180.0
  0
ARC
  5
3D5E9
330
1A
100
AcDbEntity
  8
HEWI
100
AcDbCircle
 10
-84458.55864270154
 20
-74401.91255823262
 30
0.0
 40
45.0
100
AcDbArc
 50
0.0
 51
180.0
  0
CIRCLE
  5
3D5EA
330
1A
100
AcDbEntity
  8
HEWI
100
AcDbCircle
 10
-84496.05864270154
 20
-74446.91255823262
 30
-0.0000000000000046
 40
12.5
  0
CIRCLE
  5
3D5EB
330
1A
100
AcDbEntity
  8
HEWI
100
AcDbCircle
 10
-84346.05864270151
 20
-74446.91255823262
 30
-0.0000000000000046
 40
12.5
  0
ARC
  5
3D5EC
330
1A
100
AcDbEntity
  8
HEWI
100
AcDbCircle
 10
-84308.55864270153
 20
-74401.91255823262
 30
0.0
 40
45.0
100
AcDbArc
 50
0.0
 51
180.0
  0
ARC
  5
3D5ED
330
1A
100
AcDbEntity
  8
HEWI
100
AcDbCircle
 10
-84308.55864270153
 20
-74401.91255823262
 30
0.0
 40
30.0
100
AcDbArc
 50
0.0
 51
180.0
  0
ARC
  5
3D5EE
330
1A
100
AcDbEntity
  8
HEWI
100
AcDbCircle
 10
-84346.05864270151
 20
-74514.41255823262
 30
-0.0000000000000046
 40
7.5
100
AcDbArc
 50
180.0
 51
0.0
  0
LINE
  5
3D5EF
330
1A
100
AcDbEntity
  8
HEWI
100
AcDbLine
 10
-84353.55864270151
 20
-74496.91255823262
 30
-0.0000000000000055
 11
-84353.55864270151
 21
-74514.41255823262
 31
-0.0000000000000055
210
0.0
220
1.0
230
0.0
  0
LINE
  5
3D5F0
330
1A
100
AcDbEntity
  8
HEWI
100
AcDbLine
 10
-84338.55864270151
 20
-74514.41255823262
 30
-0.0000000000000037
 11
-84338.55864270151
 21
-74496.91255823262
 31
-0.0000000000000037
210
0.0
220
1.0
230
0.0
  0
ARC
  5
3D5F1
330
1A
100
AcDbEntity
  8
HEWI
100
AcDbCircle
 10
-84271.05864270153
 20
-74514.41255823262
 30
0.0000000000000046
 40
7.5
100
AcDbArc
 50
180.0
 51
0.0
  0
LINE
  5
3D5F2
330
1A
100
AcDbEntity
  8
HEWI
100
AcDbLine
 10
-84278.55864270153
 20
-74496.91255823262
 30
0.0000000000000036
 11
-84278.55864270153
 21
-74514.41255823262
 31
0.0000000000000036
210
0.0
220
1.0
230
0.0
  0
LINE
  5
3D5F3
330
1A
100
AcDbEntity
  8
HEWI
100
AcDbLine
 10
-84263.55864270153
 20
-74514.41255823262
 30
0.0000000000000055
 11
-84263.55864270153
 21
-74496.91255823262
 31
0.0000000000000055
210
0.0
220
1.0
230
0.0
  0
LINE
  5
3D5F4
330
1A
100
AcDbEntity
  8
HEWI
100
AcDbLine
 10
-84338.55864270151
 20
-74430.41255823263
 30
-0.0000000000000037
 11
-84278.55864270153
 21
-74430.41255823263
 31
0.0000000000000036
210
0.0
220
1.0
230
0.0
  0
LINE
  5
3D5F5
330
1A
100
AcDbEntity
  8
HEWI
100
AcDbLine
 10
-84338.55864270151
 20
-74463.41255823262
 30
-0.0000000000000037
 11
-84278.55864270153
 21
-74463.41255823262
 31
0.0000000000000036
210
0.0
220
1.0
230
0.0
  0
LINE
  5
3D5F6
330
1A
100
AcDbEntity
  8
HEWI
100
AcDbLine
 10
-84353.55864270151
 20
-74436.91255823262
 30
-0.0000000000000055
 11
-84353.55864270151
 21
-74401.91255823262
 31
-0.0000000000000055
210
0.0
220
1.0
230
0.0
  0
LINE
  5
3D5F7
330
1A
100
AcDbEntity
  8
HEWI
100
AcDbLine
 10
-84353.55864270151
 20
-74496.91255823262
 30
-0.0000000000000055
 11
-84353.55864270151
 21
-74456.91255823263
 31
-0.0000000000000055
210
0.0
220
1.0
230
0.0
  0
LINE
  5
3D5F8
330
1A
100
AcDbEntity
  8
HEWI
100
AcDbLine
 10
-84338.55864270151
 20
-74436.91255823262
 30
-0.0000000000000037
 11
-84338.55864270151
 21
-74401.91255823262
 31
-0.0000000000000037
210
0.0
220
1.0
230
0.0
  0
LINE
  5
3D5F9
330
1A
100
AcDbEntity
  8
HEWI
100
AcDbLine
 10
-84338.55864270151
 20
-74496.91255823262
 30
-0.0000000000000037
 11
-84338.55864270151
 21
-74456.91255823263
 31
-0.0000000000000037
210
0.0
220
1.0
230
0.0
  0
LINE
  5
3D5FA
330
1A
100
AcDbEntity
  8
HEWI
100
AcDbLine
 10
-84263.55864270153
 20
-74456.91255823263
 30
0.0000000000000055
 11
-84263.55864270153
 21
-74496.91255823262
 31
0.0000000000000055
210
0.0
220
1.0
230
0.0
  0
LINE
  5
3D5FB
330
1A
100
AcDbEntity
  8
HEWI
100
AcDbLine
 10
-84263.55864270153
 20
-74401.91255823262
 30
0.0000000000000055
 11
-84263.55864270153
 21
-74436.91255823262
 31
0.0000000000000055
210
0.0
220
1.0
230
0.0
  0
LINE
  5
3D5FC
330
1A
100
AcDbEntity
  8
HEWI
100
AcDbLine
 10
-84278.55864270153
 20
-74456.91255823263
 30
0.0000000000000036
 11
-84278.55864270153
 21
-74496.91255823262
 31
0.0000000000000036
210
0.0
220
1.0
230
0.0
  0
LINE
  5
3D5FD
330
1A
100
AcDbEntity
  8
HEWI
100
AcDbLine
 10
-84278.55864270153
 20
-74401.91255823262
 30
0.0000000000000036
 11
-84278.55864270153
 21
-74436.91255823262
 31
0.0000000000000036
210
0.0
220
1.0
230
0.0
  0
CIRCLE
  5
3D5FE
330
1A
100
AcDbEntity
  8
HEWI
100
AcDbCircle
 10
-84271.05864270153
 20
-74446.91255823262
 30
0.0000000000000046
 40
12.5
  0
CIRCLE
  5
3D5FF
330
1A
100
AcDbEntity
  8
HEWI
100
AcDbCircle
 10
-84196.05864270154
 20
-74446.91255823262
 30
-0.0000000000000046
 40
12.5
  0
ARC
  5
3D600
330
1A
100
AcDbEntity
  8
HEWI
100
AcDbCircle
 10
-84158.55864270154
 20
-74401.91255823262
 30
0.0
 40
45.0
100
AcDbArc
 50
0.0
 51
180.0
  0
ARC
  5
3D601
330
1A
100
AcDbEntity
  8
HEWI
100
AcDbCircle
 10
-84158.55864270154
 20
-74401.91255823262
 30
0.0
 40
30.0
100
AcDbArc
 50
0.0
 51
180.0
  0
ARC
  5
3D602
330
1A
100
AcDbEntity
  8
HEWI
100
AcDbCircle
 10
-84196.05864270154
 20
-74514.41255823262
 30
-0.0000000000000046
 40
7.5
100
AcDbArc
 50
180.0
 51
0.0
  0
LINE
  5
3D603
330
1A
100
AcDbEntity
  8
HEWI
100
AcDbLine
 10
-84203.55864270154
 20
-74496.91255823262
 30
-0.0000000000000055
 11
-84203.55864270154
 21
-74514.41255823262
 31
-0.0000000000000055
210
0.0
220
1.0
230
0.0
  0
LINE
  5
3D604
330
1A
100
AcDbEntity
  8
HEWI
100
AcDbLine
 10
-84188.55864270154
 20
-74514.41255823262
 30
-0.0000000000000037
 11
-84188.55864270154
 21
-74496.91255823262
 31
-0.0000000000000037
210
0.0
220
1.0
230
0.0
  0
ARC
  5
3D605
330
1A
100
AcDbEntity
  8
HEWI
100
AcDbCircle
 10
-84121.05864270154
 20
-74514.41255823262
 30
0.0000000000000046
 40
7.5
100
AcDbArc
 50
180.0
 51
0.0
  0
LINE
  5
3D606
330
1A
100
AcDbEntity
  8
HEWI
100
AcDbLine
 10
-84128.55864270154
 20
-74496.91255823262
 30
0.0000000000000036
 11
-84128.55864270154
 21
-74514.41255823262
 31
0.0000000000000036
210
0.0
220
1.0
230
0.0
  0
LINE
  5
3D607
330
1A
100
AcDbEntity
  8
HEWI
100
AcDbLine
 10
-84113.55864270154
 20
-74514.41255823262
 30
0.0000000000000055
 11
-84113.55864270154
 21
-74496.91255823262
 31
0.0000000000000055
210
0.0
220
1.0
230
0.0
  0
LINE
  5
3D608
330
1A
100
AcDbEntity
  8
HEWI
100
AcDbLine
 10
-84188.55864270154
 20
-74430.41255823263
 30
-0.0000000000000037
 11
-84128.55864270154
 21
-74430.41255823263
 31
0.0000000000000036
210
0.0
220
1.0
230
0.0
  0
LINE
  5
3D609
330
1A
100
AcDbEntity
  8
HEWI
100
AcDbLine
 10
-84188.55864270154
 20
-74463.41255823262
 30
-0.0000000000000037
 11
-84128.55864270154
 21
-74463.41255823262
 31
0.0000000000000036
210
0.0
220
1.0
230
0.0
  0
LINE
  5
3D60A
330
1A
100
AcDbEntity
  8
HEWI
100
AcDbLine
 10
-84203.55864270154
 20
-74436.91255823262
 30
-0.0000000000000055
 11
-84203.55864270154
 21
-74401.91255823262
 31
-0.0000000000000055
210
0.0
220
1.0
230
0.0
  0
LINE
  5
3D60B
330
1A
100
AcDbEntity
  8
HEWI
100
AcDbLine
 10
-84203.55864270154
 20
-74496.91255823262
 30
-0.0000000000000055
 11
-84203.55864270154
 21
-74456.91255823263
 31
-0.0000000000000055
210
0.0
220
1.0
230
0.0
  0
LINE
  5
3D60C
330
1A
100
AcDbEntity
  8
HEWI
100
AcDbLine
 10
-84188.55864270154
 20
-74436.91255823262
 30
-0.0000000000000037
 11
-84188.55864270154
 21
-74401.91255823262
 31
-0.0000000000000037
210
0.0
220
1.0
230
0.0
  0
LINE
  5
3D60D
330
1A
100
AcDbEntity
  8
HEWI
100
AcDbLine
 10
-84188.55864270154
 20
-74496.91255823262
 30
-0.0000000000000037
 11
-84188.55864270154
 21
-74456.91255823263
 31
-0.0000000000000037
210
0.0
220
1.0
230
0.0
  0
LINE
  5
3D60E
330
1A
100
AcDbEntity
  8
HEWI
100
AcDbLine
 10
-84113.55864270154
 20
-74456.91255823263
 30
0.0000000000000055
 11
-84113.55864270154
 21
-74496.91255823262
 31
0.0000000000000055
210
0.0
220
1.0
230
0.0
  0
LINE
  5
3D60F
330
1A
100
AcDbEntity
  8
HEWI
100
AcDbLine
 10
-84113.55864270154
 20
-74401.91255823262
 30
0.0000000000000055
 11
-84113.55864270154
 21
-74436.91255823262
 31
0.0000000000000055
210
0.0
220
1.0
230
0.0
  0
LINE
  5
3D610
330
1A
100
AcDbEntity
  8
HEWI
100
AcDbLine
 10
-84128.55864270154
 20
-74456.91255823263
 30
0.0000000000000036
 11
-84128.55864270154
 21
-74496.91255823262
 31
0.0000000000000036
210
0.0
220
1.0
230
0.0
  0
LINE
  5
3D611
330
1A
100
AcDbEntity
  8
HEWI
100
AcDbLine
 10
-84128.55864270154
 20
-74401.91255823262
 30
0.0000000000000036
 11
-84128.55864270154
 21
-74436.91255823262
 31
0.0000000000000036
210
0.0
220
1.0
230
0.0
  0
CIRCLE
  5
3D612
330
1A
100
AcDbEntity
  8
HEWI
100
AcDbCircle
 10
-84121.05864270154
 20
-74446.91255823262
 30
0.0000000000000046
 40
12.5
  0
DIMENSION
  5
3D66E
330
1A
100
AcDbEntity
  8
0
100
AcDbDimension
  2
*D12
 10
-84458.59329835942
 20
-74964.40029944558
 30
0.0
 11
-84533.5932983594
 21
-74939.40029944558
 31
0.0
 70
    32
 71
     5
 42
150.0
  3
STANDARD
100
AcDbAlignedDimension
 13
-84608.5932983594
 23
-74892.57841327295
 33
0.0
 14
-84458.59329835942
 24
-74892.57841327295
 34
0.0
100
AcDbRotatedDimension
1001
ACAD
1000
DSTYLE
1002
{
1070
    41
1040
30.0
1070
    42
1040
0.0
1070
    43
1040
3.75
1070
    44
1040
10.0
1070
    73
1070
     0
1070
    74
1070
     0
1070
    77
1070
     1
1070
   140
1040
30.0
1070
   141
1040
2.5
1070
   147
1040
10.0
1070
   172
1070
     1
1070
   271
1070
     0
1070
   272
1070
     0
1002
}
  0
ARC
  5
3D685
330
1A
100
AcDbEntity
  8
HEWI
100
AcDbCircle
 10
-84057.0589167085
 20
-74770.99414285616
 30
0.0
 40
31.93736821362885
100
AcDbArc
 50
280.0004822954836
 51
349.9995177045233
  0
ARC
  5
3D686
330
1A
100
AcDbEntity
  8
HEWI
100
AcDbCircle
 10
-84057.05845634614
 20
-74770.99460321852
 30
0.0
 40
65.05494582527514
100
AcDbArc
 50
279.9998948275503
 51
350.0001051724364
  0
LINE
  5
3D687
330
1A
100
AcDbEntity
  8
HEWI
100
AcDbLine
 10
-84025.60679556515
 20
-74776.54027339893
 30
0.0
 11
-84025.05862356807
 21
-74770.27402278856
 31
0.0
  0
LINE
  5
3D688
330
1A
100
AcDbEntity
  8
HEWI
100
AcDbLine
 10
-83992.99182058957
 20
-74782.29115840867
 30
0.0
 11
-83992.06645132688
 21
-74771.71452877001
 31
0.0
  0
LINE
  5
3D689
330
1A
100
AcDbEntity
  8
HEWI
100
AcDbLine
 10
-84057.77903677609
 20
-74802.99443599657
 30
0.0
 11
-84051.51278616573
 21
-74802.4462639995
 31
0.0
  0
LINE
  5
3D68A
330
1A
100
AcDbEntity
  8
HEWI
100
AcDbLine
 10
-84056.33853079464
 20
-74835.98660823777
 30
0.0
 11
-84045.76190115598
 21
-74835.06123897509
 31
0.0
  0
LINE
  5
3D68B
330
1A
100
AcDbEntity
  8
HEWI
100
AcDbLine
 10
-84043.55860830929
 20
-74759.49445125536
 30
0.0
 11
-84043.55860830929
 21
-74747.49448177294
 31
0.0
  0
LINE
  5
3D68C
330
1A
100
AcDbEntity
  8
HEWI
100
AcDbLine
 10
-83973.55860830929
 20
-74759.49445125536
 30
0.0
 11
-83973.55860830929
 21
-74747.49448177294
 31
0.0
  0
LINE
  5
3D68D
330
1A
100
AcDbEntity
  8
HEWI
100
AcDbLine
 10
-84025.05862356807
 20
-74770.27402278856
 30
0.0
 11
-84025.05862356807
 21
-74759.49445125536
 31
0.0
  0
LINE
  5
3D68E
330
1A
100
AcDbEntity
  8
HEWI
100
AcDbLine
 10
-83992.06645132688
 20
-74771.71452877001
 30
0.0
 11
-83992.06645132688
 21
-74759.49445125536
 31
0.0
  0
LINE
  5
3D68F
330
1A
100
AcDbEntity
  8
HEWI
100
AcDbLine
 10
-84043.55860830929
 20
-74747.49448177294
 30
0.0
 11
-83973.55860830929
 21
-74747.49448177294
 31
0.0
  0
LINE
  5
3D690
330
1A
100
AcDbEntity
  8
HEWI
100
AcDbLine
 10
-84043.55860830929
 20
-74759.49445125536
 30
0.0
 11
-83973.55860830929
 21
-74759.49445125536
 31
0.0
  0
LWPOLYLINE
  5
3D692
330
1A
100
AcDbEntity
  8
HEWI
100
AcDbPolyline
 90
        2
 70
     0
 43
0.0
 10
-84054.64591147092
 20
-74802.98660823779
 10
-84066.42438470642
 20
-74802.98660823779
  0
ARC
  5
3D694
330
1A
100
AcDbEntity
  8
HEWI
100
AcDbCircle
 10
-84008.55867709381
 20
-74446.91049855657
 30
0.0
 40
16.50001199043719
100
AcDbArc
 50
1.767675557287691
 51
82.78228145224188
  0
ARC
  5
3D695
330
1A
100
AcDbEntity
  8
HEWI
100
AcDbCircle
 10
-84008.55856989798
 20
-74446.91058647468
 30
0.0
 40
16.49990755788352
100
AcDbArc
 50
270.8834798506363
 51
1.76799218955572
  0
ARC
  5
3D696
330
1A
100
AcDbEntity
  8
HEWI
100
AcDbCircle
 10
-84008.55864270155
 20
-74446.90852679865
 30
0.0
 40
34.99996862708043
100
AcDbArc
 50
210.0000296517821
 51
149.9999703482179
  0
LINE
  5
3D697
330
1A
100
AcDbEntity
  8
HEWI
100
AcDbLine
 10
-83996.89134619361
 20
-74458.57578792231
 30
0.0
 11
-83998.50358984595
 21
-74459.81291331904
 31
0.0
  0
LINE
  5
3D698
330
1A
100
AcDbEntity
  8
HEWI
100
AcDbLine
 10
-84000.17824194558
 20
-74461.09789409296
 30
0.0
 11
-84000.30855200414
 21
-74461.19794406548
 31
0.0
  0
LINE
  5
3D699
330
1A
100
AcDbEntity
  8
HEWI
100
AcDbLine
 10
-83994.26912329321
 20
-74438.658528706
 30
0.0
 11
-83994.65868017797
 21
-74438.15091647762
 31
0.0
  0
LINE
  5
3D69A
330
1A
100
AcDbEntity
  8
HEWI
100
AcDbLine
 10
-83995.81392309791
 20
-74436.64542712824
 30
0.0
 11
-83996.89134619361
 21
-74435.24126567499
 31
0.0
  0
LINE
  5
3D69B
330
1A
100
AcDbEntity
  8
HEWI
100
AcDbLine
 10
-84038.86949560767
 20
-74464.40852679865
 30
0.0
 11
-84039.33580420142
 21
-74463.4085325207
 31
0.0
  0
LINE
  5
3D69C
330
1A
100
AcDbEntity
  8
HEWI
100
AcDbLine
 10
-84000.30855200414
 20
-74461.19794406548
 30
0.0
 11
-84002.19972632056
 21
-74461.98129214898
 31
0.0
  0
LINE
  5
3D69D
330
1A
100
AcDbEntity
  8
HEWI
100
AcDbLine
 10
-83992.62086889866
 20
-74442.6380208935
 30
0.0
 11
-83992.79390356666
 21
-74442.22020663874
 31
0.0
  0
LINE
  5
3D69E
330
1A
100
AcDbEntity
  8
HEWI
100
AcDbLine
 10
-83993.49046728735
 20
-74440.5384115185
 30
0.0
 11
-83994.26912329321
 21
-74438.658528706
 31
0.0
  0
LINE
  5
3D69F
330
1A
100
AcDbEntity
  8
HEWI
100
AcDbLine
 10
-84008.55867407448
 20
-74430.40853061335
 30
0.0
 11
-84009.56666967992
 21
-74430.54123439448
 31
0.0
  0
LINE
  5
3D6A0
330
1A
100
AcDbEntity
  8
HEWI
100
AcDbLine
 10
-84004.28804419165
 20
-74462.84631290095
 30
0.0
 11
-84006.33760473853
 21
-74463.11613597528
 31
0.0
  0
LINE
  5
3D6A1
330
1A
100
AcDbEntity
  8
HEWI
100
AcDbLine
 10
-83992.30852148656
 20
-74445.00984706538
 30
0.0
 11
-83992.62086889866
 21
-74442.6380208935
 31
0.0
  0
LINE
  5
3D6A2
330
1A
100
AcDbEntity
  8
HEWI
100
AcDbLine
 10
-84004.28804419165
 20
-74430.9707502331
 30
0.0
 11
-84005.50004980686
 21
-74430.81120051997
 31
0.0
  0
LINE
  5
3D6A3
330
1A
100
AcDbEntity
  8
HEWI
100
AcDbLine
 10
-84007.5505258811
 20
-74430.54123439448
 30
0.0
 11
-84008.55867407448
 21
-74430.40853061335
 31
0.0
  0
LINE
  5
3D6A4
330
1A
100
AcDbEntity
  8
HEWI
100
AcDbLine
 10
-83992.05858252173
 20
-74446.90852679865
 30
0.0
 11
-83992.31950781468
 21
-74448.89065303462
 31
0.0
  0
LINE
  5
3D6A5
330
1A
100
AcDbEntity
  8
HEWI
100
AcDbLine
 10
-84000.30855200414
 20
-74432.61910953182
 30
0.0
 11
-84001.25429175025
 21
-74432.22737826959
 31
0.0
  0
LINE
  5
3D6A6
330
1A
100
AcDbEntity
  8
HEWI
100
AcDbLine
 10
-84003.05894873266
 20
-74431.4798883404
 30
0.0
 11
-84004.28804419165
 21
-74430.9707502331
 31
0.0
  0
LINE
  5
3D6A7
330
1A
100
AcDbEntity
  8
HEWI
100
AcDbLine
 10
-83992.62086889866
 20
-74451.17904224055
 30
0.0
 11
-83993.39006445533
 21
-74453.03597964898
 31
0.0
  0
LINE
  5
3D6A8
330
1A
100
AcDbEntity
  8
HEWI
100
AcDbLine
 10
-84038.86949560767
 20
-74429.40852679865
 30
0.0
 11
-84039.39775488501
 21
-74430.54123439448
 31
0.0
  0
LINE
  5
3D6A9
330
1A
100
AcDbEntity
  8
HEWI
100
AcDbLine
 10
-83996.89134619361
 20
-74435.24126567499
 30
0.0
 11
-83997.54976294165
 21
-74434.73600902216
 31
0.0
  0
LINE
  5
3D6AA
330
1A
100
AcDbEntity
  8
HEWI
100
AcDbLine
 10
-83999.08586523658
 20
-74433.55741061822
 30
0.0
 11
-84000.30855200414
 21
-74432.61910953182
 31
0.0
  0
LINE
  5
3D6AB
330
1A
100
AcDbEntity
  8
HEWI
100
AcDbLine
 10
-83994.26912329321
 20
-74455.1585248913
 30
0.0
 11
-83995.49913427954
 21
-74456.76147021906
 31
0.0
  0
LINE
  5
3D6AC
330
1A
100
AcDbEntity
  8
HEWI
100
AcDbLine
 10
-83996.7775156272
 20
-74458.42754878657
 30
0.0
 11
-83996.89134619361
 21
-74458.57578792231
 31
0.0
  0
LINE
  5
3D6AD
330
1A
100
AcDbEntity
  8
HEWI
100
AcDbLine
 10
-83994.18886206275
 20
-74455.1585248913
 30
0.0
 11
-83994.26912329321
 21
-74454.96467151301
 31
0.0
  0
LINE
  5
3D6AE
330
1A
100
AcDbEntity
  8
HEWI
100
AcDbLine
 10
-83992.59035132057
 20
-74451.17904224055
 30
0.0
 11
-83992.62086889866
 21
-74450.94786204951
 31
0.0
  0
LINE
  5
3D6AF
330
1A
100
AcDbEntity
  8
HEWI
100
AcDbLine
 10
-83992.05858252173
 20
-74446.90852679865
 30
0.0
 11
-83992.09215185766
 21
-74446.65394343989
 31
0.0
  0
LINE
  5
3D6B0
330
1A
100
AcDbEntity
  8
HEWI
100
AcDbLine
 10
-84004.15651342992
 20
-74462.79181995049
 30
0.0
 11
-84004.28804419165
 21
-74462.84631290095
 31
0.0
  0
ARC
  5
3D6B1
330
1A
100
AcDbEntity
  8
HEWI
100
AcDbCircle
 10
-84008.55856989798
 20
-74446.91058647468
 30
0.0
 40
35.0
100
AcDbArc
 50
0.0
 51
151.872931781198
  0
ARC
  5
3D6B2
330
1A
100
AcDbEntity
  8
HEWI
100
AcDbCircle
 10
-84008.55856989798
 20
-74446.91058647468
 30
0.0
 40
35.0
100
AcDbArc
 50
208.1270682188019
 51
0.0
  0
ARC
  5
3D6B3
330
1A
100
AcDbEntity
  8
HEWI
100
AcDbCircle
 10
-84008.55856989798
 20
-74446.91058647468
 30
0.0
 40
16.8
100
AcDbArc
 50
0.0
 51
100.8440625636746
  0
ARC
  5
3D6B4
330
1A
100
AcDbEntity
  8
HEWI
100
AcDbCircle
 10
-84008.55856989798
 20
-74446.91058647468
 30
0.0
 40
16.8
100
AcDbArc
 50
259.1559374363253
 51
0.0
  0
ARC
  5
3D6B5
330
1A
100
AcDbEntity
  8
HEWI
100
AcDbCircle
 10
-84008.55856989798
 20
-74446.91058647468
 30
0.0
 40
16.5
100
AcDbArc
 50
270.0
 51
90.0
  0
LINE
  5
3D6B6
330
1A
100
AcDbEntity
  8
HEWI
100
AcDbLine
 10
-84057.05856989799
 20
-74430.4105864747
 30
0.0000000000000059
 11
-84008.55856989798
 21
-74430.4105864747
 31
0.0
210
0.0
220
1.0
230
0.0
  0
LINE
  5
3D6B7
330
1A
100
AcDbEntity
  8
HEWI
100
AcDbLine
 10
-84008.55856989798
 20
-74463.4105864747
 30
0.0
 11
-84057.05856989799
 21
-74463.4105864747
 31
0.0000000000000059
210
0.0
220
1.0
230
0.0
  0
LWPOLYLINE
  5
3D6B9
330
1A
100
AcDbEntity
  8
HEWI
  6
Continuous
100
AcDbPolyline
 90
        2
 70
     0
 43
0.0
 10
-83977.69092867923
 20
-74430.4105864747
 10
-83977.69192122988
 20
-74430.4105864747
  0
LWPOLYLINE
  5
3D6BA
330
1A
100
AcDbEntity
  8
HEWI
  6
Continuous
100
AcDbPolyline
 90
        2
 70
     0
 43
0.0
 10
-84005.39787377214
 20
-74430.4105864747
 10
-84113.55864270154
 20
-74430.4105864747
  0
LWPOLYLINE
  5
3D6BB
330
1A
100
AcDbEntity
  8
HEWI
  6
Continuous
100
AcDbPolyline
 90
        2
 70
     0
 43
0.0
 10
-83977.69313071254
 20
-74463.4105864747
 10
-83977.69192122988
 20
-74463.4105864747
  0
LWPOLYLINE
  5
3D6BC
330
1A
100
AcDbEntity
  8
HEWI
100
AcDbPolyline
 90
        2
 70
     0
 43
0.0
 10
-84057.7131008067
 20
-74802.98866791383
 10
-84709.42758752782
 20
-74802.98866791383
  0
LINE
  5
3D853
330
1A
100
AcDbEntity
  8
0
  6
Continuous
100
AcDbLine
 10
-83775.85424850689
 20
-74459.4105864747
 30
0.0000000000000135
 11
-83775.85424850689
 21
-74496.91058647468
 31
0.0000000000000135
  0
ARC
  5
3D854
330
1A
100
AcDbEntity
  8
0
  6
Continuous
100
AcDbCircle
 10
-83765.8542485069
 20
-74496.91058647468
 30
0.0000000000000135
 40
25.0
100
AcDbArc
 50
336.4218215220722
 51
0.0
  0
ARC
  5
3D855
330
1A
100
AcDbEntity
  8
0
  6
Continuous
100
AcDbCircle
 10
-83765.8542485069
 20
-74496.91058647468
 30
0.0000000000000135
 40
25.0
100
AcDbArc
 50
314.4270040005138
 51
336.4218215220722
  0
ARC
  5
3D856
330
1A
100
AcDbEntity
  8
0
  6
Continuous
100
AcDbCircle
 10
-83765.8542485069
 20
-74496.91058647468
 30
0.0000000000000135
 40
25.0
100
AcDbArc
 50
270.0
 51
314.4270040005138
  0
ARC
  5
3D857
330
1A
100
AcDbEntity
  8
0
  6
Continuous
100
AcDbCircle
 10
-83765.8542485069
 20
-74496.91058647468
 30
0.0000000000000135
 40
25.0
100
AcDbArc
 50
225.5729959994862
 51
270.0
  0
ARC
  5
3D858
330
1A
100
AcDbEntity
  8
0
  6
Continuous
100
AcDbCircle
 10
-83765.8542485069
 20
-74496.91058647468
 30
0.0000000000000135
 40
25.0
100
AcDbArc
 50
180.0
 51
225.5729959994862
  0
ARC
  5
3D859
330
1A
100
AcDbEntity
  8
0
  6
Continuous
100
AcDbCircle
 10
-83765.8542485069
 20
-74496.91058647468
 30
0.0000000000000135
 40
10.0
100
AcDbArc
 50
270.0
 51
0.0
  0
ARC
  5
3D85A
330
1A
100
AcDbEntity
  8
0
  6
Continuous
100
AcDbCircle
 10
-83765.8542485069
 20
-74496.91058647468
 30
0.0000000000000135
 40
10.0
100
AcDbArc
 50
180.0
 51
270.0
  0
ARC
  5
3D85B
330
1A
100
AcDbEntity
  8
0
  6
Continuous
100
AcDbCircle
 10
-83748.35424850687
 20
-74506.91058647468
 30
0.0000000000000135
 40
15.0
100
AcDbArc
 50
90.0
 51
108.5530045346151
  0
ARC
  5
3D85C
330
1A
100
AcDbEntity
  8
0
  6
Continuous
100
AcDbCircle
 10
-83748.35424850687
 20
-74506.91058647468
 30
0.0000000000000135
 40
15.0
100
AcDbArc
 50
71.44699546538486
 51
90.0
  0
LINE
  5
3D85D
330
1A
100
AcDbEntity
  8
0
  6
Continuous
100
AcDbLine
 10
-83755.85424850687
 20
-74496.91058647468
 30
0.0000000000000135
 11
-83755.85424850687
 21
-74496.48225966741
 31
0.0000000000000135
  0
LINE
  5
3D85E
330
1A
100
AcDbEntity
  8
0
  6
Continuous
100
AcDbLine
 10
-83740.85424850687
 20
-74496.91058647468
 30
0.0000000000000135
 11
-83740.85424850687
 21
-74496.48225966741
 31
0.0000000000000135
  0
ARC
  5
3D85F
330
1A
100
AcDbEntity
  8
0
  6
Continuous
100
AcDbCircle
 10
-83744.8486118834
 20
-74496.48414679661
 30
0.0000000000000135
 40
4.0
100
AcDbArc
 50
356.9579372979395
 51
71.53213898324314
  0
ARC
  5
3D860
330
1A
100
AcDbEntity
  8
0
  6
Continuous
100
AcDbCircle
 10
-83751.85424850689
 20
-74496.48225966741
 30
0.0000000000000135
 40
4.0
100
AcDbArc
 50
108.5530045346151
 51
180.0
  0
LINE
  5
3D861
330
1A
100
AcDbEntity
  8
0
  6
Continuous
100
AcDbLine
 10
-83768.35424850689
 20
-74455.4105864747
 30
0.0000000000000135
 11
-83768.35424850689
 21
-74446.91058647468
 31
0.0000000000000135
  0
LINE
  5
3D862
330
1A
100
AcDbEntity
  8
0
  6
Continuous
100
AcDbLine
 10
-83768.35424850689
 20
-74446.91058647468
 30
0.0000000000000135
 11
-83768.35424850689
 21
-74438.41058647468
 31
0.0000000000000135
  0
LINE
  5
3D863
330
1A
100
AcDbEntity
  8
0
  6
Continuous
100
AcDbLine
 10
-83807.58391889269
 20
-74434.41058647468
 30
0.0000000000000135
 11
-83790.85424850689
 21
-74434.41058647468
 31
0.0000000000000135
  0
LINE
  5
3D864
330
1A
100
AcDbEntity
  8
0
  6
Continuous
100
AcDbLine
 10
-83775.85424850689
 20
-74434.41058647468
 30
0.0000000000000135
 11
-83772.35424850688
 21
-74434.41058647468
 31
0.0000000000000135
  0
LINE
  5
3D865
330
1A
100
AcDbEntity
  8
0
  6
Continuous
100
AcDbLine
 10
-83807.58391889269
 20
-74459.4105864747
 30
0.0000000000000135
 11
-83790.85424850689
 21
-74459.4105864747
 31
0.0000000000000135
  0
LINE
  5
3D866
330
1A
100
AcDbEntity
  8
0
  6
Continuous
100
AcDbLine
 10
-83775.85424850689
 20
-74459.4105864747
 30
0.0000000000000135
 11
-83772.35424850688
 21
-74459.4105864747
 31
0.0000000000000135
  0
ARC
  5
3D867
330
1A
100
AcDbEntity
  8
0
  6
Continuous
100
AcDbCircle
 10
-83772.35424850688
 20
-74438.41058647468
 30
0.0000000000000135
 40
4.0
100
AcDbArc
 50
0.0
 51
90.0
  0
ARC
  5
3D868
330
1A
100
AcDbEntity
  8
0
  6
Continuous
100
AcDbCircle
 10
-83772.35424850688
 20
-74455.4105864747
 30
0.0000000000000135
 40
4.0
100
AcDbArc
 50
270.0
 51
0.0
  0
ARC
  5
3D86B
330
1A
100
AcDbEntity
  8
0
  6
Continuous
100
AcDbCircle
 10
-83783.35424850689
 20
-74469.41058647468
 30
0.0000000000000135
 40
12.5
100
AcDbArc
 50
53.13010235398792
 51
126.8698976460121
  0
ARC
  5
3D86C
330
1A
100
AcDbEntity
  8
0
  6
Continuous
100
AcDbCircle
 10
-83783.35424850689
 20
-74424.41058647468
 30
0.0000000000000135
 40
12.5
100
AcDbArc
 50
233.130102353988
 51
306.8698976460122
  0
LINE
  5
3D86D
330
1A
100
AcDbEntity
  8
0
  6
Continuous
100
AcDbLine
 10
-83790.85424850689
 20
-74364.4105864748
 30
0.0000000000000135
 11
-83790.85424850689
 21
-74434.41058647468
 31
0.0000000000000135
  0
LINE
  5
3D86E
330
1A
100
AcDbEntity
  8
0
  6
Continuous
100
AcDbLine
 10
-83790.85424850689
 20
-74459.4105864747
 30
0.0000000000000135
 11
-83790.85424850689
 21
-74496.91058647468
 31
0.0000000000000135
  0
LINE
  5
3D86F
330
1A
100
AcDbEntity
  8
0
  6
Continuous
100
AcDbLine
 10
-83775.85424850689
 20
-74364.4105864748
 30
0.0000000000000135
 11
-83775.85424850689
 21
-74434.41058647468
 31
0.0000000000000135
  0
ARC
  5
3D870
330
1A
100
AcDbEntity
  8
0
  6
Continuous
100
AcDbCircle
 10
-83783.35424850689
 20
-74364.4105864748
 30
0.0000000000000135
 40
7.5
100
AcDbArc
 50
0.0
 51
90.0
  0
ARC
  5
3D871
330
1A
100
AcDbEntity
  8
0
  6
Continuous
100
AcDbCircle
 10
-83783.35424850689
 20
-74364.4105864748
 30
0.0000000000000135
 40
7.5
100
AcDbArc
 50
90.0
 51
180.0
  0
LINE
  5
3D87F
330
1A
100
AcDbEntity
  8
0
  6
Continuous
100
AcDbLine
 10
-83790.85424850689
 20
-74411.32340424609
 30
0.0000000000000135
 11
-83790.85424850689
 21
-74383.3242741087
 31
0.0000000000000135
  0
LINE
  5
3D880
330
1A
100
AcDbEntity
  8
0
  6
Continuous
100
AcDbLine
 10
-83775.85424850689
 20
-74411.32340424609
 30
0.0000000000000135
 11
-83775.85424850689
 21
-74383.3242741087
 31
0.0000000000000135
  0
LINE
  5
3D885
330
1A
100
AcDbEntity
  8
0
  6
Continuous
100
AcDbLine
 10
-84504.55864270152
 20
-74867.48866791367
 30
0.0
 11
-84487.55864270154
 21
-74867.48866791367
 31
0.0
  0
LINE
  5
3D886
330
1A
100
AcDbEntity
  8
0
  6
Continuous
100
AcDbLine
 10
-84429.55864270151
 20
-74867.48866791367
 30
0.0
 11
-84412.55864270154
 21
-74867.48866791367
 31
0.0
  0
ARC
  5
3D887
330
1A
100
AcDbEntity
  8
0
  6
Continuous
100
AcDbCircle
 10
-84504.55864270152
 20
-74863.48866791367
 30
0.0
 40
4.0
100
AcDbArc
 50
180.0
 51
270.0
  0
ARC
  5
3D888
330
1A
100
AcDbEntity
  8
0
  6
Continuous
100
AcDbCircle
 10
-84487.55864270154
 20
-74863.48866791367
 30
0.0
 40
4.0
100
AcDbArc
 50
270.0
 51
0.0
  0
ARC
  5
3D889
330
1A
100
AcDbEntity
  8
0
  6
Continuous
100
AcDbCircle
 10
-84429.55864270151
 20
-74863.48866791367
 30
0.0
 40
4.0
100
AcDbArc
 50
180.0
 51
270.0
  0
ARC
  5
3D88A
330
1A
100
AcDbEntity
  8
0
  6
Continuous
100
AcDbCircle
 10
-84412.55864270154
 20
-74863.48866791367
 30
0.0
 40
4.0
100
AcDbArc
 50
270.0
 51
0.0
  0
LINE
  5
3D88B
330
1A
100
AcDbEntity
  8
0
  6
Continuous
100
AcDbLine
 10
-84496.05864270154
 20
-74846.98866791367
 30
0.0
 11
-84483.55864270153
 21
-74846.98866791367
 31
0.0
  0
LINE
  5
3D88C
330
1A
100
AcDbEntity
  8
0
  6
Continuous
100
AcDbLine
 10
-84483.55864270153
 20
-74846.98866791367
 30
0.0
 11
-84433.55864270154
 21
-74846.98866791367
 31
0.0
  0
LINE
  5
3D88D
330
1A
100
AcDbEntity
  8
0
  6
Continuous
100
AcDbLine
 10
-84433.55864270154
 20
-74846.98866791367
 30
0.0
 11
-84421.05864270152
 21
-74846.98866791367
 31
0.0
  0
LINE
  5
3D88E
330
1A
100
AcDbEntity
  8
0
  6
Continuous
100
AcDbLine
 10
-84496.05864270154
 20
-74861.98866791367
 30
0.0
 11
-84483.55864270153
 21
-74861.98866791367
 31
0.0
  0
LINE
  5
3D88F
330
1A
100
AcDbEntity
  8
0
  6
Continuous
100
AcDbLine
 10
-84483.55864270153
 20
-74861.98866791367
 30
0.0
 11
-84433.55864270154
 21
-74861.98866791367
 31
0.0
  0
LINE
  5
3D890
330
1A
100
AcDbEntity
  8
0
  6
Continuous
100
AcDbLine
 10
-84433.55864270154
 20
-74861.98866791367
 30
0.0
 11
-84421.05864270152
 21
-74861.98866791367
 31
0.0
  0
LINE
  5
3D891
330
1A
100
AcDbEntity
  8
0
  6
Continuous
100
AcDbLine
 10
-84483.55864270153
 20
-74835.98866791369
 30
0.0
 11
-84483.55864270153
 21
-74846.98866791367
 31
0.0
  0
LINE
  5
3D892
330
1A
100
AcDbEntity
  8
0
  6
Continuous
100
AcDbLine
 10
-84483.55864270153
 20
-74861.98866791367
 30
0.0
 11
-84483.55864270153
 21
-74863.48866791367
 31
0.0
  0
LINE
  5
3D893
330
1A
100
AcDbEntity
  8
0
  6
Continuous
100
AcDbLine
 10
-84433.55864270154
 20
-74835.98866791369
 30
0.0
 11
-84433.55864270154
 21
-74846.98866791367
 31
0.0
  0
LINE
  5
3D894
330
1A
100
AcDbEntity
  8
0
  6
Continuous
100
AcDbLine
 10
-84433.55864270154
 20
-74861.98866791367
 30
0.0
 11
-84433.55864270154
 21
-74863.48866791367
 31
0.0
  0
LINE
  5
3D895
330
1A
100
AcDbEntity
  8
0
  6
Continuous
100
AcDbLine
 10
-84408.55864270153
 20
-74835.98866791369
 30
0.0
 11
-84408.55864270153
 21
-74854.48866791367
 31
0.0
  0
LINE
  5
3D896
330
1A
100
AcDbEntity
  8
0
  6
Continuous
100
AcDbLine
 10
-84408.55864270153
 20
-74854.48866791367
 30
0.0
 11
-84408.55864270153
 21
-74863.48866791367
 31
0.0
  0
LINE
  5
3D897
330
1A
100
AcDbEntity
  8
0
  6
Continuous
100
AcDbLine
 10
-84508.55864270154
 20
-74835.98866791369
 30
0.0
 11
-84508.55864270154
 21
-74854.48866791367
 31
0.0
  0
LINE
  5
3D898
330
1A
100
AcDbEntity
  8
0
  6
Continuous
100
AcDbLine
 10
-84508.55864270154
 20
-74854.48866791367
 30
0.0
 11
-84508.55864270154
 21
-74863.48866791367
 31
0.0
  0
ARC
  5
3D899
330
1A
100
AcDbEntity
  8
0
  6
Continuous
100
AcDbCircle
 10
-84496.05864270154
 20
-74854.48866791367
 30
0.0
 40
7.5
100
AcDbArc
 50
90.0
 51
180.0
  0
ARC
  5
3D89A
330
1A
100
AcDbEntity
  8
0
  6
Continuous
100
AcDbCircle
 10
-84496.05864270154
 20
-74854.48866791367
 30
0.0
 40
7.5
100
AcDbArc
 50
180.0
 51
270.0
  0
ARC
  5
3D89B
330
1A
100
AcDbEntity
  8
0
  6
Continuous
100
AcDbCircle
 10
-84421.05864270152
 20
-74854.48866791367
 30
0.0
 40
7.5
100
AcDbArc
 50
0.0
 51
90.0
  0
ARC
  5
3D89C
330
1A
100
AcDbEntity
  8
0
  6
Continuous
100
AcDbCircle
 10
-84421.05864270152
 20
-74854.48866791367
 30
0.0
 40
7.5
100
AcDbArc
 50
270.0
 51
0.0
  0
CIRCLE
  5
3D8A8
330
1A
100
AcDbEntity
  8
0
  6
Continuous
100
AcDbCircle
 10
-84496.05864270154
 20
-74889.48866791369
 30
0.0
 40
7.5
  0
LINE
  5
3D8AA
330
1A
100
AcDbEntity
  8
0
  6
Continuous
100
AcDbLine
 10
-84503.55864270154
 20
-74867.48866791367
 30
0.0
 11
-84503.55864270154
 21
-74889.48866791369
 31
0.0
  0
LINE
  5
3D8AC
330
1A
100
AcDbEntity
  8
0
  6
Continuous
100
AcDbLine
 10
-84488.55864270154
 20
-74867.48866791367
 30
0.0
 11
-84488.55864270154
 21
-74889.48866791369
 31
0.0
  0
CIRCLE
  5
3D8AD
330
1A
100
AcDbEntity
  8
0
  6
Continuous
100
AcDbCircle
 10
-84421.05864270152
 20
-74889.48866791369
 30
0.0
 40
7.5
  0
LINE
  5
3D8AF
330
1A
100
AcDbEntity
  8
0
  6
Continuous
100
AcDbLine
 10
-84428.55864270152
 20
-74867.48866791367
 30
0.0
 11
-84428.55864270152
 21
-74889.48866791369
 31
0.0
  0
LINE
  5
3D8B1
330
1A
100
AcDbEntity
  8
0
  6
Continuous
100
AcDbLine
 10
-84413.55864270152
 20
-74867.48866791367
 30
0.0
 11
-84413.55864270152
 21
-74889.48866791369
 31
0.0
  0
LINE
  5
3D8B2
330
1A
100
AcDbEntity
  8
0
  6
Continuous
100
AcDbLine
 10
-84354.55864270153
 20
-74867.48866791367
 30
0.0
 11
-84337.55864270152
 21
-74867.48866791367
 31
0.0
  0
LINE
  5
3D8B3
330
1A
100
AcDbEntity
  8
0
  6
Continuous
100
AcDbLine
 10
-84279.55864270154
 20
-74867.48866791367
 30
0.0
 11
-84262.55864270153
 21
-74867.48866791367
 31
0.0
  0
ARC
  5
3D8B4
330
1A
100
AcDbEntity
  8
0
  6
Continuous
100
AcDbCircle
 10
-84354.55864270153
 20
-74863.48866791367
 30
0.0
 40
4.0
100
AcDbArc
 50
180.0
 51
270.0
  0
ARC
  5
3D8B5
330
1A
100
AcDbEntity
  8
0
  6
Continuous
100
AcDbCircle
 10
-84337.55864270152
 20
-74863.48866791367
 30
0.0
 40
4.0
100
AcDbArc
 50
270.0
 51
0.0
  0
ARC
  5
3D8B6
330
1A
100
AcDbEntity
  8
0
  6
Continuous
100
AcDbCircle
 10
-84279.55864270154
 20
-74863.48866791367
 30
0.0
 40
4.0
100
AcDbArc
 50
180.0
 51
270.0
  0
ARC
  5
3D8B7
330
1A
100
AcDbEntity
  8
0
  6
Continuous
100
AcDbCircle
 10
-84262.55864270153
 20
-74863.48866791367
 30
0.0
 40
4.0
100
AcDbArc
 50
270.0
 51
0.0
  0
LINE
  5
3D8B8
330
1A
100
AcDbEntity
  8
0
  6
Continuous
100
AcDbLine
 10
-84346.05864270151
 20
-74846.98866791367
 30
0.0
 11
-84333.55864270154
 21
-74846.98866791367
 31
0.0
  0
LINE
  5
3D8B9
330
1A
100
AcDbEntity
  8
0
  6
Continuous
100
AcDbLine
 10
-84333.55864270154
 20
-74846.98866791367
 30
0.0
 11
-84283.55864270152
 21
-74846.98866791367
 31
0.0
  0
LINE
  5
3D8BA
330
1A
100
AcDbEntity
  8
0
  6
Continuous
100
AcDbLine
 10
-84283.55864270152
 20
-74846.98866791367
 30
0.0
 11
-84271.05864270153
 21
-74846.98866791367
 31
0.0
  0
LINE
  5
3D8BB
330
1A
100
AcDbEntity
  8
0
  6
Continuous
100
AcDbLine
 10
-84346.05864270151
 20
-74861.98866791367
 30
0.0
 11
-84333.55864270154
 21
-74861.98866791367
 31
0.0
  0
LINE
  5
3D8BC
330
1A
100
AcDbEntity
  8
0
  6
Continuous
100
AcDbLine
 10
-84333.55864270154
 20
-74861.98866791367
 30
0.0
 11
-84283.55864270152
 21
-74861.98866791367
 31
0.0
  0
LINE
  5
3D8BD
330
1A
100
AcDbEntity
  8
0
  6
Continuous
100
AcDbLine
 10
-84283.55864270152
 20
-74861.98866791367
 30
0.0
 11
-84271.05864270153
 21
-74861.98866791367
 31
0.0
  0
LINE
  5
3D8BE
330
1A
100
AcDbEntity
  8
0
  6
Continuous
100
AcDbLine
 10
-84333.55864270154
 20
-74835.98866791369
 30
0.0
 11
-84333.55864270154
 21
-74846.98866791367
 31
0.0
  0
LINE
  5
3D8BF
330
1A
100
AcDbEntity
  8
0
  6
Continuous
100
AcDbLine
 10
-84333.55864270154
 20
-74861.98866791367
 30
0.0
 11
-84333.55864270154
 21
-74863.48866791367
 31
0.0
  0
LINE
  5
3D8C0
330
1A
100
AcDbEntity
  8
0
  6
Continuous
100
AcDbLine
 10
-84283.55864270152
 20
-74835.98866791369
 30
0.0
 11
-84283.55864270152
 21
-74846.98866791367
 31
0.0
  0
LINE
  5
3D8C1
330
1A
100
AcDbEntity
  8
0
  6
Continuous
100
AcDbLine
 10
-84283.55864270152
 20
-74861.98866791367
 30
0.0
 11
-84283.55864270152
 21
-74863.48866791367
 31
0.0
  0
LINE
  5
3D8C2
330
1A
100
AcDbEntity
  8
0
  6
Continuous
100
AcDbLine
 10
-84258.55864270154
 20
-74835.98866791369
 30
0.0
 11
-84258.55864270154
 21
-74854.48866791367
 31
0.0
  0
LINE
  5
3D8C3
330
1A
100
AcDbEntity
  8
0
  6
Continuous
100
AcDbLine
 10
-84258.55864270154
 20
-74854.48866791367
 30
0.0
 11
-84258.55864270154
 21
-74863.48866791367
 31
0.0
  0
LINE
  5
3D8C4
330
1A
100
AcDbEntity
  8
0
  6
Continuous
100
AcDbLine
 10
-84358.55864270154
 20
-74835.98866791369
 30
0.0
 11
-84358.55864270154
 21
-74854.48866791367
 31
0.0
  0
LINE
  5
3D8C5
330
1A
100
AcDbEntity
  8
0
  6
Continuous
100
AcDbLine
 10
-84358.55864270154
 20
-74854.48866791367
 30
0.0
 11
-84358.55864270154
 21
-74863.48866791367
 31
0.0
  0
ARC
  5
3D8C6
330
1A
100
AcDbEntity
  8
0
  6
Continuous
100
AcDbCircle
 10
-84346.05864270151
 20
-74854.48866791367
 30
0.0
 40
7.5
100
AcDbArc
 50
90.0
 51
180.0
  0
ARC
  5
3D8C7
330
1A
100
AcDbEntity
  8
0
  6
Continuous
100
AcDbCircle
 10
-84346.05864270151
 20
-74854.48866791367
 30
0.0
 40
7.5
100
AcDbArc
 50
180.0
 51
270.0
  0
ARC
  5
3D8C8
330
1A
100
AcDbEntity
  8
0
  6
Continuous
100
AcDbCircle
 10
-84271.05864270153
 20
-74854.48866791367
 30
0.0
 40
7.5
100
AcDbArc
 50
0.0
 51
90.0
  0
ARC
  5
3D8C9
330
1A
100
AcDbEntity
  8
0
  6
Continuous
100
AcDbCircle
 10
-84271.05864270153
 20
-74854.48866791367
 30
0.0
 40
7.5
100
AcDbArc
 50
270.0
 51
0.0
  0
CIRCLE
  5
3D8CA
330
1A
100
AcDbEntity
  8
0
  6
Continuous
100
AcDbCircle
 10
-84346.05864270151
 20
-74889.48866791369
 30
0.0
 40
7.5
  0
LINE
  5
3D8CB
330
1A
100
AcDbEntity
  8
0
  6
Continuous
100
AcDbLine
 10
-84353.55864270151
 20
-74867.48866791367
 30
0.0
 11
-84353.55864270151
 21
-74889.48866791369
 31
0.0
  0
LINE
  5
3D8CC
330
1A
100
AcDbEntity
  8
0
  6
Continuous
100
AcDbLine
 10
-84338.55864270151
 20
-74867.48866791367
 30
0.0
 11
-84338.55864270151
 21
-74889.48866791369
 31
0.0
  0
CIRCLE
  5
3D8CD
330
1A
100
AcDbEntity
  8
0
  6
Continuous
100
AcDbCircle
 10
-84271.05864270153
 20
-74889.48866791369
 30
0.0
 40
7.5
  0
LINE
  5
3D8CE
330
1A
100
AcDbEntity
  8
0
  6
Continuous
100
AcDbLine
 10
-84278.55864270153
 20
-74867.48866791367
 30
0.0
 11
-84278.55864270153
 21
-74889.48866791369
 31
0.0
  0
LINE
  5
3D8CF
330
1A
100
AcDbEntity
  8
0
  6
Continuous
100
AcDbLine
 10
-84263.55864270153
 20
-74867.48866791367
 30
0.0
 11
-84263.55864270153
 21
-74889.48866791369
 31
0.0
  0
LINE
  5
3D8D0
330
1A
100
AcDbEntity
  8
0
  6
Continuous
100
AcDbLine
 10
-84204.55864270154
 20
-74867.48866791367
 30
0.0
 11
-84187.55864270153
 21
-74867.48866791367
 31
0.0
  0
LINE
  5
3D8D1
330
1A
100
AcDbEntity
  8
0
  6
Continuous
100
AcDbLine
 10
-84129.55864270154
 20
-74867.48866791367
 30
0.0
 11
-84112.55864270154
 21
-74867.48866791367
 31
0.0
  0
ARC
  5
3D8D2
330
1A
100
AcDbEntity
  8
0
  6
Continuous
100
AcDbCircle
 10
-84204.55864270154
 20
-74863.48866791367
 30
0.0
 40
4.0
100
AcDbArc
 50
180.0
 51
270.0
  0
ARC
  5
3D8D3
330
1A
100
AcDbEntity
  8
0
  6
Continuous
100
AcDbCircle
 10
-84187.55864270153
 20
-74863.48866791367
 30
0.0
 40
4.0
100
AcDbArc
 50
270.0
 51
0.0
  0
ARC
  5
3D8D4
330
1A
100
AcDbEntity
  8
0
  6
Continuous
100
AcDbCircle
 10
-84129.55864270154
 20
-74863.48866791367
 30
0.0
 40
4.0
100
AcDbArc
 50
180.0
 51
270.0
  0
ARC
  5
3D8D5
330
1A
100
AcDbEntity
  8
0
  6
Continuous
100
AcDbCircle
 10
-84112.55864270154
 20
-74863.48866791367
 30
0.0
 40
4.0
100
AcDbArc
 50
270.0
 51
0.0
  0
LINE
  5
3D8D6
330
1A
100
AcDbEntity
  8
0
  6
Continuous
100
AcDbLine
 10
-84196.05864270154
 20
-74846.98866791367
 30
0.0
 11
-84183.55864270154
 21
-74846.98866791367
 31
0.0
  0
LINE
  5
3D8D7
330
1A
100
AcDbEntity
  8
0
  6
Continuous
100
AcDbLine
 10
-84183.55864270154
 20
-74846.98866791367
 30
0.0
 11
-84133.55864270153
 21
-74846.98866791367
 31
0.0
  0
LINE
  5
3D8D8
330
1A
100
AcDbEntity
  8
0
  6
Continuous
100
AcDbLine
 10
-84133.55864270153
 20
-74846.98866791367
 30
0.0
 11
-84121.05864270154
 21
-74846.98866791367
 31
0.0
  0
LINE
  5
3D8D9
330
1A
100
AcDbEntity
  8
0
  6
Continuous
100
AcDbLine
 10
-84196.05864270154
 20
-74861.98866791367
 30
0.0
 11
-84183.55864270154
 21
-74861.98866791367
 31
0.0
  0
LINE
  5
3D8DA
330
1A
100
AcDbEntity
  8
0
  6
Continuous
100
AcDbLine
 10
-84183.55864270154
 20
-74861.98866791367
 30
0.0
 11
-84133.55864270153
 21
-74861.98866791367
 31
0.0
  0
LINE
  5
3D8DB
330
1A
100
AcDbEntity
  8
0
  6
Continuous
100
AcDbLine
 10
-84133.55864270153
 20
-74861.98866791367
 30
0.0
 11
-84121.05864270154
 21
-74861.98866791367
 31
0.0
  0
LINE
  5
3D8DC
330
1A
100
AcDbEntity
  8
0
  6
Continuous
100
AcDbLine
 10
-84183.55864270154
 20
-74835.98866791369
 30
0.0
 11
-84183.55864270154
 21
-74846.98866791367
 31
0.0
  0
LINE
  5
3D8DD
330
1A
100
AcDbEntity
  8
0
  6
Continuous
100
AcDbLine
 10
-84183.55864270154
 20
-74861.98866791367
 30
0.0
 11
-84183.55864270154
 21
-74863.48866791367
 31
0.0
  0
LINE
  5
3D8DE
330
1A
100
AcDbEntity
  8
0
  6
Continuous
100
AcDbLine
 10
-84133.55864270153
 20
-74835.98866791369
 30
0.0
 11
-84133.55864270153
 21
-74846.98866791367
 31
0.0
  0
LINE
  5
3D8DF
330
1A
100
AcDbEntity
  8
0
  6
Continuous
100
AcDbLine
 10
-84133.55864270153
 20
-74861.98866791367
 30
0.0
 11
-84133.55864270153
 21
-74863.48866791367
 31
0.0
  0
LINE
  5
3D8E0
330
1A
100
AcDbEntity
  8
0
  6
Continuous
100
AcDbLine
 10
-84108.55864270152
 20
-74835.98866791369
 30
0.0
 11
-84108.55864270152
 21
-74854.48866791367
 31
0.0
  0
LINE
  5
3D8E1
330
1A
100
AcDbEntity
  8
0
  6
Continuous
100
AcDbLine
 10
-84108.55864270152
 20
-74854.48866791367
 30
0.0
 11
-84108.55864270152
 21
-74863.48866791367
 31
0.0
  0
LINE
  5
3D8E2
330
1A
100
AcDbEntity
  8
0
  6
Continuous
100
AcDbLine
 10
-84208.55864270151
 20
-74835.98866791369
 30
0.0
 11
-84208.55864270151
 21
-74854.48866791367
 31
0.0
  0
LINE
  5
3D8E3
330
1A
100
AcDbEntity
  8
0
  6
Continuous
100
AcDbLine
 10
-84208.55864270151
 20
-74854.48866791367
 30
0.0
 11
-84208.55864270151
 21
-74863.48866791367
 31
0.0
  0
ARC
  5
3D8E4
330
1A
100
AcDbEntity
  8
0
  6
Continuous
100
AcDbCircle
 10
-84196.05864270154
 20
-74854.48866791367
 30
0.0
 40
7.5
100
AcDbArc
 50
90.0
 51
180.0
  0
ARC
  5
3D8E5
330
1A
100
AcDbEntity
  8
0
  6
Continuous
100
AcDbCircle
 10
-84196.05864270154
 20
-74854.48866791367
 30
0.0
 40
7.5
100
AcDbArc
 50
180.0
 51
270.0
  0
ARC
  5
3D8E6
330
1A
100
AcDbEntity
  8
0
  6
Continuous
100
AcDbCircle
 10
-84121.05864270154
 20
-74854.48866791367
 30
0.0
 40
7.5
100
AcDbArc
 50
0.0
 51
90.0
  0
ARC
  5
3D8E7
330
1A
100
AcDbEntity
  8
0
  6
Continuous
100
AcDbCircle
 10
-84121.05864270154
 20
-74854.48866791367
 30
0.0
 40
7.5
100
AcDbArc
 50
270.0
 51
0.0
  0
CIRCLE
  5
3D8E8
330
1A
100
AcDbEntity
  8
0
  6
Continuous
100
AcDbCircle
 10
-84196.05864270154
 20
-74889.48866791369
 30
0.0
 40
7.5
  0
LINE
  5
3D8E9
330
1A
100
AcDbEntity
  8
0
  6
Continuous
100
AcDbLine
 10
-84203.55864270154
 20
-74867.48866791367
 30
0.0
 11
-84203.55864270154
 21
-74889.48866791369
 31
0.0
  0
LINE
  5
3D8EA
330
1A
100
AcDbEntity
  8
0
  6
Continuous
100
AcDbLine
 10
-84188.55864270154
 20
-74867.48866791367
 30
0.0
 11
-84188.55864270154
 21
-74889.48866791369
 31
0.0
  0
CIRCLE
  5
3D8EB
330
1A
100
AcDbEntity
  8
0
  6
Continuous
100
AcDbCircle
 10
-84121.05864270154
 20
-74889.48866791369
 30
0.0
 40
7.5
  0
LINE
  5
3D8EC
330
1A
100
AcDbEntity
  8
0
  6
Continuous
100
AcDbLine
 10
-84128.55864270154
 20
-74867.48866791367
 30
0.0
 11
-84128.55864270154
 21
-74889.48866791369
 31
0.0
  0
LINE
  5
3D8ED
330
1A
100
AcDbEntity
  8
0
  6
Continuous
100
AcDbLine
 10
-84113.55864270154
 20
-74867.48866791367
 30
0.0
 11
-84113.55864270154
 21
-74889.48866791369
 31
0.0
  0
LINE
  5
3D8EE
330
1A
100
AcDbEntity
  8
0
  6
Continuous
100
AcDbLine
 10
-84654.55864270154
 20
-74867.48866791367
 30
0.0
 11
-84637.55864270154
 21
-74867.48866791367
 31
0.0
  0
LINE
  5
3D8EF
330
1A
100
AcDbEntity
  8
0
  6
Continuous
100
AcDbLine
 10
-84579.55864270154
 20
-74867.48866791367
 30
0.0
 11
-84562.55864270154
 21
-74867.48866791367
 31
0.0
  0
ARC
  5
3D8F0
330
1A
100
AcDbEntity
  8
0
  6
Continuous
100
AcDbCircle
 10
-84654.55864270154
 20
-74863.48866791367
 30
0.0
 40
4.0
100
AcDbArc
 50
180.0
 51
270.0
  0
ARC
  5
3D8F1
330
1A
100
AcDbEntity
  8
0
  6
Continuous
100
AcDbCircle
 10
-84637.55864270154
 20
-74863.48866791367
 30
0.0
 40
4.0
100
AcDbArc
 50
270.0
 51
0.0
  0
ARC
  5
3D8F2
330
1A
100
AcDbEntity
  8
0
  6
Continuous
100
AcDbCircle
 10
-84579.55864270154
 20
-74863.48866791367
 30
0.0
 40
4.0
100
AcDbArc
 50
180.0
 51
270.0
  0
ARC
  5
3D8F3
330
1A
100
AcDbEntity
  8
0
  6
Continuous
100
AcDbCircle
 10
-84562.55864270154
 20
-74863.48866791367
 30
0.0
 40
4.0
100
AcDbArc
 50
270.0
 51
0.0
  0
LINE
  5
3D8F4
330
1A
100
AcDbEntity
  8
0
  6
Continuous
100
AcDbLine
 10
-84646.05864270154
 20
-74846.98866791367
 30
0.0
 11
-84633.55864270154
 21
-74846.98866791367
 31
0.0
  0
LINE
  5
3D8F5
330
1A
100
AcDbEntity
  8
0
  6
Continuous
100
AcDbLine
 10
-84633.55864270154
 20
-74846.98866791367
 30
0.0
 11
-84583.55864270153
 21
-74846.98866791367
 31
0.0
  0
LINE
  5
3D8F6
330
1A
100
AcDbEntity
  8
0
  6
Continuous
100
AcDbLine
 10
-84583.55864270153
 20
-74846.98866791367
 30
0.0
 11
-84571.05864270154
 21
-74846.98866791367
 31
0.0
  0
LINE
  5
3D8F7
330
1A
100
AcDbEntity
  8
0
  6
Continuous
100
AcDbLine
 10
-84646.05864270154
 20
-74861.98866791367
 30
0.0
 11
-84633.55864270154
 21
-74861.98866791367
 31
0.0
  0
LINE
  5
3D8F8
330
1A
100
AcDbEntity
  8
0
  6
Continuous
100
AcDbLine
 10
-84633.55864270154
 20
-74861.98866791367
 30
0.0
 11
-84583.55864270153
 21
-74861.98866791367
 31
0.0
  0
LINE
  5
3D8F9
330
1A
100
AcDbEntity
  8
0
  6
Continuous
100
AcDbLine
 10
-84583.55864270153
 20
-74861.98866791367
 30
0.0
 11
-84571.05864270154
 21
-74861.98866791367
 31
0.0
  0
LINE
  5
3D8FA
330
1A
100
AcDbEntity
  8
0
  6
Continuous
100
AcDbLine
 10
-84633.55864270154
 20
-74835.98866791369
 30
0.0
 11
-84633.55864270154
 21
-74846.98866791367
 31
0.0
  0
LINE
  5
3D8FB
330
1A
100
AcDbEntity
  8
0
  6
Continuous
100
AcDbLine
 10
-84633.55864270154
 20
-74861.98866791367
 30
0.0
 11
-84633.55864270154
 21
-74863.48866791367
 31
0.0
  0
LINE
  5
3D8FC
330
1A
100
AcDbEntity
  8
0
  6
Continuous
100
AcDbLine
 10
-84583.55864270153
 20
-74835.98866791369
 30
0.0
 11
-84583.55864270153
 21
-74846.98866791367
 31
0.0
  0
LINE
  5
3D8FD
330
1A
100
AcDbEntity
  8
0
  6
Continuous
100
AcDbLine
 10
-84583.55864270153
 20
-74861.98866791367
 30
0.0
 11
-84583.55864270153
 21
-74863.48866791367
 31
0.0
  0
LINE
  5
3D8FE
330
1A
100
AcDbEntity
  8
0
  6
Continuous
100
AcDbLine
 10
-84558.55864270152
 20
-74835.98866791369
 30
0.0
 11
-84558.55864270152
 21
-74854.48866791367
 31
0.0
  0
LINE
  5
3D8FF
330
1A
100
AcDbEntity
  8
0
  6
Continuous
100
AcDbLine
 10
-84558.55864270152
 20
-74854.48866791367
 30
0.0
 11
-84558.55864270152
 21
-74863.48866791367
 31
0.0
  0
LINE
  5
3D900
330
1A
100
AcDbEntity
  8
0
  6
Continuous
100
AcDbLine
 10
-84658.55864270151
 20
-74835.98866791369
 30
0.0
 11
-84658.55864270151
 21
-74854.48866791367
 31
0.0
  0
LINE
  5
3D901
330
1A
100
AcDbEntity
  8
0
  6
Continuous
100
AcDbLine
 10
-84658.55864270151
 20
-74854.48866791367
 30
0.0
 11
-84658.55864270151
 21
-74863.48866791367
 31
0.0
  0
ARC
  5
3D902
330
1A
100
AcDbEntity
  8
0
  6
Continuous
100
AcDbCircle
 10
-84646.05864270154
 20
-74854.48866791367
 30
0.0
 40
7.5
100
AcDbArc
 50
90.0
 51
180.0
  0
ARC
  5
3D903
330
1A
100
AcDbEntity
  8
0
  6
Continuous
100
AcDbCircle
 10
-84646.05864270154
 20
-74854.48866791367
 30
0.0
 40
7.5
100
AcDbArc
 50
180.0
 51
270.0
  0
ARC
  5
3D904
330
1A
100
AcDbEntity
  8
0
  6
Continuous
100
AcDbCircle
 10
-84571.05864270154
 20
-74854.48866791367
 30
0.0
 40
7.5
100
AcDbArc
 50
0.0
 51
90.0
  0
ARC
  5
3D905
330
1A
100
AcDbEntity
  8
0
  6
Continuous
100
AcDbCircle
 10
-84571.05864270154
 20
-74854.48866791367
 30
0.0
 40
7.5
100
AcDbArc
 50
270.0
 51
0.0
  0
CIRCLE
  5
3D906
330
1A
100
AcDbEntity
  8
0
  6
Continuous
100
AcDbCircle
 10
-84646.05864270154
 20
-74889.48866791369
 30
0.0
 40
7.5
  0
LINE
  5
3D907
330
1A
100
AcDbEntity
  8
0
  6
Continuous
100
AcDbLine
 10
-84653.55864270154
 20
-74867.48866791367
 30
0.0
 11
-84653.55864270154
 21
-74889.48866791369
 31
0.0
  0
LINE
  5
3D908
330
1A
100
AcDbEntity
  8
0
  6
Continuous
100
AcDbLine
 10
-84638.55864270154
 20
-74867.48866791367
 30
0.0
 11
-84638.55864270154
 21
-74889.48866791369
 31
0.0
  0
CIRCLE
  5
3D909
330
1A
100
AcDbEntity
  8
0
  6
Continuous
100
AcDbCircle
 10
-84571.05864270154
 20
-74889.48866791369
 30
0.0
 40
7.5
  0
LINE
  5
3D90A
330
1A
100
AcDbEntity
  8
0
  6
Continuous
100
AcDbLine
 10
-84578.55864270154
 20
-74867.48866791367
 30
0.0
 11
-84578.55864270154
 21
-74889.48866791369
 31
0.0
  0
LINE
  5
3D90B
330
1A
100
AcDbEntity
  8
0
  6
Continuous
100
AcDbLine
 10
-84563.55864270154
 20
-74867.48866791367
 30
0.0
 11
-84563.55864270154
 21
-74889.48866791369
 31
0.0
  0
LWPOLYLINE
  5
3D956
330
1A
100
AcDbEntity
  8
0
  6
Continuous
100
AcDbPolyline
 90
       10
 70
     0
 43
0.0
 10
-84638.55864270154
 20
-74495.94247501567
 42
0.1508402061
 10
-84639.01094744151
 20
-74494.57439444238
 42
0.1017902695
 10
-84640.31330824274
 20
-74493.37132457698
 42
0.0669698264
 10
-84642.30864117174
 20
-74492.47837340058
 42
0.0512803268
 10
-84644.75627962944
 20
-74492.00324400369
 42
0.0469170263
 10
-84647.36100229444
 20
-74492.00324400369
 42
0.0512803096
 10
-84649.80864117174
 20
-74492.47837340058
 42
0.0669697818
 10
-84651.80397488952
 20
-74493.37132457698
 42
0.1017901815
 10
-84653.10633675333
 20
-74494.57439444238
 42
0.1498814421
 10
-84653.55864270154
 20
-74495.94247501567
  0
LWPOLYLINE
  5
3D957
330
1A
100
AcDbEntity
  8
0
  6
Continuous
100
AcDbPolyline
 90
       10
 70
     0
 43
0.0
 10
-84563.55864270154
 20
-74495.94247501567
 42
0.1508402085
 10
-84564.01094740124
 20
-74494.57439444238
 42
0.1017902724
 10
-84565.31330816702
 20
-74493.37132457698
 42
0.0669698279
 10
-84567.30864106974
 20
-74492.47837340058
 42
0.0512803274
 10
-84569.75627951344
 20
-74492.00324400369
 42
0.0469170263
 10
-84572.36100217844
 20
-74492.00324400369
 42
0.051280309
 10
-84574.80864106974
 20
-74492.47837340058
 42
0.0669697803
 10
-84576.80397481384
 20
-74493.37132457698
 42
0.1017901786
 10
-84578.10633671304
 20
-74494.57439444238
 42
0.1498814397
 10
-84578.55864270154
 20
-74495.94247501567
  0
LINE
  5
3D958
330
1A
100
AcDbEntity
  8
0
  6
Continuous
100
AcDbLine
 10
-84640.47755867584
 20
-74495.94247436029
 30
0.0000000000000036
 11
-84652.23822920014
 21
-74495.94247436029
 31
0.0000000000000036
  0
LINE
  5
3D959
330
1A
100
AcDbEntity
  8
0
  6
Continuous
100
AcDbLine
 10
-84565.47755867584
 20
-74495.94247436029
 30
0.0000000000000036
 11
-84577.23822920014
 21
-74495.94247436029
 31
0.0000000000000036
  0
LWPOLYLINE
  5
3D95A
330
1A
100
AcDbEntity
  8
0
  6
Continuous
100
AcDbPolyline
 90
       10
 70
     0
 43
0.0
 10
-84488.55864270154
 20
-74495.91255823262
 42
0.1508402061
 10
-84489.01094744154
 20
-74494.54447765932
 42
0.1017902695
 10
-84490.31330824274
 20
-74493.34140779392
 42
0.0669698264
 10
-84492.30864117174
 20
-74492.44845661752
 42
0.0512803268
 10
-84494.75627962943
 20
-74491.97332722062
 42
0.0469170263
 10
-84497.36100229442
 20
-74491.97332722062
 42
0.0512803096
 10
-84499.80864117174
 20
-74492.44845661752
 42
0.0669697818
 10
-84501.80397488955
 20
-74493.34140779392
 42
0.1017901815
 10
-84503.10633675334
 20
-74494.54447765932
 42
0.1498814421
 10
-84503.55864270154
 20
-74495.91255823262
  0
LWPOLYLINE
  5
3D95B
330
1A
100
AcDbEntity
  8
0
  6
Continuous
100
AcDbPolyline
 90
       10
 70
     0
 43
0.0
 10
-84413.55864270152
 20
-74495.91255823262
 42
0.1508402085
 10
-84414.01094740124
 20
-74494.54447765932
 42
0.1017902724
 10
-84415.31330816705
 20
-74493.34140779392
 42
0.0669698279
 10
-84417.30864106974
 20
-74492.44845661752
 42
0.0512803274
 10
-84419.75627951345
 20
-74491.97332722062
 42
0.0469170263
 10
-84422.36100217844
 20
-74491.97332722062
 42
0.051280309
 10
-84424.80864106974
 20
-74492.44845661752
 42
0.0669697803
 10
-84426.80397481382
 20
-74493.34140779392
 42
0.1017901786
 10
-84428.10633671305
 20
-74494.54447765932
 42
0.1498814397
 10
-84428.55864270152
 20
-74495.91255823262
  0
LINE
  5
3D95C
330
1A
100
AcDbEntity
  8
0
  6
Continuous
100
AcDbLine
 10
-84490.47755867582
 20
-74495.91255757724
 30
0.0
 11
-84502.23822920014
 21
-74495.91255757724
 31
0.0
  0
LINE
  5
3D95D
330
1A
100
AcDbEntity
  8
0
  6
Continuous
100
AcDbLine
 10
-84415.47755867581
 20
-74495.91255757724
 30
0.0
 11
-84427.23822920013
 21
-74495.91255757724
 31
0.0
  0
LWPOLYLINE
  5
3D95E
330
1A
100
AcDbEntity
  8
0
  6
Continuous
100
AcDbPolyline
 90
       10
 70
     0
 43
0.0
 10
-84338.55864270151
 20
-74495.91255823262
 42
0.1508402061
 10
-84339.01094744154
 20
-74494.54447765932
 42
0.1017902695
 10
-84340.31330824272
 20
-74493.34140779392
 42
0.0669698264
 10
-84342.30864117171
 20
-74492.44845661752
 42
0.0512803268
 10
-84344.75627962944
 20
-74491.97332722062
 42
0.0469170263
 10
-84347.36100229441
 20
-74491.97332722062
 42
0.0512803096
 10
-84349.80864117171
 20
-74492.44845661752
 42
0.0669697818
 10
-84351.80397488954
 20
-74493.34140779392
 42
0.1017901815
 10
-84353.10633675332
 20
-74494.54447765932
 42
0.1498814421
 10
-84353.55864270151
 20
-74495.91255823262
  0
LWPOLYLINE
  5
3D95F
330
1A
100
AcDbEntity
  8
0
  6
Continuous
100
AcDbPolyline
 90
       10
 70
     0
 43
0.0
 10
-84263.55864270153
 20
-74495.91255823262
 42
0.1508402085
 10
-84264.01094740125
 20
-74494.54447765932
 42
0.1017902724
 10
-84265.31330816704
 20
-74493.34140779392
 42
0.0669698279
 10
-84267.30864106975
 20
-74492.44845661752
 42
0.0512803274
 10
-84269.75627951344
 20
-74491.97332722062
 42
0.0469170263
 10
-84272.36100217845
 20
-74491.97332722062
 42
0.051280309
 10
-84274.80864106975
 20
-74492.44845661752
 42
0.0669697803
 10
-84276.80397481385
 20
-74493.34140779392
 42
0.1017901786
 10
-84278.10633671304
 20
-74494.54447765932
 42
0.1498814397
 10
-84278.55864270153
 20
-74495.91255823262
  0
LINE
  5
3D960
330
1A
100
AcDbEntity
  8
0
  6
Continuous
100
AcDbLine
 10
-84340.47755867581
 20
-74495.91255757724
 30
0.0
 11
-84352.23822920015
 21
-74495.91255757724
 31
0.0
  0
LINE
  5
3D961
330
1A
100
AcDbEntity
  8
0
  6
Continuous
100
AcDbLine
 10
-84265.47755867582
 20
-74495.91255757724
 30
0.0
 11
-84277.23822920015
 21
-74495.91255757724
 31
0.0
  0
LWPOLYLINE
  5
3D962
330
1A
100
AcDbEntity
  8
0
  6
Continuous
100
AcDbPolyline
 90
       10
 70
     0
 43
0.0
 10
-84188.55864270154
 20
-74495.91255823262
 42
0.1508402061
 10
-84189.01094744152
 20
-74494.54447765932
 42
0.1017902695
 10
-84190.31330824275
 20
-74493.34140779392
 42
0.0669698264
 10
-84192.30864117174
 20
-74492.44845661752
 42
0.0512803268
 10
-84194.75627962944
 20
-74491.97332722062
 42
0.0469170263
 10
-84197.36100229444
 20
-74491.97332722062
 42
0.0512803096
 10
-84199.80864117174
 20
-74492.44845661752
 42
0.0669697818
 10
-84201.80397488952
 20
-74493.34140779392
 42
0.1017901815
 10
-84203.10633675333
 20
-74494.54447765932
 42
0.1498814421
 10
-84203.55864270154
 20
-74495.91255823262
  0
LWPOLYLINE
  5
3D963
330
1A
100
AcDbEntity
  8
0
  6
Continuous
100
AcDbPolyline
 90
       10
 70
     0
 43
0.0
 10
-84113.55864270154
 20
-74495.91255823262
 42
0.1508402085
 10
-84114.01094740124
 20
-74494.54447765932
 42
0.1017902724
 10
-84115.31330816702
 20
-74493.34140779392
 42
0.0669698279
 10
-84117.30864106974
 20
-74492.44845661752
 42
0.0512803274
 10
-84119.75627951344
 20
-74491.97332722062
 42
0.0469170263
 10
-84122.36100217844
 20
-74491.97332722062
 42
0.051280309
 10
-84124.80864106974
 20
-74492.44845661752
 42
0.0669697803
 10
-84126.80397481384
 20
-74493.34140779392
 42
0.1017901786
 10
-84128.10633671304
 20
-74494.54447765932
 42
0.1498814397
 10
-84128.55864270154
 20
-74495.91255823262
  0
LINE
  5
3D964
330
1A
100
AcDbEntity
  8
0
  6
Continuous
100
AcDbLine
 10
-84190.47755867584
 20
-74495.91255757724
 30
0.0
 11
-84202.23822920014
 21
-74495.91255757724
 31
0.0
  0
LINE
  5
3D965
330
1A
100
AcDbEntity
  8
0
  6
Continuous
100
AcDbLine
 10
-84115.47755867584
 20
-74495.91255757724
 30
0.0
 11
-84127.23822920014
 21
-74495.91255757724
 31
0.0
  0
LWPOLYLINE
  5
3D977
330
1A
100
AcDbEntity
  8
HEWI
  6
Continuous
100
AcDbPolyline
 90
        3
 70
     0
 43
0.0
 10
-84653.55864270154
 20
-74430.4105864747
 10
-84758.55856989799
 20
-74430.4105864747
 10
-84758.55856989799
 20
-74430.41264615074
  0
LWPOLYLINE
  5
3D978
330
1A
100
AcDbEntity
  8
HEWI
  6
Continuous
100
AcDbPolyline
 90
        2
 70
     0
 43
0.0
 10
-84638.55864270154
 20
-74463.4105864747
 10
-84578.55864270154
 20
-74463.4105864747
  0
LWPOLYLINE
  5
3D979
330
1A
100
AcDbEntity
  8
HEWI
  6
Continuous
100
AcDbPolyline
 90
        2
 70
     0
 43
0.0
 10
-84563.55864270154
 20
-74463.4105864747
 10
-84503.55864270154
 20
-74463.4105864747
  0
LWPOLYLINE
  5
3D97A
330
1A
100
AcDbEntity
  8
HEWI
  6
Continuous
100
AcDbPolyline
 90
        2
 70
     0
 43
0.0
 10
-84578.55864270154
 20
-74430.4105864747
 10
-84638.55864270154
 20
-74430.4105864747
  0
LWPOLYLINE
  5
3D97B
330
1A
100
AcDbEntity
  8
HEWI
  6
Continuous
100
AcDbPolyline
 90
        2
 70
     0
 43
0.0
 10
-84503.55864270154
 20
-74430.4105864747
 10
-84563.55864270154
 20
-74430.4105864747
  0
LWPOLYLINE
  5
3D97C
330
1A
100
AcDbEntity
  8
HEWI
  6
Continuous
100
AcDbPolyline
 90
        2
 70
     0
 43
0.0
 10
-84488.55864270154
 20
-74463.4105864747
 10
-84428.55864270152
 20
-74463.4105864747
  0
LWPOLYLINE
  5
3D97D
330
1A
100
AcDbEntity
  8
HEWI
  6
Continuous
100
AcDbPolyline
 90
        2
 70
     0
 43
0.0
 10
-84413.55864270152
 20
-74463.4105864747
 10
-84353.55864270151
 20
-74463.4105864747
  0
LWPOLYLINE
  5
3D97E
330
1A
100
AcDbEntity
  8
HEWI
  6
Continuous
100
AcDbPolyline
 90
        2
 70
     0
 43
0.0
 10
-84428.55864270152
 20
-74430.4105864747
 10
-84488.55864270154
 20
-74430.4105864747
  0
LWPOLYLINE
  5
3D97F
330
1A
100
AcDbEntity
  8
HEWI
  6
Continuous
100
AcDbPolyline
 90
        2
 70
     0
 43
0.0
 10
-84353.55864270151
 20
-74430.4105864747
 10
-84413.55864270152
 20
-74430.4105864747
  0
LWPOLYLINE
  5
3D980
330
1A
100
AcDbEntity
  8
HEWI
  6
Continuous
100
AcDbPolyline
 90
        2
 70
     0
 43
0.0
 10
-84338.55864270151
 20
-74463.4105864747
 10
-84278.55864270153
 20
-74463.4105864747
  0
LWPOLYLINE
  5
3D981
330
1A
100
AcDbEntity
  8
HEWI
  6
Continuous
100
AcDbPolyline
 90
        2
 70
     0
 43
0.0
 10
-84263.55864270153
 20
-74463.4105864747
 10
-84203.55864270154
 20
-74463.4105864747
  0
LWPOLYLINE
  5
3D982
330
1A
100
AcDbEntity
  8
HEWI
  6
Continuous
100
AcDbPolyline
 90
        2
 70
     0
 43
0.0
 10
-84278.55864270153
 20
-74430.4105864747
 10
-84338.55864270151
 20
-74430.4105864747
  0
LWPOLYLINE
  5
3D983
330
1A
100
AcDbEntity
  8
HEWI
  6
Continuous
100
AcDbPolyline
 90
        2
 70
     0
 43
0.0
 10
-84203.55864270154
 20
-74430.4105864747
 10
-84263.55864270153
 20
-74430.4105864747
  0
LWPOLYLINE
  5
3D984
330
1A
100
AcDbEntity
  8
HEWI
  6
Continuous
100
AcDbPolyline
 90
        2
 70
     0
 43
0.0
 10
-84188.55864270154
 20
-74463.4105864747
 10
-84128.55864270154
 20
-74463.4105864747
  0
LWPOLYLINE
  5
3D985
330
1A
100
AcDbEntity
  8
HEWI
  6
Continuous
100
AcDbPolyline
 90
        2
 70
     0
 43
0.0
 10
-84113.55864270154
 20
-74463.4105864747
 10
-84005.39787377214
 20
-74463.4105864747
  0
LWPOLYLINE
  5
3D986
330
1A
100
AcDbEntity
  8
HEWI
  6
Continuous
100
AcDbPolyline
 90
        2
 70
     0
 43
0.0
 10
-84128.55864270154
 20
-74430.4105864747
 10
-84188.55864270154
 20
-74430.4105864747
  0
VIEWPORT
  5
22
102
{ACAD_XDICTIONARY
360
3D98A
102
}
330
17
100
AcDbEntity
 67
     1
  8
0
100
AcDbViewport
 10
133.8392908158706
 20
158.0978495602885
 30
0.0
 40
568.6593710217959
 41
315.7152190709725
 68
     1
 69
     1
 12
133.8392908158706
 22
158.0978495602885
 13
0.0
 23
0.0
 14
1.0
 24
1.0
 15
10.0
 25
10.0
 16
0.0
 26
0.0
 36
1.0
 17
0.0
 27
0.0
 37
0.0
 42
50.0
 43
0.0
 44
0.0
 45
315.7152190709725
 50
0.0
 51
0.0
 72
   100
 90
    32800
  1

281
     0
 71
     1
 74
     0
110
0.0
120
0.0
130
0.0
111
1.0
121
0.0
131
0.0
112
0.0
122
1.0
132
0.0
 79
     0
146
0.0
  0
ENDSEC
  0
SECTION
  2
OBJECTS
  0
DICTIONARY
  5
C
330
0
100
AcDbDictionary
281
     1
  3
ACAD_2007HEADERVARS_RT
350
3D988
  3
ACAD_COLOR
350
39BFD
  3
ACAD_GROUP
350
D
  3
ACAD_LAYOUT
350
39BF3
  3
ACAD_MATERIAL
350
39BFC
  3
ACAD_MLINESTYLE
350
E
  3
ACAD_PLOTSETTINGS
350
39BF4
  3
ACAD_PLOTSTYLENAME
350
39BF1
  3
ACAD_TABLESTYLE
350
39C2F
  3
ACAD_VISUALSTYLE
350
39C1E
  3
ACDBVARIABLEDICTIONARY
350
210D7
  3
DWGPROPS
350
3D987
  0
DICTIONARY
  5
39C3D
330
2
100
AcDbDictionary
280
     1
281
     1
  3
ACAD_LAYERFILTERS
360
3A6E6
  3
ACAD_LAYERSTATES
360
39C3E
  3
ACLYDICTIONARY
360
3A6E5
  0
DICTIONARY
  5
3B151
330
1A
100
AcDbDictionary
280
     1
281
     1
  3
ACAD_SORTENTS
360
3B152
  0
DICTIONARY
  5
3D98A
330
22
100
AcDbDictionary
280
     1
281
     1
  3
ACAD_XREC_ROUNDTRIP
360
3D98B
  0
DICTIONARY
  5
3D988
102
{ACAD_REACTORS
330
C
102
}
330
C
100
AcDbDictionary
281
     1
  3
DIMJOGANG
350
3D989
  0
DICTIONARY
  5
39BFD
102
{ACAD_REACTORS
330
C
102
}
330
C
100
AcDbDictionary
281
     1
  0
DICTIONARY
  5
D
102
{ACAD_REACTORS
330
C
102
}
330
C
100
AcDbDictionary
281
     1
  0
DICTIONARY
  5
39BF3
102
{ACAD_REACTORS
330
C
102
}
330
C
100
AcDbDictionary
281
     1
  3
Layout1
350
39BF6
  3
Model
350
39BF5
  0
DICTIONARY
  5
39BFC
102
{ACAD_REACTORS
330
C
102
}
330
C
100
AcDbDictionary
281
     1
  3
ByBlock
350
39C1C
  3
ByLayer
350
39C1B
  3
Global
350
39C1D
  0
DICTIONARY
  5
E
102
{ACAD_REACTORS
330
C
102
}
330
C
100
AcDbDictionary
281
     1
  3
STANDARD
350
13
  0
DICTIONARY
  5
39BF4
102
{ACAD_REACTORS
330
C
102
}
330
C
100
AcDbDictionary
281
     1
  0
ACDBDICTIONARYWDFLT
  5
39BF1
102
{ACAD_REACTORS
330
C
102
}
330
C
100
AcDbDictionary
281
     1
  3
Normal
350
39BF2
100
AcDbDictionaryWithDefault
340
39BF2
  0
DICTIONARY
  5
39C2F
102
{ACAD_REACTORS
330
C
102
}
330
C
100
AcDbDictionary
281
     1
  3
Standard
350
39C30
  0
DICTIONARY
  5
39C1E
102
{ACAD_REACTORS
330
C
102
}
330
C
100
AcDbDictionary
281
     1
  3
2dWireframe
350
39C24
  3
3D Hidden
350
39C26
  3
3dWireframe
350
39C25
  3
Basic
350
39C23
  3
Brighten
350
39C2A
  3
ColorChange
350
39C2E
  3
Conceptual
350
39C27
  3
Dim
350
39C29
  3
Facepattern
350
39C2D
  3
Flat
350
39C1F
  3
FlatWithEdges
350
39C20
  3
Gouraud
350
39C21
  3
GouraudWithEdges
350
39C22
  3
Linepattern
350
39C2C
  3
Realistic
350
39C28
  3
Thicken
350
39C2B
  0
DICTIONARY
  5
210D7
102
{ACAD_REACTORS
330
C
102
}
330
C
100
AcDbDictionary
281
     1
  3
CTABLESTYLE
350
39C39
  3
DIMASSOC
350
3BD64
  3
INDEXCTL
350
3BD63
  3
SORTENTS
350
210D8
  0
XRECORD
  5
3D987
102
{ACAD_REACTORS
330
C
102
}
330
C
100
AcDbXrecord
280
     1
  1
DWGPROPS COOKIE
  2

  3

  4

  6

  7

  8
kaschu
  9

300
=
301
=
302
=
303
=
304
=
305
=
306
=
307
=
308
=
309
=
 40
0.8203954282407407
 41
2450382.434570139
 42
2456437.579994838
  1

 90
        0
  0
DICTIONARY
  5
3A6E6
102
{ACAD_REACTORS
330
39C3D
102
}
330
39C3D
100
AcDbDictionary
281
     1
  0
DICTIONARY
  5
39C3E
102
{ACAD_REACTORS
330
39C3D
102
}
330
39C3D
100
AcDbDictionary
281
     1
  0
DICTIONARY
  5
3A6E5
102
{ACAD_REACTORS
330
39C3D
102
}
330
39C3D
100
AcDbDictionary
281
     1
1001
ACAD
1000
<All
  0
SORTENTSTABLE
  5
3B152
102
{ACAD_REACTORS
330
3B151
102
}
330
3B151
100
AcDbSortentsTable
330
1A
331
3D66E
  5
3D69B
331
3D513
  5
3D513
331
3D5AA
  5
3D5CE
331
3D51B
  5
3D51B
331
3D88C
  5
3D89C
331
3D855
  5
3D865
331
3D523
  5
3D523
331
3D5C2
  5
3D5D6
331
3D894
  5
3D8B3
331
3D52B
  5
3D52C
331
3D8FC
  5
3D956
331
3D8BD
  5
3D8CD
331
3D68E
  5
3D6A5
331
3D5E7
  5
3D5FB
331
3D904
  5
3D95E
331
3D8C5
  5
3D8D5
331
3D696
  5
3D6AB
331
3D5EF
  5
3D603
331
3D8CD
  5
3D8DD
331
3D97A
  5
3D5C7
331
3D69E
  5
3D6B3
331
3D5F7
  5
3D60B
331
3D8D5
  5
3D8E5
331
3D982
  5
3D5C3
331
3D6A6
  5
3D6BB
331
3D5FF
  5
3D613
331
3D5CA
  5
3D5DF
331
3D89C
  5
3D8BB
331
3D85D
  5
3D86F
331
3D533
  5
3D534
331
3D5D2
  5
3D5E7
331
3D8AC
  5
3D8BE
331
3D865
  5
3D888
331
3D53B
  5
3D53C
331
3D5DA
  5
3D5EE
331
3D8B4
  5
3D8C4
331
3D86D
  5
3D88E
331
3D543
  5
3D544
331
3D95C
  5
3D97D
331
3D8DD
  5
3D8ED
331
3D6AE
  5
3D859
331
3D607
  5
3D68D
331
3D964
  5
3D985
331
3D8E5
  5
3D8F5
331
3D6B6
  5
3D861
331
3D60F
  5
3D695
331
3D8ED
  5
3D8FD
331
3D8F5
  5
3D905
331
3D687
  5
3D69E
331
3D514
  5
3D514
331
3D5AB
  5
3D5CF
331
3D885
  5
3D895
331
3D51C
  5
3D51C
331
3D88D
  5
3D8A8
331
3D856
  5
3D866
331
3D5C3
  5
3D5D7
331
3D895
  5
3D8B4
331
3D52C
  5
3D52D
331
3D5E0
  5
3D5F4
331
3D8FD
  5
3D957
331
3D8BE
  5
3D8CE
331
3D68F
  5
3D6A6
331
3D5E8
  5
3D5FC
331
3D905
  5
3D95F
331
3D8C6
  5
3D8D6
331
3D697
  5
3D6AC
331
3D5F0
  5
3D604
331
3D8CE
  5
3D8DE
331
3D97B
  5
3D5C6
331
3D69F
  5
3D6B4
331
3D5F8
  5
3D60C
331
3D8D6
  5
3D8E6
331
3D983
  5
3D5C2
331
3D6A7
  5
3D6BC
331
3D5CB
  5
3D5E0
331
3D85E
  5
3D870
331
3D534
  5
3D535
331
3D5D3
  5
3D5E8
331
3D8AD
  5
3D8BF
331
3D866
  5
3D889
331
3D53C
  5
3D53D
331
3D5DB
  5
3D5EF
331
3D8B5
  5
3D8C5
331
3D86E
  5
3D88F
331
3D544
  5
3D545
331
3D600
  5
3D614
331
3D95D
  5
3D97E
331
3D8DE
  5
3D8EE
331
3D6AF
  5
3D85A
331
3D608
  5
3D68E
331
3D965
  5
3D986
331
3D8E6
  5
3D8F6
331
3D6B7
  5
3D862
331
3D610
  5
3D697
331
3D8EE
  5
3D8FE
331
3D8F6
  5
3D906
331
3D59C
  5
3D5C9
331
3D515
  5
3D515
331
3D5AC
  5
3D5D0
331
3D886
  5
3D896
331
3D51D
  5
3D51D
331
3D88E
  5
3D8AA
331
3D857
  5
3D867
331
3D5C4
  5
3D5D8
331
3D896
  5
3D8B5
331
3D52D
  5
3D52E
331
3D688
  5
3D69F
331
3D5E1
  5
3D5F5
331
3D8FE
  5
3D958
331
3D8BF
  5
3D8CF
331
3D690
  5
3D6A7
331
3D5E9
  5
3D5FD
331
3D906
  5
3D960
331
3D8C7
  5
3D8D7
331
3D698
  5
3D6AD
331
3D5F1
  5
3D605
331
3D8CF
  5
3D8DF
331
3D6A0
  5
3D6B5
331
3D5F9
  5
3D60D
331
3D97C
  5
3D54E
331
3D956
  5
3D977
331
3D8D7
  5
3D8E7
331
3D984
  5
3D5A3
331
3D5CC
  5
3D5E1
331
3D85F
  5
3D871
331
3D535
  5
3D536
331
3D5D4
  5
3D5E9
331
3D867
  5
3D88A
331
3D53D
  5
3D53E
331
3D5DC
  5
3D5F0
331
3D8B6
  5
3D8C6
331
3D86F
  5
3D890
331
3D545
  5
3D546
331
3D6A8
  5
3D853
331
3D601
  5
3D615
331
3D95E
  5
3D97F
331
3D8DF
  5
3D8EF
331
3D6B0
  5
3D85B
331
3D609
  5
3D68F
331
3D8E7
  5
3D8F7
331
3D611
  5
3D699
331
3D8EF
  5
3D8FF
331
3D8F7
  5
3D907
331
3D59D
  5
3D5CA
331
3D87F
  5
3D893
331
3D516
  5
3D516
331
3D887
  5
3D897
331
3D51E
  5
3D51E
331
3D5BD
  5
3D5D1
331
3D88F
  5
3D8AC
331
3D526
  5
3D527
331
3D5C5
  5
3D5D9
331
3D897
  5
3D8B6
331
3D52E
  5
3D52F
331
3D8B8
  5
3D8C8
331
3D689
  5
3D6A0
331
3D5E2
  5
3D5F6
331
3D8FF
  5
3D959
331
3D8C0
  5
3D8D0
331
3D5EA
  5
3D5FE
331
3D907
  5
3D961
331
3D8C8
  5
3D8D8
331
3D699
  5
3D6AE
331
3D5F2
  5
3D606
331
3D8D0
  5
3D8E0
331
3D6A1
  5
3D6B6
331
3D5FA
  5
3D60E
331
3D97D
  5
3D5A0
331
3D957
  5
3D978
331
3D985
  5
3D5AD
331
3D858
  5
3D868
331
3D5CD
  5
3D5E2
331
3D860
  5
3D87F
331
3D536
  5
3D537
331
3D5D5
  5
3D5EA
331
3D8AF
  5
3D8C0
331
3D868
  5
3D88B
331
3D53E
  5
3D53F
331
3D5DD
  5
3D5F1
331
3D8B7
  5
3D8C7
331
3D870
  5
3D891
331
3D546
  5
3D547
331
3D8D8
  5
3D8E8
331
3D6A9
  5
3D854
331
3D602
  5
3D616
331
3D95F
  5
3D980
331
3D8E0
  5
3D8F0
331
3D6B1
  5
3D85C
331
3D60A
  5
3D690
331
3D8E8
  5
3D8F8
331
3D612
  5
3D69A
331
3D6B9
  5
3D5AF
331
3D8F0
  5
3D900
331
3D977
  5
3D5C8
331
3D59E
  5
3D5CB
331
3D880
  5
3D894
331
3D517
  5
3D517
331
3D888
  5
3D898
331
3D51F
  5
3D51F
331
3D5BE
  5
3D5D2
331
3D890
  5
3D8AD
331
3D527
  5
3D528
331
3D5C6
  5
3D5DB
331
3D52F
  5
3D530
331
3D8F8
  5
3D908
331
3D8B9
  5
3D8C9
331
3D68A
  5
3D6A1
331
3D5E3
  5
3D5F7
331
3D900
  5
3D95A
331
3D8C1
  5
3D8D1
331
3D692
  5
3D6A8
331
3D5EB
  5
3D5FF
331
3D908
  5
3D962
331
3D8C9
  5
3D8D9
331
3D69A
  5
3D6AF
331
3D5F3
  5
3D607
331
3D8D1
  5
3D8E1
331
3D97E
  5
3D5C5
331
3D6A2
  5
3D6B7
331
3D5FB
  5
3D60F
331
3D986
  5
3D5C1
331
3D898
  5
3D8B7
331
3D859
  5
3D86B
331
3D5CE
  5
3D5E3
331
3D8A8
  5
3D8BC
331
3D861
  5
3D880
331
3D537
  5
3D538
331
3D53F
  5
3D540
331
3D5DE
  5
3D5F2
331
3D871
  5
3D892
331
3D547
  5
3D548
331
3D958
  5
3D979
331
3D8D9
  5
3D8E9
331
3D6AA
  5
3D855
331
3D603
  5
3D687
331
3D960
  5
3D981
331
3D8E1
  5
3D8F1
331
3D6B2
  5
3D85D
331
3D60B
  5
3D691
331
3D8E9
  5
3D8F9
331
3D6BA
  5
3D5B0
331
3D8F1
  5
3D901
331
3D59F
  5
3D5CC
331
3D518
  5
3D518
331
3D889
  5
3D899
331
3D5BF
  5
3D5D3
331
3D891
  5
3D8AF
331
3D528
  5
3D529
331
3D5C7
  5
3D5DC
331
3D8F9
  5
3D909
331
3D8BA
  5
3D8CA
331
3D68B
  5
3D6A2
331
3D5E4
  5
3D5F8
331
3D901
  5
3D95B
331
3D8C2
  5
3D8D2
331
3D5EC
  5
3D600
331
3D909
  5
3D963
331
3D8CA
  5
3D8DA
331
3D69B
  5
3D6B0
331
3D5F4
  5
3D608
331
3D8D2
  5
3D8E2
331
3D97F
  5
3D5C4
331
3D6A3
  5
3D6B8
331
3D5FC
  5
3D610
331
3D899
  5
3D8B8
331
3D85A
  5
3D86C
331
3D530
  5
3D531
331
3D5CF
  5
3D5E4
331
3D862
  5
3D885
331
3D538
  5
3D539
331
3D5D7
  5
3D5EB
331
3D8B1
  5
3D8C1
331
3D540
  5
3D541
331
3D5DF
  5
3D5F3
331
3D548
  5
3D549
331
3D959
  5
3D97A
331
3D8DA
  5
3D8EA
331
3D6AB
  5
3D856
331
3D604
  5
3D68A
331
3D961
  5
3D982
331
3D8E2
  5
3D8F2
331
3D6B3
  5
3D85E
331
3D60C
  5
3D692
331
3D8EA
  5
3D8FA
331
3D6BB
  5
3D5AE
331
3D8F2
  5
3D902
331
3D519
  5
3D519
331
3D88A
  5
3D89A
331
3D853
  5
3D863
331
3D5C0
  5
3D5D4
331
3D892
  5
3D8B1
331
3D529
  5
3D52A
331
3D8FA
  5
3D90A
331
3D8BB
  5
3D8CB
331
3D68C
  5
3D6A3
331
3D5E5
  5
3D5F9
331
3D902
  5
3D95C
331
3D8C3
  5
3D8D3
331
3D694
  5
3D6A9
331
3D5ED
  5
3D601
331
3D90A
  5
3D964
331
3D8CB
  5
3D8DB
331
3D69C
  5
3D6B1
331
3D5F5
  5
3D609
331
3D978
  5
3D54C
331
3D8D3
  5
3D8E3
331
3D6A4
  5
3D6B9
331
3D5FD
  5
3D611
331
3D980
  5
3D5A1
331
3D5C8
  5
3D5DD
331
3D89A
  5
3D8B9
331
3D85B
  5
3D86D
331
3D531
  5
3D532
331
3D5D0
  5
3D5E5
331
3D8AA
  5
3D8BD
331
3D863
  5
3D886
331
3D539
  5
3D53A
331
3D5D8
  5
3D5EC
331
3D8B2
  5
3D8C2
331
3D86B
  5
3D88C
331
3D541
  5
3D542
331
3D549
  5
3D54A
331
3D95A
  5
3D97B
331
3D8DB
  5
3D8EB
331
3D6AC
  5
3D857
331
3D605
  5
3D68B
331
3D962
  5
3D983
331
3D8E3
  5
3D8F3
331
3D6B4
  5
3D85F
331
3D60D
  5
3D693
331
3D8EB
  5
3D8FB
331
3D6BC
  5
3D525
331
3D8F3
  5
3D903
331
3D685
  5
3D69C
331
3D5A9
  5
3D5CD
331
3D51A
  5
3D51A
331
3D88B
  5
3D89B
331
3D854
  5
3D864
331
3D522
  5
3D522
331
3D5C1
  5
3D5D5
331
3D893
  5
3D8B2
331
3D52A
  5
3D52B
331
3D8FB
  5
3D90B
331
3D8BC
  5
3D8CC
331
3D68D
  5
3D6A4
331
3D5E6
  5
3D5FA
331
3D903
  5
3D95D
331
3D8C4
  5
3D8D4
331
3D695
  5
3D6AA
331
3D5EE
  5
3D602
331
3D90B
  5
3D965
331
3D8CC
  5
3D8DC
331
3D69D
  5
3D6B2
331
3D5F6
  5
3D60A
331
3D979
  5
3D54D
331
3D8D4
  5
3D8E4
331
3D6A5
  5
3D6BA
331
3D5FE
  5
3D612
331
3D981
  5
3D5A2
331
3D5C9
  5
3D5DE
331
3D89B
  5
3D8BA
331
3D85C
  5
3D86E
331
3D532
  5
3D533
331
3D5D1
  5
3D5E6
331
3D864
  5
3D887
331
3D53A
  5
3D53B
331
3D5D9
  5
3D5ED
331
3D8B3
  5
3D8C3
331
3D86C
  5
3D88D
331
3D542
  5
3D543
331
3D54A
  5
3D54B
331
3D95B
  5
3D97C
331
3D8DC
  5
3D8EC
331
3D6AD
  5
3D858
331
3D606
  5
3D68C
331
3D963
  5
3D984
331
3D8E4
  5
3D8F4
331
3D6B5
  5
3D860
331
3D60E
  5
3D694
331
3D8EC
  5
3D8FC
331
3D8F4
  5
3D904
331
3D686
  5
3D69D
  0
XRECORD
  5
3D98B
102
{ACAD_REACTORS
330
3D98A
102
}
330
3D98A
100
AcDbXrecord
280
     1
102
SHADEPLOT
 70
     0
  0
XRECORD
  5
3D989
102
{ACAD_REACTORS
330
3D988
102
}
330
3D988
100
AcDbXrecord
280
     1
 40
1.570796326794896
  0
LAYOUT
  5
39BF6
102
{ACAD_XDICTIONARY
360
39C40
102
}
102
{ACAD_REACTORS
330
39BF3
102
}
330
39BF3
100
AcDbPlotSettings
  1

  2
\\druckserv1\AROABM2L
  4
A4
  6

 40
6.805083274841307
 41
5.069413185119628
 42
6.805084228515625
 43
5.027069091796875
 44
209.9733276367186
 45
296.9683227539062
 46
0.0
 47
0.0
 48
0.0
 49
0.0
140
0.0
141
0.0
142
1.0
143
0.9877294786496324
 70
   688
 72
     1
 73
     0
 74
     1
  7
ctb2004.ctb
 75
     0
147
1.012422957515799
148
-6.623554803105719
149
-1.328897370432399
100
AcDbLayout
  1
Layout1
 70
     1
 71
     1
 10
-0.0980265521206203
 20
-3.678311471965383
 11
207.2988188848241
 21
289.6460551372062
 12
0.0
 22
0.0
 32
0.0
 14
1.000000000000000E+20
 24
1.000000000000000E+20
 34
1.000000000000000E+20
 15
-1.000000000000000E+20
 25
-1.000000000000000E+20
 35
-1.000000000000000E+20
146
0.0
 13
0.0
 23
0.0
 33
0.0
 16
1.0
 26
0.0
 36
0.0
 17
0.0
 27
1.0
 37
0.0
 76
     0
330
17
331
22
  0
LAYOUT
  5
39BF5
102
{ACAD_XDICTIONARY
360
3D98C
102
}
102
{ACAD_REACTORS
330
39BF3
102
}
330
39BF3
100
AcDbPlotSettings
  1

  2
\\PCDRUCK1\AROABM2L
  4

  6

 40
0.0
 41
0.0
 42
0.0
 43
0.0
 44
0.0
 45
0.0
 46
0.0
 47
0.0
 48
0.0
 49
0.0
140
0.0
141
0.0
142
1.0
143
1.0
 70
  1712
 72
     0
 73
     0
 74
     0
  7

 75
     0
147
1.0
148
0.0
149
0.0
100
AcDbLayout
  1
Model
 70
     1
 71
     0
 10
0.0
 20
0.0
 11
12.0
 21
9.0
 12
0.0
 22
0.0
 32
0.0
 14
0.0
 24
0.0
 34
0.0
 15
0.0
 25
0.0
 35
0.0
146
0.0
 13
0.0
 23
0.0
 33
0.0
 16
1.0
 26
0.0
 36
0.0
 17
0.0
 27
1.0
 37
0.0
 76
     0
330
1A
331
39C01
  0
MATERIAL
  5
39C1C
102
{ACAD_XDICTIONARY
360
3BDEF
102
}
102
{ACAD_REACTORS
330
39BFC
102
}
330
39BFC
100
AcDbMaterial
  1
ByBlock
  0
MATERIAL
  5
39C1B
102
{ACAD_XDICTIONARY
360
3BDED
102
}
102
{ACAD_REACTORS
330
39BFC
102
}
330
39BFC
100
AcDbMaterial
  1
ByLayer
  0
MATERIAL
  5
39C1D
102
{ACAD_XDICTIONARY
360
3BDF1
102
}
102
{ACAD_REACTORS
330
39BFC
102
}
330
39BFC
100
AcDbMaterial
  1
Global
  0
MLINESTYLE
  5
13
102
{ACAD_REACTORS
330
E
102
}
330
E
100
AcDbMlineStyle
  2
STANDARD
 70
     0
  3

 62
     0
 51
90.0
 52
90.0
 71
     2
 49
0.5
 62
   256
  6
BYLAYER
 49
-0.5
 62
   256
  6
BYLAYER
  0
ACDBPLACEHOLDER
  5
39BF2
102
{ACAD_REACTORS
330
39BF1
102
}
330
39BF1
  0
TABLESTYLE
  5
39C30
102
{ACAD_XDICTIONARY
360
3D98F
102
}
102
{ACAD_REACTORS
330
39C2F
102
}
330
39C2F
100
AcDbTableStyle
  3
Standard
 70
     0
 71
     0
 40
0.06
 41
0.06
280
     0
281
     0
  7
STANDARD
140
0.18
170
     2
 62
     0
 63
     7
283
     0
274
    -2
284
     1
 64
     0
275
    -2
285
     1
 65
     0
276
    -2
286
     1
 66
     0
277
    -2
287
     1
 67
     0
278
    -2
288
     1
 68
     0
279
    -2
289
     1
 69
     0
  7
STANDARD
140
0.25
170
     5
 62
     0
 63
     7
283
     0
274
    -2
284
     1
 64
     0
275
    -2
285
     1
 65
     0
276
    -2
286
     1
 66
     0
277
    -2
287
     1
 67
     0
278
    -2
288
     1
 68
     0
279
    -2
289
     1
 69
     0
  7
STANDARD
140
0.18
170
     5
 62
     0
 63
     7
283
     0
274
    -2
284
     1
 64
     0
275
    -2
285
     1
 65
     0
276
    -2
286
     1
 66
     0
277
    -2
287
     1
 67
     0
278
    -2
288
     1
 68
     0
279
    -2
289
     1
 69
     0
  0
VISUALSTYLE
  5
39C24
102
{ACAD_REACTORS
330
39C1E
102
}
330
39C1E
100
AcDbVisualStyle
  2
2dWireframe
 70
     4
 71
     0
 72
     2
 73
     0
 90
        0
 40
-0.6
 41
-30.0
 62
     5
 63
     7
 74
     1
 91
        4
 64
     7
 65
   257
 75
     1
175
     1
 42
1.0
 92
        0
 66
   257
 43
1.0
 76
     1
 77
     6
 78
     2
 67
     7
 79
     5
170
     0
171
     0
290
     0
174
     0
 93
        1
 44
0.0
173
     0
291
     0
 45
0.0
1001
ACAD
1000
AcDbSavedByObjectVersion
1070
     0
1000
AcDbSavedByObjectVersion
1070
     0
1000
AcDbSavedByObjectVersion
1070
     0
1000
AcDbSavedByObjectVersion
1070
     0
1000
AcDbSavedByObjectVersion
1070
     0
1000
AcDbSavedByObjectVersion
1070
     0
1000
AcDbSavedByObjectVersion
1070
     0
  0
VISUALSTYLE
  5
39C26
102
{ACAD_REACTORS
330
39C1E
102
}
330
39C1E
100
AcDbVisualStyle
  2
3D Hidden
 70
     6
 71
     1
 72
     2
 73
     2
 90
        0
 40
-0.6
 41
-30.0
 62
     5
 63
     7
 74
     2
 91
        2
 64
     7
 65
   257
 75
     2
175
     1
 42
40.0
 92
        0
 66
   257
 43
1.0
 76
     1
 77
     6
 78
     2
 67
     7
 79
     3
170
     0
171
     0
290
     0
174
     0
 93
        1
 44
0.0
173
     0
291
     0
 45
0.0
1001
ACAD
1000
AcDbSavedByObjectVersion
1070
     0
1000
AcDbSavedByObjectVersion
1070
     0
1000
AcDbSavedByObjectVersion
1070
     0
1000
AcDbSavedByObjectVersion
1070
     0
1000
AcDbSavedByObjectVersion
1070
     0
1000
AcDbSavedByObjectVersion
1070
     0
1000
AcDbSavedByObjectVersion
1070
     0
  0
VISUALSTYLE
  5
39C25
102
{ACAD_REACTORS
330
39C1E
102
}
330
39C1E
100
AcDbVisualStyle
  2
3dWireframe
 70
     5
 71
     0
 72
     2
 73
     0
 90
        0
 40
-0.6
 41
-30.0
 62
     5
 63
     7
 74
     1
 91
        4
 64
     7
 65
   257
 75
     1
175
     1
 42
1.0
 92
        0
 66
   257
 43
1.0
 76
     1
 77
     6
 78
     2
 67
     7
 79
     5
170
     0
171
     0
290
     0
174
     0
 93
        1
 44
0.0
173
     0
291
     0
 45
0.0
1001
ACAD
1000
AcDbSavedByObjectVersion
1070
     0
1000
AcDbSavedByObjectVersion
1070
     0
1000
AcDbSavedByObjectVersion
1070
     0
1000
AcDbSavedByObjectVersion
1070
     0
1000
AcDbSavedByObjectVersion
1070
     0
1000
AcDbSavedByObjectVersion
1070
     0
1000
AcDbSavedByObjectVersion
1070
     0
  0
VISUALSTYLE
  5
39C23
102
{ACAD_REACTORS
330
39C1E
102
}
330
39C1E
100
AcDbVisualStyle
  2
Basic
 70
     7
 71
     1
 72
     0
 73
     1
 90
        0
 40
-0.6
 41
-30.0
 62
     5
 63
     7
 74
     0
 91
        4
 64
     7
 65
   257
 75
     1
175
     1
 42
1.0
 92
        8
 66
     7
 43
1.0
 76
     1
 77
     6
 78
     2
 67
     7
 79
     5
170
     0
171
     0
290
     0
174
     0
 93
        1
 44
0.0
173
     0
291
     1
 45
0.0
1001
ACAD
1000
AcDbSavedByObjectVersion
1070
     0
1000
AcDbSavedByObjectVersion
1070
     0
1000
AcDbSavedByObjectVersion
1070
     0
1000
AcDbSavedByObjectVersion
1070
     0
1000
AcDbSavedByObjectVersion
1070
     0
1000
AcDbSavedByObjectVersion
1070
     0
1000
AcDbSavedByObjectVersion
1070
     0
  0
VISUALSTYLE
  5
39C2A
102
{ACAD_REACTORS
330
39C1E
102
}
330
39C1E
100
AcDbVisualStyle
  2
Brighten
 70
    12
 71
     2
 72
     2
 73
     0
 90
        0
 40
-0.6
 41
-30.0
 62
     5
 63
     7
 74
     1
 91
        4
 64
     7
 65
   257
 75
     1
175
     1
 42
1.0
 92
        8
 66
     7
 43
1.0
 76
     1
 77
     6
 78
     2
 67
     7
 79
     5
170
     0
171
     0
290
     0
174
     0
 93
        1
 44
50.0
173
     0
291
     1
 45
0.0
1001
ACAD
1000
AcDbSavedByObjectVersion
1070
     0
1000
AcDbSavedByObjectVersion
1070
     0
1000
AcDbSavedByObjectVersion
1070
     0
1000
AcDbSavedByObjectVersion
1070
     0
1000
AcDbSavedByObjectVersion
1070
     0
1000
AcDbSavedByObjectVersion
1070
     0
1000
AcDbSavedByObjectVersion
1070
     0
  0
VISUALSTYLE
  5
39C2E
102
{ACAD_REACTORS
330
39C1E
102
}
330
39C1E
100
AcDbVisualStyle
  2
ColorChange
 70
    16
 71
     2
 72
     2
 73
     3
 90
        0
 40
-0.6
 41
-30.0
 62
     5
 63
     8
 74
     1
 91
        4
 64
     7
 65
   257
 75
     1
175
     1
 42
1.0
 92
        8
 66
     8
 43
1.0
 76
     1
 77
     6
 78
     2
 67
     7
 79
     5
170
     0
171
     0
290
     0
174
     0
 93
        1
 44
0.0
173
     0
291
     1
 45
0.0
1001
ACAD
1000
AcDbSavedByObjectVersion
1070
     0
1000
AcDbSavedByObjectVersion
1070
     0
1000
AcDbSavedByObjectVersion
1070
     0
1000
AcDbSavedByObjectVersion
1070
     0
1000
AcDbSavedByObjectVersion
1070
     0
1000
AcDbSavedByObjectVersion
1070
     0
1000
AcDbSavedByObjectVersion
1070
     0
  0
VISUALSTYLE
  5
39C27
102
{ACAD_REACTORS
330
39C1E
102
}
330
39C1E
100
AcDbVisualStyle
  2
Conceptual
 70
     9
 71
     3
 72
     2
 73
     0
 90
        0
 40
-0.6
 41
-30.0
 62
     5
 63
     7
 74
     2
 91
        2
 64
     7
 65
   257
 75
     1
175
     1
 42
40.0
 92
        8
 66
     7
 43
1.0
 76
     1
 77
     6
 78
     2
 67
     7
 79
     3
170
     0
171
     0
290
     0
174
     0
 93
        1
 44
0.0
173
     0
291
     0
 45
0.0
1001
ACAD
1000
AcDbSavedByObjectVersion
1070
     0
1000
AcDbSavedByObjectVersion
1070
     0
1000
AcDbSavedByObjectVersion
1070
     0
1000
AcDbSavedByObjectVersion
1070
     0
1000
AcDbSavedByObjectVersion
1070
     0
1000
AcDbSavedByObjectVersion
1070
     0
1000
AcDbSavedByObjectVersion
1070
     0
  0
VISUALSTYLE
  5
39C29
102
{ACAD_REACTORS
330
39C1E
102
}
330
39C1E
100
AcDbVisualStyle
  2
Dim
 70
    11
 71
     2
 72
     2
 73
     0
 90
        0
 40
-0.6
 41
-30.0
 62
     5
 63
     7
 74
     1
 91
        4
 64
     7
 65
   257
 75
     1
175
     1
 42
1.0
 92
        8
 66
     7
 43
1.0
 76
     1
 77
     6
 78
     2
 67
     7
 79
     5
170
     0
171
     0
290
     0
174
     0
 93
        1
 44
-50.0
173
     0
291
     1
 45
0.0
1001
ACAD
1000
AcDbSavedByObjectVersion
1070
     0
1000
AcDbSavedByObjectVersion
1070
     0
1000
AcDbSavedByObjectVersion
1070
     0
1000
AcDbSavedByObjectVersion
1070
     0
1000
AcDbSavedByObjectVersion
1070
     0
1000
AcDbSavedByObjectVersion
1070
     0
1000
AcDbSavedByObjectVersion
1070
     0
  0
VISUALSTYLE
  5
39C2D
102
{ACAD_REACTORS
330
39C1E
102
}
330
39C1E
100
AcDbVisualStyle
  2
Facepattern
 70
    15
 71
     2
 72
     2
 73
     0
 90
        0
 40
-0.6
 41
-30.0
 62
     5
 63
     7
 74
     1
 91
        4
 64
     7
 65
   257
 75
     1
175
     1
 42
1.0
 92
        8
 66
     7
 43
1.0
 76
     1
 77
     6
 78
     2
 67
     7
 79
     5
170
     0
171
     0
290
     0
174
     0
 93
        1
 44
0.0
173
     0
291
     1
 45
0.0
1001
ACAD
1000
AcDbSavedByObjectVersion
1070
     0
1000
AcDbSavedByObjectVersion
1070
     0
1000
AcDbSavedByObjectVersion
1070
     0
1000
AcDbSavedByObjectVersion
1070
     0
1000
AcDbSavedByObjectVersion
1070
     0
1000
AcDbSavedByObjectVersion
1070
     0
1000
AcDbSavedByObjectVersion
1070
     0
  0
VISUALSTYLE
  5
39C1F
102
{ACAD_REACTORS
330
39C1E
102
}
330
39C1E
100
AcDbVisualStyle
  2
Flat
 70
     0
 71
     2
 72
     1
 73
     1
 90
        2
 40
-0.6
 41
30.0
 62
     5
 63
     7
 74
     0
 91
        4
 64
     7
 65
   257
 75
     1
175
     1
 42
1.0
 92
        8
 66
     7
 43
1.0
 76
     1
 77
     6
 78
     2
 67
     7
 79
     5
170
     0
171
     0
290
     0
174
     0
 93
       13
 44
0.0
173
     0
291
     1
 45
0.0
1001
ACAD
1000
AcDbSavedByObjectVersion
1070
     0
1000
AcDbSavedByObjectVersion
1070
     0
1000
AcDbSavedByObjectVersion
1070
     0
1000
AcDbSavedByObjectVersion
1070
     0
1000
AcDbSavedByObjectVersion
1070
     0
1000
AcDbSavedByObjectVersion
1070
     0
1000
AcDbSavedByObjectVersion
1070
     0
  0
VISUALSTYLE
  5
39C20
102
{ACAD_REACTORS
330
39C1E
102
}
330
39C1E
100
AcDbVisualStyle
  2
FlatWithEdges
 70
     1
 71
     2
 72
     1
 73
     1
 90
        2
 40
-0.6
 41
30.0
 62
     5
 63
     7
 74
     1
 91
        4
 64
     7
 65
   257
 75
     1
175
     1
 42
1.0
 92
        0
 66
   257
 43
1.0
 76
     1
 77
     6
 78
     2
 67
     7
 79
     5
170
     0
171
     0
290
     0
174
     0
 93
       13
 44
0.0
173
     0
291
     1
 45
0.0
1001
ACAD
1000
AcDbSavedByObjectVersion
1070
     0
1000
AcDbSavedByObjectVersion
1070
     0
1000
AcDbSavedByObjectVersion
1070
     0
1000
AcDbSavedByObjectVersion
1070
     0
1000
AcDbSavedByObjectVersion
1070
     0
1000
AcDbSavedByObjectVersion
1070
     0
1000
AcDbSavedByObjectVersion
1070
     0
  0
VISUALSTYLE
  5
39C21
102
{ACAD_REACTORS
330
39C1E
102
}
330
39C1E
100
AcDbVisualStyle
  2
Gouraud
 70
     2
 71
     2
 72
     2
 73
     1
 90
        2
 40
-0.6
 41
30.0
 62
     5
 63
     7
 74
     0
 91
        4
 64
     7
 65
   257
 75
     1
175
     1
 42
1.0
 92
        0
 66
     7
 43
1.0
 76
     1
 77
     6
 78
     2
 67
     7
 79
     5
170
     0
171
     0
290
     0
174
     0
 93
       13
 44
0.0
173
     0
291
     1
 45
0.0
1001
ACAD
1000
AcDbSavedByObjectVersion
1070
     0
1000
AcDbSavedByObjectVersion
1070
     0
1000
AcDbSavedByObjectVersion
1070
     0
1000
AcDbSavedByObjectVersion
1070
     0
1000
AcDbSavedByObjectVersion
1070
     0
1000
AcDbSavedByObjectVersion
1070
     0
1000
AcDbSavedByObjectVersion
1070
     0
  0
VISUALSTYLE
  5
39C22
102
{ACAD_REACTORS
330
39C1E
102
}
330
39C1E
100
AcDbVisualStyle
  2
GouraudWithEdges
 70
     3
 71
     2
 72
     2
 73
     1
 90
        2
 40
-0.6
 41
30.0
 62
     5
 63
     7
 74
     1
 91
        4
 64
     7
 65
   257
 75
     1
175
     1
 42
1.0
 92
        0
 66
   257
 43
1.0
 76
     1
 77
     6
 78
     2
 67
     7
 79
     5
170
     0
171
     0
290
     0
174
     0
 93
       13
 44
0.0
173
     0
291
     1
 45
0.0
1001
ACAD
1000
AcDbSavedByObjectVersion
1070
     0
1000
AcDbSavedByObjectVersion
1070
     0
1000
AcDbSavedByObjectVersion
1070
     0
1000
AcDbSavedByObjectVersion
1070
     0
1000
AcDbSavedByObjectVersion
1070
     0
1000
AcDbSavedByObjectVersion
1070
     0
1000
AcDbSavedByObjectVersion
1070
     0
  0
VISUALSTYLE
  5
39C2C
102
{ACAD_REACTORS
330
39C1E
102
}
330
39C1E
100
AcDbVisualStyle
  2
Linepattern
 70
    14
 71
     2
 72
     2
 73
     0
 90
        0
 40
-0.6
 41
-30.0
 62
     5
 63
     7
 74
     1
 91
        4
 64
     7
 65
   257
 75
     7
175
     7
 42
1.0
 92
        8
 66
     7
 43
1.0
 76
     1
 77
     6
 78
     2
 67
     7
 79
     5
170
     0
171
     0
290
     0
174
     0
 93
        1
 44
0.0
173
     0
291
     1
 45
0.0
1001
ACAD
1000
AcDbSavedByObjectVersion
1070
     0
1000
AcDbSavedByObjectVersion
1070
     0
1000
AcDbSavedByObjectVersion
1070
     0
1000
AcDbSavedByObjectVersion
1070
     0
1000
AcDbSavedByObjectVersion
1070
     0
1000
AcDbSavedByObjectVersion
1070
     0
1000
AcDbSavedByObjectVersion
1070
     0
  0
VISUALSTYLE
  5
39C28
102
{ACAD_REACTORS
330
39C1E
102
}
330
39C1E
100
AcDbVisualStyle
  2
Realistic
 70
     8
 71
     2
 72
     2
 73
     0
 90
        0
 40
-0.6
 41
-30.0
 62
     5
 63
     7
 74
     1
 91
        0
 64
     7
 65
   257
 75
     1
175
     1
 42
1.0
 92
        8
 66
     8
 43
1.0
 76
     1
 77
     6
 78
     2
 67
     7
 79
     5
170
     0
171
     0
290
     0
174
     0
 93
       13
 44
0.0
173
     0
291
     0
 45
0.0
1001
ACAD
1000
AcDbSavedByObjectVersion
1070
     0
1000
AcDbSavedByObjectVersion
1070
     0
1000
AcDbSavedByObjectVersion
1070
     0
1000
AcDbSavedByObjectVersion
1070
     0
1000
AcDbSavedByObjectVersion
1070
     0
1000
AcDbSavedByObjectVersion
1070
     0
1000
AcDbSavedByObjectVersion
1070
     0
  0
VISUALSTYLE
  5
39C2B
102
{ACAD_REACTORS
330
39C1E
102
}
330
39C1E
100
AcDbVisualStyle
  2
Thicken
 70
    13
 71
     2
 72
     2
 73
     0
 90
        0
 40
-0.6
 41
-30.0
 62
     5
 63
     7
 74
     1
 91
        4
 64
     7
 65
   257
 75
     1
175
     1
 42
1.0
 92
       12
 66
     7
 43
1.0
 76
     1
 77
     6
 78
     2
 67
     7
 79
     5
170
     0
171
     0
290
     0
174
     0
 93
        1
 44
0.0
173
     0
291
     1
 45
0.0
1001
ACAD
1000
AcDbSavedByObjectVersion
1070
     0
1000
AcDbSavedByObjectVersion
1070
     0
1000
AcDbSavedByObjectVersion
1070
     0
1000
AcDbSavedByObjectVersion
1070
     0
1000
AcDbSavedByObjectVersion
1070
     0
1000
AcDbSavedByObjectVersion
1070
     0
1000
AcDbSavedByObjectVersion
1070
     0
  0
DICTIONARYVAR
  5
39C39
102
{ACAD_REACTORS
330
210D7
102
}
330
210D7
100
DictionaryVariables
280
     0
  1
STANDARD
  0
DICTIONARYVAR
  5
3BD64
102
{ACAD_REACTORS
330
210D7
102
}
330
210D7
100
DictionaryVariables
280
     0
  1
1
  0
DICTIONARYVAR
  5
3BD63
102
{ACAD_REACTORS
330
210D7
102
}
330
210D7
100
DictionaryVariables
280
     0
  1
0
  0
DICTIONARYVAR
  5
210D8
102
{ACAD_REACTORS
330
210D7
102
}
330
210D7
100
DictionaryVariables
280
     0
  1
96
  0
DICTIONARY
  5
39C40
330
39BF6
100
AcDbDictionary
280
     1
281
     1
  3
ACAD_XREC_ROUNDTRIP
360
3D98E
  3
ADSK_XREC_LAYOUTTHUMBNAIL
360
39C41
  0
DICTIONARY
  5
3D98C
330
39BF5
100
AcDbDictionary
280
     1
281
     1
  3
ACAD_XREC_ROUNDTRIP
360
3D98D
  0
DICTIONARY
  5
3BDEF
330
39C1C
100
AcDbDictionary
280
     1
281
     1
  3
ACAD_XREC_ROUNDTRIP
360
3BDF0
  0
DICTIONARY
  5
3BDED
330
39C1B
100
AcDbDictionary
280
     1
281
     1
  3
ACAD_XREC_ROUNDTRIP
360
3BDEE
  0
DICTIONARY
  5
3BDF1
330
39C1D
100
AcDbDictionary
280
     1
281
     1
  3
ACAD_XREC_ROUNDTRIP
360
3BDF2
  0
DICTIONARY
  5
3D98F
330
39C30
100
AcDbDictionary
280
     1
281
     1
  3
ACAD_XREC_ROUNDTRIP
360
3D990
  0
XRECORD
  5
3D98E
102
{ACAD_REACTORS
330
39C40
102
}
330
39C40
100
AcDbXrecord
280
     1
102
SHADEPLOT
 70
     1
102
SHADEPLOTRESLEVEL
 70
     2
102
SHADEPLOTCUSTOMDPI
 70
   300
  0
XRECORD
  5
39C41
102
{ACAD_REACTORS
330
39C40
102
}
330
39C40
100
AcDbXrecord
280
     1
310
28000000620000008C0000000100080000000000B036000000000000000000000001000000000000FFFFFF0000000000FFFFFF000000000000000000000000000000000000000000000000000000000000000000330000006600000099000000CC000000FF00000000330000333300006633000099330000CC330000FF3300
310
0000660000336600006666000099660000CC660000FF66000000990000339900006699000099990000CC990000FF99000000CC000033CC000066CC000099CC0000CCCC0000FFCC000000FF000033FF000066FF000099FF0000CCFF0000FFFF000000003300330033006600330099003300CC003300FF003300003333003333
310
33006633330099333300CC333300FF33330000663300336633006666330099663300CC663300FF66330000993300339933006699330099993300CC993300FF99330000CC330033CC330066CC330099CC3300CCCC3300FFCC330000FF330033FF330066FF330099FF3300CCFF3300FFFF330000006600330066006600660099
310
006600CC006600FF00660000336600333366006633660099336600CC336600FF33660000666600336666006666660099666600CC666600FF66660000996600339966006699660099996600CC996600FF99660000CC660033CC660066CC660099CC6600CCCC6600FFCC660000FF660033FF660066FF660099FF6600CCFF6600
310
FFFF660000009900330099006600990099009900CC009900FF00990000339900333399006633990099339900CC339900FF33990000669900336699006666990099669900CC669900FF66990000999900339999006699990099999900CC999900FF99990000CC990033CC990066CC990099CC9900CCCC9900FFCC990000FF99
310
0033FF990066FF990099FF9900CCFF9900FFFF99000000CC003300CC006600CC009900CC00CC00CC00FF00CC000033CC003333CC006633CC009933CC00CC33CC00FF33CC000066CC003366CC006666CC009966CC00CC66CC00FF66CC000099CC003399CC006699CC009999CC00CC99CC00FF99CC0000CCCC0033CCCC0066CC
310
CC0099CCCC00CCCCCC00FFCCCC0000FFCC0033FFCC0066FFCC0099FFCC00CCFFCC00FFFFCC000000FF003300FF006600FF009900FF00CC00FF00FF00FF000033FF003333FF006633FF009933FF00CC33FF00FF33FF000066FF003366FF006666FF009966FF00CC66FF00FF66FF000099FF003399FF006699FF009999FF00CC
310
99FF00FF99FF0000CCFF0033CCFF0066CCFF0099CCFF00CCCCFF00FFCCFF0000FFFF0033FFFF0066FFFF0099FFFF00CCFFFF00FFFFFF00000000000D0D0D001A1A1A00282828003535350043434300505050005D5D5D006B6B6B00787878008686860093939300A1A1A100AEAEAE00BBBBBB00C9C9C900D6D6D600E4E4E400
310
F1F1F100FFFFFF0000000000000000000000000000000000000000000000000000000000000000000000000000000000E2E2E2E2E2E2E2E2E2E2E2E2E2E2E2E2E2E2E2E2E2E2E2E2E2E2E2E2E2E2E2E2E2E2E2E2E2E2E2E2E2E2E2E2E2E2E2E2E2E2E2E2E2E2E2E2E2E2E2E2E2E2E2E2E2E2E2E2E2E2E2E2E2E2E2E2E2E2E2
310
E2E2E2E2E2E2E2E2E2E2E2E2E2E2E2E2E2E2E2CDCDE2F5F5F5F5F5F5F5F5F5F5F5F5F5F5F5F5F5F5F5F5F5F5F5F5F5F5F5F5F5F5F5F5F5F5F5F5F5F5F5F5F5F5F5F5F5F5F5F5F5F5F5F5F5F5F5F5F5F5F5F5F5F5F5F5F5F5F5F5F5F5F5F5F5F5F5F5F5F5F5F5F5F5F5F5F5F5F5F5F5F5F5F5F5F5F5F5F50000E2F5F5F5F5F5
310
F5F5F5F5F5F5F5F5F5F5F5F5F5F5F5F5F5F5F5F5F5F5F5F5F5F5F5F5F5F5F5F5F5F5F5F5F5F5F5F5F5F5F5F5F5F5F5F5F5F5F5F5F5F5F5F5F5F5F5F5F5F5F5F5F5F5F5F5F5F5F5F5F5F5F5F5F5F5F5F5F5F5F5F5F5F5F5F5F5F5F5F5CDCDE2F5F5F5E2E2E2E2E2E2E2E2F5F5F5F5F5F5F5F5E2E2E2E2E2E2E2E2E2E2E2E2E2
310
E2F5F5F5F5F5F5F5F5E2E2E2E2E2E2E2E2E2E2E2E2E2E2E2F5F5F5F5F5F5F5F5E2E2E2E2E2E2E2E2E2E2E2E2E2E2F5F5F5F5F5F5F5F5E2E2E2E2E2E2E2E2F5F5F50000E2F5F5F5E2F5F5F5F5F5F5F5F5F5F5F5F5F5F5F5F5F5F5F5F5F5F5F5F5F5F5F5F5F5F5F5F5F5F5F5F5F5F5F5F5F5F5F5F5F5F5F5F5F5F5F5F5F5F5F5
310
F5F5F5F5F5F5F5F5F5F5F5F5F5F5F5F5F5F5F5F5F5F5F5F5F5F5F5F5F5F5F5F5F5F5E2F5F5F5CDCDE2F5F5F5E2F5F5F5F5F5F5F5F5F5F5F5F5F5F5F5F5F5F5F5F5F5F5F5F5F5F5F5F5F5F5F5F5F5F5F5F5F5F5F5F5F5F5F5F5F5F5F5F5F5F5F5F5F5F5F5F5F5F5F5F5F5F5F5F5F5F5F5F5F5F5F5F5F5F5F5F5F5F5F5F5F5F5
310
F5F5F5F5F5F5F5E2F5F5F50000E2F5F5F5E2F5F5F5F5F5F5F5F5F5F5F5F5F5F5F5F5F5F5F5F5F5F5F5F5F5F5F5F5F5F5F5F5F5F5F5F5F5F5F5F5F5F5F5F5F5F5F5F5F5F5F5F5F5F5F5F5F5F5F5F5F5F5F5F5F5F5F5F5F5F5F5F5F5F5F5F5F5F5F5F5F5F5F5F5F5F5F5F5F5E2F5F5F5CDCDE2F5F5F5E2F5F5F5F5F5F5F5F5F5
310
F5F5F5F5F5F5F5F5F5F5F5F5F5F5F5F5F5F5F5F5F5F5F5F5F5F5F5F5F5F5F5F5F5F5F5F5F5F5F5F5F5F5F5F5F5F5F5F5F5F5F5F5F5F5F5F5F5F5F5F5F5F5F5F5F5F5F5F5F5F5F5F5F5F5F5F5F5F5F5F5E2F5F5F50000E2F5F5F5E2F5F5F5F5F5F5F5F5F5F5F5F5F5F5F5F5F5F5F5F5F5F5F5F5F5F5F5F5F5F5F5F5F5F5F5F5
310
F5F5F5F5F5F5F5F5F5F5F5F5F5F5F5F5F5F5F5F5F5F5F5F5F5F5F5F5F5F5F5F5F5F5F5F5F5F5F5F5F5F5F5F5F5F5F5F5F5F5F5F5F5E2F5F5F5CDCDE2F5F5F5E2F5F5F5F5F5F5F5F5F5F5F5F5F5F5F5F5F5F5F5F5F5F5F5F5F5F5F5F5F5F5F5F5F5F5F5F5F5F5F5F5F5F5F5F5F5F5F5F5F5F5F5F5F5F5F5F5F5F5F5F5F5F5F5
310
F5F5F5F5F5F5F5F5F5F5F5F5F5F5F5F5F5F5F5F5F5F5F5F5F5F5E2F5F5F50000E2F5F5F5E2F5F5F5F5F5F5F5F5F5F5F5F5F5F5F5F5F5F5F5F5F5F5F5F5F5F5F5F5F5F5F5F5F5F5F5F5F5F5F5F5F5F5F5F5F5F5F5F5F5F5F5F5F5F5F5F5F5F5F5F5F5F5F5F5F5F5F5F5F5F5F5F5F5F5F5F5F5F5F5F5F5F5F5F5F5F5F5F5F5E2
310
F5F5F5CDCDE2F5F5F5E2F5F5F5F5F5F5F5F5F5F5F5F5F5F5F5F5F5F5F5F5F5F5F5F5F5F5F5F5F5F5F5F5F5F5F5F5F5F5F5F5F5F5F5F5F5F5F5F5F5F5F5F5F5F5F5F5F5F5F5F5F5F5F5F5F5F5F5F5F5F5F5F5F5F5F5F5F5F5F5F5F5F5F5F5F5F5F5F5F5E2F5F5F50000E2F5F5F5F5F5F5F5F5F5F5F5F5F5F5F5F5F5F5F5F5F5
310
F5F5F5F5F5F5F5F5F5F5F5F5F5F5F5F5F5F5F5F5F5F5F5F5F5F5F5F5F5F5F5F5F5F5F5F5F5F5F5F5F5F5F5F5F5F5F5F5F5F5F5F5F5F5F5F5F5F5F5F5F5F5F5F5F5F5F5F5F5F5F5F5F5F5F5F5CDCDE2F5F5F5F5F5F5F5F5F5F5F5F5F5F5F5F5F5F5F5F5F5F5F5F5F5F5F5F5F5F5F5F5F5F5F5F5F5F5F5F5F5F5F5F5F5F5F5F5
310
F5F5F5F5F5F5F5F5F5F5F5F5F5F5F5F5F5F5F5F5F5F5F5F5F5F5F5F5F5F5F5F5F5F5F5F5F5F5F5F5F5F5F5F5F5F5F5F5F50000E2F5F5F5F5F5F5F5F5F5F5F5F5F5F5F5F5F5F5F5F5F5F5F5F5F5F5F5F5F5F5F5F5F5F5F5F5F5F5F5F5F5F5F5F5F5F5F5F5F5F5F5F5F5F5F5F5F5F5F5F5F5F5F5F5F5F5F5F5F5F5F5F5F5F5F5
310
F5F5F5F5F5F5F5F5F5F5F5F5F5F5F5F5F5F5F5F5F5F5CDCDE2F5F5F5F5F5F5F5F5F5F5F5F5F5F5F5F5F5F5F5F5F5F5F5F5F5F5F5F5F5F5F5F5F5F5F5F5F5F5F5F5F5F5F5F5F5F5F5F5F5F5F5F5F5F5F5F5F5F5F5F5F5F5F5F5F5F5F5F5F5F5F5F5F5F5F5F5F5F5F5F5F5F5F5F5F5F5F5F5F5F5F5F5F5F5F5F5F50000E2F5F5
310
F5F5F5F5F5F5F5F5F5F5F5F5F5F5F5F5F5F5F5F5F5F5F5F5F5F5F5F5F5F5F5F5F5F5F5F5F5F5F5F5F5F5F5F5F5F5F5F5F5F5F5F5F5F5F5F5F5F5F5F5F5F5F5F5F5F5F5F5F5F5F5F5F5F5F5F5F5F5F5F5F5F5F5F5F5F5F5F5F5F5F5F5F5F5F5CDCDE2F5F5F5F5F5F5F5F5F5F5F5F5F5F5F5F5F5F5F5F5F5F5F5F5F5F5F5F5F5
310
F5F5F5F5F5F5F5F5F5F5F5F5F5F5F5F5F5F5F5F5F5F5F5F5F5F5F5F5F5F5F5F5F5F5F5F5F5F5F5F5F5F5F5F5F5F5F5F5F5F5F5F5F5F5F5F5F5F5F5F5F5F5F5F5F5F5F5F50000E2F5F5F5F5F5F5F5F5F5F5F5F5F5F5F5F5F5F5F5F5F5F5F5F5F5F5F5F5F5F5F5F5F5F5F5F5F5F5F5F5F5F5F5F5F5F5F5F5F5F5F5F5F5F5F5F5
310
F5F5F5F5F5F5F5F5F5F5F5F5F5F5F5F5F5F5F5F5F5F5F5F5F5F5F5F5F5F5F5F5F5F5F5F5F5F5F5F5F50000E2F5F5F5F5F5F5F5F5F5F5F5F5F5F5F5F5F5F5F5F5F5F5F5F5F5F5F5F5F5F5F5F5F5F5F5F5F5F5F5F5F5F5F5F5F5F5F5F5F5F5F5F5F5F5F5F5F5F5F5F5F5F5F5F5F5F5F5F5F5F5F5F5F5F5F5F5F5F5F5F5F5F5F5
310
F5F5F5F5F5F5F5F5F5F5F5F5F5F50000E2F5F5F5F5F5F5F5F5F5F5F5F5F5F5F5F5F5F5F5F5F5F5F5F5F5F5F5F5F5F5F5F5F5F5F5F5F5F5F5F5F5F5F5F5F5F5F5F5F5F5F5F5F5F5F5F5F5F5F5F5F5F5F5F5F5F5F5F5F5F5F5F5F5F5F5F5F5F5F5F5F5F5F5F5F5F5F5F5F5F5F5F5F5F5F5F5F50000E2F5F5F5E2F5F5F5F5F5F5
310
F5F5F5F5F5F5F5F5F5F5F5F5F5F5F5F5F5F5F5F5F5F5F5F5F5F5F5F5F5F5F5F5F5F5F5F5F5F5F5F5F5F5F5F5F5F5F5F5F5F5F5F5F5F5F5F5F5F5F5F5F5F5F5F5F5F5F5F5F5F5F5F5F5F5F5F5F5F5F5F5F5F5F5E2F5F5F50000E2F5F5F5E2F5F5F5F5F5F5F5F5F5F5F5F5F5F5F5F5F5F5F5F5F5F5F5F5F5F5F5F5F5F5F5F5F5
310
F5F5F5F5F5F5F5F5F5F5F5F5F5F5F5F5F5F5F5F5F5F5F5F5F5F5F5F5F5F5F5F5F5F5F5F5F5F5F5F5F5F5F5F5F5F5F5F5F5F5F5F5F5F5F5F5E2F5F5F50000E2F5F5F5E2F5F5F5F5F5F5F5F5F5F5F5F5F5F5F5F5F5F5F5F5F5F5F5F5F5F5F5F5F5F5F5F5F5F5F5F5F5F5F5F5F5F5F5F5F5F5F5F5F5F5F5F5F5F5F5F5F5F5F5F5
310
F5F5F5F5F5F5F5F5F5F5F5F5F5F5F5F5F5F5F5F5F5F5F5F5F5F5F5F5F5E2F5F5F50000E2F5F5F5E2F5F5F5F5F5F5F5F5F5F5F5F5F5F5F5F5F5F5F5F5F5F5F5F5F5F5F5F5F5F5F5F5F5F5F5F5F5F5F5F5F5F5F5F5F5F5F5F5F5F5F5F5F5F5F5F5F5F5F5F5F5F5F5F5F5F5F5F5F5F5F5F5F5F5F5F5F5F5F5F5F5F5F5F5F5F5F5
310
F5F5E2F5F5F50000E2F5F5F5E2F5F5F5F5F5F5F5F5F5F5F5F5F5F5F5F5F5F5F5F5F5F5F5F5F5F5F5F5F5F5F5F5F5F5F5F5F5F5F5F5F5F5F5F5F5F5F5F5F5F5F5F5F5F5F5F5F5F5F5F5F5F5F5F5F5F5F5F5F5F5F5F5F5F5F5F5F5F5F5F5F5F5F5F5F5F5F5F5F5E2F5F5F50000E2F5F5F5E2F5F5F5F5F5F5F5F5F5F5F5F5F5F5
310
F5F5F5F5F5F5F5F5F5F5F5F5F5F5F5F5F5F5F5F5F5F5F5F5F5F5F5F5F5F5F5F5F5F5F5F5F5F5F5F5F5F5F5F5F5F5F5F5F5F5F5F5F5F5F5F5F5F5F5F5F5F5F5F5F5F5F5F5F5F5F5F5F5F5F5E2F5F5F50000E2F5F5F5E2F5F5F5F5F5F5F5F5F5F5F5F5F5F5F5F5F5F5F5F5F5F5F5F5F5F5F5F5F5F5F5F5F5F5F5F5F5F5F5F5F5
310
F5F5F5F5F5F5F5F5F5F5F5F5F5F5F5F5F5F5F5F5F5F5F5F5F5F5F5F5F5F5F5F5F5F5F5F5F5F5F5F5F5F5F5F5F5F5F5F5E2F5F5F50000E2F5F5F5E2F5F5F5F5F5F5F5F5F5F5F5F5F5F5F5F5F5F5F5F5F5F5F5F5F5F5F5F5F5F5F5F5F5F5F5F5F5F5F5F5F5F5F5F5F5F5F5F5F5F5F5F5F5F5F5F5F5F5F5F5F5F5F5F5F5F5F5F5
310
F5F5F5F5F5F5F5F5F5F5F5F5F5F5F5F5F5F5F5F5F5E2F5F5F50000E2F5F5F5E2F5F5F5F5F5F5F5F5F5F5F5F5F5F5F5F5F5F5F5F5F5F5F5F5F5F5F5F5F5F5F5F5F5F5F5F5F5F5F5F5F5F5F5F5F5F5F5F5F5F5F5F5F5F5F5F5F5F5F5F5F5F5F5F5F5F5F5F5F5F5F5F5F5F5F5F5F5F5F5F5F5F5F5F5F5F5F5F5F5E2F5F5F50000
310
E2F5F5F5E2F5F5F5F5F5F5F5F5F5F5F5F5F5F5F5F5F5F5F5F5F5F5F5F5F5F5F5F5F5F5F5F5F5F5F5F5F5F5F5F5F5F5F5F5F5F5F5F5F5F5F5F5F5F5F5F5F5F5F5F5F5F5F5F5F5F5F5F5F5F5F5F5F5F5F5F5F5F5F5F5F5F5F5F5F5F5F5F5F5E2F5F5F50000E2F5F5F5E2F5F5F5F5F5F5F5F5F5F5F5F5F5F5F5F5F5F5F5F5F5F5
310
F5F5F5F5F5F5F5F5F5F5F5F5F5F5F5F5F5F5F5F5F5F5F5F5F5F5F5F5F5F5F5F5F5F5F5F5F5F5F5F5F5F5F5F5F5F5F5F5F5F5F5F5F5F5F5F5F5F5F5F5F5F5F5F5F5F5F5E2F5F5F50000E2F5F5F5E2F5F5F5F5F5F5F5F5F5F5F5F5F5F5F5F5F5F5F5F5F5F5F5F5F5F5F5F5F5F5F5F5F5F5F5F5F5F5F5F5F5F5F5F5F5F5F5F5F5
310
F5F5F5F5F5F5F5F5F5F5F5F5F5F5F5F5F5F5F5F5F5F5F5F5F5F5F5F5F5F5F5F5F5F5F5F5F5F5F5F5E2F5F5F50000E2F5F5F5E2F5F5F5F5F5F5F5F5F5F5F5F5F5F5F5F5F5F5F5F5F5F5F5F5F5F5F5F5F5F5F5F5F5F5F5F5F5F5F5F5F5F5F5F5F5F5F5F5F5F5F5F5F5F5F5F5F5F5F5F5F5F5F5F5F5F5F5F5F5F5F5F5F5F5F5F5
310
F5F5F5F5F5F5F5F5F5F5F5F5F5E2F5F5F50000E2F5F5F5E2F5F5F5F5F5F5F5F5F5F5F5F5F5F5F5F5F5F5F5F5F5F5F5F5F5F5F5F5F5F5F5F5F5F5F5F5F5F5F5F5F5F5F5F5F5F5F5F5F5F5F5F5F5F5F5F5F5F5F5F5F5F5F5F5F5F5F5F5F5F5F5F5F5F5F5F5F5F5F5F5F5F5F5F5F5F5F5F5F5E2F5F5F50000E2F5F5F5E2F5F5F5
310
F5F5F5F5F5F5F5F5F5F5F5F5F5F5F5F5F5F5F5F5F5F5F5F5F5F5F5F5F5F5F5F5F5F5F5F5F5F5F5F5F5F5F5F5F5F5F5F5F5F5F5F5F5F5F5F5F5F5F5F5F5F5F5F5F5F5F5F5F5F5F5F5F5F5F5F5F5F5F5F5F5F5F5F5F5F5E2F5F5F50000E2F5F5F5E2F5F5F5F5F5F5F5F5F5F5F5F5F5F5F5F5F5F5F5F5F5F5F5F5F5F5F5F5F5F5
310
F5F5F5F5F5F5F5F5F5F5F5F5F5F5F5F5F5F5F5F5F5F5F5F5F5F5F5F5F5F5F5F5F5F5F5F5F5F5F5F5F5F5F5F5F5F5F5F5F5F5F5F5F5F5F5F5F5F5F5E2F5F5F50000E2F5F5F5E2F5F5F5F5F5F5F5F5F5F5F5F5F5F5F5F5F5F5F5F5F5F5F5F5F5F5F5F5F5F5F5F5F5F5F5F5F5F5F5F5F5F5F5F5F5F5F5F5F5F5F5F5F5F5F5F5F5
310
F5F5F5F5F5F5F5F5F5F5F5F5F5F5F5F5F5F5F5F5F5F5F5F5F5F5F5F5F5F5F5F5E2F5F5F50000E2F5F5F5F5F5F5F5F5F5F5F5F5F5F5F5F5F5F5F5F5F5F5F5F5F5F5F5F5F5F5F5F5F5F5F5F5F5F5F5F5F5F5F5F5F5F5F5F5F5F5F5F5F5F5F5F5F5F5F5F5F5F5F5F5F5F5F5F5F5F5F5F5F5F5F5F5F5F5F5F5F5F5F5F5F5F5F5F5
310
F5F5F5F5F5F5F5F5F50000E2F5F5F5F5F5F5F5F5F5F5F5F5F5F5F5F5F5F5F5F5F5F5F5F5F5F5F5F5F5F5F5F5F5F5F5F5F5F5F5F5F5F5F5F5F5F5F5F5F5F5F5F5F5F5F5F5F5F5F5F5F5F5F5F5F5F5F5F5F5F5F5F5F5F5F5F5F5F5F5F5F5F5F5F5F5F5F5F5F5F5F5F5F5F5F5F5F50000E2F5F5F5F5F5F5F5F5F5F5F5F5F5F5F5
310
F5F5F5F5F5F5F5F5F5F5F5F5F5F5F5F5F5F5F5F5F5F5F5F5F5F5F5F5F5F5F5F5F5F5F5F5F5F5F5F5F5F5F5F5F5F5F5F5F5F5F5F5F5F5F5F5F5F5F5F5F5F5F5F5F5F5F5F5F5F5F5F5F5F5F5F5F5F5F5F5F5F50000E2F5F5F5F5F5F5F5F5F5F5F5F5F5F5F5F5F5F5F5F5F5F5F5F5F5F5F5F5F5F5F5F5F5F5F5F5F5F5F5F5F5F5
310
F5F5F5F5F5F5F5F5F5F5F5F5F5F5F5F5F5F5F5F5F5F5F5F5F5F5F5F5F5F5F5F5F5F5F5F5F5F5F5F5F5F5F5F5F5F5F5F5F5F5F5F5F5F5F50000E2F5F5F5F5F5F5F5F5F5F5F5F5F5F5F5F5F5F5F5F5F5F5F5F5F5F5F5F5F5F5F5F5F5F5F5F5F5F5F5F5F5F5F5F5F5F5F5F5F5F5F5F5F5F5F5F5F5F5F5F5F5F5F5F5F5F5F5F5F5
310
F5F5F5F5F5F5F5F5F5F5F5F5F5F5F5F5F5F5F5F5F5F5F5F5F5F5F5F50000E2F5F5F5F5F5F5F5F5F5F5F5F5F5F5F5F5F5F5F5F5F5F5F5F5F5F5F5F5F5F5F5F5F5F5F5F5F5F5F5F5F5F5F5F5F5F5F5F5F5F5F5F5F5F5F5F5F5F5F5F5F5F5F5F5F5F5F5F5F5F5F5F5F5F5F5F5F5F5F5F5F5F5F5F5F5F5F5F5F5F5F5F5F5F5F5F5
310
F50000E2F5F5F5F5F5F5F5F5F5F5F5F5F5F5F5F5F5F5F5F5F5F5F5F5F5F5F5F5F5F5F5F5F5F5F5F5F5F5F5F5F5F5F5F5F5F5F5F5F5F5F5F5F5F5F5F5F5F5F5F5F5F5F5F5F5F5F5F5F5F5F5F5F5F5F5F5F5F5F5F5F5F5F5F5F5F5F5F5F5F5F5F5F5F5F5F5F50000E2F5F5F5F5F5F5F5F5F5F5F5F5F5F5F5F5F5F5F5F5F5F5F5
310
F5F5F5F5F5F5F5F5F5F5F5F5F5F5F5F5F5F5F5F5F5F5F5F5F5F5F5F5F5F5F5F5F5F5F5F5F5F5F5F5F5F5F5F5F5F5F5F5F5F5F5F5F5F5F5F5F5F5F5F5F5F5F5F5F5F5F5F5F5F5F5F5F5F50000E2F5F5F5F5F5F5F5F5F5F5F5F5F5F5F5F5F5F5F5F5F5F5F5F5F5F5F5F5F5F5F5F5F5F5F5F5F5F5F5F5F5F5F5F5F5F5F5F5F5F5
310
F5F5F5F5F5F5F5F5F5F5F5F5F5F5F5F5F5F5F5F5F5F5F5F5F5F5F5F5F5F5F5F5F5F5F5F5F5F5F5F5F5F5F5F5F5F5F50000E2F5F5F5F5F5F5F5F5F5F5F5F5F5F5F5F5F5F5F5F5F5F5F5F5F5F5F5F5F5F5F5F5F5F5F5F5F5F5F5F5F5F5F5F5F5F5F5F5F5F5F5F5F5F5F5F5F5F5F5F5F5F5F5F5F5F5F5F5F5F5F5F5F5F5F5F5F5
310
F5F5F5F5F5F5F5F5F5F5F5F5F5F5F5F5F5F5F5F50000E2F5F5F5E2F5F5F5F5F5F5F5F5F5F5F5F5F5F5F5F5F5F5F5F5F5F5F5F5F5F5F5F5F5F5F5F5F5F5F5F5F5F5F5F5F5F5F5F5F5F5F5F5F5F5F5F5F5F5F5F5F5F5F5F5F5F5F5F5F5F5F5F5F5F5F5F5F5F5F5F5F5F5F5F5F5F5F5F5F5F5F5F5F5E2F5F5F50000E2F5F5F5E2
310
F5F5F5F5F5F5F5F5F5F5F5F5F5F5F5F5F5F5F5F5F5F5F5F5F5F5F5F5F5F5F5F5F5F5F5F5F5F5F5F5F5F5F5F5F5F5F5F5F5F5F5F5F5F5F5F5F5F5F5F5F5F5F5F5F5F5F5F5F5F5F5F5F5F5F5F5F5F5F5F5F5F5F5F5F5F5F5F5F5E2F5F5F50000E2F5F5F5E2F5F5F5F5F5F5F5F5F5F5F5F5F5F5F5F5F5F5F5F5F5F5F5F5F5F5F5
310
F5F5F5F5F5F5F5F5F5F5F5F5F5F5F5F5F5F5F5F5F5F5F5F5F5F5F5F5F5F5F5F5F5F5F5F5F5F5F5F5F5F5F5F5F5F5F5F5F5F5F5F5F5F5F5F5F5F5F5F5F5F5E2F5F5F50000E2F5F5F5E2F5F5F5F5F5F5F5F5F5F5F5F5F5F5F5F5F5F5F5F5F5F5F5F5F5F5F5F5F5F5F5F5F5F5F5F5F5F5F5F5F5F5F5F5F5F5F5F5F5F5F5F5F5F5
310
F5F5F5F5F5F5F5F5F5F5F5F5F5F5F5F5F5F5F5F5F5F5F5F5F5F5F5F5F5F5F5F5F5F5F5E2F5F5F50000E2F5F5F5E2F5F5F5F5F5F5F5F5F5F5F5F5F5F5F5F5F5F5F5F5F5F5F5F5F5F5F5F5F5F5F5F5F5F5F5F5F5F5F5F5F5F5F5F5F5F5F5F5F5F5F5F5F5F5F5F5F5F5F5F5F5F5F5F5F5F5F5F5F5F5F5F5F5F5F5F5F5F5F5F5F5
310
F5F5F5F5F5F5F5F5E2F5F5F50000E2F5F5F5E2F5F5F5F5F5F5F5F5F5F5F5F5F5F5F5F5F5F5F5F5F5F5F5F5F5F5F5F5F5F5F5F5F5F5F5F5F5F5F5F5F5F5F5F5F5F5F5F5F5F5F5F5F5F5F5F5F5F5F5F5F5F5F5F5F5F5F5F5F5F5F5F5F5F5F5F5F5F5F5F5F5F5F5F5F5F5F5F5F5E2F5F5F50000E2F5F5F5E2F5F5F5F5F5F5F5F5
310
F5F5F5F5F5F5F5F5F5F5F5F5F5F5F5F5F5F5F5F5F5F5F5F5F5F5F5F5F5F5F5F5F5F5F5F5F5F5F5F5F5F5F5F5F5F5F5F5F5F5F5F5F5F5F5F5F5F5F5F5F5F5F5F5F5F5F5F5F5F5F5F5F5F5F5F5F5F5F5F5F5E2F5F5F50000E2F5F5F5E2F5F5F5F5F5F5F5F5F5F5F5F5F5F5F5F5F5F5F5F5F5F5F5F5F5F5F5F5F5F5F5F5F5F5F5
310
F5F5F5F5F5F5F5F5F5F5F5F5F5F5F5F5F5F5F5F5F5F5F5F5F5F5F5F5F5F5F5F5F5F5F5F5F5F5F5F5F5F5F5F5F5F5F5F5F5F5F5F5F5F5E2F5F5F50000E2F5F5F5E2F5F5F5F5F5F5F5F5F5F5F5F5F5F5F5F5F5F5F5F5F5F5F5F5F5F5F5F5F5F5F5F5F5F5F5F5F5F5F5F5F5F5F5F5F5F5F5F5F5F5F5F5F5F5F5F5F5F5F5F5F5F5
310
F5F5F5F5F5F5F5F5F5F5F5F5F5F5F5F5F5F5F5F5F5F5F5F5F5F5F5E2F5F5F50000E2F5F5F5E2F5F5F5F5F5F5F5F5F5F5F5F5F5F5F5F5F5F5F5F5F5F5F5F5F5F5F5F5F5F5F5F5F5F5F5F5F5F5F5F5F5F5F5F5F5F5F5F5F5F5F5F5F5F5F5F5F5F5F5F5F5F5F5F5F5F5F5F5F5F5F5F5F5F5F5F5F5F5F5F5F5F5F5F5F5F5F5F5F5
310
E2F5F5F50000E2F5F5F5E2F5F5F5F5F5F5F5F5F5F5F5F5F5F5F5F5F5F5F5F5F5F5F5F5F5F5F5F5F5F5F5F5F5F5F5F5F5F5F5F5F5F5F5F5F5F5F5F5F5F5F5F5F5F5F5F5F5F5F5F5F5F5F5F5F5F5F5F5F5F5F5F5F5F5F5F5F5F5F5F5F5F5F5F5F5F5F5F5F5E2F5F5F50000E2F5F5F5E2F5F5F5F5F5F5F5F5F5F5F5F5F5F5F5F5
310
F5F5F5F5F5F5F5F5F5F5F5F5F5F5F5F5F5F5F5F5F5F5F5F5F5F5F5F5F5F5F5F5F5F5F5F5F5F5F5F5F5F5F5F5F5F5F5F5F5F5F5F5F5F5F5F5F5F5F5F5F5F5F5F5F5F5F5F5F5F5F5F5F5E2F5F5F50000E2F5F5F5E2F5F5F5F5F5F5F5F5F5F5F5F5F5F5F5F5F5F5F5F5F5F5F5F5F5F5F5F5F5F5F5F5F5F5F5F5F5F5F5F5F5F5F5
310
F5F5F5F5F5F5F5F5F5F5F5F5F5F5F5F5F5F5F5F5F5F5F5F5F5F5F5F5F5F5F5F5F5F5F5F5F5F5F5F5F5F5F5F5F5F5E2F5F5F50000E2F5F5F5E2F5F5F5F5F5F5F5F5F5F5F5F5F5F5F5F5F5F5F5F5F5F5F5F5F5F5F5F5F5F5F5F5F5F5F5F5F5F5F5F5F5F5F5F5F5F5F5F5F5F5F5F5F5F5F5F5F5F5F5F5F5F5F5F5F5F5F5F5F5F5
310
F5F5F5F5F5F5F5F5F5F5F5F5F5F5F5F5F5F5F5E2F5F5F50000E2F5F5F5E2F5F5F5F5F5F5F5F5F5F5F5F5F5F5F5F5F5F5F5F5F5F5F5F5F5F5F5F5F5F5F5F5F5F5F5F5F5F5F5F5F5F5F5F5F5F5F5F5F5F5F5F5F5F5F5F5F5F5F5F5F5F5F5F5F5F5F5F5F5F5F5F5F5F5F5F5F5F5F5F5F5F5F5F5F5F5F5F5F5E2F5F5F50000E2F5
310
F5F5E2F5F5F5F5F5F5F5F5F5F5F5F5F5F5F5F5F5F5F5F5F5F5F5F5F5F5F5F5F5F5F5F5F5F5F5F5F5F5F5F5F5F5F5F5F5F5F5F5F5F5F5F5F5F5F5F5F5F5F5F5F5F5F5F5F5F5F5F5F5F5F5F5F5F5F5F5F5F5F5F5F5F5F5F5F5F5F5F5F5E2F5F5F50000E2F5F5F5E2F5F5F5F5F5F5F5F5F5F5F5F5F5F5F5F5F5F5F5F5F5F5F5F5
310
F5F5F5F5F5F5F5F5F5F5F5F5F5F5F5F5F5F5F5F5F5F5F5F5F5F5F5F5F5F5F5F5F5F5F5F5F5F5F5F5F5F5F5F5F5F5F5F5F5F5F5F5F5F5F5F5F5F5F5F5F5F5F5F5F5E2F5F5F50000E2F5F5F5F5F5F5F5F5F5F5F5F5F5F5F5F5F5F5F5F5F5F5F5F5F5F5F5F5F5F5F5F5F5F5F5F5F5F5F5F5F5F5F5F5F5F5F5F5F5F5F5F5F5F5F5
310
F5F5F5F5F5F5F5F5F5F5F5F5F5F5F5F5F5F5F5F5F5F5F5F5F5F5F5F5F5F5F5F5F5F5F5F5F5F5F5F5F5F50000E2F5F5F5F5F5F5F5F5F5F5F5F5F5F5F5F5F5F5F5F5F5F5F5F5F5F5F5F5F5F5F5F5F5F5F5F5F5F5F5F5F5F5F5F5F5F5F5F5F5F5F5F5F5F5F5F5F5F5F5F5F5F5F5F5F5F5F5F5F5F5F5F5F5F5F5F5F5F5F5F5F5F5
310
F5F5F5F5F5F5F5F5F5F5F5F5F5F5F50000E2F5F5F5F5F5F5F5F5F5F5F5F5F5F5F5F5F5F5F5F5F5F5F5F5F5F5F5F5F5F5F5F5F5F5F5F5F5F5F5F5F5F5F5F5F5F5F5F5F5F5F5F5F5F5F5F5F5F5F5F5F5F5F5F5F5F5F5F5F5F5F5F5F5F5F5F5F5F5F5F5F5F5F5F5F5F5F5F5F5F5F5F5F5F5F5F5F50000E2F5F5F5F5F5F5F5F5F5
310
F5F5F5F5F5F5F5F5F5F5F5F5F5F5F5F5F5F5F5F5F5F5F5F5F5F5F5F5F5F5F5F5F5F5F5F5F5F5F5F5F5F5F5F5F5F5F5F5F5F5F5F5F5F5F5F5F5F5F5F5F5F5F5F5F5F5F5F5F5F5F5F5F5F5F5F5F5F5F5F5F5F5F5F5F5F5F5F50000E2F5F5F5F5F5F5F5F5F5F5F5F5F5F5F5F5F5F5F5F5F5F5F5F5F5F5F5F5F5F5F5F5F5F5F5F5
310
F5F5F5F5F5F5F5F5F5F5F5F5F5F5F5F5F5F5F5F5F5F5F5F5F5F5F5F5F5F5F5F5F5F5F5F5F5F5F5F5F5F5F5F5F5F5F5F5F5F5F5F5F5F5F5F5F5F5F5F5F50000E2F5F5F5F5F5F5F5F5F5F5F5F5F5F5F5F5F5F5F5F5F5F5F5F5F5F5F5F5F5F5F5F5F5F5F5F5F5F5F5F5F5F5F5F5F5F5F5F5F5F5F5F5F5F5F5F5F5F5F5F5F5F5F5
310
F5F5F5F5F5F5F5F5F5F5F5F5F5F5F5F5F5F5F5F5F5F5F5F5F5F5F5F5F5F5F5F5F5F50000E2F5F5F5F5F5F5F5F5F5F5F5F5F5F5F5F5F5F5F5F5F5F5F5F5F5F5F5F5F5F5F5F5F5F5F5F5F5F5F5F5F5F5F5F5F5F5F5F5F5F5F5F5F5F5F5F5F5F5F5F5F5F5F5F5F5F5F5F5F5F5F5F5F5F5F5F5F5F5F5F5F5F5F5F5F5F5F5F5F5F5
310
F5F5F5F5F5F5F50000E2F5F5F5F5F5F5F5F5F5F5F5F5F5F5F5F5F5F5F5F5F5F5F5F5F5F5F5F5F5F5F5F5F5F5F5F5F5F5F5F5F5F5F5F5F5F5F5F5F5F5F5F5F5F5F5F5F5F5F5F5F5F5F5F5F5F5F5F5F5F5F5F5F5F5F5F5F5F5F5F5F5F5F5F5F5F5F5F5F5F5F5F5F5F5F5F5F50000E2F5F5F5F5F5F5F5F5F5F5F5F5F5F5F5F5F5
310
F5F5F5F5F5F5F5F5F5F5F5F5F5F5F5F5F5F5F5F5F5F5F5F5F5F5F5F5F5F5F5F5F5F5F5F5F5F5F5F5F5F5F5F5F5F5F5F5F5F5F5F5F5F5F5F5F5F5F5F5F5F5F5F5F5F5F5F5F5F5F5F5F5F5F5F5F5F5F5F50000E2F5F5F5E2F5F5F5F5F5F5F5F5F5F5F5F5F5F5F5F5F5F5F5F5F5F5F5F5F5F5F5F5F5F5F5F5F5F5F5F5F5F5F5F5
310
F5F5F5F5F5F5F5F5F5F5F5F5F5F5F5F5F5F5F5F5F5F5F5F5F5F5F5F5F5F5F5F5F5F5F5F5F5F5F5F5F5F5F5F5F5F5F5F5F5E2F5F5F50000E2F5F5F5E2F5F5F5F5F5F5F5F5F5F5F5F5F5F5F5F5F5F5F5F5F5F5F5F5F5F5F5F5F5F5F5F5F5F5F5F5F5F5F5F5F5F5F5F5F5F5F5F5F5F5F5F5F5F5F5F5F5F5F5F5F5F5F5F5F5F5F5
310
F5F5F5F5F5F5F5F5F5F5F5F5F5F5F5F5F5F5F5F5F5F5E2F5F5F50000E2F5F5F5E2F5F5F5F5F5F5F5F5F5F5F5F5F5F5F5F5F5F5F5F5F5F5F5F5F5F5F5F5F5F5F5F5F5F5F5F5F5F5F5F5F5F5F5F5F5F5F5F5F5F5F5F5F5F5F5F5F5F5F5F5F5F5F5F5F5F5F5F5F5F5F5F5F5F5F5F5F5F5F5F5F5F5F5F5F5F5F5F5F5E2F5F5F500
310
00E2F5F5F5E2F5F5F5F5F5F5F5F5F5F5F5F5F5F5F5F5F5F5F5F5F5F5F5F5F5F5F5F5F5F5F5F5F5F5F5F5F5F5F5F5F5F5F5F5F5F5F5F5F5F5F5F5F5F5F5F5F5F5F5F5F5F5F5F5F5F5F5F5F5F5F5F5F5F5F5F5F5F5F5F5F5F5F5F5F5F5F5F5F5E2F5F5F50000E2F5F5F5E2F5F5F5F5F5F5F5F5F5F5F5F5F5F5F5F5F5F5F5F5F5
310
F5F5F5F5F5F5F5F5F5F5F5F5F5F5F5F5F5F5F5F5F5F5F5F5F5F5F5F5F5F5F5F5F5F5F5F5F5F5F5F5F5F5F5F5F5F5F5F5F5F5F5F5F5F5F5F5F5F5F5F5F5F5F5F5F5F5F5F5E2F5F5F50000E2F5F5F5E2F5F5F5F5F5F5F5F5F5F5F5F5F5F5F5F5F5F5F5F5F5F5F5F5F5F5F5F5F5F5F5F5F5F5F5F5F5F5F5F5F5F5F5F5F5F5F5F5
310
F5F5F5F5F5F5F5F5F5F5F5F5F5F5F5F5F5F5F5F5F5F5F5F5F5F5F5F5F5F5F5F5F5F5F5F5F5F5F5F5F5E2F5F5F50000E2F5F5F5E2F5F5F5F5F5F5F5F5F5F5F5F5F5F5F5F5F5F5F5F5F5F5F5F5F5F5F5F5F5F5F5F5F5F5F5F5F5F5F5F5F5F5F5F5F5F5F5F5F5F5F5F5F5F5F5F5F5F5F5F5F5F5F5F5F5F5F5F5F5F5F5F5F5F5F5
310
F5F5F5F5F5F5F5F5F5F5F5F5F5F5E2F5F5F50000E2F5F5F5E2F5F5F5F5F5F5F5F5F5F5F5F5F5F5F5F5F5F5F5F5F5F5F5F5F5F5F5F5F5F5F5F5F5F5F5F5F5F5F5F5F5F5F5F5F5F5F5F5F5F5F5F5F5F5F5F5F5F5F5F5F5F5F5F5F5F5F5F5F5F5F5F5F5F5F5F5F5F5F5F5F5F5F5F5F5F5F5F5F5E2F5F5F50000E2F5F5F5E2F5F5
310
F5F5F5F5F5F5F5F5F5F5F5F5F5F5F5F5F5F5F5F5F5F5F5F5F5F5F5F5F5F5F5F5F5F5F5F5F5F5F5F5F5F5F5F5F5F5F5F5F5F5F5F5F5F5F5F5F5F5F5F5F5F5F5F5F5F5F5F5F5F5F5F5F5F5F5F5F5F5F5F5F5F5F5F5F5F5F5E2F5F5F50000E2F5F5F5E2F5F5F5F5F5F5F5F5F5F5F5F5F5F5F5F5F5F5F5F5F5F5F5F5F5F5F5F5F5
310
F5F5F5F5F5F5F5F5F5F5F5F5F5F5F5F5F5F5F5F5F5F5F5F5F5F5F5F5F5F5F5F5F5F5F5F5F5F5F5F5F5F5F5F5F5F5F5F5F5F5F5F5F5F5F5F5F5F5F5F5E2F5F5F50000E2F5F5F5E2F5F5F5F5F5F5F5F5F5F5F5F5F5F5F5F5F5F5F5F5F5F5F5F5F5F5F5F5F5F5F5F5F5F5F5F5F5F5F5F5F5F5F5F5F5F5F5F5F5F5F5F5F5F5F5F5
310
F5F5F5F5F5F5F5F5F5F5F5F5F5F5F5F5F5F5F5F5F5F5F5F5F5F5F5F5F5F5F5F5F5E2F5F5F50000E2F5F5F5E2F5F5F5F5F5F5F5F5F5F5F5F5F5F5F5F5F5F5F5F5F5F5F5F5F5F5F5F5F5F5F5F5F5F5F5F5F5F5F5F5F5F5F5F5F5F5F5F5F5F5F5F5F5F5F5F5F5F5F5F5F5F5F5F5F5F5F5F5F5F5F5F5F5F5F5F5F5F5F5F5F5F5F5
310
F5F5F5F5F5F5E2F5F5F50000E2F5F5F5E2F5F5F5F5F5F5F5F5F5F5F5F5F5F5F5F5F5F5F5F5F5F5F5F5F5F5F5F5F5F5F5F5F5F5F5F5F5F5F5F5F5F5F5F5F5F5F5F5F5F5F5F5F5F5F5F5F5F5F5F5F5F5F5F5F5F5F5F5F5F5F5F5F5F5F5F5F5F5F5F5F5F5F5F5F5F5F5F5F5E2F5F5F50000E2F5F5F5E2F5F5F5F5F5F5F5F5F5F5
310
F5F5F5F5F5F5F5F5F5F5F5F5F5F5F5F5F5F5F5F5F5F5F5F5F5F5F5F5F5F5F5F5F5F5F5F5F5F5F5F5F5F5F5F5F5F5F5F5F5F5F5F5F5F5F5F5F5F5F5F5F5F5F5F5F5F5F5F5F5F5F5F5F5F5F5F5F5F5F5E2F5F5F50000E2F5F5F5E2F5F5F5F5F5F5F5F5F5F5F5F5F5F5F5F5F5F5F5F5F5F5F5F5F5F5F5F5F5F5F5F5F5F5F5F5F5
310
F5F5F5F5F5F5F5F5F5F5F5F5F5F5F5F5F5F5F5F5F5F5F5F5F5F5F5F5F5F5F5F5F5F5F5F5F5F5F5F5F5F5F5F5F5F5F5F5F5F5F5F5E2F5F5F50000E2F5F5F5E2F5F5F5F5F5F5F5F5F5F5F5F5F5F5F5F5F5F5F5F5F5F5F5F5F5F5F5F5F5F5F5F5F5F5F5F5F5F5F5F5F5F5F5F5F5F5F5F5F5F5F5F5F5F5F5F5F5F5F5F5F5F5F5F5
310
F5F5F5F5F5F5F5F5F5F5F5F5F5F5F5F5F5F5F5F5F5F5F5F5F5E2F5F5F50000E2F5F5F5E2F5F5F5F5F5F5F5F5F5F5F5F5F5F5F5F5F5F5F5F5F5F5F5F5F5F5F5F5F5F5F5F5F5F5F5F5F5F5F5F5F5F5F5F5F5F5F5F5F5F5F5F5F5F5F5F5F5F5F5F5F5F5F5F5F5F5F5F5F5F5F5F5F5F5F5F5F5F5F5F5F5F5F5F5F5F5F5F5F5E2F5
310
F5F50000E2F5F5F5F5F5F5F5F5F5F5F5F5F5F5F5F5F5F5F5F5F5F5F5F5F5F5F5F5F5F5F5F5F5F5F5F5F5F5F5F5F5F5F5F5F5F5F5F5F5F5F5F5F5F5F5F5F5F5F5F5F5F5F5F5F5F5F5F5F5F5F5F5F5F5F5F5F5F5F5F5F5F5F5F5F5F5F5F5F5F5F5F5F5F5F5F5F50000E2F5F5F5F5F5F5F5F5F5F5F5F5F5F5F5F5F5F5F5F5F5F5
310
F5F5F5F5F5F5F5F5F5F5F5F5F5F5F5F5F5F5F5F5F5F5F5F5F5F5F5F5F5F5F5F5F5F5F5F5F5F5F5F5F5F5F5F5F5F5F5F5F5F5F5F5F5F5F5F5F5F5F5F5F5F5F5F5F5F5F5F5F5F5F5F5F5F5F50000E2F5F5F5F5F5F5F5F5F5F5F5F5F5F5F5F5F5F5F5F5F5F5F5F5F5F5F5F5F5F5F5F5F5F5F5F5F5F5F5F5F5F5F5F5F5F5F5F5F5
310
F5F5F5F5F5F5F5F5F5F5F5F5F5F5F5F5F5F5F5F5F5F5F5F5F5F5F5F5F5F5F5F5F5F5F5F5F5F5F5F5F5F5F5F5F5F5F5F50000E2F5F5F5F5F5F5F5F5F5F5F5F5F5F5F5F5F5F5F5F5F5F5F5F5F5F5F5F5F5F5F5F5F5F5F5F5F5F5F5F5F5F5F5F5F5F5F5F5F5F5F5F5F5F5F5F5F5F5F5F5F5F5F5F5F5F5F5F5F5F5F5F5F5F5F5F5
310
F5F5F5F5F5F5F5F5F5F5F5F5F5F5F5F5F5F5F5F5F50000E2F5F5F5F5F5F5F5F5F5F5F5F5F5F5F5F5F5F5F5F5F5F5F5F5F5F5F5F5F5F5F5F5F5F5F5F5F5F5F5F5F5F5F5F5F5F5F5F5F5F5F5F5F5F5F5F5F5F5F5F5F5F5F5F5F5F5F5F5F5F5F5F5F5F5F5F5F5F5F5F5F5F5F5F5F5F5F5F5F5F5F5F5F5F5F5F5F50000E2F5F5F5
310
F5F5F5F5F5F5F5F5F5F5F5F5F5F5F5F5F5F5F5F5F5F5F5F5F5F5F5F5F5F5F5F5F5F5F5F5F5F5F5F5F5F5F5F5F5F5F5F5F5F5F5F5F5F5F5F5F5F5F5F5F5F5F5F5F5F5F5F5F5F5F5F5F5F5F5F5F5F5F5F5F5F5F5F5F5F5F5F5F5F5F5F5F5F50000E2F5F5F5F5F5F5F5F5F5F5F5F5F5F5F5F5F5F5F5F5F5F5F5F5F5F5F5F5F5F5
310
F5F5F5F5F5F5F5F5F5F5F5F5F5F5F5F5F5F5F5F5F5F5F5F5F5F5F5F5F5F5F5F5F5F5F5F5F5F5F5F5F5F5F5F5F5F5F5F5F5F5F5F5F5F5F5F5F5F5F5F5F5F5F5F5F5F5F50000E2F5F5F5F5F5F5F5F5F5F5F5F5F5F5F5F5F5F5F5F5F5F5F5F5F5F5F5F5F5F5F5F5F5F5F5F5F5F5F5F5F5F5F5F5F5F5F5F5F5F5F5F5F5F5F5F5F5
310
F5F5F5F5F5F5F5F5F5F5F5F5F5F5F5F5F5F5F5F5F5F5F5F5F5F5F5F5F5F5F5F5F5F5F5F5F5F5F5F50000E2F5F5F5F5F5F5F5F5F5F5F5F5F5F5F5F5F5F5F5F5F5F5F5F5F5F5F5F5F5F5F5F5F5F5F5F5F5F5F5F5F5F5F5F5F5F5F5F5F5F5F5F5F5F5F5F5F5F5F5F5F5F5F5F5F5F5F5F5F5F5F5F5F5F5F5F5F5F5F5F5F5F5F5F5
310
F5F5F5F5F5F5F5F5F5F5F5F5F50000E2F5F5F5F5F5F5F5F5F5F5F5F5F5F5F5F5F5F5F5F5F5F5F5F5F5F5F5F5F5F5F5F5F5F5F5F5F5F5F5F5F5F5F5F5F5F5F5F5F5F5F5F5F5F5F5F5F5F5F5F5F5F5F5F5F5F5F5F5F5F5F5F5F5F5F5F5F5F5F5F5F5F5F5F5F5F5F5F5F5F5F5F5F5F5F5F5F50000E2F5F5F5E2F5F5F5F5F5F5F5
310
F5F5F5F5F5F5F5F5F5F5F5F5F5F5F5F5F5F5F5F5F5F5F5F5F5F5F5F5F5F5F5F5F5F5F5F5F5F5F5F5F5F5F5F5F5F5F5F5F5F5F5F5F5F5F5F5F5F5F5F5F5F5F5F5F5F5F5F5F5F5F5F5F5F5F5F5F5F5F5F5F5F5E2F5F5F50000E2F5F5F5E2F5F5F5F5F5F5F5F5F5F5F5F5F5F5F5F5F5F5F5F5F5F5F5F5F5F5F5F5F5F5F5F5F5F5
310
F5F5F5F5F5F5F5F5F5F5F5F5F5F5F5F5F5F5F5F5F5F5F5F5F5F5F5F5F5F5F5F5F5F5F5F5F5F5F5F5F5F5F5F5F5F5F5F5F5F5F5F5F5F5F5E2F5F5F50000E2F5F5F5E2F5F5F5F5F5F5F5F5F5F5F5F5F5F5F5F5F5F5F5F5F5F5F5F5F5F5F5F5F5F5F5F5F5F5F5F5F5F5F5F5F5F5F5F5F5F5F5F5F5F5F5F5F5F5F5F5F5F5F5F5F5
310
F5F5F5F5F5F5F5F5F5F5F5F5F5F5F5F5F5F5F5F5F5F5F5F5F5F5F5F5E2F5F5F50000E2F5F5F5E2F5F5F5F5F5F5F5F5F5F5F5F5F5F5F5F5F5F5F5F5F5F5F5F5F5F5F5F5F5F5F5F5F5F5F5F5F5F5F5F5F5F5F5F5F5F5F5F5F5F5F5F5F5F5F5F5F5F5F5F5F5F5F5F5F5F5F5F5F5F5F5F5F5F5F5F5F5F5F5F5F5F5F5F5F5F5F5F5
310
F5E2F5F5F50000E2F5F5F5E2F5F5F5F5F5F5F5F5F5F5F5F5F5F5F5F5F5F5F5F5F5F5F5F5F5F5F5F5F5F5F5F5F5F5F5F5F5F5F5F5F5F5F5F5F5F5F5F5F5F5F5F5F5F5F5F5F5F5F5F5F5F5F5F5F5F5F5F5F5F5F5F5F5F5F5F5F5F5F5F5F5F5F5F5F5F5F5F5F5E2F5F5F50000E2F5F5F5E2F5F5F5F5F5F5F5F5F5F5F5F5F5F5F5
310
F5F5F5F5F5F5F5F5F5F5F5F5F5F5F5F5F5F5F5F5F5F5F5F5F5F5F5F5F5F5F5F5F5F5F5F5F5F5F5F5F5F5F5F5F5F5F5F5F5F5F5F5F5F5F5F5F5F5F5F5F5F5F5F5F5F5F5F5F5F5F5F5F5F5E2F5F5F50000E2F5F5F5E2F5F5F5F5F5F5F5F5F5F5F5F5F5F5F5F5F5F5F5F5F5F5F5F5F5F5F5F5F5F5F5F5F5F5F5F5F5F5F5F5F5F5
310
F5F5F5F5F5F5F5F5F5F5F5F5F5F5F5F5F5F5F5F5F5F5F5F5F5F5F5F5F5F5F5F5F5F5F5F5F5F5F5F5F5F5F5F5F5F5F5E2F5F5F50000E2F5F5F5E2F5F5F5F5F5F5F5F5F5F5F5F5F5F5F5F5F5F5F5F5F5F5F5F5F5F5F5F5F5F5F5F5F5F5F5F5F5F5F5F5F5F5F5F5F5F5F5F5F5F5F5F5F5F5F5F5F5F5F5F5F5F5F5F5F5F5F5F5F5
310
F5F5F5F5F5F5F5F5F5F5F5F5F5F5F5F5F5F5F5F5E2F5F5F50000E2F5F5F5E2F5F5F5F5F5F5F5F5F5F5F5F5F5F5F5F5F5F5F5F5F5F5F5F5F5F5F5F5F5F5F5F5F5F5F5F5F5F5F5F5F5F5F5F5F5F5F5F5F5F5F5F5F5F5F5F5F5F5F5F5F5F5F5F5F5F5F5F5F5F5F5F5F5F5F5F5F5F5F5F5F5F5F5F5F5F5F5F5F5E2F5F5F50000E2
310
F5F5F5E2F5F5F5F5F5F5F5F5F5F5F5F5F5F5F5F5F5F5F5F5F5F5F5F5F5F5F5F5F5F5F5F5F5F5F5F5F5F5F5F5F5F5F5F5F5F5F5F5F5F5F5F5F5F5F5F5F5F5F5F5F5F5F5F5F5F5F5F5F5F5F5F5F5F5F5F5F5F5F5F5F5F5F5F5F5F5F5F5F5E2F5F5F50000E2F5F5F5E2F5F5F5F5F5F5F5F5F5F5F5F5F5F5F5F5F5F5F5F5F5F5F5
310
F5F5F5F5F5F5F5F5F5F5F5F5F5F5F5F5F5F5F5F5F5F5F5F5F5F5F5F5F5F5F5F5F5F5F5F5F5F5F5F5F5F5F5F5F5F5F5F5F5F5F5F5F5F5F5F5F5F5F5F5F5F5F5F5F5F5E2F5F5F50000E2F5F5F5E2F5F5F5F5F5F5F5F5F5F5F5F5F5F5F5F5F5F5F5F5F5F5F5F5F5F5F5F5F5F5F5F5F5F5F5F5F5F5F5F5F5F5F5F5F5F5F5F5F5F5
310
F5F5F5F5F5F5F5F5F5F5F5F5F5F5F5F5F5F5F5F5F5F5F5F5F5F5F5F5F5F5F5F5F5F5F5F5F5F5F5E2F5F5F50000E2F5F5F5E2F5F5F5F5F5F5F5F5F5F5F5F5F5F5F5F5F5F5F5F5F5F5F5F5F5F5F5F5F5F5F5F5F5F5F5F5F5F5F5F5F5F5F5F5F5F5F5F5F5F5F5F5F5F5F5F5F5F5F5F5F5F5F5F5F5F5F5F5F5F5F5F5F5F5F5F5F5
310
F5F5F5F5F5F5F5F5F5F5F5F5E2F5F5F50000E2F5F5F5E2F5F5F5F5F5F5F5F5F5F5F5F5F5F5F5F5F5F5F5F5F5F5F5F5F5F5F5F5F5F5F5F5F5F5F5F5F5F5F5F5F5F5F5F5F5F5F5F5F5F5F5F5F5F5F5F5F5F5F5F5F5F5F5F5F5F5F5F5F5F5F5F5F5F5F5F5F5F5F5F5F5F5F5F5F5F5F5F5F5E2F5F5F50000E2F5F5F5E2F5F5F5F5
310
F5F5F5F5F5F5F5F5F5F5F5F5F5F5F5F5F5F5F5F5F5F5F5F5F5F5F5F5F5F5F5F5F5F5F5F5F5F5F5F5F5F5F5F5F5F5F5F5F5F5F5F5F5F5F5F5F5F5F5F5F5F5F5F5F5F5F5F5F5F5F5F5F5F5F5F5F5F5F5F5F5F5F5F5F5E2F5F5F50000E2F5F5F5E2F5F5F5F5F5F5F5F5F5F5F5F5F5F5F5F5F5F5F5F5F5F5F5F5F5F5F5F5F5F5F5
310
F5F5F5F5F5F5F5F5F5F5F5F5F5F5F5F5F5F5F5F5F5F5F5F5F5F5F5F5F5F5F5F5F5F5F5F5F5F5F5F5F5F5F5F5F5F5F5F5F5F5F5F5F5F5F5F5F5F5E2F5F5F50000E2F5F5F5E2F5F5F5F5F5F5F5F5F5F5F5F5F5F5F5F5F5F5F5F5F5F5F5F5F5F5F5F5F5F5F5F5F5F5F5F5F5F5F5F5F5F5F5F5F5F5F5F5F5F5F5F5F5F5F5F5F5F5
310
F5F5F5F5F5F5F5F5F5F5F5F5F5F5F5F5F5F5F5F5F5F5F5F5F5F5F5F5F5F5F5E2F5F5F50000E2F5F5F5F5F5F5F5F5F5F5F5F5F5F5F5F5F5F5F5F5F5F5F5F5F5F5F5F5F5F5F5F5F5F5F5F5F5F5F5F5F5F5F5F5F5F5F5F5F5F5F5F5F5F5F5F5F5F5F5F5F5F5F5F5F5F5F5F5F5F5F5F5F5F5F5F5F5F5F5F5F5F5F5F5F5F5F5F5F5
310
F5F5F5F5F5F5F5F50000E2F5F5F5F5F5F5F5F5F5F5F5F5F5F5F5F5F5F5F5F5F5F5F5F5F5F5F5F5F5F5F5F5F5F5F5F5F5F5F5F5F5F5F5F5F5F5F5F5F5F5F5F5F5F5F5F5F5F5F5F5F5F5F5F5F5F5F5F5F5F5F5F5F5F5F5F5F5F5F5F5F5F5F5F5F5F5F5F5F5F5F5F5F5F5F5F5F50000E2F5F5F5F5F5F5F5F5F5F5F5F5F5F5F5F5
310
F5F5F5F5F5F5F5F5F5F5F5F5F5F5F5F5F5F5F5F5F5F5F5F5F5F5F5F5F5F5F5F5F5F5F5F5F5F5F5F5F5F5F5F5F5F5F5F5F5F5F5F5F5F5F5F5F5F5F5F5F5F5F5F5F5F5F5F5F5F5F5F5F5F5F5F5F5F5F5F5F50000E2F5F5F5F5F5F5F5F5F5F5F5F5F5F5F5F5F5F5F5F5F5F5F5F5F5F5F5F5F5F5F5F5F5F5F5F5F5F5F5F5F5F5F5
310
F5F5F5F5F5F5F5F5F5F5F5F5F5F5F5F5F5F5F5F5F5F5F5F5F5F5F5F5F5F5F5F5F5F5F5F5F5F5F5F5F5F5F5F5F5F5F5F5F5F5F5F5F5F50000E2F5F5F5F5F5F5F5F5F5F5F5F5F5F5F5F5F5F5F5F5F5F5F5F5F5F5F5F5F5F5F5F5F5F5F5F5F5F5F5F5F5F5F5F5F5F5F5F5F5F5F5F5F5F5F5F5F5F5F5F5F5F5F5F5F5F5F5F5F5F5
310
F5F5F5F5F5F5F5F5F5F5F5F5F5F5F5F5F5F5F5F5F5F5F5F5F5F5F50000E2F5F5F5F5F5F5F5F5F5F5F5F5F5F5F5F5F5F5F5F5F5F5F5F5F5F5F5F5F5F5F5F5F5F5F5F5F5F5F5F5F5F5F5F5F5F5F5F5F5F5F5F5F5F5F5F5F5F5F5F5F5F5F5F5F5F5F5F5F5F5F5F5F5F5F5F5F5F5F5F5F5F5F5F5F5F5F5F5F5F5F5F5F5F5F5F5F5
310
0000E2F5F5F5F5F5F5F5F5F5F5F5F5F5F5F5F5F5F5F5F5F5F5F5F5F5F5F5F5F5F5F5F5F5F5F5F5F5F5F5F5F5F5F5F5F5F5F5F5F5F5F5F5F5F5F5F5F5F5F5F5F5F5F5F5F5F5F5F5F5F5F5F5F5F5F5F5F5F5F5F5F5F5F5F5F5F5F5F5F5F5F5F5F5F5F5F5F50000E2F5F5F5F5F5F5F5F5F5F5F5F5F5F5F5F5F5F5F5F5F5F5F5F5
310
F5F5F5F5F5F5F5F5F5F5F5F5F5F5F5F5F5F5F5F5F5F5F5F5F5F5F5F5F5F5F5F5F5F5F5F5F5F5F5F5F5F5F5F5F5F5F5F5F5F5F5F5F5F5F5F5F5F5F5F5F5F5F5F5F5F5F5F5F5F5F5F5F50000E2F5F5F5F5F5F5F5F5F5F5F5F5F5F5F5F5F5F5F5F5F5F5F5F5F5F5F5F5F5F5F5F5F5F5F5F5F5F5F5F5F5F5F5F5F5F5F5F5F5F5F5
310
F5F5F5F5F5F5F5F5F5F5F5F5F5F5F5F5F5F5F5F5F5F5F5F5F5F5F5F5F5F5F5F5F5F5F5F5F5F5F5F5F5F5F5F5F5F50000E2F5F5F5E2F5F5F5F5F5F5F5F5F5F5F5F5F5F5F5F5F5F5F5F5F5F5F5F5F5F5F5F5F5F5F5F5F5F5F5F5F5F5F5F5F5F5F5F5F5F5F5F5F5F5F5F5F5F5F5F5F5F5F5F5F5F5F5F5F5F5F5F5F5F5F5F5F5F5
310
F5F5F5F5F5F5F5F5F5F5F5F5F5F5F5E2F5F5F50000E2F5F5F5E2F5F5F5F5F5F5F5F5F5F5F5F5F5F5F5F5F5F5F5F5F5F5F5F5F5F5F5F5F5F5F5F5F5F5F5F5F5F5F5F5F5F5F5F5F5F5F5F5F5F5F5F5F5F5F5F5F5F5F5F5F5F5F5F5F5F5F5F5F5F5F5F5F5F5F5F5F5F5F5F5F5F5F5F5F5F5F5F5F5E2F5F5F50000E2F5F5F5E2F5
310
F5F5F5F5F5F5F5F5F5F5F5F5F5F5F5F5F5F5F5F5F5F5F5F5F5F5F5F5F5F5F5F5F5F5F5F5F5F5F5F5F5F5F5F5F5F5F5F5F5F5F5F5F5F5F5F5F5F5F5F5F5F5F5F5F5F5F5F5F5F5F5F5F5F5F5F5F5F5F5F5F5F5F5F5F5F5F5F5E2F5F5F50000E2F5F5F5E2F5F5F5F5F5F5F5F5F5F5F5F5F5F5F5F5F5F5F5F5F5F5F5F5F5F5F5F5
310
F5F5F5F5F5F5F5F5F5F5F5F5F5F5F5F5F5F5F5F5F5F5F5F5F5F5F5F5F5F5F5F5F5F5F5F5F5F5F5F5F5F5F5F5F5F5F5F5F5F5F5F5F5F5F5F5F5F5F5F5F5E2F5F5F50000E2F5F5F5E2F5F5F5F5F5F5F5F5F5F5F5F5F5F5F5F5F5F5F5F5F5F5F5F5F5F5F5F5F5F5F5F5F5F5F5F5F5F5F5F5F5F5F5F5F5F5F5F5F5F5F5F5F5F5F5
310
F5F5F5F5F5F5F5F5F5F5F5F5F5F5F5F5F5F5F5F5F5F5F5F5F5F5F5F5F5F5F5F5F5F5E2F5F5F50000E2F5F5F5E2F5F5F5F5F5F5F5F5F5F5F5F5F5F5F5F5F5F5F5F5F5F5F5F5F5F5F5F5F5F5F5F5F5F5F5F5F5F5F5F5F5F5F5F5F5F5F5F5F5F5F5F5F5F5F5F5F5F5F5F5F5F5F5F5F5F5F5F5F5F5F5F5F5F5F5F5F5F5F5F5F5F5
310
F5F5F5F5F5F5F5E2F5F5F50000E2F5F5F5E2F5F5F5F5F5F5F5F5F5F5F5F5F5F5F5F5F5F5F5F5F5F5F5F5F5F5F5F5F5F5F5F5F5F5F5F5F5F5F5F5F5F5F5F5F5F5F5F5F5F5F5F5F5F5F5F5F5F5F5F5F5F5F5F5F5F5F5F5F5F5F5F5F5F5F5F5F5F5F5F5F5F5F5F5F5F5F5F5F5E2F5F5F50000E2F5F5F5E2F5F5F5F5F5F5F5F5F5
310
F5F5F5F5F5F5F5F5F5F5F5F5F5F5F5F5F5F5F5F5F5F5F5F5F5F5F5F5F5F5F5F5F5F5F5F5F5F5F5F5F5F5F5F5F5F5F5F5F5F5F5F5F5F5F5F5F5F5F5F5F5F5F5F5F5F5F5F5F5F5F5F5F5F5F5F5F5F5F5F5E2F5F5F50000E2F5F5F5E2E2E2E2E2E2E2E2F5F5F5F5F5F5F5F5E2E2E2E2E2E2E2E2E2E2E2E2E2E2F5F5F5F5F5F5F5
310
F5E2E2E2E2E2E2E2E2E2E2E2E2E2E2E2F5F5F5F5F5F5F5F5E2E2E2E2E2E2E2E2E2E2E2E2E2E2F5F5F5F5F5F5F5F5E2E2E2E2E2E2E2E2F5F5F50000E2F5F5F5F5F5F5F5F5F5F5F5F5F5F5F5F5F5F5F5F5F5F5F5F5F5F5F5F5F5F5F5F5F5F5F5F5F5F5F5F5F5F5F5F5F5F5F5F5F5F5F5F5F5F5F5F5F5F5F5F5F5F5F5F5F5F5F5
310
F5F5F5F5F5F5F5F5F5F5F5F5F5F5F5F5F5F5F5F5F5F5F5F5F5F5F5F5F5F50000E2F5F5F5F5F5F5F5F5F5F5F5F5F5F5F5F5F5F5F5F5F5F5F5F5F5F5F5F5F5F5F5F5F5F5F5F5F5F5F5F5F5F5F5F5F5F5F5F5F5F5F5F5F5F5F5F5F5F5F5F5F5F5F5F5F5F5F5F5F5F5F5F5F5F5F5F5F5F5F5F5F5F5F5F5F5F5F5F5F5F5F5F5F5F5
310
F5F5F50000E2E2E2E2E2E2E2E2E2E2E2E2E2E2E2E2E2E2E2E2E2E2E2E2E2E2E2E2E2E2E2E2E2E2E2E2E2E2E2E2E2E2E2E2E2E2E2E2E2E2E2E2E2E2E2E2E2E2E2E2E2E2E2E2E2E2E2E2E2E2E2E2E2E2E2E2E2E2E2E2E2E2E2E2E2E2E2E2E2E2E2E2E2E2E2E2E2E20000EFEFEFEFEFEFEFEFEFEFEFEFEFEFEFEFEFEFEFEFEFEF
310
EFEFEFEFEFEFEFEFEFEFEFEFEFEFEFEFEFEFEFEFEFEFEFEFEFEFEFEFEFEFEFEFEFEFEFEFEFEFEFEFEFEFEFEFEFEFEFEFEFEFEFEFEFEFEFEFEFEFEFEFEFEFEFEFEFEFEFEFEFEFEFEFEFEFEFEF0000
  0
XRECORD
  5
3D98D
102
{ACAD_REACTORS
330
3D98C
102
}
330
3D98C
100
AcDbXrecord
280
     1
102
SHADEPLOT
 70
     0
102
SHADEPLOTRESLEVEL
 70
     2
102
SHADEPLOTCUSTOMDPI
 70
   300
  0
XRECORD
  5
3BDF0
102
{ACAD_REACTORS
330
3BDEF
102
}
330
3BDEF
100
AcDbXrecord
280
     1
102
MATERIAL
148
0.0
149
0.0
149
0.0
 93
        0
 94
       63
282
     0
 72
     1
 77
     1
171
     1
175
     1
179
     1
273
     0
  0
XRECORD
  5
3BDEE
102
{ACAD_REACTORS
330
3BDED
102
}
330
3BDED
100
AcDbXrecord
280
     1
102
MATERIAL
148
0.0
149
0.0
149
0.0
 93
        0
 94
       63
282
     0
 72
     1
 77
     1
171
     1
175
     1
179
     1
273
     0
  0
XRECORD
  5
3BDF2
102
{ACAD_REACTORS
330
3BDF1
102
}
330
3BDF1
100
AcDbXrecord
280
     1
102
MATERIAL
148
0.0
149
0.0
149
0.0
 93
        0
 94
       63
282
     0
 72
     1
 77
     1
171
     1
175
     1
179
     1
273
     0
  0
XRECORD
  5
3D990
102
{ACAD_REACTORS
330
3D98F
102
}
330
3D98F
100
AcDbXrecord
280
     1
102
ACAD_ROUNDTRIP_PRE2007_TABLESTYLE
 90
      512
 91
        0
  1

 92
      512
 93
        0
  2

 94
      512
 95
        0
  3

  0
ENDSEC
  0
EOF
