  0
SECTION
  2
HEADER
  9
$ACADVER
  1
AC1014
  9
$ACADMAINTVER
 70
     9
  9
$DWGCODEPAGE
  3
ANSI_1252
  9
$INSBASE
 10
0.0
 20
0.0
 30
0.0
  9
$EXTMIN
 10
525.3122349332097
 20
86.33870080881207
 30
-0.0015258207003583
  9
$EXTMAX
 10
703.9512135405312
 20
493.1267834429291
 30
0.0000000349246037
  9
$LIMMIN
 10
0.0
 20
0.0
  9
$LIMMAX
 10
420.0
 20
297.0
  9
$ORTHOMODE
 70
     0
  9
$REGENMODE
 70
     1
  9
$FILLMODE
 70
     1
  9
$QTEXTMODE
 70
     0
  9
$MIRRTEXT
 70
     1
  9
$DRAGMODE
 70
     2
  9
$LTSCALE
 40
1.0
  9
$OSMODE
 70
   167
  9
$ATTMODE
 70
     1
  9
$TEXTSIZE
 40
2.5
  9
$TRACEWID
 40
1.0
  9
$TEXTSTYLE
  7
STANDARD
  9
$CLAYER
  8
0
  9
$CELTYPE
  6
BYLAYER
  9
$CECOLOR
 62
   256
  9
$CELTSCALE
 40
1.0
  9
$DELOBJ
 70
     1
  9
$DISPSILH
 70
     0
  9
$DIMSCALE
 40
1.0
  9
$DIMASZ
 40
2.5
  9
$DIMEXO
 40
0.625
  9
$DIMDLI
 40
3.75
  9
$DIMRND
 40
0.0
  9
$DIMDLE
 40
0.0
  9
$DIMEXE
 40
1.25
  9
$DIMTP
 40
0.0
  9
$DIMTM
 40
0.0
  9
$DIMTXT
 40
2.5
  9
$DIMCEN
 40
2.5
  9
$DIMTSZ
 40
0.0
  9
$DIMTOL
 70
     0
  9
$DIMLIM
 70
     0
  9
$DIMTIH
 70
     0
  9
$DIMTOH
 70
     0
  9
$DIMSE1
 70
     0
  9
$DIMSE2
 70
     0
  9
$DIMTAD
 70
     1
  9
$DIMZIN
 70
     8
  9
$DIMBLK
  1

  9
$DIMASO
 70
     1
  9
$DIMSHO
 70
     1
  9
$DIMPOST
  1

  9
$DIMAPOST
  1

  9
$DIMALT
 70
     0
  9
$DIMALTD
 70
     3
  9
$DIMALTF
 40
0.03937007874016
  9
$DIMLFAC
 40
1.0
  9
$DIMTOFL
 70
     1
  9
$DIMTVP
 40
0.0
  9
$DIMTIX
 70
     0
  9
$DIMSOXD
 70
     0
  9
$DIMSAH
 70
     0
  9
$DIMBLK1
  1

  9
$DIMBLK2
  1

  9
$DIMSTYLE
  2
ISO-25
  9
$DIMCLRD
 70
     0
  9
$DIMCLRE
 70
     0
  9
$DIMCLRT
 70
     0
  9
$DIMTFAC
 40
1.0
  9
$DIMGAP
 40
0.625
  9
$DIMJUST
 70
     0
  9
$DIMSD1
 70
     0
  9
$DIMSD2
 70
     0
  9
$DIMTOLJ
 70
     0
  9
$DIMTZIN
 70
     8
  9
$DIMALTZ
 70
     0
  9
$DIMALTTZ
 70
     0
  9
$DIMFIT
 70
     3
  9
$DIMUPT
 70
     0
  9
$DIMUNIT
 70
     2
  9
$DIMDEC
 70
     2
  9
$DIMTDEC
 70
     2
  9
$DIMALTU
 70
     2
  9
$DIMALTTD
 70
     3
  9
$DIMTXSTY
  7
STANDARD
  9
$DIMAUNIT
 70
     0
  9
$LUNITS
 70
     2
  9
$LUPREC
 70
     4
  9
$SKETCHINC
 40
1.0
  9
$FILLETRAD
 40
10.0
  9
$AUNITS
 70
     0
  9
$AUPREC
 70
     0
  9
$MENU
  1
.
  9
$ELEVATION
 40
0.0
  9
$PELEVATION
 40
0.0
  9
$THICKNESS
 40
0.0
  9
$LIMCHECK
 70
     0
  9
$BLIPMODE
 70
     0
  9
$CHAMFERA
 40
10.0
  9
$CHAMFERB
 40
10.0
  9
$CHAMFERC
 40
20.0
  9
$CHAMFERD
 40
0.0
  9
$SKPOLY
 70
     0
  9
$TDCREATE
 40
2452572.534515093
  9
$TDUPDATE
 40
2452572.541619166
  9
$TDINDWG
 40
0.0071068634
  9
$TDUSRTIMER
 40
0.0071067477
  9
$USRTIMER
 70
     1
  9
$ANGBASE
 50
0.0
  9
$ANGDIR
 70
     0
  9
$PDMODE
 70
     0
  9
$PDSIZE
 40
0.0
  9
$PLINEWID
 40
0.0
  9
$COORDS
 70
     1
  9
$SPLFRAME
 70
     0
  9
$SPLINETYPE
 70
     6
  9
$SPLINESEGS
 70
     8
  9
$ATTDIA
 70
     0
  9
$ATTREQ
 70
     1
  9
$HANDLING
 70
 10241
  9
$HANDSEED
  5
3EE8
  9
$SURFTAB1
 70
     6
  9
$SURFTAB2
 70
     6
  9
$SURFTYPE
 70
     6
  9
$SURFU
 70
     6
  9
$SURFV
 70
     6
  9
$UCSNAME
  2

  9
$UCSORG
 10
0.0
 20
0.0
 30
0.0
  9
$UCSXDIR
 10
1.0
 20
0.0
 30
0.0
  9
$UCSYDIR
 10
0.0
 20
1.0
 30
0.0
  9
$PUCSNAME
  2

  9
$PUCSORG
 10
0.0
 20
0.0
 30
0.0
  9
$PUCSXDIR
 10
1.0
 20
0.0
 30
0.0
  9
$PUCSYDIR
 10
0.0
 20
1.0
 30
0.0
  9
$USERI1
 70
     0
  9
$USERI2
 70
     0
  9
$USERI3
 70
     0
  9
$USERI4
 70
     0
  9
$USERI5
 70
     0
  9
$USERR1
 40
0.0
  9
$USERR2
 40
0.0
  9
$USERR3
 40
0.0
  9
$USERR4
 40
0.0
  9
$USERR5
 40
0.0
  9
$WORLDVIEW
 70
     1
  9
$SHADEDGE
 70
     3
  9
$SHADEDIF
 70
    70
  9
$TILEMODE
 70
     1
  9
$MAXACTVP
 70
    64
  9
$PINSBASE
 10
0.0
 20
0.0
 30
0.0
  9
$PLIMCHECK
 70
     0
  9
$PEXTMIN
 10
1.000000000000000E+20
 20
1.000000000000000E+20
 30
1.000000000000000E+20
  9
$PEXTMAX
 10
-1.000000000000000E+20
 20
-1.000000000000000E+20
 30
-1.000000000000000E+20
  9
$PLIMMIN
 10
0.0
 20
0.0
  9
$PLIMMAX
 10
420.0
 20
297.0
  9
$UNITMODE
 70
     0
  9
$VISRETAIN
 70
     1
  9
$PLINEGEN
 70
     0
  9
$PSLTSCALE
 70
     1
  9
$TREEDEPTH
 70
  3020
  9
$PICKSTYLE
 70
     1
  9
$CMLSTYLE
  2
STANDARD
  9
$CMLJUST
 70
     0
  9
$CMLSCALE
 40
20.0
  9
$PROXYGRAPHICS
 70
     1
  9
$MEASUREMENT
 70
     1
  0
ENDSEC
  0
SECTION
  2
CLASSES
  0
CLASS
  1
ACDBDICTIONARYWDFLT
  2
AcDbDictionaryWithDefault
  3
AutoCAD 2000
 90
        0
280
     0
281
     0
  0
CLASS
  1
ACDBPLACEHOLDER
  2
AcDbPlaceHolder
  3
AutoCAD 2000
 90
        0
280
     0
281
     0
  0
CLASS
  1
LAYOUT
  2
AcDbLayout
  3
AutoCAD 2000
 90
        0
280
     0
281
     0
  0
CLASS
  1
LONG_TRANSACTION
  2
AcDbLongTransaction
  3
AutoCAD 2000
 90
        0
280
     0
281
     0
  0
CLASS
  1
LWPOLYLINE
  2
AcDbPolyline
  3
AutoCAD 2000
 90
        0
280
     0
281
     1
  0
CLASS
  1
HATCH
  2
AcDbHatch
  3
AutoCAD 2000
 90
        0
280
     0
281
     1
  0
CLASS
  1
XRECORD
  2
AcDbXrecord
  3
AutoCAD 2000
 90
        0
280
     0
281
     0
  0
ENDSEC
  0
SECTION
  2
TABLES
  0
TABLE
  2
VPORT
  5
8
330
0
100
AcDbSymbolTable
 70
     8
  0
VPORT
  5
3EC0
330
8
100
AcDbSymbolTableRecord
100
AcDbViewportTableRecord
  2
*ACTIVE
 70
     0
 10
0.0
 20
0.0
 11
1.0
 21
1.0
 12
351.9756067702655
 22
246.5633917214645
 13
0.0
 23
0.0
 14
10.0
 24
10.0
 15
10.0
 25
10.0
 16
0.0
 26
0.0
 36
1.0
 17
0.0
 27
0.0
 37
0.0
 40
496.7350281998285
 41
1.471306471306471
 42
50.0
 43
0.0
 44
0.0
 50
0.0
 51
0.0
 71
     0
 72
   100
 73
     1
 74
     3
 75
     0
 76
     0
 77
     0
 78
     0
  0
ENDTAB
  0
TABLE
  2
LTYPE
  5
5
330
0
100
AcDbSymbolTable
 70
     3
  0
LTYPE
  5
14
330
5
100
AcDbSymbolTableRecord
100
AcDbLinetypeTableRecord
  2
BYBLOCK
 70
     0
  3

 72
    65
 73
     0
 40
0.0
  0
LTYPE
  5
15
330
5
100
AcDbSymbolTableRecord
100
AcDbLinetypeTableRecord
  2
BYLAYER
 70
     0
  3

 72
    65
 73
     0
 40
0.0
  0
LTYPE
  5
16
330
5
100
AcDbSymbolTableRecord
100
AcDbLinetypeTableRecord
  2
CONTINUOUS
 70
     0
  3
Solid line
 72
    65
 73
     0
 40
0.0
  0
ENDTAB
  0
TABLE
  2
LAYER
  5
2
330
0
100
AcDbSymbolTable
 70
    13
  0
LAYER
  5
10
330
2
100
AcDbSymbolTableRecord
100
AcDbLayerTableRecord
  2
0
 70
     0
 62
     7
  6
CONTINUOUS
  0
LAYER
  5
3C38
330
2
100
AcDbSymbolTableRecord
100
AcDbLayerTableRecord
  2
DEFPOINTS
 70
     0
 62
     7
  6
CONTINUOUS
  0
ENDTAB
  0
TABLE
  2
STYLE
  5
3
330
0
100
AcDbSymbolTable
 70
     4
  0
STYLE
  5
11
330
3
100
AcDbSymbolTableRecord
100
AcDbTextStyleTableRecord
  2
STANDARD
 70
     0
 40
0.0
 41
1.0
 50
0.0
 71
     0
 42
2.5
  3
txt
  4

  0
ENDTAB
  0
TABLE
  2
VIEW
  5
6
330
0
100
AcDbSymbolTable
 70
     0
  0
ENDTAB
  0
TABLE
  2
UCS
  5
7
330
0
100
AcDbSymbolTable
 70
     0
  0
ENDTAB
  0
TABLE
  2
APPID
  5
9
330
0
100
AcDbSymbolTable
 70
     1
  0
APPID
  5
12
330
9
100
AcDbSymbolTableRecord
100
AcDbRegAppTableRecord
  2
ACAD
 70
     0
  0
ENDTAB
  0
TABLE
  2
DIMSTYLE
  5
A
330
0
100
AcDbSymbolTable
 70
     9
  0
DIMSTYLE
105
27
102
{ACAD_REACTORS
330
3E50
330
3E78
102
}
330
A
100
AcDbSymbolTableRecord
100
AcDbDimStyleTableRecord
  2
ISO-25
 70
     0
  3

  4

  5

  6

  7

 40
1.0
 41
2.5
 42
0.625
 43
3.75
 44
1.25
 45
0.0
 46
0.0
 47
0.0
 48
0.0
140
2.5
141
2.5
142
0.0
143
0.03937007874016
144
1.0
145
0.0
146
1.0
147
0.625
 71
     0
 72
     0
 73
     0
 74
     0
 75
     0
 76
     0
 77
     1
 78
     8
170
     0
171
     3
172
     1
173
     0
174
     0
175
     0
176
     0
177
     0
178
     0
270
     2
271
     2
272
     2
273
     2
274
     3
340
11
275
     0
280
     0
281
     0
282
     0
283
     0
284
     8
285
     0
286
     0
287
     3
288
     0
  0
DIMSTYLE
105
3C3C
330
A
100
AcDbSymbolTableRecord
100
AcDbDimStyleTableRecord
  2
STANDARD
 70
     0
  3

  4

  5

  6

  7

 40
1.0
 41
0.18
 42
0.0625
 43
0.38
 44
0.18
 45
0.0
 46
0.0
 47
0.0
 48
0.0
140
0.18
141
0.09
142
0.0
143
25.4
144
1.0
145
0.0
146
1.0
147
0.09
 71
     0
 72
     0
 73
     1
 74
     1
 75
     0
 76
     0
 77
     0
 78
     0
170
     0
171
     2
172
     0
173
     0
174
     0
175
     0
176
     0
177
     0
178
     0
270
     2
271
     4
272
     4
273
     2
274
     2
340
11
275
     0
280
     0
281
     0
282
     0
283
     1
284
     0
285
     0
286
     0
287
     3
288
     0
  0
ENDTAB
  0
TABLE
  2
BLOCK_RECORD
  5
1
330
0
100
AcDbSymbolTable
 70
   317
  0
BLOCK_RECORD
  5
1F
102
{ACAD_XDICTIONARY
360
3EE4
102
}
330
1
100
AcDbSymbolTableRecord
100
AcDbBlockTableRecord
  2
*MODEL_SPACE
  0
BLOCK_RECORD
  5
1B
102
{ACAD_XDICTIONARY
360
3EE2
102
}
330
1
100
AcDbSymbolTableRecord
100
AcDbBlockTableRecord
  2
*PAPER_SPACE
  0
BLOCK_RECORD
  5
3E79
330
1
100
AcDbSymbolTableRecord
100
AcDbBlockTableRecord
  2
*D316
  0
ENDTAB
  0
ENDSEC
  0
SECTION
  2
BLOCKS
  0
BLOCK
  5
20
330
1F
100
AcDbEntity
  8
0
100
AcDbBlockBegin
  2
*MODEL_SPACE
 70
     0
 10
0.0
 20
0.0
 30
0.0
  3
*MODEL_SPACE
  1

  0
ENDBLK
  5
21
330
1F
100
AcDbEntity
  8
0
100
AcDbBlockEnd
  0
BLOCK
  5
1C
330
1B
100
AcDbEntity
 67
     1
  8
0
100
AcDbBlockBegin
  2
*PAPER_SPACE
 70
     0
 10
0.0
 20
0.0
 30
0.0
  3
*PAPER_SPACE
  1

  0
ENDBLK
  5
1D
330
1B
100
AcDbEntity
 67
     1
  8
0
100
AcDbBlockEnd
  0
BLOCK
  5
3E83
330
3E79
100
AcDbEntity
  8
0
100
AcDbBlockBegin
  2
*D316
 70
     1
 10
0.0
 20
0.0
 30
0.0
  3
*D316
  1

  0
LINE
  5
3E8E
330
3E79
100
AcDbEntity
  8
0
 62
     0
100
AcDbLine
 10
662.0799684238582
 20
467.8352286933241
 30
0.0
 11
703.8008897393491
 21
467.8352286933241
 31
0.0
  0
LINE
  5
3E8F
330
3E79
100
AcDbEntity
  8
0
 62
     0
100
AcDbLine
 10
662.0799684238582
 20
257.8352286933242
 30
0.0
 11
703.8008897393491
 21
257.8352286933242
 31
0.0
  0
LINE
  5
3E90
330
3E79
100
AcDbEntity
  8
0
 62
     0
100
AcDbLine
 10
702.5508897393491
 20
465.3352286933242
 30
0.0
 11
702.5508897393491
 21
260.3352286933242
 31
0.0
  0
SOLID
  5
3E91
330
3E79
100
AcDbEntity
  8
0
 62
     0
100
AcDbTrace
 10
702.1342230726824
 20
465.3352286933242
 30
0.0
 11
702.9675564060157
 21
465.3352286933242
 31
0.0
 12
702.5508897393491
 22
467.8352286933241
 32
0.0
 13
702.5508897393491
 23
467.8352286933241
 33
0.0
  0
SOLID
  5
3E92
330
3E79
100
AcDbEntity
  8
0
 62
     0
100
AcDbTrace
 10
702.1342230726824
 20
260.3352286933242
 30
0.0
 11
702.9675564060157
 21
260.3352286933242
 31
0.0
 12
702.5508897393491
 22
257.8352286933242
 32
0.0
 13
702.5508897393491
 23
257.8352286933242
 33
0.0
  0
MTEXT
  5
3E93
330
3E79
100
AcDbEntity
  8
0
 62
     0
100
AcDbMText
 10
698.425889739349
 20
362.8352286933243
 30
0.0
 40
7.0
 41
0.0
 71
     5
 72
     1
  1
210
 11
0.0000000000000001
 21
1.0
 31
0.0
1001
ACAD
1000
MTEXTBEGIN
1070
    73
1070
     1
1070
    44
1040
1.0
1070
    74
1070
     0
1000
MTEXTEND
  0
POINT
  5
3E94
330
3E79
100
AcDbEntity
  8
DEFPOINTS
 62
     0
100
AcDbPoint
 10
661.4549684238582
 20
467.8352286933241
 30
0.0
  0
POINT
  5
3E95
330
3E79
100
AcDbEntity
  8
DEFPOINTS
 62
     0
100
AcDbPoint
 10
661.4549684238582
 20
257.8352286933242
 30
0.0
  0
POINT
  5
3E96
330
3E79
100
AcDbEntity
  8
DEFPOINTS
 62
     0
100
AcDbPoint
 10
702.5508897393491
 20
257.8352286933242
 30
0.0
  0
ENDBLK
  5
3E84
330
3E79
100
AcDbEntity
  8
0
100
AcDbBlockEnd
  0
ENDSEC
  0
SECTION
  2
ENTITIES
  0
LINE
  5
2F
330
1F
100
AcDbEntity
  8
0
100
AcDbLine
 10
565.5945077661126
 20
289.3352286933243
 30
0.0
 11
565.5945077661128
 21
436.3352286933243
 31
0.0
  0
LINE
  5
32
330
1F
100
AcDbEntity
  8
0
100
AcDbLine
 10
640.5945077661128
 20
482.8352286933243
 30
0.0
 11
585.0945077661126
 21
482.8352286933243
 31
0.0
  0
LINE
  5
34
330
1F
100
AcDbEntity
  8
0
100
AcDbLine
 10
582.0945077661126
 20
452.8352286933242
 30
0.0
 11
640.5945077661128
 21
452.8352286933242
 31
0.0
  0
LINE
  5
36
330
1F
100
AcDbEntity
  8
0
100
AcDbLine
 10
640.5945077661128
 20
272.8352286933242
 30
0.0
 11
582.0945077661126
 21
272.8352286933242
 31
0.0
  0
ARC
  5
3A
330
1F
100
AcDbEntity
  8
0
100
AcDbCircle
 10
640.5945077661128
 20
467.8352286933241
 30
0.0
 40
15.0
100
AcDbArc
 50
270.0
 51
90.0
  0
ARC
  5
3B
330
1F
100
AcDbEntity
  8
0
100
AcDbCircle
 10
640.5945077661128
 20
257.8352286933242
 30
0.0
 40
15.0
100
AcDbArc
 50
270.0
 51
90.0
  0
ARC
  5
3E4E
330
1F
100
AcDbEntity
  8
0
100
AcDbCircle
 10
582.0945077661126
 20
436.3352286933243
 30
0.0
 40
16.5
100
AcDbArc
 50
90.0
 51
180.0
  0
ARC
  5
3E4F
330
1F
100
AcDbEntity
  8
0
100
AcDbCircle
 10
585.0945077661126
 20
433.3352286933243
 30
0.0
 40
49.5
100
AcDbArc
 50
90.0
 51
180.0
  0
ARC
  5
3E5D
330
1F
100
AcDbEntity
  8
0
100
AcDbCircle
 10
585.0945077661126
 20
292.3352286933243
 30
0.0
 40
49.5
100
AcDbArc
 50
180.0
 51
270.0
  0
ARC
  5
3E5E
330
1F
100
AcDbEntity
  8
0
100
AcDbCircle
 10
582.0945077661126
 20
289.3352286933243
 30
0.0
 40
16.5
100
AcDbArc
 50
180.0
 51
270.0
  0
LINE
  5
3E5F
330
1F
100
AcDbEntity
  8
0
100
AcDbLine
 10
535.5945077661126
 20
433.3352286933243
 30
0.0
 11
535.5945077661126
 21
292.3352286933243
 31
0.0
  0
LINE
  5
3E60
330
1F
100
AcDbEntity
  8
0
100
AcDbLine
 10
585.0945077661126
 20
242.8352286933243
 30
0.0
 11
640.5945077661128
 21
242.8352286933242
 31
0.0
  0
LINE
  5
3E6F
330
1F
100
AcDbEntity
  8
0
100
AcDbLine
 10
603.9133796845853
 20
96.6374018781671
 30
0.0
 11
548.4133796845854
 21
96.63740187816712
 31
0.0
  0
LWPOLYLINE
  5
3E70
330
1F
100
AcDbEntity
  8
0
100
AcDbPolyline
 90
        2
 70
     0
 43
0.0
 10
603.9133796845853
 20
96.63740187816712
 10
548.4133796845854
 20
96.63740187816712
  0
LWPOLYLINE
  5
3E71
330
1F
100
AcDbEntity
  8
0
100
AcDbPolyline
 90
        2
 70
     0
 43
0.0
 10
548.4133796845854
 20
126.6374018781671
 10
606.9133796845854
 20
126.6374018781671
  0
ARC
  5
3E72
330
1F
100
AcDbEntity
  8
0
100
AcDbCircle
 10
603.9133796845853
 20
146.1374018781671
 30
0.0
 40
49.5
100
AcDbArc
 50
270.0
 51
0.000000000000007
  0
ARC
  5
3E73
330
1F
100
AcDbEntity
  8
0
100
AcDbCircle
 10
606.9133796845854
 20
143.1374018781671
 30
0.0
 40
16.5
100
AcDbArc
 50
270.0
 51
0.000000000000007
  0
LINE
  5
3E74
330
1F
100
AcDbEntity
  8
0
100
AcDbLine
 10
623.4133796845854
 20
181.6374018781671
 30
0.0
 11
653.4133796845853
 21
181.6374018781671
 31
0.0
  0
LINE
  5
3E75
330
1F
100
AcDbEntity
  8
0
100
AcDbLine
 10
653.4133796845853
 20
181.6374018781671
 30
0.0
 11
653.4133796845853
 21
146.1374018781671
 31
0.0
  0
LINE
  5
3E76
330
1F
100
AcDbEntity
  8
0
100
AcDbLine
 10
623.4133796845854
 20
181.6374018781671
 30
0.0
 11
623.4133796845854
 21
143.1374018781671
 31
0.0
  0
ARC
  5
3E77
330
1F
100
AcDbEntity
  8
0
100
AcDbCircle
 10
548.4133796845854
 20
111.6374018781671
 30
0.0
 40
15.0
100
AcDbArc
 50
90.0
 51
270.0
  0
DIMENSION
  5
3E78
330
1F
100
AcDbEntity
  8
0
100
AcDbDimension
  2
*D316
 10
702.5508897393491
 20
257.8352286933242
 30
0.0
 11
698.425889739349
 21
362.8352286933243
 31
0.0
 70
    32
  3
ISO-25
100
AcDbAlignedDimension
 13
661.4549684238582
 23
467.8352286933241
 33
0.0
 14
661.4549684238582
 24
257.8352286933242
 34
0.0
 50
90.0
100
AcDbRotatedDimension
1001
ACAD
1000
DSTYLE
1002
{
1070
   140
1040
7.0
1002
}
  0
ENDSEC
  0
SECTION
  2
OBJECTS
  0
DICTIONARY
  5
C
330
0
100
AcDbDictionary
  3
ACAD_GROUP
350
D
  3
ACAD_PLOTSTYLENAME
350
E
  3
ACAD_MLINESTYLE
350
17
  3
ACAD_PLOTSETTINGS
350
19
  3
ACAD_LAYOUT
350
1A
  3
ACDBHEADERROUNDTRIPXREC
350
3EC1
  0
DICTIONARY
  5
3EE4
330
1F
100
AcDbDictionary
280
     1
  3
ACAD_LAYOUTSELFREF
360
3EE5
  0
DICTIONARY
  5
3EE2
330
1B
100
AcDbDictionary
280
     1
  3
ACAD_LAYOUTSELFREF
360
3EE3
  0
DICTIONARY
  5
D
102
{ACAD_REACTORS
330
C
102
}
330
C
100
AcDbDictionary
  0
ACDBDICTIONARYWDFLT
  5
E
102
{ACAD_REACTORS
330
C
102
}
330
C
100
AcDbDictionary
281
     1
  3
Normal
350
F
100
AcDbDictionaryWithDefault
340
F
  0
DICTIONARY
  5
17
102
{ACAD_REACTORS
330
C
102
}
330
C
100
AcDbDictionary
  3
STANDARD
350
18
  0
DICTIONARY
  5
19
102
{ACAD_REACTORS
330
C
102
}
330
C
100
AcDbDictionary
  0
DICTIONARY
  5
1A
102
{ACAD_REACTORS
330
C
102
}
330
C
100
AcDbDictionary
  0
DICTIONARY
  5
3EC1
102
{ACAD_REACTORS
330
C
102
}
330
C
100
AcDbDictionary
  3
TSTACKALIGN
350
3EC2
  3
TSTACKSIZE
350
3EC3
  3
HYPERLINKBASE
350
3EC4
  3
STYLESHEET
350
3EC5
  3
LAYOUTDICT
350
3EC6
  3
PLOTSETDICT
350
3EC7
  3
PLOTSTYLNAMDICT
350
3EC8
  3
LWETCUNION
350
3EC9
  3
INSUNITS
350
3ECA
  3
CEPSNTYPE
350
3ECB
  3
FINGERPRINTGUID
350
3ECC
  3
VERSIONGUID
350
3ECD
  3
PSVPSCALE
350
3ECE
  3
DIMSTYLEDATA
350
3ECF
  3
PUCSORTHOREF
350
3ED0
  3
PUCSORTHOVIEW
350
3ED1
  3
PUCSBASE
350
3ED2
  3
PUCSORGTOP
350
3ED3
  3
PUCSORGBOTTOM
350
3ED4
  3
PUCSORGLEFT
350
3ED5
  3
PUCSORGRIGHT
350
3ED6
  3
PUCSORGFRONT
350
3ED7
  3
PUCSORGBACK
350
3ED8
  3
UCSORTHOREF
350
3ED9
  3
UCSORTHOVIEW
350
3EDA
  3
UCSBASE
350
3EDB
  3
UCSORGTOP
350
3EDC
  3
UCSORGBOTTOM
350
3EDD
  3
UCSORGLEFT
350
3EDE
  3
UCSORGRIGHT
350
3EDF
  3
UCSORGFRONT
350
3EE0
  3
UCSORGBACK
350
3EE1
  0
XRECORD
  5
3EE5
102
{ACAD_REACTORS
330
3EE4
102
}
330
3EE4
100
AcDbXrecord
340
1F
  0
XRECORD
  5
3EE3
102
{ACAD_REACTORS
330
3EE2
102
}
330
3EE2
100
AcDbXrecord
340
1B
  0
ACDBPLACEHOLDER
  5
F
102
{ACAD_REACTORS
330
E
102
}
330
E
100
AcDbPlaceHolder
280
     0
  0
MLINESTYLE
  5
18
102
{ACAD_REACTORS
330
17
102
}
330
17
100
AcDbMlineStyle
  2
STANDARD
 70
     0
  3

 62
   256
 51
90.0
 52
90.0
 71
     2
 49
0.5
 62
   256
  6
BYLAYER
 49
-0.5
 62
   256
  6
BYLAYER
  0
XRECORD
  5
3EC2
102
{ACAD_REACTORS
330
3EC1
102
}
330
3EC1
100
AcDbXrecord
 90
        1
  0
XRECORD
  5
3EC3
102
{ACAD_REACTORS
330
3EC1
102
}
330
3EC1
100
AcDbXrecord
 90
       70
  0
XRECORD
  5
3EC4
102
{ACAD_REACTORS
330
3EC1
102
}
330
3EC1
100
AcDbXrecord
  1

  0
XRECORD
  5
3EC5
102
{ACAD_REACTORS
330
3EC1
102
}
330
3EC1
100
AcDbXrecord
  1

  0
XRECORD
  5
3EC6
102
{ACAD_REACTORS
330
3EC1
102
}
330
3EC1
100
AcDbXrecord
340
1A
  0
XRECORD
  5
3EC7
102
{ACAD_REACTORS
330
3EC1
102
}
330
3EC1
100
AcDbXrecord
340
19
  0
XRECORD
  5
3EC8
102
{ACAD_REACTORS
330
3EC1
102
}
330
3EC1
100
AcDbXrecord
340
E
  0
XRECORD
  5
3EC9
102
{ACAD_REACTORS
330
3EC1
102
}
330
3EC1
100
AcDbXrecord
 90
    10781
  0
XRECORD
  5
3ECA
102
{ACAD_REACTORS
330
3EC1
102
}
330
3EC1
100
AcDbXrecord
 90
        4
  0
XRECORD
  5
3ECB
102
{ACAD_REACTORS
330
3EC1
102
}
330
3EC1
100
AcDbXrecord
 90
        0
  0
XRECORD
  5
3ECC
102
{ACAD_REACTORS
330
3EC1
102
}
330
3EC1
100
AcDbXrecord
  1
{8E2B5971-F9B8-407C-91E4-379BF50EAA53}
  0
XRECORD
  5
3ECD
102
{ACAD_REACTORS
330
3EC1
102
}
330
3EC1
100
AcDbXrecord
  1
{CC3F0AEA-47D1-4F2B-A70D-6654CAC5D6F0}
  0
XRECORD
  5
3ECE
102
{ACAD_REACTORS
330
3EC1
102
}
330
3EC1
100
AcDbXrecord
 40
0.0
  0
XRECORD
  5
3ECF
102
{ACAD_REACTORS
330
3EC1
102
}
330
3EC1
100
AcDbXrecord
1000
DSTYLE
1002
{
1070
   278
 70
    44
1002
}
  0
XRECORD
  5
3ED0
102
{ACAD_REACTORS
330
3EC1
102
}
330
3EC1
100
AcDbXrecord
340
0
  0
XRECORD
  5
3ED1
102
{ACAD_REACTORS
330
3EC1
102
}
330
3EC1
100
AcDbXrecord
 70
     0
  0
XRECORD
  5
3ED2
102
{ACAD_REACTORS
330
3EC1
102
}
330
3EC1
100
AcDbXrecord
340
0
  0
XRECORD
  5
3ED3
102
{ACAD_REACTORS
330
3EC1
102
}
330
3EC1
100
AcDbXrecord
 10
0.0
 20
0.0
 30
0.0
  0
XRECORD
  5
3ED4
102
{ACAD_REACTORS
330
3EC1
102
}
330
3EC1
100
AcDbXrecord
 10
0.0
 20
0.0
 30
0.0
  0
XRECORD
  5
3ED5
102
{ACAD_REACTORS
330
3EC1
102
}
330
3EC1
100
AcDbXrecord
 10
0.0
 20
0.0
 30
0.0
  0
XRECORD
  5
3ED6
102
{ACAD_REACTORS
330
3EC1
102
}
330
3EC1
100
AcDbXrecord
 10
0.0
 20
0.0
 30
0.0
  0
XRECORD
  5
3ED7
102
{ACAD_REACTORS
330
3EC1
102
}
330
3EC1
100
AcDbXrecord
 10
0.0
 20
0.0
 30
0.0
  0
XRECORD
  5
3ED8
102
{ACAD_REACTORS
330
3EC1
102
}
330
3EC1
100
AcDbXrecord
 10
0.0
 20
0.0
 30
0.0
  0
XRECORD
  5
3ED9
102
{ACAD_REACTORS
330
3EC1
102
}
330
3EC1
100
AcDbXrecord
340
0
  0
XRECORD
  5
3EDA
102
{ACAD_REACTORS
330
3EC1
102
}
330
3EC1
100
AcDbXrecord
 70
     0
  0
XRECORD
  5
3EDB
102
{ACAD_REACTORS
330
3EC1
102
}
330
3EC1
100
AcDbXrecord
340
0
  0
XRECORD
  5
3EDC
102
{ACAD_REACTORS
330
3EC1
102
}
330
3EC1
100
AcDbXrecord
 10
0.0
 20
0.0
 30
0.0
  0
XRECORD
  5
3EDD
102
{ACAD_REACTORS
330
3EC1
102
}
330
3EC1
100
AcDbXrecord
 10
0.0
 20
0.0
 30
0.0
  0
XRECORD
  5
3EDE
102
{ACAD_REACTORS
330
3EC1
102
}
330
3EC1
100
AcDbXrecord
 10
0.0
 20
0.0
 30
0.0
  0
XRECORD
  5
3EDF
102
{ACAD_REACTORS
330
3EC1
102
}
330
3EC1
100
AcDbXrecord
 10
0.0
 20
0.0
 30
0.0
  0
XRECORD
  5
3EE0
102
{ACAD_REACTORS
330
3EC1
102
}
330
3EC1
100
AcDbXrecord
 10
0.0
 20
0.0
 30
0.0
  0
XRECORD
  5
3EE1
102
{ACAD_REACTORS
330
3EC1
102
}
330
3EC1
100
AcDbXrecord
 10
0.0
 20
0.0
 30
0.0
  0
ENDSEC
  0
EOF
