  0
SECTION
  2
HEADER
  9
$ACADVER
  1
AC1015
  9
$ACADMAINTVER
 70
     6
  9
$DWGCODEPAGE
  3
ANSI_1252
  9
$INSBASE
 10
0.0
 20
0.0
 30
0.0
  9
$EXTMIN
 10
-119.414213586373
 20
-433.1991814461117
 30
-0.0000000000000064
  9
$EXTMAX
 10
587.1657011014952
 20
210.077182843494
 30
0.0000000000000272
  9
$LIMMIN
 10
0.0
 20
0.0
  9
$LIMMAX
 10
12.0
 20
9.0
  9
$ORTHOMODE
 70
     1
  9
$REGENMODE
 70
     1
  9
$FILLMODE
 70
     1
  9
$QTEXTMODE
 70
     0
  9
$MIRRTEXT
 70
     1
  9
$LTSCALE
 40
1.0
  9
$ATTMODE
 70
     1
  9
$TEXTSIZE
 40
0.2
  9
$TRACEWID
 40
0.05
  9
$TEXTSTYLE
  7
STANDARD
  9
$CLAYER
  8
0
  9
$CELTYPE
  6
BYLAYER
  9
$CECOLOR
 62
   256
  9
$CELTSCALE
 40
1.0
  9
$DISPSILH
 70
     0
  9
$DIMSCALE
 40
1.0
  9
$DIMASZ
 40
0.18
  9
$DIMEXO
 40
0.0625
  9
$DIMDLI
 40
0.38
  9
$DIMRND
 40
0.0
  9
$DIMDLE
 40
0.0
  9
$DIMEXE
 40
0.18
  9
$DIMTP
 40
0.0
  9
$DIMTM
 40
0.0
  9
$DIMTXT
 40
0.18
  9
$DIMCEN
 40
0.09
  9
$DIMTSZ
 40
0.0
  9
$DIMTOL
 70
     0
  9
$DIMLIM
 70
     0
  9
$DIMTIH
 70
     1
  9
$DIMTOH
 70
     1
  9
$DIMSE1
 70
     0
  9
$DIMSE2
 70
     0
  9
$DIMTAD
 70
     0
  9
$DIMZIN
 70
     0
  9
$DIMBLK
  1

  9
$DIMASO
 70
     1
  9
$DIMSHO
 70
     1
  9
$DIMPOST
  1

  9
$DIMAPOST
  1

  9
$DIMALT
 70
     0
  9
$DIMALTD
 70
     2
  9
$DIMALTF
 40
25.4
  9
$DIMLFAC
 40
1.0
  9
$DIMTOFL
 70
     0
  9
$DIMTVP
 40
0.0
  9
$DIMTIX
 70
     0
  9
$DIMSOXD
 70
     0
  9
$DIMSAH
 70
     0
  9
$DIMBLK1
  1

  9
$DIMBLK2
  1

  9
$DIMSTYLE
  2
STANDARD
  9
$DIMCLRD
 70
     0
  9
$DIMCLRE
 70
     0
  9
$DIMCLRT
 70
     0
  9
$DIMTFAC
 40
1.0
  9
$DIMGAP
 40
0.09
  9
$DIMJUST
 70
     0
  9
$DIMSD1
 70
     0
  9
$DIMSD2
 70
     0
  9
$DIMTOLJ
 70
     1
  9
$DIMTZIN
 70
     0
  9
$DIMALTZ
 70
     0
  9
$DIMALTTZ
 70
     0
  9
$DIMUPT
 70
     0
  9
$DIMDEC
 70
     4
  9
$DIMTDEC
 70
     4
  9
$DIMALTU
 70
     2
  9
$DIMALTTD
 70
     2
  9
$DIMTXSTY
  7
STANDARD
  9
$DIMAUNIT
 70
     0
  9
$DIMADEC
 70
     0
  9
$DIMALTRND
 40
0.0
  9
$DIMAZIN
 70
     0
  9
$DIMDSEP
 70
    46
  9
$DIMATFIT
 70
     3
  9
$DIMFRAC
 70
     0
  9
$DIMLDRBLK
  1

  9
$DIMLUNIT
 70
     2
  9
$DIMLWD
 70
    -2
  9
$DIMLWE
 70
    -2
  9
$DIMTMOVE
 70
     0
  9
$LUNITS
 70
     2
  9
$LUPREC
 70
     4
  9
$SKETCHINC
 40
0.1
  9
$FILLETRAD
 40
0.5
  9
$AUNITS
 70
     0
  9
$AUPREC
 70
     0
  9
$MENU
  1
.
  9
$ELEVATION
 40
0.0
  9
$PELEVATION
 40
0.0
  9
$THICKNESS
 40
0.0
  9
$LIMCHECK
 70
     0
  9
$CHAMFERA
 40
0.5
  9
$CHAMFERB
 40
0.5
  9
$CHAMFERC
 40
1.0
  9
$CHAMFERD
 40
0.0
  9
$SKPOLY
 70
     0
  9
$TDCREATE
 40
2451762.449052777
  9
$TDUCREATE
 40
2451762.407386111
  9
$TDUPDATE
 40
2453403.385339097
  9
$TDUUPDATE
 40
2453403.343672430
  9
$TDINDWG
 40
0.0061171759
  9
$TDUSRTIMER
 40
0.0061167130
  9
$USRTIMER
 70
     1
  9
$ANGBASE
 50
0.0
  9
$ANGDIR
 70
     0
  9
$PDMODE
 70
     0
  9
$PDSIZE
 40
0.0
  9
$PLINEWID
 40
0.0
  9
$SPLFRAME
 70
     0
  9
$SPLINETYPE
 70
     6
  9
$SPLINESEGS
 70
     8
  9
$HANDSEED
  5
25C
  9
$SURFTAB1
 70
     6
  9
$SURFTAB2
 70
     6
  9
$SURFTYPE
 70
     6
  9
$SURFU
 70
     6
  9
$SURFV
 70
     6
  9
$UCSBASE
  2

  9
$UCSNAME
  2

  9
$UCSORG
 10
0.0
 20
0.0
 30
0.0
  9
$UCSXDIR
 10
1.0
 20
0.0
 30
0.0
  9
$UCSYDIR
 10
0.0
 20
1.0
 30
0.0
  9
$UCSORTHOREF
  2

  9
$UCSORTHOVIEW
 70
     0
  9
$UCSORGTOP
 10
0.0
 20
0.0
 30
0.0
  9
$UCSORGBOTTOM
 10
0.0
 20
0.0
 30
0.0
  9
$UCSORGLEFT
 10
0.0
 20
0.0
 30
0.0
  9
$UCSORGRIGHT
 10
0.0
 20
0.0
 30
0.0
  9
$UCSORGFRONT
 10
0.0
 20
0.0
 30
0.0
  9
$UCSORGBACK
 10
0.0
 20
0.0
 30
0.0
  9
$PUCSBASE
  2

  9
$PUCSNAME
  2

  9
$PUCSORG
 10
0.0
 20
0.0
 30
0.0
  9
$PUCSXDIR
 10
1.0
 20
0.0
 30
0.0
  9
$PUCSYDIR
 10
0.0
 20
1.0
 30
0.0
  9
$PUCSORTHOREF
  2

  9
$PUCSORTHOVIEW
 70
     0
  9
$PUCSORGTOP
 10
0.0
 20
0.0
 30
0.0
  9
$PUCSORGBOTTOM
 10
0.0
 20
0.0
 30
0.0
  9
$PUCSORGLEFT
 10
0.0
 20
0.0
 30
0.0
  9
$PUCSORGRIGHT
 10
0.0
 20
0.0
 30
0.0
  9
$PUCSORGFRONT
 10
0.0
 20
0.0
 30
0.0
  9
$PUCSORGBACK
 10
0.0
 20
0.0
 30
0.0
  9
$USERI1
 70
     0
  9
$USERI2
 70
     0
  9
$USERI3
 70
     0
  9
$USERI4
 70
     0
  9
$USERI5
 70
     0
  9
$USERR1
 40
0.0
  9
$USERR2
 40
0.0
  9
$USERR3
 40
0.0
  9
$USERR4
 40
0.0
  9
$USERR5
 40
0.0
  9
$WORLDVIEW
 70
     1
  9
$SHADEDGE
 70
     3
  9
$SHADEDIF
 70
    70
  9
$TILEMODE
 70
     1
  9
$MAXACTVP
 70
    64
  9
$PINSBASE
 10
0.0
 20
0.0
 30
0.0
  9
$PLIMCHECK
 70
     0
  9
$PEXTMIN
 10
1.000000000000000E+20
 20
1.000000000000000E+20
 30
1.000000000000000E+20
  9
$PEXTMAX
 10
-1.000000000000000E+20
 20
-1.000000000000000E+20
 30
-1.000000000000000E+20
  9
$PLIMMIN
 10
0.0
 20
0.0
  9
$PLIMMAX
 10
12.0
 20
9.0
  9
$UNITMODE
 70
     0
  9
$VISRETAIN
 70
     1
  9
$PLINEGEN
 70
     0
  9
$PSLTSCALE
 70
     1
  9
$TREEDEPTH
 70
  3020
  9
$CMLSTYLE
  2
STANDARD
  9
$CMLJUST
 70
     0
  9
$CMLSCALE
 40
1.0
  9
$PROXYGRAPHICS
 70
     1
  9
$MEASUREMENT
 70
     0
  9
$CELWEIGHT
370
    -1
  9
$ENDCAPS
280
     0
  9
$JOINSTYLE
280
     0
  9
$LWDISPLAY
290
     0
  9
$INSUNITS
 70
     0
  9
$HYPERLINKBASE
  1

  9
$STYLESHEET
  1

  9
$XEDIT
290
     1
  9
$CEPSNTYPE
380
     0
  9
$PSTYLEMODE
290
     1
  9
$FINGERPRINTGUID
  2
{0FEFE16B-ADB1-4968-92A0-40ECE8C74206}
  9
$VERSIONGUID
  2
{71CF73C5-0525-421D-A2F9-CB30F303EC65}
  9
$EXTNAMES
290
     1
  9
$PSVPSCALE
 40
0.0
  9
$OLESTARTUP
290
     0
  0
ENDSEC
  0
SECTION
  2
CLASSES
  0
CLASS
  1
ACDBDICTIONARYWDFLT
  2
AcDbDictionaryWithDefault
  3
AutoCAD 2000
 90
        0
280
     0
281
     0
  0
CLASS
  1
ACDBPLACEHOLDER
  2
AcDbPlaceHolder
  3
AutoCAD 2000
 90
        0
280
     0
281
     0
  0
CLASS
  1
LAYOUT
  2
AcDbLayout
  3
AutoCAD 2000
 90
        0
280
     0
281
     0
  0
CLASS
  1
LONG_TRANSACTION
  2
AcDbLongTransaction
  3
AutoCAD 2000
 90
    32768
280
     0
281
     0
  0
CLASS
  1
LWPOLYLINE
  2
AcDbPolyline
  3
AutoCAD 2000
 90
    32768
280
     0
281
     1
  0
CLASS
  1
HATCH
  2
AcDbHatch
  3
AutoCAD 2000
 90
    32768
280
     0
281
     1
  0
CLASS
  1
XRECORD
  2
AcDbXrecord
  3
AutoCAD 2000
 90
    32768
280
     0
281
     0
  0
CLASS
  1
LONG_TRANSACTION
  2
AcDbLongTransaction
  3
AutoCAD 2000
 90
    32768
280
     0
281
     0
  0
CLASS
  1
LWPOLYLINE
  2
AcDbPolyline
  3
AutoCAD 2000
 90
    32768
280
     0
281
     1
  0
CLASS
  1
HATCH
  2
AcDbHatch
  3
AutoCAD 2000
 90
    32768
280
     0
281
     1
  0
CLASS
  1
XRECORD
  2
AcDbXrecord
  3
AutoCAD 2000
 90
    32768
280
     0
281
     0
  0
CLASS
  1
LONG_TRANSACTION
  2
AcDbLongTransaction
  3
AutoCAD 2000
 90
    32768
280
     0
281
     0
  0
CLASS
  1
LWPOLYLINE
  2
AcDbPolyline
  3
AutoCAD 2000
 90
    32768
280
     0
281
     1
  0
CLASS
  1
HATCH
  2
AcDbHatch
  3
AutoCAD 2000
 90
    32768
280
     0
281
     1
  0
CLASS
  1
XRECORD
  2
AcDbXrecord
  3
AutoCAD 2000
 90
    32768
280
     0
281
     0
  0
CLASS
  1
LONG_TRANSACTION
  2
AcDbLongTransaction
  3
AutoCAD 2000
 90
    32768
280
     0
281
     0
  0
CLASS
  1
LWPOLYLINE
  2
AcDbPolyline
  3
AutoCAD 2000
 90
    32768
280
     0
281
     1
  0
CLASS
  1
HATCH
  2
AcDbHatch
  3
AutoCAD 2000
 90
    32768
280
     0
281
     1
  0
CLASS
  1
XRECORD
  2
AcDbXrecord
  3
AutoCAD 2000
 90
    32768
280
     0
281
     0
  0
ENDSEC
  0
SECTION
  2
TABLES
  0
TABLE
  2
VPORT
  5
8
330
0
100
AcDbSymbolTable
 70
     3
  0
VPORT
  5
25B
330
8
100
AcDbSymbolTableRecord
100
AcDbViewportTableRecord
  2
*Active
 70
     0
 10
0.0
 20
0.0
 11
1.0
 21
1.0
 12
161.9140617589296
 22
-48.22726073025274
 13
0.0
 23
0.0
 14
0.5
 24
0.5
 15
0.5
 25
0.5
 16
0.0
 26
0.0
 36
1.0
 17
0.0
 27
0.0
 37
0.0
 40
928.4781155196784
 41
1.525316455696202
 42
50.0
 43
0.0
 44
0.0
 50
0.0
 51
0.0
 71
     0
 72
   100
 73
     1
 74
     3
 75
     0
 76
     0
 77
     0
 78
     0
281
     0
 65
     1
110
0.0
120
0.0
130
0.0
111
1.0
121
0.0
131
0.0
112
0.0
122
1.0
132
0.0
 79
     0
146
0.0
  0
ENDTAB
  0
TABLE
  2
LTYPE
  5
5
330
0
100
AcDbSymbolTable
 70
     2
  0
LTYPE
  5
14
330
5
100
AcDbSymbolTableRecord
100
AcDbLinetypeTableRecord
  2
BYBLOCK
 70
     0
  3

 72
    65
 73
     0
 40
0.0
  0
LTYPE
  5
15
330
5
100
AcDbSymbolTableRecord
100
AcDbLinetypeTableRecord
  2
BYLAYER
 70
     0
  3

 72
    65
 73
     0
 40
0.0
  0
LTYPE
  5
16
330
5
100
AcDbSymbolTableRecord
100
AcDbLinetypeTableRecord
  2
CONTINUOUS
 70
     0
  3
Solid line
 72
    65
 73
     0
 40
0.0
  0
LTYPE
  5
12D
330
5
100
AcDbSymbolTableRecord
100
AcDbLinetypeTableRecord
  2
ACAD_ISO02W100
 70
     0
  3
ISO Strichlinie __ __ __ __ __ __ __ __ __ __ _
 72
    65
 73
     2
 40
15.0
 49
12.0
 74
     0
 49
-3.0
 74
     0
  0
ENDTAB
  0
TABLE
  2
LAYER
  5
2
330
0
100
AcDbSymbolTable
 70
     4
  0
LAYER
  5
10
330
2
100
AcDbSymbolTableRecord
100
AcDbLayerTableRecord
  2
0
 70
     0
 62
     7
  6
CONTINUOUS
370
    -3
390
B8
  0
LAYER
  5
5F
330
2
100
AcDbSymbolTableRecord
100
AcDbLayerTableRecord
  2
PV-AF
 70
     2
 62
     7
  6
CONTINUOUS
370
    -3
390
B8
  0
LAYER
  5
12E
330
2
100
AcDbSymbolTableRecord
100
AcDbLayerTableRecord
  2
MITTELLINIE
 70
     0
 62
     4
  6
ACAD_ISO02W100
370
    -3
390
B8
  0
LAYER
  5
16D
330
2
100
AcDbSymbolTableRecord
100
AcDbLayerTableRecord
  2
DEFPOINTS
 70
     0
 62
     7
  6
CONTINUOUS
290
     0
370
    -3
390
B8
  0
ENDTAB
  0
TABLE
  2
STYLE
  5
3
330
0
100
AcDbSymbolTable
 70
     2
  0
STYLE
  5
11
330
3
100
AcDbSymbolTableRecord
100
AcDbTextStyleTableRecord
  2
STANDARD
 70
     0
 40
0.0
 41
1.0
 50
0.0
 71
     0
 42
0.2
  3
txt
  4

  0
STYLE
  5
1B6
330
3
100
AcDbSymbolTableRecord
100
AcDbTextStyleTableRecord
  2
HEWI
 70
     0
 40
0.0
 41
1.0
 50
0.0
 71
     0
 42
70.0
  3
ARIAL.TTF
  4

1001
ACAD
1000
Arial
1071
       34
  0
ENDTAB
  0
TABLE
  2
VIEW
  5
6
330
0
100
AcDbSymbolTable
 70
     0
  0
ENDTAB
  0
TABLE
  2
UCS
  5
7
330
0
100
AcDbSymbolTable
 70
     0
  0
ENDTAB
  0
TABLE
  2
APPID
  5
9
330
0
100
AcDbSymbolTable
 70
     1
  0
APPID
  5
12
330
9
100
AcDbSymbolTableRecord
100
AcDbRegAppTableRecord
  2
ACAD
 70
     0
  0
ENDTAB
  0
TABLE
  2
DIMSTYLE
  5
A
330
0
100
AcDbSymbolTable
 70
     1
100
AcDbDimStyleTable
 71
     1
340
27
  0
DIMSTYLE
105
27
102
{ACAD_REACTORS
330
1D5
330
222
102
}
330
A
100
AcDbSymbolTableRecord
100
AcDbDimStyleTableRecord
  2
STANDARD
 70
     0
340
11
  0
ENDTAB
  0
TABLE
  2
BLOCK_RECORD
  5
1
330
0
100
AcDbSymbolTable
 70
    13
  0
BLOCK_RECORD
  5
1F
102
{ACAD_XDICTIONARY
360
B1
102
}
330
1
100
AcDbSymbolTableRecord
100
AcDbBlockTableRecord
  2
*MODEL_SPACE
340
21C
  0
BLOCK_RECORD
  5
1B
102
{ACAD_XDICTIONARY
360
AF
102
}
330
1
100
AcDbSymbolTableRecord
100
AcDbBlockTableRecord
  2
*PAPER_SPACE
340
21D
  0
BLOCK_RECORD
  5
48
330
1
100
AcDbSymbolTableRecord
100
AcDbBlockTableRecord
  2
*U0
340
0
102
{BLKREFS
331
62
102
}
  0
BLOCK_RECORD
  5
61
330
1
100
AcDbSymbolTableRecord
100
AcDbBlockTableRecord
  2
FRONT
340
0
  0
BLOCK_RECORD
  5
66
330
1
100
AcDbSymbolTableRecord
100
AcDbBlockTableRecord
  2
*U2
340
0
102
{BLKREFS
331
7F
102
}
  0
BLOCK_RECORD
  5
7E
330
1
100
AcDbSymbolTableRecord
100
AcDbBlockTableRecord
  2
LEFT
340
0
  0
BLOCK_RECORD
  5
83
330
1
100
AcDbSymbolTableRecord
100
AcDbBlockTableRecord
  2
*U4
340
0
102
{BLKREFS
331
9D
102
}
  0
BLOCK_RECORD
  5
9C
330
1
100
AcDbSymbolTableRecord
100
AcDbBlockTableRecord
  2
RIGHT
340
0
  0
BLOCK_RECORD
  5
A1
330
1
100
AcDbSymbolTableRecord
100
AcDbBlockTableRecord
  2
*U6
340
0
102
{BLKREFS
331
AA
102
}
  0
BLOCK_RECORD
  5
A9
330
1
100
AcDbSymbolTableRecord
100
AcDbBlockTableRecord
  2
TOP
340
0
  0
BLOCK_RECORD
  5
16E
330
1
100
AcDbSymbolTableRecord
100
AcDbBlockTableRecord
  2
*D8
340
0
  0
BLOCK_RECORD
  5
1A9
330
1
100
AcDbSymbolTableRecord
100
AcDbBlockTableRecord
  2
*D9
340
0
  0
BLOCK_RECORD
  5
1BE
330
1
100
AcDbSymbolTableRecord
100
AcDbBlockTableRecord
  2
*D10
340
0
  0
BLOCK_RECORD
  5
1D6
330
1
100
AcDbSymbolTableRecord
100
AcDbBlockTableRecord
  2
*D11
340
0
  0
BLOCK_RECORD
  5
223
330
1
100
AcDbSymbolTableRecord
100
AcDbBlockTableRecord
  2
*D12
340
0
  0
ENDTAB
  0
ENDSEC
  0
SECTION
  2
BLOCKS
  0
BLOCK
  5
20
330
1F
100
AcDbEntity
  8
0
100
AcDbBlockBegin
  2
*MODEL_SPACE
 70
     0
 10
0.0
 20
0.0
 30
0.0
  3
*MODEL_SPACE
  1

  0
ENDBLK
  5
21
330
1F
100
AcDbEntity
  8
0
100
AcDbBlockEnd
  0
BLOCK
  5
1C
330
1B
100
AcDbEntity
 67
     1
  8
0
100
AcDbBlockBegin
  2
*PAPER_SPACE
 70
     0
 10
0.0
 20
0.0
 30
0.0
  3
*PAPER_SPACE
  1

  0
ENDBLK
  5
1D
330
1B
100
AcDbEntity
 67
     1
  8
0
100
AcDbBlockEnd
  0
BLOCK
  5
5C
330
48
100
AcDbEntity
  8
0
100
AcDbBlockBegin
  2
*U0
 70
     1
 10
0.0
 20
0.0
 30
0.0
  3
*U0
  1
*ANON
  0
LINE
  5
49
330
48
100
AcDbEntity
  8
PV-AF
100
AcDbLine
 10
6.0
 20
0.0
 30
-460.0
 11
-6.0
 21
0.0
 31
-460.0
  0
LINE
  5
4A
330
48
100
AcDbEntity
  8
PV-AF
100
AcDbLine
 10
6.049999999999998
 20
0.0
 30
-435.0
 11
-6.049999999999998
 21
0.0
 31
-435.0
  0
LINE
  5
4B
330
48
100
AcDbEntity
  8
PV-AF
100
AcDbLine
 10
6.049999999999974
 20
0.0
 30
-402.147392545687
 11
-6.049999999999974
 21
0.0
 31
-402.147392545687
  0
LINE
  5
4C
330
48
100
AcDbEntity
  8
PV-AF
100
AcDbLine
 10
-35.0
 20
0.0
 30
0.0
 11
35.0
 21
0.0
 31
0.0
  0
LINE
  5
4D
330
48
100
AcDbEntity
  8
PV-AF
100
AcDbLine
 10
-33.0
 20
0.0
 30
-12.0
 11
33.0
 21
0.0
 31
-12.0
  0
LINE
  5
4E
330
48
100
AcDbEntity
  8
PV-AF
100
AcDbLine
 10
35.0
 20
0.0
 30
-10.0
 11
35.0
 21
0.0
 31
0.0
  0
LINE
  5
4F
330
48
100
AcDbEntity
  8
PV-AF
100
AcDbLine
 10
-35.0
 20
0.0
 30
-10.0
 11
-35.0
 21
0.0
 31
0.0
  0
LINE
  5
50
330
48
100
AcDbEntity
  8
PV-AF
100
AcDbLine
 10
-16.5
 20
0.0
 30
-12.0
 11
-16.5
 21
0.0
 31
-400.1106531685482
  0
LINE
  5
51
330
48
100
AcDbEntity
  8
PV-AF
100
AcDbLine
 10
16.5
 20
0.0
 30
-12.0
 11
16.5
 21
0.0
 31
-400.1106531685482
  0
ARC
  5
52
330
48
100
AcDbEntity
  8
PV-AF
100
AcDbCircle
 10
0.0
 20
-282.2999999999996
 30
0.0
 40
120.0
210
0.0
220
-1.0
230
0.0
100
AcDbArc
 50
262.6004459104684
 51
267.110112628002
  0
ARC
  5
53
330
48
100
AcDbEntity
  8
PV-AF
100
AcDbCircle
 10
0.0
 20
-282.2999999999996
 30
0.0
 40
119.9999999999999
210
0.0
220
-1.0
230
0.0
100
AcDbArc
 50
272.8898873719978
 51
277.3995540895314
  0
LINE
  5
54
330
48
100
AcDbEntity
  8
PV-AF
100
AcDbLine
 10
-6.049999999999985
 20
0.0
 30
-402.147392545687
 11
-6.049999999999985
 21
0.0
 31
-435.0
  0
LINE
  5
55
330
48
100
AcDbEntity
  8
PV-AF
100
AcDbLine
 10
6.049999999999985
 20
0.0
 30
-402.147392545687
 11
6.049999999999985
 21
0.0
 31
-435.0
  0
LINE
  5
56
330
48
100
AcDbEntity
  8
PV-AF
100
AcDbLine
 10
-6.0
 20
0.0
 30
-435.0
 11
-6.0
 21
0.0
 31
-460.0
  0
LINE
  5
57
330
48
100
AcDbEntity
  8
PV-AF
100
AcDbLine
 10
6.0
 20
0.0
 30
-435.0
 11
6.0
 21
0.0
 31
-460.0
  0
ARC
  5
58
330
48
100
AcDbEntity
  8
PV-AF
100
AcDbCircle
 10
-33.0
 20
-10.0
 30
0.0
 40
2.0
210
0.0
220
-1.0
230
0.0
100
AcDbArc
 50
180.0000000000002
 51
270.0000000000012
  0
ARC
  5
59
330
48
100
AcDbEntity
  8
PV-AF
100
AcDbCircle
 10
33.0
 20
-10.0
 30
0.0
 40
2.0
210
0.0
220
-1.0
230
0.0
100
AcDbArc
 50
269.9999999999978
 51
359.9999999999997
  0
ARC
  5
5A
330
48
100
AcDbEntity
  8
PV-AF
100
AcDbCircle
 10
15.3
 20
-400.1106531685484
 30
0.0
 40
1.199999999999999
210
0.0
220
-1.0
230
0.0
100
AcDbArc
 50
277.3995540895321
 51
0.0000000000002036
  0
ARC
  5
5B
330
48
100
AcDbEntity
  8
PV-AF
100
AcDbCircle
 10
-15.3
 20
-400.1106531685484
 30
0.0
 40
1.199999999999999
210
0.0
220
-1.0
230
0.0
100
AcDbArc
 50
179.9999999999998
 51
262.6004459104679
  0
ENDBLK
  5
5D
330
48
100
AcDbEntity
  8
0
100
AcDbBlockEnd
  0
BLOCK
  5
63
330
61
100
AcDbEntity
  8
0
100
AcDbBlockBegin
  2
FRONT
 70
     0
 10
0.0
 20
0.0
 30
0.0
  3
FRONT
  1

  0
INSERT
  5
62
330
61
100
AcDbEntity
  8
PV-AF
100
AcDbBlockReference
  2
*U0
 10
0.0
 20
0.0
 30
0.0
 50
180.0
210
0.0
220
1.0
230
0.0
  0
ENDBLK
  5
64
330
61
100
AcDbEntity
  8
0
100
AcDbBlockEnd
  0
BLOCK
  5
7C
330
66
100
AcDbEntity
  8
0
100
AcDbBlockBegin
  2
*U2
 70
     1
 10
0.0
 20
0.0
 30
0.0
  3
*U2
  1
*ANON
  0
LINE
  5
67
330
66
100
AcDbEntity
  8
PV-AF
100
AcDbLine
 10
0.0
 20
-6.0
 30
-460.0
 11
0.0
 21
6.0
 31
-460.0
  0
LINE
  5
68
330
66
100
AcDbEntity
  8
PV-AF
100
AcDbLine
 10
0.0
 20
-6.049999999999998
 30
-435.0
 11
0.0
 21
6.049999999999998
 31
-435.0
  0
LINE
  5
69
330
66
100
AcDbEntity
  8
PV-AF
100
AcDbLine
 10
0.0
 20
-6.049999999999974
 30
-402.147392545687
 11
0.0
 21
6.049999999999974
 31
-402.147392545687
  0
LINE
  5
6A
330
66
100
AcDbEntity
  8
PV-AF
100
AcDbLine
 10
0.0
 20
0.0
 30
0.0
 11
0.0
 21
-35.0
 31
0.0
  0
LINE
  5
6B
330
66
100
AcDbEntity
  8
PV-AF
100
AcDbLine
 10
0.0
 20
35.0
 30
0.0
 11
0.0
 21
-0.0000000000004888
 31
0.0
  0
LINE
  5
6C
330
66
100
AcDbEntity
  8
PV-AF
100
AcDbLine
 10
0.0
 20
0.0
 30
-12.0
 11
0.0
 21
-33.0
 31
-12.0
  0
LINE
  5
6D
330
66
100
AcDbEntity
  8
PV-AF
100
AcDbLine
 10
0.0
 20
33.0
 30
-12.0
 11
0.0
 21
-0.0000000000004609
 31
-12.0
  0
LINE
  5
6E
330
66
100
AcDbEntity
  8
PV-AF
100
AcDbLine
 10
0.0
 20
-35.0
 30
-10.0
 11
0.0
 21
-35.0
 31
0.0
  0
LINE
  5
6F
330
66
100
AcDbEntity
  8
PV-AF
100
AcDbLine
 10
0.0
 20
35.0
 30
-10.0
 11
0.0
 21
35.0
 31
0.0
  0
LINE
  5
70
330
66
100
AcDbEntity
  8
PV-AF
100
AcDbLine
 10
0.0
 20
16.5
 30
-12.0
 11
0.0
 21
16.5
 31
-400.1106531685482
  0
LINE
  5
71
330
66
100
AcDbEntity
  8
PV-AF
100
AcDbLine
 10
0.0
 20
-16.5
 30
-12.0
 11
0.0
 21
-16.5
 31
-400.1106531685482
  0
ARC
  5
72
330
66
100
AcDbEntity
  8
PV-AF
100
AcDbCircle
 10
0.0
 20
-282.2999999999996
 30
0.0
 40
120.0
210
-1.0
220
0.0
230
0.0
100
AcDbArc
 50
262.6004459104684
 51
267.110112628002
  0
ARC
  5
73
330
66
100
AcDbEntity
  8
PV-AF
100
AcDbCircle
 10
0.0
 20
-282.2999999999996
 30
0.0
 40
119.9999999999999
210
-1.0
220
0.0
230
0.0
100
AcDbArc
 50
272.8898873719978
 51
277.3995540895314
  0
LINE
  5
74
330
66
100
AcDbEntity
  8
PV-AF
100
AcDbLine
 10
0.0
 20
6.049999999999985
 30
-402.147392545687
 11
0.0
 21
6.049999999999985
 31
-435.0
  0
LINE
  5
75
330
66
100
AcDbEntity
  8
PV-AF
100
AcDbLine
 10
0.0
 20
-6.049999999999985
 30
-402.147392545687
 11
0.0
 21
-6.049999999999985
 31
-435.0
  0
LINE
  5
76
330
66
100
AcDbEntity
  8
PV-AF
100
AcDbLine
 10
0.0
 20
6.0
 30
-435.0
 11
0.0
 21
6.0
 31
-460.0
  0
LINE
  5
77
330
66
100
AcDbEntity
  8
PV-AF
100
AcDbLine
 10
0.0
 20
-6.0
 30
-435.0
 11
0.0
 21
-6.0
 31
-460.0
  0
ARC
  5
78
330
66
100
AcDbEntity
  8
PV-AF
100
AcDbCircle
 10
-33.0
 20
-10.0
 30
0.0
 40
2.0
210
-1.0
220
0.0
230
0.0
100
AcDbArc
 50
180.0000000000002
 51
270.0000000000012
  0
ARC
  5
79
330
66
100
AcDbEntity
  8
PV-AF
100
AcDbCircle
 10
33.0
 20
-10.0
 30
0.0
 40
2.0
210
-1.0
220
0.0
230
0.0
100
AcDbArc
 50
269.9999999999978
 51
359.9999999999997
  0
ARC
  5
7A
330
66
100
AcDbEntity
  8
PV-AF
100
AcDbCircle
 10
15.3
 20
-400.1106531685484
 30
0.0
 40
1.199999999999999
210
-1.0
220
0.0
230
0.0
100
AcDbArc
 50
277.3995540895321
 51
0.0000000000002036
  0
ARC
  5
7B
330
66
100
AcDbEntity
  8
PV-AF
100
AcDbCircle
 10
-15.3
 20
-400.1106531685484
 30
0.0
 40
1.199999999999999
210
-1.0
220
0.0
230
0.0
100
AcDbArc
 50
179.9999999999998
 51
262.6004459104679
  0
ENDBLK
  5
7D
330
66
100
AcDbEntity
  8
0
100
AcDbBlockEnd
  0
BLOCK
  5
80
330
7E
100
AcDbEntity
  8
0
100
AcDbBlockBegin
  2
LEFT
 70
     0
 10
0.0
 20
0.0
 30
0.0
  3
LEFT
  1

  0
INSERT
  5
7F
330
7E
100
AcDbEntity
  8
PV-AF
100
AcDbBlockReference
  2
*U2
 10
0.0
 20
0.0
 30
0.0
 50
270.0
210
0.0
220
1.0
230
0.0
  0
ENDBLK
  5
81
330
7E
100
AcDbEntity
  8
0
100
AcDbBlockEnd
  0
BLOCK
  5
9A
330
83
100
AcDbEntity
  8
0
100
AcDbBlockBegin
  2
*U4
 70
     1
 10
0.0
 20
0.0
 30
0.0
  3
*U4
  1
*ANON
  0
LINE
  5
84
330
83
100
AcDbEntity
  8
PV-AF
100
AcDbLine
 10
0.0
 20
0.0
 30
-460.0
 11
0.0
 21
-6.0
 31
-460.0
  0
LINE
  5
85
330
83
100
AcDbEntity
  8
PV-AF
100
AcDbLine
 10
0.0
 20
6.0
 30
-460.0
 11
0.0
 21
-0.0000000000000838
 31
-460.0
  0
LINE
  5
86
330
83
100
AcDbEntity
  8
PV-AF
100
AcDbLine
 10
0.0
 20
0.0
 30
-435.0
 11
0.0
 21
-6.049999999999998
 31
-435.0
  0
LINE
  5
87
330
83
100
AcDbEntity
  8
PV-AF
100
AcDbLine
 10
0.0
 20
6.049999999999998
 30
-435.0
 11
0.0
 21
-0.0000000000000845
 31
-435.0
  0
LINE
  5
88
330
83
100
AcDbEntity
  8
PV-AF
100
AcDbLine
 10
0.0
 20
0.0
 30
-402.147392545687
 11
0.0
 21
-6.049999999999974
 31
-402.147392545687
  0
LINE
  5
89
330
83
100
AcDbEntity
  8
PV-AF
100
AcDbLine
 10
0.0
 20
6.049999999999974
 30
-402.147392545687
 11
0.0
 21
-0.0000000000000845
 31
-402.147392545687
  0
LINE
  5
8A
330
83
100
AcDbEntity
  8
PV-AF
100
AcDbLine
 10
0.0
 20
-35.0
 30
0.0
 11
0.0
 21
35.0
 31
0.0
  0
LINE
  5
8B
330
83
100
AcDbEntity
  8
PV-AF
100
AcDbLine
 10
0.0
 20
-33.0
 30
-12.0
 11
0.0
 21
33.0
 31
-12.0
  0
LINE
  5
8C
330
83
100
AcDbEntity
  8
PV-AF
100
AcDbLine
 10
0.0
 20
35.0
 30
-10.0
 11
0.0
 21
35.0
 31
0.0
  0
LINE
  5
8D
330
83
100
AcDbEntity
  8
PV-AF
100
AcDbLine
 10
0.0
 20
-35.0
 30
-10.0
 11
0.0
 21
-35.0
 31
0.0
  0
LINE
  5
8E
330
83
100
AcDbEntity
  8
PV-AF
100
AcDbLine
 10
0.0
 20
-16.5
 30
-12.0
 11
0.0
 21
-16.5
 31
-400.1106531685482
  0
LINE
  5
8F
330
83
100
AcDbEntity
  8
PV-AF
100
AcDbLine
 10
0.0
 20
16.5
 30
-12.0
 11
0.0
 21
16.5
 31
-400.1106531685482
  0
ARC
  5
90
330
83
100
AcDbEntity
  8
PV-AF
100
AcDbCircle
 10
0.0
 20
-282.2999999999996
 30
0.0
 40
120.0
210
1.0
220
0.0
230
0.0
100
AcDbArc
 50
262.6004459104684
 51
267.110112628002
  0
ARC
  5
91
330
83
100
AcDbEntity
  8
PV-AF
100
AcDbCircle
 10
0.0
 20
-282.2999999999996
 30
0.0
 40
119.9999999999999
210
1.0
220
0.0
230
0.0
100
AcDbArc
 50
272.8898873719978
 51
277.3995540895314
  0
LINE
  5
92
330
83
100
AcDbEntity
  8
PV-AF
100
AcDbLine
 10
0.0
 20
-6.049999999999985
 30
-402.147392545687
 11
0.0
 21
-6.049999999999985
 31
-435.0
  0
LINE
  5
93
330
83
100
AcDbEntity
  8
PV-AF
100
AcDbLine
 10
0.0
 20
6.049999999999985
 30
-402.147392545687
 11
0.0
 21
6.049999999999985
 31
-435.0
  0
LINE
  5
94
330
83
100
AcDbEntity
  8
PV-AF
100
AcDbLine
 10
0.0
 20
-6.0
 30
-435.0
 11
0.0
 21
-6.0
 31
-460.0
  0
LINE
  5
95
330
83
100
AcDbEntity
  8
PV-AF
100
AcDbLine
 10
0.0
 20
6.0
 30
-435.0
 11
0.0
 21
6.0
 31
-460.0
  0
ARC
  5
96
330
83
100
AcDbEntity
  8
PV-AF
100
AcDbCircle
 10
-33.0
 20
-10.0
 30
0.0
 40
2.0
210
1.0
220
0.0
230
0.0
100
AcDbArc
 50
180.0000000000002
 51
270.0000000000012
  0
ARC
  5
97
330
83
100
AcDbEntity
  8
PV-AF
100
AcDbCircle
 10
33.0
 20
-10.0
 30
0.0
 40
2.0
210
1.0
220
0.0
230
0.0
100
AcDbArc
 50
269.9999999999978
 51
359.9999999999997
  0
ARC
  5
98
330
83
100
AcDbEntity
  8
PV-AF
100
AcDbCircle
 10
15.3
 20
-400.1106531685484
 30
0.0
 40
1.199999999999999
210
1.0
220
0.0
230
0.0
100
AcDbArc
 50
277.3995540895321
 51
0.0000000000002036
  0
ARC
  5
99
330
83
100
AcDbEntity
  8
PV-AF
100
AcDbCircle
 10
-15.3
 20
-400.1106531685484
 30
0.0
 40
1.199999999999999
210
1.0
220
0.0
230
0.0
100
AcDbArc
 50
179.9999999999998
 51
262.6004459104679
  0
ENDBLK
  5
9B
330
83
100
AcDbEntity
  8
0
100
AcDbBlockEnd
  0
BLOCK
  5
9E
330
9C
100
AcDbEntity
  8
0
100
AcDbBlockBegin
  2
RIGHT
 70
     0
 10
0.0
 20
0.0
 30
0.0
  3
RIGHT
  1

  0
INSERT
  5
9D
330
9C
100
AcDbEntity
  8
PV-AF
100
AcDbBlockReference
  2
*U4
 10
0.0
 20
0.0
 30
0.0
 50
90.0
210
0.0
220
1.0
230
0.0
  0
ENDBLK
  5
9F
330
9C
100
AcDbEntity
  8
0
100
AcDbBlockEnd
  0
BLOCK
  5
A7
330
A1
100
AcDbEntity
  8
0
100
AcDbBlockBegin
  2
*U6
 70
     1
 10
0.0
 20
0.0
 30
0.0
  3
*U6
  1
*ANON
  0
CIRCLE
  5
A2
330
A1
100
AcDbEntity
  8
PV-AF
100
AcDbCircle
 10
0.0
 20
0.0
 30
0.0
 40
16.5
  0
CIRCLE
  5
A3
330
A1
100
AcDbEntity
  8
PV-AF
100
AcDbCircle
 10
0.0
 20
0.0
 30
0.0
 40
33.25
  0
CIRCLE
  5
A4
330
A1
100
AcDbEntity
  8
PV-AF
100
AcDbCircle
 10
0.0
 20
0.0
 30
0.0
 40
35.0
  0
CIRCLE
  5
A5
330
A1
100
AcDbEntity
  8
PV-AF
100
AcDbCircle
 10
0.0
 20
0.0
 30
0.0
 40
16.8
  0
CIRCLE
  5
A6
330
A1
100
AcDbEntity
  8
PV-AF
100
AcDbCircle
 10
0.0
 20
0.0
 30
0.0
 40
32.25
  0
ENDBLK
  5
A8
330
A1
100
AcDbEntity
  8
0
100
AcDbBlockEnd
  0
BLOCK
  5
AB
330
A9
100
AcDbEntity
  8
0
100
AcDbBlockBegin
  2
TOP
 70
     0
 10
0.0
 20
0.0
 30
0.0
  3
TOP
  1

  0
INSERT
  5
AA
330
A9
100
AcDbEntity
  8
PV-AF
100
AcDbBlockReference
  2
*U6
 10
0.0
 20
0.0
 30
0.0
  0
ENDBLK
  5
AC
330
A9
100
AcDbEntity
  8
0
100
AcDbBlockEnd
  0
BLOCK
  5
179
330
16E
100
AcDbEntity
  8
0
100
AcDbBlockBegin
  2
*D8
 70
     1
 10
0.0
 20
0.0
 30
0.0
  3
*D8
  1

  0
LINE
  5
16F
330
16E
100
AcDbEntity
  8
0
 62
     0
100
AcDbLine
 10
397.5093525461333
 20
101.775062715196
 30
0.0
 11
337.2770934437042
 21
101.775062715196
 31
0.0
  0
LINE
  5
170
330
16E
100
AcDbEntity
  8
0
 62
     0
100
AcDbLine
 10
397.5093525461333
 20
-298.2249372848039
 30
0.0
 11
337.2770934437042
 21
-298.2249372848036
 31
0.0
  0
LINE
  5
171
330
16E
100
AcDbEntity
  8
0
 62
     0
100
AcDbLine
 10
337.4570934437043
 20
101.595062715196
 30
0.0
 11
337.4570934437043
 21
-98.04493728480387
 31
0.0
  0
LINE
  5
172
330
16E
100
AcDbEntity
  8
0
 62
     0
100
AcDbLine
 10
337.457093443704
 20
-298.0449372848038
 30
0.0
 11
337.4570934437043
 21
-98.40493728480387
 31
0.0
  0
SOLID
  5
173
330
16E
100
AcDbEntity
  8
0
 62
     0
100
AcDbTrace
 10
337.4270934437041
 20
101.595062715196
 30
0.0
 11
337.4870934437041
 21
101.595062715196
 31
0.0
 12
337.4570934437043
 22
101.775062715196
 32
0.0
 13
337.4570934437043
 23
101.775062715196
 33
0.0
  0
SOLID
  5
174
330
16E
100
AcDbEntity
  8
0
 62
     0
100
AcDbTrace
 10
337.4270934437041
 20
-298.0449372848038
 30
0.0
 11
337.4870934437041
 21
-298.0449372848038
 31
0.0
 12
337.457093443704
 22
-298.2249372848036
 32
0.0
 13
337.457093443704
 23
-298.2249372848036
 33
0.0
  0
MTEXT
  5
175
330
16E
100
AcDbEntity
  8
0
 62
     0
100
AcDbMText
 10
337.4570934437043
 20
-98.22493728480379
 30
0.0
 40
0.18
 41
0.0
 71
     5
 72
     1
  1
\A1;400.0000
 73
     1
 44
1.0
1001
ACAD
1000
MTEXTBEGIN
1070
    73
1070
     1
1070
    44
1040
1.0
1070
    74
1070
     0
1000
MTEXTEND
1000
MTEXTBEGIN
1070
    73
1070
     1
1070
    44
1040
1.0
1070
    74
1070
     0
1000
MTEXTEND
  0
POINT
  5
176
330
16E
100
AcDbEntity
  8
DEFPOINTS
 62
     0
100
AcDbPoint
 10
397.5718525461333
 20
101.775062715196
 30
0.0
  0
POINT
  5
177
330
16E
100
AcDbEntity
  8
DEFPOINTS
 62
     0
100
AcDbPoint
 10
397.5718525461333
 20
-298.2249372848039
 30
0.0
  0
POINT
  5
178
330
16E
100
AcDbEntity
  8
DEFPOINTS
 62
     0
100
AcDbPoint
 10
337.457093443704
 20
-298.2249372848036
 30
0.0
  0
ENDBLK
  5
17A
330
16E
100
AcDbEntity
  8
0
100
AcDbBlockEnd
  0
BLOCK
  5
1B4
330
1A9
100
AcDbEntity
  8
0
100
AcDbBlockBegin
  2
*D9
 70
     1
 10
0.0
 20
0.0
 30
0.0
  3
*D9
  1

  0
LINE
  5
1AA
330
1A9
100
AcDbEntity
  8
0
 62
     6
100
AcDbLine
 10
452.7205042139565
 20
219.9999999999999
 30
0.0
 11
528.0280043407274
 21
219.9999999999999
 31
0.0
  0
LINE
  5
1AB
330
1A9
100
AcDbEntity
  8
0
 62
     6
100
AcDbLine
 10
452.7205042139565
 20
-280.0
 30
0.0
 11
528.0280043407271
 21
-280.0
 31
0.0
  0
LINE
  5
1AC
330
1A9
100
AcDbEntity
  8
0
 62
     6
100
AcDbLine
 10
508.0280043407275
 20
149.9999999999999
 30
0.0
 11
508.0280043407275
 21
45.15006821282399
 31
0.0
  0
LINE
  5
1AD
330
1A9
100
AcDbEntity
  8
0
 62
     6
100
AcDbLine
 10
508.0280043407273
 20
-210.0
 30
0.0
 11
508.0280043407275
 21
-105.1500682128239
 31
0.0
  0
SOLID
  5
1AE
330
1A9
100
AcDbEntity
  8
0
 62
     6
100
AcDbTrace
 10
496.3613376740608
 20
149.9999999999999
 30
0.0
 11
519.694671007394
 21
149.9999999999999
 31
0.0
 12
508.0280043407275
 22
219.9999999999999
 32
0.0
 13
508.0280043407275
 23
219.9999999999999
 33
0.0
  0
SOLID
  5
1AF
330
1A9
100
AcDbEntity
  8
0
 62
     6
100
AcDbTrace
 10
496.3613376740607
 20
-210.0
 30
0.0
 11
519.694671007394
 21
-210.0
 31
0.0
 12
508.0280043407273
 22
-280.0
 32
0.0
 13
508.0280043407273
 23
-280.0
 33
0.0
  0
MTEXT
  5
1B0
330
1A9
100
AcDbEntity
  8
0
 62
     6
100
AcDbMText
 10
508.0280043407275
 20
-29.99999999999992
 30
0.0
 40
50.0
 41
0.0
 71
     5
 72
     1
  1
\A1;500
  7
HEWI
 11
0.0000000000000001
 21
1.0
 31
0.0
 73
     1
 44
1.0
1001
ACAD
1000
MTEXTBEGIN
1070
    73
1070
     1
1070
    44
1040
1.0
1070
    74
1070
     0
1000
MTEXTEND
  0
POINT
  5
1B1
330
1A9
100
AcDbEntity
  8
DEFPOINTS
 62
     0
100
AcDbPoint
 10
432.7205042139564
 20
220.0
 30
0.0
  0
POINT
  5
1B2
330
1A9
100
AcDbEntity
  8
DEFPOINTS
 62
     0
100
AcDbPoint
 10
432.7205042139564
 20
-280.0
 30
0.0
  0
POINT
  5
1B3
330
1A9
100
AcDbEntity
  8
DEFPOINTS
 62
     0
100
AcDbPoint
 10
508.0280043407273
 20
-280.0
 30
0.0
  0
ENDBLK
  5
1B5
330
1A9
100
AcDbEntity
  8
0
100
AcDbBlockEnd
  0
BLOCK
  5
1C9
330
1BE
100
AcDbEntity
  8
0
100
AcDbBlockBegin
  2
*D10
 70
     1
 10
0.0
 20
0.0
 30
0.0
  3
*D10
  1

  0
LINE
  5
1CB
330
1BE
100
AcDbEntity
  8
0
 62
     6
100
AcDbLine
 10
554.8156756046084
 20
196.055863586519
 30
0.0
 11
630.1231757313794
 21
196.055863586519
 31
0.0
  0
LINE
  5
1CC
330
1BE
100
AcDbEntity
  8
0
 62
     6
100
AcDbLine
 10
554.8156756046084
 20
-303.9441364134808
 30
0.0
 11
630.1231757313794
 21
-303.9441364134808
 31
0.0
  0
LINE
  5
1CD
330
1BE
100
AcDbEntity
  8
0
 62
     6
100
AcDbLine
 10
610.1231757313794
 20
126.0558635865189
 30
0.0
 11
610.1231757313794
 21
21.20593179934306
 31
0.0
  0
LINE
  5
1CE
330
1BE
100
AcDbEntity
  8
0
 62
     6
100
AcDbLine
 10
610.1231757313794
 20
-233.9441364134809
 30
0.0
 11
610.1231757313794
 21
-129.0942046263048
 31
0.0
  0
SOLID
  5
1CF
330
1BE
100
AcDbEntity
  8
0
 62
     6
100
AcDbTrace
 10
598.4565090647129
 20
126.0558635865189
 30
0.0
 11
621.7898423980463
 21
126.0558635865189
 31
0.0
 12
610.1231757313794
 22
196.055863586519
 32
0.0
 13
610.1231757313794
 23
196.055863586519
 33
0.0
  0
SOLID
  5
1D0
330
1BE
100
AcDbEntity
  8
0
 62
     6
100
AcDbTrace
 10
598.4565090647129
 20
-233.9441364134809
 30
0.0
 11
621.7898423980463
 21
-233.9441364134809
 31
0.0
 12
610.1231757313794
 22
-303.9441364134808
 32
0.0
 13
610.1231757313794
 23
-303.9441364134808
 33
0.0
  0
MTEXT
  5
1D1
330
1BE
100
AcDbEntity
  8
0
 62
     6
100
AcDbMText
 10
610.1231757313794
 20
-53.94413641348084
 30
0.0
 40
50.0
 41
0.0
 71
     5
 72
     1
  1
\A1;500
  7
HEWI
 11
0.0000000000000001
 21
1.0
 31
0.0
 73
     1
 44
1.0
1001
ACAD
1000
MTEXTBEGIN
1070
    73
1070
     1
1070
    44
1040
1.0
1070
    74
1070
     0
1000
MTEXTEND
  0
POINT
  5
1D2
330
1BE
100
AcDbEntity
  8
DEFPOINTS
 62
     0
100
AcDbPoint
 10
534.8156756046083
 20
196.055863586519
 30
0.0
  0
POINT
  5
1D3
330
1BE
100
AcDbEntity
  8
DEFPOINTS
 62
     0
100
AcDbPoint
 10
534.8156756046083
 20
-303.9441364134808
 30
0.0
  0
POINT
  5
1D4
330
1BE
100
AcDbEntity
  8
DEFPOINTS
 62
     0
100
AcDbPoint
 10
610.1231757313794
 20
-303.9441364134808
 30
0.0
  0
ENDBLK
  5
1CA
330
1BE
100
AcDbEntity
  8
0
100
AcDbBlockEnd
  0
BLOCK
  5
1E1
330
1D6
100
AcDbEntity
  8
0
100
AcDbBlockBegin
  2
*D11
 70
     1
 10
0.0
 20
0.0
 30
0.0
  3
*D11
  1

  0
LINE
  5
251
330
1D6
100
AcDbEntity
  8
0
 62
     6
370
    -2
100
AcDbLine
 10
499.2898484411949
 20
70.07718284349401
 30
0.0
 11
567.7898484411951
 21
70.077182843494
 31
0.0
  0
LINE
  5
252
330
1D6
100
AcDbEntity
  8
0
 62
     6
370
    -2
100
AcDbLine
 10
499.2898484411949
 20
-230.0
 30
0.0
 11
567.7898484411951
 21
-230.0
 31
0.0
  0
LINE
  5
253
330
1D6
100
AcDbEntity
  8
0
 62
     6
370
    -2
100
AcDbLine
 10
547.7898484411951
 20
0.0771828434940068
 30
0.0
 11
547.7898484411951
 21
-160.0
 31
0.0
  0
LINE
  5
254
330
1D6
100
AcDbEntity
  8
0
 62
     6
370
    -2
100
AcDbLine
 10
547.7898484411951
 20
-230.0
 30
0.0
 11
547.789848441195
 21
-300.0
 31
0.0
  0
SOLID
  5
255
330
1D6
100
AcDbEntity
  8
0
 62
     6
100
AcDbTrace
 10
536.1231817745284
 20
0.0771828434940094
 30
0.0
 11
559.4565151078617
 21
0.0771828434940042
 31
0.0
 12
547.7898484411951
 22
70.077182843494
 32
0.0
 13
547.7898484411951
 23
70.077182843494
 33
0.0
  0
SOLID
  5
256
330
1D6
100
AcDbEntity
  8
0
 62
     6
100
AcDbTrace
 10
536.1231817745284
 20
-160.0
 30
0.0
 11
559.4565151078617
 21
-160.0
 31
0.0
 12
547.7898484411951
 22
-230.0
 32
0.0
 13
547.7898484411951
 23
-230.0
 33
0.0
  0
MTEXT
  5
257
330
1D6
100
AcDbEntity
  8
0
 62
     6
100
AcDbMText
 10
547.7898484411951
 20
-375.1330150068212
 30
0.0
 40
50.0
 41
0.0
 71
     5
 72
     1
  1
\A1;300
  7
HEWI
 11
0.0000000000000001
 21
1.0
 31
0.0
 73
     1
 44
1.0
  0
POINT
  5
258
330
1D6
100
AcDbEntity
  8
DEFPOINTS
 62
     0
100
AcDbPoint
 10
479.2898484411949
 20
70.07718284349403
 30
0.0
  0
POINT
  5
259
330
1D6
100
AcDbEntity
  8
DEFPOINTS
 62
     0
100
AcDbPoint
 10
479.2898484411949
 20
-230.0
 30
0.0
  0
POINT
  5
25A
330
1D6
100
AcDbEntity
  8
DEFPOINTS
 62
     0
100
AcDbPoint
 10
547.7898484411951
 20
-230.0
 30
0.0
  0
ENDBLK
  5
1E2
330
1D6
100
AcDbEntity
  8
0
100
AcDbBlockEnd
  0
BLOCK
  5
22E
330
223
100
AcDbEntity
  8
0
100
AcDbBlockBegin
  2
*D12
 70
     1
 10
0.0
 20
0.0
 30
0.0
  3
*D12
  1

  0
LINE
  5
230
330
223
100
AcDbEntity
  8
0
 62
     6
370
    -2
100
AcDbLine
 10
104.000000024
 20
-230.0
 30
0.0
 11
231.3684602510601
 21
-230.0
 31
0.0
  0
LINE
  5
231
330
223
100
AcDbEntity
  8
0
 62
     6
370
    -2
100
AcDbLine
 10
104.000000024
 20
170.0
 30
0.0
 11
231.3684602510602
 21
169.9999999999999
 31
0.0
  0
LINE
  5
232
330
223
100
AcDbEntity
  8
0
 62
     6
370
    -2
100
AcDbLine
 10
211.3684602510601
 20
-160.0
 30
0.0
 11
211.3684602510601
 21
-106.156207366985
 31
0.0
  0
LINE
  5
233
330
223
100
AcDbEntity
  8
0
 62
     6
370
    -2
100
AcDbLine
 10
211.3684602510602
 20
100.0
 30
0.0
 11
211.3684602510601
 21
46.15620736698496
 31
0.0
  0
SOLID
  5
234
330
223
100
AcDbEntity
  8
0
 62
     6
100
AcDbTrace
 10
199.7017935843935
 20
-160.0
 30
0.0
 11
223.0351269177268
 21
-160.0
 31
0.0
 12
211.3684602510601
 22
-230.0
 32
0.0
 13
211.3684602510601
 23
-230.0
 33
0.0
  0
SOLID
  5
235
330
223
100
AcDbEntity
  8
0
 62
     6
100
AcDbTrace
 10
199.7017935843935
 20
100.0
 30
0.0
 11
223.0351269177269
 21
100.0
 31
0.0
 12
211.3684602510602
 22
169.9999999999999
 32
0.0
 13
211.3684602510602
 23
169.9999999999999
 33
0.0
  0
MTEXT
  5
236
330
223
100
AcDbEntity
  8
0
 62
     6
100
AcDbMText
 10
211.3684602510601
 20
-29.99999999999998
 30
0.0
 40
50.0
 41
0.0
 71
     5
 72
     1
  1
\A1;400
  7
HEWI
 11
0.0000000000000001
 21
1.0
 31
0.0
 73
     1
 44
1.0
  0
POINT
  5
237
330
223
100
AcDbEntity
  8
DEFPOINTS
 62
     0
100
AcDbPoint
 10
84.000000024
 20
-230.0
 30
0.0
  0
POINT
  5
238
330
223
100
AcDbEntity
  8
DEFPOINTS
 62
     0
100
AcDbPoint
 10
84.000000024
 20
170.0
 30
0.0
  0
POINT
  5
239
330
223
100
AcDbEntity
  8
DEFPOINTS
 62
     0
100
AcDbPoint
 10
211.3684602510602
 20
169.9999999999999
 30
0.0
  0
ENDBLK
  5
22F
330
223
100
AcDbEntity
  8
0
100
AcDbBlockEnd
  0
ENDSEC
  0
SECTION
  2
ENTITIES
  0
LINE
  5
BE
330
1F
100
AcDbEntity
  8
PV-AF
100
AcDbLine
 10
-84.000000024
 20
-230.0
 30
0.0
 11
-90.000000024
 21
-230.0
 31
-0.0000000000000004
210
0.0
220
1.0
230
0.0
  0
LINE
  5
BF
330
1F
100
AcDbEntity
  8
PV-AF
100
AcDbLine
 10
-78.000000024
 20
-230.0
 30
0.0000000000000004
 11
-84.00000002400009
 21
-230.0
 31
0.0
210
0.0
220
1.0
230
0.0
  0
LINE
  5
C0
330
1F
100
AcDbEntity
  8
PV-AF
100
AcDbLine
 10
-84.000000024
 20
-205.0
 30
0.0
 11
-90.050000024
 21
-205.0
 31
-0.0000000000000004
210
0.0
220
1.0
230
0.0
  0
LINE
  5
C1
330
1F
100
AcDbEntity
  8
PV-AF
100
AcDbLine
 10
-77.95000002400001
 20
-205.0
 30
0.0000000000000004
 11
-84.00000002400009
 21
-205.0
 31
0.0
210
0.0
220
1.0
230
0.0
  0
LINE
  5
C2
330
1F
100
AcDbEntity
  8
PV-AF
100
AcDbLine
 10
-84.000000024
 20
-172.1473925456869
 30
0.0
 11
-90.05000002399997
 21
-172.1473925456869
 31
-0.0000000000000004
210
0.0
220
1.0
230
0.0
  0
LINE
  5
C3
330
1F
100
AcDbEntity
  8
PV-AF
100
AcDbLine
 10
-77.95000002400003
 20
-172.1473925456869
 30
0.0000000000000004
 11
-84.00000002400009
 21
-172.1473925456869
 31
0.0
210
0.0
220
1.0
230
0.0
  0
LINE
  5
C4
330
1F
100
AcDbEntity
  8
PV-AF
100
AcDbLine
 10
-119.0000000239999
 20
70.0
 30
0.0000000000000187
 11
-49.00000002399997
 21
70.0
 31
0.0000000000000229
210
0.0
220
1.0
230
0.0
  0
LINE
  5
C5
330
1F
100
AcDbEntity
  8
PV-AF
100
AcDbLine
 10
-117.0000000239999
 20
58.0
 30
0.0000000000000188
 11
-51.00000002399998
 21
58.0
 31
0.0000000000000228
210
0.0
220
1.0
230
0.0
  0
LINE
  5
C6
330
1F
100
AcDbEntity
  8
PV-AF
100
AcDbLine
 10
-49.00000002399997
 20
60.0
 30
0.0000000000000229
 11
-49.00000002399997
 21
70.0
 31
0.0000000000000229
210
0.0
220
1.0
230
0.0
  0
LINE
  5
C8
330
1F
100
AcDbEntity
  8
PV-AF
100
AcDbLine
 10
-100.500000024
 20
58.0
 30
-0.000000000000001
 11
-100.500000024
 21
-170.1106531685483
 31
-0.000000000000001
210
0.0
220
1.0
230
0.0
  0
LINE
  5
C9
330
1F
100
AcDbEntity
  8
PV-AF
100
AcDbLine
 10
-67.50000002400001
 20
58.0
 30
0.000000000000001
 11
-67.500000024
 21
-170.1106531685483
 31
0.000000000000001
210
0.0
220
1.0
230
0.0
  0
ARC
  5
CA
330
1F
100
AcDbEntity
  8
PV-AF
100
AcDbCircle
 10
-84.000000024
 20
-52.29999999999989
 30
0.0
 40
120.0
100
AcDbArc
 50
262.6004459104684
 51
267.110112628002
  0
ARC
  5
CB
330
1F
100
AcDbEntity
  8
PV-AF
100
AcDbCircle
 10
-84.000000024
 20
-52.29999999999989
 30
0.0
 40
119.9999999999999
100
AcDbArc
 50
272.8898873719974
 51
277.3995540895314
  0
LINE
  5
CC
330
1F
100
AcDbEntity
  8
PV-AF
100
AcDbLine
 10
-90.05000002399997
 20
-172.1473925456869
 30
-0.0000000000000004
 11
-90.05000002399997
 21
-205.0
 31
-0.0000000000000004
210
0.0
220
1.0
230
0.0
  0
LINE
  5
CD
330
1F
100
AcDbEntity
  8
PV-AF
100
AcDbLine
 10
-77.95000002400001
 20
-172.1473925456869
 30
0.0000000000000004
 11
-77.95000002400001
 21
-205.0
 31
0.0000000000000004
210
0.0
220
1.0
230
0.0
  0
LINE
  5
CE
330
1F
100
AcDbEntity
  8
PV-AF
100
AcDbLine
 10
-90.000000024
 20
-205.0
 30
-0.0000000000000004
 11
-90.000000024
 21
-230.0
 31
-0.0000000000000004
210
0.0
220
1.0
230
0.0
  0
LINE
  5
CF
330
1F
100
AcDbEntity
  8
PV-AF
100
AcDbLine
 10
-78.000000024
 20
-205.0
 30
0.0000000000000004
 11
-78.000000024
 21
-230.0
 31
0.0000000000000004
210
0.0
220
1.0
230
0.0
  0
ARC
  5
D1
330
1F
100
AcDbEntity
  8
PV-AF
100
AcDbCircle
 10
-51.00000002399998
 20
60.0
 30
0.0000000000000228
 40
2.0
100
AcDbArc
 50
269.9999999999973
 51
0.0
  0
ARC
  5
D2
330
1F
100
AcDbEntity
  8
PV-AF
100
AcDbCircle
 10
-68.70000002400001
 20
-170.1106531685484
 30
0.0000000000000009
 40
1.199999999999999
100
AcDbArc
 50
277.3995540895322
 51
0.0
  0
ARC
  5
D3
330
1F
100
AcDbEntity
  8
PV-AF
100
AcDbCircle
 10
-99.30000002399999
 20
-170.1106531685484
 30
-0.0000000000000009
 40
1.199999999999999
100
AcDbArc
 50
180.0
 51
262.6004459104676
  0
LINE
  5
D5
330
1F
100
AcDbEntity
  8
PV-AF
100
AcDbLine
 10
6.0
 20
-230.0
 30
0.0000000000000007
 11
-6.0
 21
-230.0
 31
-0.0000000000000007
210
0.0
220
1.0
230
0.0
  0
LINE
  5
D6
330
1F
100
AcDbEntity
  8
PV-AF
100
AcDbLine
 10
6.049999999999998
 20
-205.0
 30
0.0000000000000007
 11
-6.049999999999998
 21
-205.0
 31
-0.0000000000000007
210
0.0
220
1.0
230
0.0
  0
LINE
  5
D7
330
1F
100
AcDbEntity
  8
PV-AF
100
AcDbLine
 10
6.049999999999974
 20
-172.1473925456869
 30
0.0000000000000007
 11
-6.049999999999974
 21
-172.1473925456869
 31
-0.0000000000000007
210
0.0
220
1.0
230
0.0
  0
LINE
  5
D8
330
1F
100
AcDbEntity
  8
PV-AF
100
AcDbLine
 10
-35.0
 20
70.0
 30
0.0000000000000165
 11
35.0
 21
70.0
 31
0.0000000000000251
210
0.0
220
1.0
230
0.0
  0
LINE
  5
D9
330
1F
100
AcDbEntity
  8
PV-AF
100
AcDbLine
 10
-33.0
 20
58.0
 30
0.0000000000000168
 11
33.0
 21
58.0
 31
0.0000000000000248
210
0.0
220
1.0
230
0.0
  0
LINE
  5
DA
330
1F
100
AcDbEntity
  8
PV-AF
100
AcDbLine
 10
35.0
 20
60.0
 30
0.0000000000000251
 11
35.0
 21
70.0
 31
0.0000000000000251
210
0.0
220
1.0
230
0.0
  0
LINE
  5
DB
330
1F
100
AcDbEntity
  8
PV-AF
100
AcDbLine
 10
-35.0
 20
60.0
 30
0.0000000000000165
 11
-35.0
 21
70.0
 31
0.0000000000000165
210
0.0
220
1.0
230
0.0
  0
LINE
  5
DC
330
1F
100
AcDbEntity
  8
PV-AF
100
AcDbLine
 10
-16.5
 20
58.0
 30
-0.000000000000002
 11
-16.5
 21
-170.1106531685483
 31
-0.000000000000002
210
0.0
220
1.0
230
0.0
  0
LINE
  5
DD
330
1F
100
AcDbEntity
  8
PV-AF
100
AcDbLine
 10
16.5
 20
58.0
 30
0.000000000000002
 11
16.5
 21
-170.1106531685483
 31
0.000000000000002
210
0.0
220
1.0
230
0.0
  0
ARC
  5
DE
330
1F
100
AcDbEntity
  8
PV-AF
100
AcDbCircle
 10
0.0
 20
-52.29999999999989
 30
0.0
 40
120.0
100
AcDbArc
 50
262.6004459104683
 51
267.110112628002
  0
ARC
  5
DF
330
1F
100
AcDbEntity
  8
PV-AF
100
AcDbCircle
 10
0.0
 20
-52.29999999999989
 30
0.0
 40
119.9999999999999
100
AcDbArc
 50
272.8898873719978
 51
277.3995540895315
  0
LINE
  5
E0
330
1F
100
AcDbEntity
  8
PV-AF
100
AcDbLine
 10
-6.049999999999985
 20
-172.1473925456869
 30
-0.0000000000000007
 11
-6.049999999999985
 21
-205.0
 31
-0.0000000000000007
210
0.0
220
1.0
230
0.0
  0
LINE
  5
E1
330
1F
100
AcDbEntity
  8
PV-AF
100
AcDbLine
 10
6.049999999999985
 20
-172.1473925456869
 30
0.0000000000000007
 11
6.049999999999985
 21
-205.0
 31
0.0000000000000007
210
0.0
220
1.0
230
0.0
  0
LINE
  5
E2
330
1F
100
AcDbEntity
  8
PV-AF
100
AcDbLine
 10
-6.0
 20
-205.0
 30
-0.0000000000000007
 11
-6.0
 21
-230.0
 31
-0.0000000000000007
210
0.0
220
1.0
230
0.0
  0
LINE
  5
E3
330
1F
100
AcDbEntity
  8
PV-AF
100
AcDbLine
 10
6.0
 20
-205.0
 30
0.0000000000000007
 11
6.0
 21
-230.0
 31
0.0000000000000007
210
0.0
220
1.0
230
0.0
  0
ARC
  5
E4
330
1F
100
AcDbEntity
  8
PV-AF
100
AcDbCircle
 10
-33.0
 20
60.0
 30
0.0000000000000168
 40
2.0
100
AcDbArc
 50
180.0
 51
270.0000000000012
  0
ARC
  5
E5
330
1F
100
AcDbEntity
  8
PV-AF
100
AcDbCircle
 10
33.0
 20
60.0
 30
0.0000000000000248
 40
2.0
100
AcDbArc
 50
269.9999999999978
 51
0.0
  0
ARC
  5
E6
330
1F
100
AcDbEntity
  8
PV-AF
100
AcDbCircle
 10
15.3
 20
-170.1106531685484
 30
0.0000000000000019
 40
1.199999999999999
100
AcDbArc
 50
277.3995540895321
 51
0.0
  0
ARC
  5
E7
330
1F
100
AcDbEntity
  8
PV-AF
100
AcDbCircle
 10
-15.3
 20
-170.1106531685484
 30
-0.0000000000000019
 40
1.199999999999999
100
AcDbArc
 50
180.0
 51
262.6004459104676
  0
LINE
  5
E9
330
1F
100
AcDbEntity
  8
PV-AF
100
AcDbLine
 10
90.000000024
 20
-230.0
 30
0.0000000000000011
 11
78.000000024
 21
-230.0
 31
-0.0000000000000011
210
0.0
220
1.0
230
0.0
  0
LINE
  5
EA
330
1F
100
AcDbEntity
  8
PV-AF
100
AcDbLine
 10
90.050000024
 20
-205.0
 30
0.0000000000000011
 11
77.95000002400001
 21
-205.0
 31
-0.0000000000000011
210
0.0
220
1.0
230
0.0
  0
LINE
  5
EB
330
1F
100
AcDbEntity
  8
PV-AF
100
AcDbLine
 10
90.05000002399997
 20
-172.1473925456869
 30
0.0000000000000011
 11
77.95000002400003
 21
-172.1473925456869
 31
-0.0000000000000011
210
0.0
220
1.0
230
0.0
  0
LINE
  5
EC
330
1F
100
AcDbEntity
  8
PV-AF
100
AcDbLine
 10
84.00000002399997
 20
70.0
 30
0.0000000000000208
 11
119.0000000239999
 21
70.0
 31
0.0000000000000272
210
0.0
220
1.0
230
0.0
  0
LINE
  5
ED
330
1F
100
AcDbEntity
  8
PV-AF
100
AcDbLine
 10
49.00000002399997
 20
70.0
 30
0.0000000000000144
 11
84.00000002400048
 21
70.0
 31
0.0000000000000208
210
0.0
220
1.0
230
0.0
  0
LINE
  5
EE
330
1F
100
AcDbEntity
  8
PV-AF
100
AcDbLine
 10
84.00000002399997
 20
58.0
 30
0.0000000000000208
 11
117.0000000239999
 21
58.0
 31
0.0000000000000269
210
0.0
220
1.0
230
0.0
  0
LINE
  5
EF
330
1F
100
AcDbEntity
  8
PV-AF
100
AcDbLine
 10
51.00000002399998
 20
58.0
 30
0.0000000000000147
 11
84.00000002400043
 21
58.0
 31
0.0000000000000208
210
0.0
220
1.0
230
0.0
  0
LINE
  5
F0
330
1F
100
AcDbEntity
  8
PV-AF
100
AcDbLine
 10
119.0000000239999
 20
60.0
 30
0.0000000000000272
 11
119.0000000239999
 21
70.0
 31
0.0000000000000272
210
0.0
220
1.0
230
0.0
  0
LINE
  5
F1
330
1F
100
AcDbEntity
  8
PV-AF
100
AcDbLine
 10
49.00000002399997
 20
60.0
 30
0.0000000000000144
 11
49.00000002399997
 21
70.0
 31
0.0000000000000144
210
0.0
220
1.0
230
0.0
  0
LINE
  5
F2
330
1F
100
AcDbEntity
  8
PV-AF
100
AcDbLine
 10
67.500000024
 20
58.0
 30
-0.000000000000003
 11
67.500000024
 21
-170.1106531685483
 31
-0.000000000000003
210
0.0
220
1.0
230
0.0
  0
LINE
  5
F3
330
1F
100
AcDbEntity
  8
PV-AF
100
AcDbLine
 10
100.500000024
 20
58.00000000000001
 30
0.000000000000003
 11
100.500000024
 21
-170.1106531685483
 31
0.000000000000003
210
0.0
220
1.0
230
0.0
  0
ARC
  5
F4
330
1F
100
AcDbEntity
  8
PV-AF
100
AcDbCircle
 10
84.000000024
 20
-52.29999999999989
 30
0.0
 40
120.0
100
AcDbArc
 50
262.6004459104684
 51
267.110112628002
  0
ARC
  5
F5
330
1F
100
AcDbEntity
  8
PV-AF
100
AcDbCircle
 10
84.000000024
 20
-52.29999999999989
 30
0.0
 40
119.9999999999999
100
AcDbArc
 50
272.8898873719974
 51
277.3995540895314
  0
LINE
  5
F6
330
1F
100
AcDbEntity
  8
PV-AF
100
AcDbLine
 10
77.95000002400001
 20
-172.1473925456869
 30
-0.0000000000000011
 11
77.95000002400001
 21
-205.0
 31
-0.0000000000000011
210
0.0
220
1.0
230
0.0
  0
LINE
  5
F7
330
1F
100
AcDbEntity
  8
PV-AF
100
AcDbLine
 10
90.05000002399997
 20
-172.1473925456869
 30
0.0000000000000011
 11
90.05000002399997
 21
-205.0
 31
0.0000000000000011
210
0.0
220
1.0
230
0.0
  0
LINE
  5
F8
330
1F
100
AcDbEntity
  8
PV-AF
100
AcDbLine
 10
78.000000024
 20
-205.0
 30
-0.0000000000000011
 11
78.000000024
 21
-230.0
 31
-0.0000000000000011
210
0.0
220
1.0
230
0.0
  0
LINE
  5
F9
330
1F
100
AcDbEntity
  8
PV-AF
100
AcDbLine
 10
90.000000024
 20
-205.0
 30
0.0000000000000011
 11
90.000000024
 21
-230.0
 31
0.0000000000000011
210
0.0
220
1.0
230
0.0
  0
ARC
  5
FA
330
1F
100
AcDbEntity
  8
PV-AF
100
AcDbCircle
 10
51.00000002399998
 20
60.0
 30
0.0000000000000147
 40
2.0
100
AcDbArc
 50
180.0
 51
270.0000000000008
  0
ARC
  5
FB
330
1F
100
AcDbEntity
  8
PV-AF
100
AcDbCircle
 10
117.0000000239999
 20
60.0
 30
0.0000000000000269
 40
2.0
100
AcDbArc
 50
269.9999999999973
 51
0.0
  0
ARC
  5
FC
330
1F
100
AcDbEntity
  8
PV-AF
100
AcDbCircle
 10
99.30000002399999
 20
-170.1106531685484
 30
0.0000000000000028
 40
1.199999999999999
100
AcDbArc
 50
277.3995540895322
 51
0.0
  0
ARC
  5
FD
330
1F
100
AcDbEntity
  8
PV-AF
100
AcDbCircle
 10
68.70000002400001
 20
-170.1106531685484
 30
-0.0000000000000028
 40
1.199999999999999
100
AcDbArc
 50
180.0
 51
262.6004459104676
  0
CIRCLE
  5
FF
330
1F
100
AcDbEntity
  8
PV-AF
100
AcDbCircle
 10
0.0
 20
-279.000000014
 30
0.0
 40
16.5
  0
CIRCLE
  5
100
330
1F
100
AcDbEntity
  8
PV-AF
100
AcDbCircle
 10
0.0
 20
-279.000000014
 30
0.0
 40
33.25
  0
CIRCLE
  5
101
330
1F
100
AcDbEntity
  8
PV-AF
100
AcDbCircle
 10
0.0
 20
-279.000000014
 30
0.0
 40
35.0
  0
CIRCLE
  5
102
330
1F
100
AcDbEntity
  8
PV-AF
100
AcDbCircle
 10
0.0
 20
-279.000000014
 30
0.0
 40
16.8
  0
CIRCLE
  5
103
330
1F
100
AcDbEntity
  8
PV-AF
100
AcDbCircle
 10
0.0
 20
-279.000000014
 30
0.0
 40
32.25
  0
LINE
  5
14F
330
1F
100
AcDbEntity
  8
PV-AF
100
AcDbLine
 10
373.4999999759999
 20
58.0
 30
0.0000000000000117
 11
373.4999999759999
 21
-180.1106531685482
 31
0.0000000000000117
210
0.0
220
1.0
230
0.0
  0
LINE
  5
150
330
1F
100
AcDbEntity
  8
PV-AF
100
AcDbLine
 10
406.4999999759999
 20
58.0
 30
0.0000000000000177
 11
406.4999999759999
 21
-180.1106531685482
 31
0.0000000000000177
210
0.0
220
1.0
230
0.0
  0
LINE
  5
151
330
1F
100
AcDbEntity
  8
MITTELLINIE
100
AcDbLine
 10
309.9999999759998
 20
-246.4999999999999
 30
0.0
 11
423.4999999759999
 21
-246.4999999999999
 31
0.0000000000000208
210
0.0
220
1.0
230
0.0
  0
LINE
  5
152
330
1F
100
AcDbEntity
  8
MITTELLINIE
100
AcDbLine
 10
423.4999999759999
 20
-213.5
 30
0.0000000000000208
 11
309.9999999759998
 21
-213.5
 31
0.0
210
0.0
220
1.0
230
0.0
  0
LINE
  5
153
330
1F
100
AcDbEntity
  8
MITTELLINIE
100
AcDbLine
 10
309.9999999759998
 20
-246.4999999999999
 30
0.0
 11
309.9999999759998
 21
-213.5
 31
0.0
210
0.0
220
1.0
230
0.0
  0
LINE
  5
154
330
1F
100
AcDbEntity
  8
MITTELLINIE
100
AcDbLine
 10
309.9999999759998
 20
-229.9999999999995
 30
0.0
 11
309.9999999759998
 21
-246.4999999999999
 31
0.0
210
0.0
220
1.0
230
0.0
  0
LINE
  5
155
330
1F
100
AcDbEntity
  8
MITTELLINIE
100
AcDbLine
 10
309.9999999759998
 20
-213.5
 30
0.0
 11
309.9999999759998
 21
-229.9999999999998
 31
0.0
210
0.0
220
1.0
230
0.0
  0
ARC
  5
156
330
1F
100
AcDbEntity
  8
MITTELLINIE
100
AcDbCircle
 10
423.4999999759999
 20
-230.0
 30
0.0000000000000208
 40
35.0
100
AcDbArc
 50
208.1270682186058
 51
151.872931781394
  0
LINE
  5
157
330
1F
100
AcDbEntity
  8
PV-AF
100
AcDbLine
 10
396.0499999760008
 20
-182.1473925456871
 30
0.0000000000000158
 11
396.0499999760008
 21
-215.0
 31
0.0000000000000158
210
0.0
220
1.0
230
0.0
  0
LINE
  5
158
330
1F
100
AcDbEntity
  8
PV-AF
100
AcDbLine
 10
383.9499999759998
 20
-182.1473925456871
 30
0.0000000000000136
 11
383.9499999759998
 21
-213.5
 31
0.0000000000000136
210
0.0
220
1.0
230
0.0
  0
ARC
  5
159
330
1F
100
AcDbEntity
  8
MITTELLINIE
100
AcDbCircle
 10
423.4999999759999
 20
-230.0
 30
0.0000000000000208
 40
16.8
100
AcDbArc
 50
259.1559374362987
 51
100.8440625637012
  0
CIRCLE
  5
15A
330
1F
100
AcDbEntity
  8
MITTELLINIE
100
AcDbCircle
 10
423.4999999759999
 20
-230.0
 30
0.0000000000000208
 40
16.5
  0
ARC
  5
15B
330
1F
100
AcDbEntity
  8
MITTELLINIE
100
AcDbCircle
 10
423.4999999759999
 20
-230.0
 30
0.0000000000000208
 40
16.5
100
AcDbArc
 50
270.0
 51
90.0
  0
LINE
  5
15C
330
1F
100
AcDbEntity
  8
MITTELLINIE
100
AcDbLine
 10
423.4999999760009
 20
-213.5
 30
0.0000000000000209
 11
396.0499999760008
 21
-213.5
 31
0.0000000000000158
210
0.0
220
1.0
230
0.0
  0
ARC
  5
15D
330
1F
100
AcDbEntity
  8
PV-AF
100
AcDbCircle
 10
389.9999999759998
 20
-62.30000000000018
 30
0.0000000000000147
 40
119.9999999999999
100
AcDbArc
 50
272.8898873720132
 51
277.3995540895378
  0
LINE
  5
15E
330
1F
100
AcDbEntity
  8
PV-AF
100
AcDbLine
 10
389.9999999759998
 20
-182.1473925456871
 30
0.0000000000000147
 11
383.9499999759998
 21
-182.1473925456871
 31
0.0000000000000136
210
0.0
220
1.0
230
0.0
  0
ARC
  5
15F
330
1F
100
AcDbEntity
  8
PV-AF
100
AcDbCircle
 10
389.9999999759998
 20
-62.30000000000018
 30
0.0000000000000147
 40
120.0
100
AcDbArc
 50
262.6004459104621
 51
267.1101126279866
  0
ARC
  5
160
330
1F
100
AcDbEntity
  8
MITTELLINIE
100
AcDbCircle
 10
374.6999999759998
 20
-180.1106531685482
 30
0.0000000000000119
 40
1.199999999999999
100
AcDbArc
 50
180.0
 51
262.6004459104621
  0
LINE
  5
161
330
1F
100
AcDbEntity
  8
PV-AF
100
AcDbLine
 10
396.0499999760008
 20
-182.1473925456871
 30
0.0000000000000158
 11
389.9999999759998
 21
-182.1473925456871
 31
0.0000000000000147
210
0.0
220
1.0
230
0.0
  0
ARC
  5
162
330
1F
100
AcDbEntity
  8
MITTELLINIE
100
AcDbCircle
 10
405.2999999760008
 20
-180.1106531685482
 30
0.0000000000000175
 40
1.199999999999999
100
AcDbArc
 50
277.3995540895378
 51
0.0
  0
LINE
  5
163
330
1F
100
AcDbEntity
  8
PV-AF
100
AcDbLine
 10
354.9999999760008
 20
70.0
 30
0.0000000000000144
 11
389.9999999759998
 21
70.0
 31
0.0000000000000208
210
0.0
220
1.0
230
0.0
  0
LINE
  5
164
330
1F
100
AcDbEntity
  8
PV-AF
100
AcDbLine
 10
356.9999999760008
 20
58.0
 30
0.0000000000000148
 11
389.9999999759998
 21
58.0
 31
0.0000000000000208
210
0.0
220
1.0
230
0.0
  0
LINE
  5
165
330
1F
100
AcDbEntity
  8
PV-AF
100
AcDbLine
 10
354.9999999760008
 20
59.9999999999998
 30
0.0000000000000144
 11
354.9999999760008
 21
70.0
 31
0.0000000000000144
210
0.0
220
1.0
230
0.0
  0
ARC
  5
166
330
1F
100
AcDbEntity
  8
PV-AF
100
AcDbCircle
 10
356.9999999760008
 20
59.9999999999998
 30
0.0000000000000148
 40
2.0
100
AcDbArc
 50
180.0
 51
270.0
  0
LINE
  5
167
330
1F
100
AcDbEntity
  8
PV-AF
100
AcDbLine
 10
389.9999999759998
 20
70.0
 30
0.0000000000000208
 11
424.9999999760007
 21
70.0
 31
0.0000000000000272
210
0.0
220
1.0
230
0.0
  0
LINE
  5
168
330
1F
100
AcDbEntity
  8
PV-AF
100
AcDbLine
 10
389.9999999759998
 20
58.0
 30
0.0000000000000208
 11
422.9999999760009
 21
58.0
 31
0.0000000000000269
210
0.0
220
1.0
230
0.0
  0
LINE
  5
169
330
1F
100
AcDbEntity
  8
PV-AF
100
AcDbLine
 10
424.9999999760007
 20
59.9999999999998
 30
0.0000000000000272
 11
424.9999999760007
 21
70.0
 31
0.0000000000000272
210
0.0
220
1.0
230
0.0
  0
ARC
  5
16A
330
1F
100
AcDbEntity
  8
PV-AF
100
AcDbCircle
 10
422.9999999760009
 20
59.9999999999998
 30
0.0000000000000269
 40
2.0
100
AcDbArc
 50
270.0
 51
0.0
  0
LINE
  5
17B
330
1F
100
AcDbEntity
  8
PV-AF
100
AcDbLine
 10
396.049999976
 20
-205.0
 30
0.0000000000000011
 11
383.9499999760001
 21
-205.0
 31
-0.0000000000000011
210
0.0
220
1.0
230
0.0
  0
LINE
  5
17C
330
1F
100
AcDbEntity
  8
PV-AF
100
AcDbLine
 10
395.9999999759999
 20
-230.0
 30
0.0000000000000011
 11
383.9999999759999
 21
-230.0
 31
-0.0000000000000011
210
0.0
220
1.0
230
0.0
  0
LINE
  5
17D
330
1F
100
AcDbEntity
  8
PV-AF
100
AcDbLine
 10
383.9999999759999
 20
-205.0
 30
-0.0000000000000011
 11
383.9999999759999
 21
-230.0
 31
-0.0000000000000011
210
0.0
220
1.0
230
0.0
  0
LINE
  5
17E
330
1F
100
AcDbEntity
  8
PV-AF
100
AcDbLine
 10
395.9999999759999
 20
-205.0
 30
0.0000000000000011
 11
395.9999999759999
 21
-230.0
 31
0.0000000000000011
210
0.0
220
1.0
230
0.0
  0
LINE
  5
17F
330
1F
100
AcDbEntity
  8
MITTELLINIE
100
AcDbLine
 10
423.4999999759999
 20
-230.0
 30
0.0000000000000208
 11
258.3000960037748
 21
-230.0
 31
0.0000000000000208
  0
DIMENSION
  5
1D5
330
1F
100
AcDbEntity
  8
0
100
AcDbDimension
  2
*D11
 10
547.7898484411951
 20
-230.0
 30
0.0
 11
547.7898484411951
 21
-375.1330150068212
 31
0.0
 70
    32
 71
     5
 42
300.077182843494
  3
STANDARD
100
AcDbAlignedDimension
 13
479.2898484411949
 23
70.07718284349403
 33
0.0
 14
479.2898484411949
 24
-230.0
 34
0.0
 50
90.0
100
AcDbRotatedDimension
1001
ACAD
1000
DSTYLE
1002
{
1070
    41
1040
70.0
1070
    42
1040
20.0
1070
    43
1040
20.0
1070
    44
1040
20.0
1070
    73
1070
     0
1070
    74
1070
     0
1070
    78
1070
    12
1070
   140
1040
50.0
1070
   141
1040
2.5
1070
   143
1040
0.03937
1070
   147
1040
20.0
1070
   176
1070
     6
1070
   177
1070
     6
1070
   178
1070
     6
1070
   271
1070
     0
1070
   340
1005
1B6
1002
}
  0
LINE
  5
23B
330
1F
100
AcDbEntity
  8
PV-AF
100
AcDbLine
 10
-119.0000000239999
 20
60.0
 30
0.0000000000000229
 11
-119.0000000239999
 21
70.0
 31
0.0000000000000229
210
0.0
220
1.0
230
0.0
  0
ARC
  5
23C
330
1F
100
AcDbEntity
  8
PV-AF
100
AcDbCircle
 10
-117.0000000239999
 20
60.0
 30
0.0000000000000228
 40
2.0
100
AcDbArc
 50
180.0
 51
270.0000000000026
  0
ENDSEC
  0
SECTION
  2
OBJECTS
  0
DICTIONARY
  5
C
330
0
100
AcDbDictionary
281
     1
  3
ACAD_GROUP
350
D
  3
ACAD_LAYOUT
350
1A
  3
ACAD_MLINESTYLE
350
17
  3
ACAD_PLOTSETTINGS
350
19
  3
ACAD_PLOTSTYLENAME
350
B7
1001
ACAD
1000
TREAT_AS_HARD
1070
     0
  0
DICTIONARY
  5
B1
330
1F
100
AcDbDictionary
281
     1
  3
ACAD_LAYOUTSELFREF
350
219
  0
DICTIONARY
  5
AF
330
1B
100
AcDbDictionary
281
     1
  3
ACAD_LAYOUTSELFREF
350
218
  0
DICTIONARY
  5
D
102
{ACAD_REACTORS
330
C
102
}
330
C
100
AcDbDictionary
281
     1
1001
ACAD
1000
TREAT_AS_HARD
1070
     0
  0
DICTIONARY
  5
1A
102
{ACAD_REACTORS
330
C
102
}
330
C
100
AcDbDictionary
281
     1
  3
Model
350
21C
  3
Layout1
350
21D
1001
ACAD
1000
TREAT_AS_HARD
1070
     0
  0
DICTIONARY
  5
17
102
{ACAD_REACTORS
330
C
102
}
330
C
100
AcDbDictionary
281
     1
  3
STANDARD
350
18
1001
ACAD
1000
TREAT_AS_HARD
1070
     0
  0
DICTIONARY
  5
19
102
{ACAD_REACTORS
330
C
102
}
330
C
100
AcDbDictionary
281
     1
1001
ACAD
1000
TREAT_AS_HARD
1070
     0
  0
ACDBDICTIONARYWDFLT
  5
B7
102
{ACAD_REACTORS
330
C
102
}
330
C
100
AcDbDictionary
281
     1
  3
Normal
350
B8
100
AcDbDictionaryWithDefault
340
B8
  0
XRECORD
  5
219
102
{ACAD_REACTORS
330
B1
102
}
330
B1
100
AcDbXrecord
280
     1
340
1F
  0
XRECORD
  5
218
102
{ACAD_REACTORS
330
AF
102
}
330
AF
100
AcDbXrecord
280
     1
340
1B
  0
LAYOUT
  5
21C
102
{ACAD_REACTORS
330
1A
102
}
330
1A
100
AcDbPlotSettings
  1

  2
TAB2HPL4
  4

  6

 40
0.0
 41
0.0
 42
0.0
 43
0.0
 44
0.0
 45
0.0
 46
0.0
 47
0.0
 48
0.0
 49
0.0
140
0.0
141
0.0
142
1.0
143
1.0
 70
  1712
 72
     0
 73
     0
 74
     0
  7

 75
     0
147
1.0
148
0.0
149
0.0
100
AcDbLayout
  1
Model
 70
     1
 71
     0
 10
0.0
 20
0.0
 11
12.0
 21
9.0
 12
0.0
 22
0.0
 32
0.0
 14
0.0
 24
0.0
 34
0.0
 15
0.0
 25
0.0
 35
0.0
146
0.0
 13
0.0
 23
0.0
 33
0.0
 16
1.0
 26
0.0
 36
0.0
 17
0.0
 27
1.0
 37
0.0
 76
     0
330
1F
  0
LAYOUT
  5
21D
102
{ACAD_REACTORS
330
1A
102
}
330
1A
100
AcDbPlotSettings
  1

  2
TAB2HPL4
  4

  6

 40
0.0
 41
0.0
 42
0.0
 43
0.0
 44
0.0
 45
0.0
 46
0.0
 47
0.0
 48
0.0
 49
0.0
140
0.0
141
0.0
142
1.0
143
1.0
 70
   688
 72
     0
 73
     0
 74
     5
  7

 75
    16
147
1.0
148
0.0
149
0.0
100
AcDbLayout
  1
Layout1
 70
     1
 71
     1
 10
0.0
 20
0.0
 11
12.0
 21
9.0
 12
0.0
 22
0.0
 32
0.0
 14
1.000000000000000E+20
 24
1.000000000000000E+20
 34
1.000000000000000E+20
 15
-1.000000000000000E+20
 25
-1.000000000000000E+20
 35
-1.000000000000000E+20
146
0.0
 13
0.0
 23
0.0
 33
0.0
 16
1.0
 26
0.0
 36
0.0
 17
0.0
 27
1.0
 37
0.0
 76
     0
330
1B
  0
MLINESTYLE
  5
18
102
{ACAD_REACTORS
330
17
102
}
330
17
100
AcDbMlineStyle
  2
STANDARD
 70
     0
  3

 62
   256
 51
90.0
 52
90.0
 71
     2
 49
0.5
 62
   256
  6
BYLAYER
 49
-0.5
 62
   256
  6
BYLAYER
  0
ACDBPLACEHOLDER
  5
B8
102
{ACAD_REACTORS
330
B7
102
}
330
B7
  0
ENDSEC
  0
EOF
