  0
SECTION
  2
HEADER
  9
$ACADVER
  1
AC1024
  9
$ACADMAINTVER
 70
   205
  9
$DWGCODEPAGE
  3
ANSI_1252
  9
$LASTSAVEDBY
  1
kaschu
  9
$INSBASE
 10
0.0
 20
0.0
 30
0.0
  9
$EXTMIN
 10
-989.7956768217154
 20
-1572.784655923494
 30
-0.0000000000000118
  9
$EXTMAX
 10
2699.925281157753
 20
737.845763806058
 30
0.0000000000000946
  9
$LIMMIN
 10
0.0
 20
0.0
  9
$LIMMAX
 10
12.0
 20
9.0
  9
$ORTHOMODE
 70
     1
  9
$REGENMODE
 70
     1
  9
$FILLMODE
 70
     1
  9
$QTEXTMODE
 70
     0
  9
$MIRRTEXT
 70
     1
  9
$LTSCALE
 40
1.0
  9
$ATTMODE
 70
     1
  9
$TEXTSIZE
 40
0.2
  9
$TRACEWID
 40
0.05
  9
$TEXTSTYLE
  7
STANDARD
  9
$CLAYER
  8
0
  9
$CELTYPE
  6
BYLAYER
  9
$CECOLOR
 62
   256
  9
$CELTSCALE
 40
1.0
  9
$DISPSILH
 70
     0
  9
$DIMSCALE
 40
1.0
  9
$DIMASZ
 40
0.18
  9
$DIMEXO
 40
0.0625
  9
$DIMDLI
 40
0.38
  9
$DIMRND
 40
0.0
  9
$DIMDLE
 40
0.0
  9
$DIMEXE
 40
0.18
  9
$DIMTP
 40
0.0
  9
$DIMTM
 40
0.0
  9
$DIMTXT
 40
0.18
  9
$DIMCEN
 40
0.09
  9
$DIMTSZ
 40
0.0
  9
$DIMTOL
 70
     0
  9
$DIMLIM
 70
     0
  9
$DIMTIH
 70
     1
  9
$DIMTOH
 70
     1
  9
$DIMSE1
 70
     0
  9
$DIMSE2
 70
     0
  9
$DIMTAD
 70
     0
  9
$DIMZIN
 70
     0
  9
$DIMBLK
  1

  9
$DIMASO
 70
     1
  9
$DIMSHO
 70
     1
  9
$DIMPOST
  1

  9
$DIMAPOST
  1

  9
$DIMALT
 70
     0
  9
$DIMALTD
 70
     2
  9
$DIMALTF
 40
25.4
  9
$DIMLFAC
 40
1.0
  9
$DIMTOFL
 70
     0
  9
$DIMTVP
 40
0.0
  9
$DIMTIX
 70
     0
  9
$DIMSOXD
 70
     0
  9
$DIMSAH
 70
     0
  9
$DIMBLK1
  1

  9
$DIMBLK2
  1

  9
$DIMSTYLE
  2
STANDARD
  9
$DIMCLRD
 70
     0
  9
$DIMCLRE
 70
     0
  9
$DIMCLRT
 70
     0
  9
$DIMTFAC
 40
1.0
  9
$DIMGAP
 40
0.09
  9
$DIMJUST
 70
     0
  9
$DIMSD1
 70
     0
  9
$DIMSD2
 70
     0
  9
$DIMTOLJ
 70
     1
  9
$DIMTZIN
 70
     0
  9
$DIMALTZ
 70
     0
  9
$DIMALTTZ
 70
     0
  9
$DIMUPT
 70
     0
  9
$DIMDEC
 70
     4
  9
$DIMTDEC
 70
     4
  9
$DIMALTU
 70
     2
  9
$DIMALTTD
 70
     2
  9
$DIMTXSTY
  7
STANDARD
  9
$DIMAUNIT
 70
     0
  9
$DIMADEC
 70
     0
  9
$DIMALTRND
 40
0.0
  9
$DIMAZIN
 70
     0
  9
$DIMDSEP
 70
    46
  9
$DIMATFIT
 70
     3
  9
$DIMFRAC
 70
     0
  9
$DIMLDRBLK
  1

  9
$DIMLUNIT
 70
     2
  9
$DIMLWD
 70
    -2
  9
$DIMLWE
 70
    -2
  9
$DIMTMOVE
 70
     0
  9
$DIMFXL
 40
1.0
  9
$DIMFXLON
 70
     0
  9
$DIMJOGANG
 40
0.7853981633974483
  9
$DIMTFILL
 70
     0
  9
$DIMTFILLCLR
 70
     0
  9
$DIMARCSYM
 70
     0
  9
$DIMLTYPE
  6

  9
$DIMLTEX1
  6

  9
$DIMLTEX2
  6

  9
$DIMTXTDIRECTION
 70
     0
  9
$LUNITS
 70
     2
  9
$LUPREC
 70
     4
  9
$SKETCHINC
 40
0.1
  9
$FILLETRAD
 40
0.5
  9
$AUNITS
 70
     0
  9
$AUPREC
 70
     0
  9
$MENU
  1
.
  9
$ELEVATION
 40
0.0
  9
$PELEVATION
 40
0.0
  9
$THICKNESS
 40
0.0
  9
$LIMCHECK
 70
     0
  9
$CHAMFERA
 40
0.5
  9
$CHAMFERB
 40
0.5
  9
$CHAMFERC
 40
1.0
  9
$CHAMFERD
 40
0.0
  9
$SKPOLY
 70
     0
  9
$TDCREATE
 40
2451762.422165046
  9
$TDUCREATE
 40
2451762.380498379
  9
$TDUPDATE
 40
2458801.370010093
  9
$TDUUPDATE
 40
2458801.328343426
  9
$TDINDWG
 40
0.0139133681
  9
$TDUSRTIMER
 40
0.0139103356
  9
$USRTIMER
 70
     1
  9
$ANGBASE
 50
0.0
  9
$ANGDIR
 70
     0
  9
$PDMODE
 70
     0
  9
$PDSIZE
 40
0.0
  9
$PLINEWID
 40
0.0
  9
$SPLFRAME
 70
     0
  9
$SPLINETYPE
 70
     6
  9
$SPLINESEGS
 70
     8
  9
$HANDSEED
  5
8C5
  9
$SURFTAB1
 70
     6
  9
$SURFTAB2
 70
     6
  9
$SURFTYPE
 70
     6
  9
$SURFU
 70
     6
  9
$SURFV
 70
     6
  9
$UCSBASE
  2

  9
$UCSNAME
  2

  9
$UCSORG
 10
0.0
 20
0.0
 30
0.0
  9
$UCSXDIR
 10
1.0
 20
0.0
 30
0.0
  9
$UCSYDIR
 10
0.0
 20
1.0
 30
0.0
  9
$UCSORTHOREF
  2

  9
$UCSORTHOVIEW
 70
     0
  9
$UCSORGTOP
 10
0.0
 20
0.0
 30
0.0
  9
$UCSORGBOTTOM
 10
0.0
 20
0.0
 30
0.0
  9
$UCSORGLEFT
 10
0.0
 20
0.0
 30
0.0
  9
$UCSORGRIGHT
 10
0.0
 20
0.0
 30
0.0
  9
$UCSORGFRONT
 10
0.0
 20
0.0
 30
0.0
  9
$UCSORGBACK
 10
0.0
 20
0.0
 30
0.0
  9
$PUCSBASE
  2

  9
$PUCSNAME
  2

  9
$PUCSORG
 10
0.0
 20
0.0
 30
0.0
  9
$PUCSXDIR
 10
1.0
 20
0.0
 30
0.0
  9
$PUCSYDIR
 10
0.0
 20
1.0
 30
0.0
  9
$PUCSORTHOREF
  2

  9
$PUCSORTHOVIEW
 70
     0
  9
$PUCSORGTOP
 10
0.0
 20
0.0
 30
0.0
  9
$PUCSORGBOTTOM
 10
0.0
 20
0.0
 30
0.0
  9
$PUCSORGLEFT
 10
0.0
 20
0.0
 30
0.0
  9
$PUCSORGRIGHT
 10
0.0
 20
0.0
 30
0.0
  9
$PUCSORGFRONT
 10
0.0
 20
0.0
 30
0.0
  9
$PUCSORGBACK
 10
0.0
 20
0.0
 30
0.0
  9
$USERI1
 70
     0
  9
$USERI2
 70
     0
  9
$USERI3
 70
     0
  9
$USERI4
 70
     0
  9
$USERI5
 70
     0
  9
$USERR1
 40
0.0
  9
$USERR2
 40
0.0
  9
$USERR3
 40
0.0
  9
$USERR4
 40
0.0
  9
$USERR5
 40
0.0
  9
$WORLDVIEW
 70
     1
  9
$SHADEDGE
 70
     3
  9
$SHADEDIF
 70
    70
  9
$TILEMODE
 70
     1
  9
$MAXACTVP
 70
    64
  9
$PINSBASE
 10
0.0
 20
0.0
 30
0.0
  9
$PLIMCHECK
 70
     0
  9
$PEXTMIN
 10
1.000000000000000E+20
 20
1.000000000000000E+20
 30
1.000000000000000E+20
  9
$PEXTMAX
 10
-1.000000000000000E+20
 20
-1.000000000000000E+20
 30
-1.000000000000000E+20
  9
$PLIMMIN
 10
0.0
 20
0.0
  9
$PLIMMAX
 10
12.0
 20
9.0
  9
$UNITMODE
 70
     0
  9
$VISRETAIN
 70
     1
  9
$PLINEGEN
 70
     0
  9
$PSLTSCALE
 70
     1
  9
$TREEDEPTH
 70
  3020
  9
$CMLSTYLE
  2
STANDARD
  9
$CMLJUST
 70
     0
  9
$CMLSCALE
 40
1.0
  9
$PROXYGRAPHICS
 70
     1
  9
$MEASUREMENT
 70
     0
  9
$CELWEIGHT
370
    -1
  9
$ENDCAPS
280
     0
  9
$JOINSTYLE
280
     0
  9
$LWDISPLAY
290
     0
  9
$INSUNITS
 70
     0
  9
$HYPERLINKBASE
  1

  9
$STYLESHEET
  1

  9
$XEDIT
290
     1
  9
$CEPSNTYPE
380
     0
  9
$PSTYLEMODE
290
     1
  9
$FINGERPRINTGUID
  2
{AD7F3366-366A-4EC1-813D-06D4D6E3592B}
  9
$VERSIONGUID
  2
{19621294-6FC1-4591-9FA1-18D65900307A}
  9
$EXTNAMES
290
     1
  9
$PSVPSCALE
 40
0.0
  9
$OLESTARTUP
290
     0
  9
$SORTENTS
280
   127
  9
$INDEXCTL
280
     0
  9
$HIDETEXT
280
     0
  9
$XCLIPFRAME
280
     2
  9
$HALOGAP
280
     0
  9
$OBSCOLOR
 70
   257
  9
$OBSLTYPE
280
     0
  9
$INTERSECTIONDISPLAY
280
     0
  9
$INTERSECTIONCOLOR
 70
   257
  9
$DIMASSOC
280
     1
  9
$PROJECTNAME
  1

  9
$CAMERADISPLAY
290
     0
  9
$LENSLENGTH
 40
50.0
  9
$CAMERAHEIGHT
 40
0.0
  9
$STEPSPERSEC
 40
2.0
  9
$STEPSIZE
 40
6.0
  9
$3DDWFPREC
 40
2.0
  9
$PSOLWIDTH
 40
0.25
  9
$PSOLHEIGHT
 40
4.0
  9
$LOFTANG1
 40
1.570796326794896
  9
$LOFTANG2
 40
1.570796326794896
  9
$LOFTMAG1
 40
0.0
  9
$LOFTMAG2
 40
0.0
  9
$LOFTPARAM
 70
     7
  9
$LOFTNORMALS
280
     1
  9
$LATITUDE
 40
37.795
  9
$LONGITUDE
 40
-122.394
  9
$NORTHDIRECTION
 40
0.0
  9
$TIMEZONE
 70
 -8000
  9
$LIGHTGLYPHDISPLAY
280
     1
  9
$TILEMODELIGHTSYNCH
280
     1
  9
$CMATERIAL
347
197
  9
$SOLIDHIST
280
     0
  9
$SHOWHIST
280
     1
  9
$DWFFRAME
280
     2
  9
$DGNFRAME
280
     0
  9
$REALWORLDSCALE
290
     1
  9
$INTERFERECOLOR
 62
     1
  9
$INTERFEREOBJVS
345
1A4
  9
$INTERFEREVPVS
346
682
  9
$CSHADOW
280
     0
  9
$SHADOWPLANELOCATION
 40
0.0
  0
ENDSEC
  0
SECTION
  2
CLASSES
  0
CLASS
  1
ACDBDICTIONARYWDFLT
  2
AcDbDictionaryWithDefault
  3
ObjectDBX Classes
 90
        0
 91
        1
280
     0
281
     0
  0
CLASS
  1
MATERIAL
  2
AcDbMaterial
  3
ObjectDBX Classes
 90
     1153
 91
        3
280
     0
281
     0
  0
CLASS
  1
VISUALSTYLE
  2
AcDbVisualStyle
  3
ObjectDBX Classes
 90
     4095
 91
       26
280
     0
281
     0
  0
CLASS
  1
TABLESTYLE
  2
AcDbTableStyle
  3
ObjectDBX Classes
 90
     4095
 91
        1
280
     0
281
     0
  0
CLASS
  1
DICTIONARYVAR
  2
AcDbDictionaryVar
  3
ObjectDBX Classes
 90
        0
 91
       12
280
     0
281
     0
  0
CLASS
  1
DIMASSOC
  2
AcDbDimAssoc
  3
"AcDbDimAssoc|Product Desc:     AcDim ARX App For Dimension|Company:          Autodesk, Inc.|WEB Address:      www.autodesk.com"
 90
        0
 91
        0
280
     0
281
     0
  0
CLASS
  1
SORTENTSTABLE
  2
AcDbSortentsTable
  3
ObjectDBX Classes
 90
        0
 91
        3
280
     0
281
     0
  0
CLASS
  1
SCALE
  2
AcDbScale
  3
ObjectDBX Classes
 90
     1153
 91
       17
280
     0
281
     0
  0
CLASS
  1
MLEADERSTYLE
  2
AcDbMLeaderStyle
  3
ACDB_MLEADERSTYLE_CLASS
 90
     4095
 91
        1
280
     0
281
     0
  0
CLASS
  1
ACDBSECTIONVIEWSTYLE
  2
AcDbSectionViewStyle
  3
ObjectDBX Classes
 90
     1025
 91
        1
280
     0
281
     0
  0
CLASS
  1
ACDBDETAILVIEWSTYLE
  2
AcDbDetailViewStyle
  3
ObjectDBX Classes
 90
     1025
 91
        1
280
     0
281
     0
  0
CLASS
  1
CELLSTYLEMAP
  2
AcDbCellStyleMap
  3
ObjectDBX Classes
 90
     1152
 91
        1
280
     0
281
     0
  0
ENDSEC
  0
SECTION
  2
TABLES
  0
TABLE
  2
VPORT
  5
8
330
0
100
AcDbSymbolTable
 70
     1
  0
VPORT
  5
171
330
8
100
AcDbSymbolTableRecord
100
AcDbViewportTableRecord
  2
*ACTIVE
 70
     0
 10
0.0
 20
0.0
 11
1.0
 21
1.0
 12
711.6361143591753
 22
-371.7972588661687
 13
0.0
 23
0.0
 14
0.5
 24
0.5
 15
0.5
 25
0.5
 16
0.0
 26
0.0
 36
1.0
 17
0.0
 27
0.0
 37
0.0
 40
3269.958728789815
 41
2.170603674540682
 42
50.0
 43
0.0
 44
0.0
 50
0.0
 51
0.0
 71
     0
 72
   100
 73
     1
 74
     3
 75
     0
 76
     0
 77
     0
 78
     0
281
     0
 65
     1
110
0.0
120
0.0
130
0.0
111
1.0
121
0.0
131
0.0
112
0.0
122
1.0
132
0.0
 79
     0
146
0.0
348
1A0
 60
     3
 61
     5
292
     1
282
     1
141
0.0
142
0.0
 63
   250
421
  3355443
1001
ACAD_NAV_VCDISPLAY
1070
     3
  0
ENDTAB
  0
TABLE
  2
LTYPE
  5
5
330
0
100
AcDbSymbolTable
 70
     3
  0
LTYPE
  5
14
330
5
100
AcDbSymbolTableRecord
100
AcDbLinetypeTableRecord
  2
BYBLOCK
 70
     0
  3

 72
    65
 73
     0
 40
0.0
  0
LTYPE
  5
15
330
5
100
AcDbSymbolTableRecord
100
AcDbLinetypeTableRecord
  2
BYLAYER
 70
     0
  3

 72
    65
 73
     0
 40
0.0
  0
LTYPE
  5
16
330
5
100
AcDbSymbolTableRecord
100
AcDbLinetypeTableRecord
  2
CONTINUOUS
 70
     0
  3
Solid line
 72
    65
 73
     0
 40
0.0
  0
LTYPE
  5
1F2
330
5
100
AcDbSymbolTableRecord
100
AcDbLinetypeTableRecord
  2
IMPORT
 70
     0
  3

 72
    65
 73
     0
 40
0.0
  0
LTYPE
  5
737
330
5
100
AcDbSymbolTableRecord
100
AcDbLinetypeTableRecord
  2
AM_DIN_G_W050
 70
     0
  3
____ . ____ . ____ . ____ . ____ . ____ . ____
 72
    65
 73
     4
 40
13.75
 49
9.75
 74
     0
 49
-1.5
 74
     0
 49
1.0
 74
     0
 49
-1.5
 74
     0
  0
ENDTAB
  0
TABLE
  2
LAYER
  5
2
102
{ACAD_XDICTIONARY
360
205
102
}
330
0
100
AcDbSymbolTable
 70
     6
  0
LAYER
  5
10
102
{ACAD_XDICTIONARY
360
87B
102
}
330
2
100
AcDbSymbolTableRecord
100
AcDbLayerTableRecord
  2
0
 70
     0
 62
     7
  6
CONTINUOUS
370
    -3
390
EE
347
199
  0
LAYER
  5
1F5
330
2
100
AcDbSymbolTableRecord
100
AcDbLayerTableRecord
  2
Defpoints
 70
     0
 62
     7
  6
CONTINUOUS
290
     0
370
    -3
390
EE
347
199
  0
LAYER
  5
603
102
{ACAD_XDICTIONARY
360
87D
102
}
330
2
100
AcDbSymbolTableRecord
100
AcDbLayerTableRecord
  2
HEWI
 70
     0
 62
     7
  6
CONTINUOUS
370
    -3
390
EE
347
199
  0
LAYER
  5
738
102
{ACAD_XDICTIONARY
360
739
102
}
330
2
100
AcDbSymbolTableRecord
100
AcDbLayerTableRecord
  2
AM_7
 70
     0
 62
     4
  6
AM_DIN_G_W050
370
    25
390
EE
347
199
  0
LAYER
  5
73A
102
{ACAD_XDICTIONARY
360
73B
102
}
330
2
100
AcDbSymbolTableRecord
100
AcDbLayerTableRecord
  2
AM_5
 70
     0
 62
     3
  6
CONTINUOUS
370
    25
390
EE
347
199
  0
LAYER
  5
73C
102
{ACAD_XDICTIONARY
360
73D
102
}
330
2
100
AcDbSymbolTableRecord
100
AcDbLayerTableRecord
  2
STANDARD
 70
     0
 62
     7
  6
CONTINUOUS
370
    -3
390
EE
347
199
  0
ENDTAB
  0
TABLE
  2
STYLE
  5
3
330
0
100
AcDbSymbolTable
 70
     4
  0
STYLE
  5
11
330
3
100
AcDbSymbolTableRecord
100
AcDbTextStyleTableRecord
  2
STANDARD
 70
     0
 40
0.0
 41
1.0
 50
0.0
 71
     0
 42
0.2
  3
txt
  4

  0
STYLE
  5
73E
330
3
100
AcDbSymbolTableRecord
100
AcDbTextStyleTableRecord
  2
ROMANS
 70
     0
 40
0.0
 41
0.8
 50
0.0
 71
     0
 42
30.0
  3
romans.shx
  4

  0
STYLE
  5
73F
330
3
100
AcDbSymbolTableRecord
100
AcDbTextStyleTableRecord
  2
Entro
 70
     0
 40
0.0
 41
1.0
 50
0.0
 71
     0
 42
3.0
  3
isocpeur.ttf
  4

1001
ACAD
1000
ISOCPEUR
1071
       34
  0
STYLE
  5
844
330
3
100
AcDbSymbolTableRecord
100
AcDbTextStyleTableRecord
  2
ARIAL
 70
     0
 40
0.0
 41
1.0
 50
0.0
 71
     0
 42
0.0
  3
Arial
  4

  0
ENDTAB
  0
TABLE
  2
VIEW
  5
6
330
0
100
AcDbSymbolTable
 70
     0
  0
ENDTAB
  0
TABLE
  2
UCS
  5
7
330
0
100
AcDbSymbolTable
 70
     0
  0
ENDTAB
  0
TABLE
  2
APPID
  5
9
330
0
100
AcDbSymbolTable
 70
    15
  0
APPID
  5
12
330
9
100
AcDbSymbolTableRecord
100
AcDbRegAppTableRecord
  2
ACAD
 70
     0
  0
APPID
  5
1FC
330
9
100
AcDbSymbolTableRecord
100
AcDbRegAppTableRecord
  2
GENIUS_GENODEF_13
 70
     0
  0
APPID
  5
1FD
330
9
100
AcDbSymbolTableRecord
100
AcDbRegAppTableRecord
  2
ACAD_PSEXT
 70
     0
  0
APPID
  5
1FE
330
9
100
AcDbSymbolTableRecord
100
AcDbRegAppTableRecord
  2
ACAD_DSTYLE_DIMJOGGED_JOGANGLE_SYMBOL
 70
     0
  0
APPID
  5
1FF
330
9
100
AcDbSymbolTableRecord
100
AcDbRegAppTableRecord
  2
GENIUS_GENOBJ-N-CEN_13
 70
     0
  0
APPID
  5
200
330
9
100
AcDbSymbolTableRecord
100
AcDbRegAppTableRecord
  2
GENIUS_GENCEN_19
 70
     0
  0
APPID
  5
201
330
9
100
AcDbSymbolTableRecord
100
AcDbRegAppTableRecord
  2
GENIUS_GENOREF_13
 70
     0
  0
APPID
  5
202
330
9
100
AcDbSymbolTableRecord
100
AcDbRegAppTableRecord
  2
AcAecLayerStandard
 70
     0
  0
APPID
  5
203
330
9
100
AcDbSymbolTableRecord
100
AcDbRegAppTableRecord
  2
GENIUS_GENOBJ-N-HTC_13
 70
     0
  0
APPID
  5
204
330
9
100
AcDbSymbolTableRecord
100
AcDbRegAppTableRecord
  2
GENIUS_GENHATCH_13
 70
     0
  0
APPID
  5
673
330
9
100
AcDbSymbolTableRecord
100
AcDbRegAppTableRecord
  2
ACAD_EXEMPT_FROM_CAD_STANDARDS
 70
     0
  0
APPID
  5
742
330
9
100
AcDbSymbolTableRecord
100
AcDbRegAppTableRecord
  2
ACADIGES
 70
     0
  0
APPID
  5
743
330
9
100
AcDbSymbolTableRecord
100
AcDbRegAppTableRecord
  2
AUTOCAD_POSTSCRIPT_FIGURE
 70
     0
  0
APPID
  5
744
330
9
100
AcDbSymbolTableRecord
100
AcDbRegAppTableRecord
  2
ACAD_NAV_VCDISPLAY
 70
     0
  0
APPID
  5
745
330
9
100
AcDbSymbolTableRecord
100
AcDbRegAppTableRecord
  2
ACAD_MLEADERVER
 70
     0
  0
ENDTAB
  0
TABLE
  2
DIMSTYLE
  5
A
330
0
100
AcDbSymbolTable
 70
     4
100
AcDbDimStyleTable
 71
     1
340
27
  0
DIMSTYLE
105
27
330
A
100
AcDbSymbolTableRecord
100
AcDbDimStyleTableRecord
  2
STANDARD
 70
     0
340
11
  0
DIMSTYLE
105
740
330
A
100
AcDbSymbolTableRecord
100
AcDbDimStyleTableRecord
  2
AM_DIN
 70
     0
  4
"
 41
2.5
 42
1.0
 43
10.0
 44
1.0
 47
0.1
 48
0.1
 50
89.99999999999998
 73
     0
 74
     0
 77
     1
 78
     8
 79
     2
140
3.5
141
0.0
143
0.0393701
146
0.71
147
1.5
172
     1
176
   256
177
   256
178
     2
271
     2
272
     3
274
     4
283
     0
284
     8
340
11
371
    -1
372
    -1
1001
ACAD_DSTYLE_DIMJOGGED_JOGANGLE_SYMBOL
1070
   384
1040
1.570796326794896
  0
DIMSTYLE
105
741
102
{ACAD_REACTORS
330
82A
102
}
330
A
100
AcDbSymbolTableRecord
100
AcDbDimStyleTableRecord
  2
AM_DIN$0
 70
     0
  4
"
 41
25.0
 42
1.0
 43
10.0
 44
10.0
 47
0.1
 48
0.1
 50
89.99999999999998
 73
     0
 74
     0
 77
     1
 78
     8
 79
     2
140
25.0
141
0.0
143
0.0393701
146
0.71
147
10.0
172
     1
176
   256
177
   256
178
   256
271
     2
272
     2
283
     0
284
     8
340
73F
371
    -1
372
    -1
1001
ACAD_DSTYLE_DIMJOGGED_JOGANGLE_SYMBOL
1070
   384
1040
1.570796326794896
  0
DIMSTYLE
105
845
102
{ACAD_REACTORS
330
848
330
853
102
}
330
A
100
AcDbSymbolTableRecord
100
AcDbDimStyleTableRecord
  2
ISO-25
 70
     0
 41
2.5
 42
0.625
 43
3.75
 44
1.25
 73
     0
 74
     0
 77
     1
 78
     8
140
2.5
141
2.5
143
0.03937007874016
147
0.625
171
     3
172
     1
271
     2
272
     2
274
     3
278
    44
283
     0
284
     8
340
11
  0
ENDTAB
  0
TABLE
  2
BLOCK_RECORD
  5
1
330
0
100
AcDbSymbolTable
 70
    21
  0
BLOCK_RECORD
  5
1F
102
{ACAD_XDICTIONARY
360
E7
102
}
330
1
100
AcDbSymbolTableRecord
100
AcDbBlockTableRecord
  2
*MODEL_SPACE
340
1AF
 70
     0
280
     1
281
     0
  0
BLOCK_RECORD
  5
1B
102
{ACAD_XDICTIONARY
360
E5
102
}
330
1
100
AcDbSymbolTableRecord
100
AcDbBlockTableRecord
  2
*PAPER_SPACE
340
1B0
 70
     0
280
     1
281
     0
  0
BLOCK_RECORD
  5
639
330
1
100
AcDbSymbolTableRecord
100
AcDbBlockTableRecord
  2
*D0
340
0
 70
     0
280
     1
281
     0
  0
BLOCK_RECORD
  5
647
330
1
100
AcDbSymbolTableRecord
100
AcDbBlockTableRecord
  2
*D1
340
0
 70
     0
280
     1
281
     0
  0
BLOCK_RECORD
  5
655
330
1
100
AcDbSymbolTableRecord
100
AcDbBlockTableRecord
  2
*D2
340
0
 70
     0
280
     1
281
     0
  0
BLOCK_RECORD
  5
663
330
1
100
AcDbSymbolTableRecord
100
AcDbBlockTableRecord
  2
*D3
340
0
 70
     0
280
     1
281
     0
  0
BLOCK_RECORD
  5
6A7
330
1
100
AcDbSymbolTableRecord
100
AcDbBlockTableRecord
  2
*D4
340
0
 70
     0
280
     1
281
     0
  0
BLOCK_RECORD
  5
6B3
330
1
100
AcDbSymbolTableRecord
100
AcDbBlockTableRecord
  2
*D5
340
0
 70
     0
280
     1
281
     0
  0
BLOCK_RECORD
  5
6BF
330
1
100
AcDbSymbolTableRecord
100
AcDbBlockTableRecord
  2
*D6
340
0
 70
     0
280
     1
281
     0
  0
BLOCK_RECORD
  5
6CB
330
1
100
AcDbSymbolTableRecord
100
AcDbBlockTableRecord
  2
*D7
340
0
 70
     0
280
     1
281
     0
  0
BLOCK_RECORD
  5
6D7
330
1
100
AcDbSymbolTableRecord
100
AcDbBlockTableRecord
  2
*D8
340
0
 70
     0
280
     1
281
     0
  0
BLOCK_RECORD
  5
6E3
330
1
100
AcDbSymbolTableRecord
100
AcDbBlockTableRecord
  2
*D9
340
0
 70
     0
280
     1
281
     0
  0
BLOCK_RECORD
  5
6EF
330
1
100
AcDbSymbolTableRecord
100
AcDbBlockTableRecord
  2
*D10
340
0
 70
     0
280
     1
281
     0
  0
BLOCK_RECORD
  5
6FB
330
1
100
AcDbSymbolTableRecord
100
AcDbBlockTableRecord
  2
*D11
340
0
 70
     0
280
     1
281
     0
  0
BLOCK_RECORD
  5
707
330
1
100
AcDbSymbolTableRecord
100
AcDbBlockTableRecord
  2
*D12
340
0
 70
     0
280
     1
281
     0
  0
BLOCK_RECORD
  5
713
330
1
100
AcDbSymbolTableRecord
100
AcDbBlockTableRecord
  2
*D13
340
0
 70
     0
280
     1
281
     0
  0
BLOCK_RECORD
  5
71F
330
1
100
AcDbSymbolTableRecord
100
AcDbBlockTableRecord
  2
*D14
340
0
 70
     0
280
     1
281
     0
  0
BLOCK_RECORD
  5
72B
330
1
100
AcDbSymbolTableRecord
100
AcDbBlockTableRecord
  2
*D15
340
0
 70
     0
280
     1
281
     0
  0
BLOCK_RECORD
  5
746
102
{ACAD_XDICTIONARY
360
82E
102
}
330
1
100
AcDbSymbolTableRecord
100
AcDbBlockTableRecord
  2
801_50_144S
340
0
 70
     0
280
     1
281
     0
  0
BLOCK_RECORD
  5
833
330
1
100
AcDbSymbolTableRecord
100
AcDbBlockTableRecord
  2
_Dot
340
0
102
{BLKREFS
331
83D
331
83E
331
875
331
876
102
}
 70
     0
280
     1
281
     0
  0
BLOCK_RECORD
  5
838
330
1
100
AcDbSymbolTableRecord
100
AcDbBlockTableRecord
  2
*D18
340
0
 70
     0
280
     1
281
     0
  0
BLOCK_RECORD
  5
854
330
1
100
AcDbSymbolTableRecord
100
AcDbBlockTableRecord
  2
*D20
340
0
 70
     0
280
     1
281
     0
  0
ENDTAB
  0
ENDSEC
  0
SECTION
  2
BLOCKS
  0
BLOCK
  5
20
330
1F
100
AcDbEntity
  8
0
100
AcDbBlockBegin
  2
*MODEL_SPACE
 70
     0
 10
0.0
 20
0.0
 30
0.0
  3
*MODEL_SPACE
  1

  0
ENDBLK
  5
21
330
1F
100
AcDbEntity
  8
0
100
AcDbBlockEnd
  0
BLOCK
  5
1C
330
1B
100
AcDbEntity
 67
     1
  8
0
100
AcDbBlockBegin
  2
*PAPER_SPACE
 70
     0
 10
0.0
 20
0.0
 30
0.0
  3
*PAPER_SPACE
  1

  0
ENDBLK
  5
1D
330
1B
100
AcDbEntity
 67
     1
  8
0
100
AcDbBlockEnd
  0
BLOCK
  5
644
330
639
100
AcDbEntity
  8
0
100
AcDbBlockBegin
  2
*D0
 70
     1
 10
0.0
 20
0.0
 30
0.0
  3
*D0
  1

  0
LINE
  5
63A
330
639
100
AcDbEntity
  8
0
 62
     0
370
    -2
100
AcDbLine
 10
159.0000000119999
 20
-0.0625
 30
0.0
 11
159.0000000119999
 21
-230.1085153513574
 31
0.0
  0
LINE
  5
63B
330
639
100
AcDbEntity
  8
0
 62
     0
370
    -2
100
AcDbLine
 10
759.0000000119998
 20
-0.0624999999988141
 30
0.0
 11
759.0000000119998
 21
-230.1085153513574
 31
0.0
  0
LINE
  5
63C
330
639
100
AcDbEntity
  8
0
 62
     0
370
    -2
100
AcDbLine
 10
159.1800000119999
 20
-229.9285153513574
 30
0.0
 11
458.370000012
 21
-229.9285153513574
 31
0.0
  0
LINE
  5
63D
330
639
100
AcDbEntity
  8
0
 62
     0
370
    -2
100
AcDbLine
 10
758.8200000119999
 20
-229.9285153513574
 30
0.0
 11
459.630000012
 21
-229.9285153513574
 31
0.0
  0
SOLID
  5
63E
330
639
100
AcDbEntity
  8
0
 62
     0
100
AcDbTrace
 10
159.1800000119999
 20
-229.8985153513574
 30
0.0
 11
159.1800000119999
 21
-229.9585153513574
 31
0.0
 12
159.0000000119999
 22
-229.9285153513574
 32
0.0
 13
159.0000000119999
 23
-229.9285153513574
 33
0.0
  0
SOLID
  5
63F
330
639
100
AcDbEntity
  8
0
 62
     0
100
AcDbTrace
 10
758.8200000119999
 20
-229.8985153513574
 30
0.0
 11
758.8200000119999
 21
-229.9585153513574
 31
0.0
 12
759.0000000119998
 22
-229.9285153513574
 32
0.0
 13
759.0000000119998
 23
-229.9285153513574
 33
0.0
  0
MTEXT
  5
640
330
639
100
AcDbEntity
  8
0
 62
     0
100
AcDbMText
 10
459.0000000119998
 20
-229.9285153513574
 30
0.0
 40
0.18
 41
0.0
 46
0.0
 71
     5
 72
     1
  1
\A1;600.0000
 73
     1
 44
1.0
1001
ACAD
1000
MTEXTBEGIN
1070
    73
1070
     1
1070
    44
1040
1.0
1070
    74
1070
     0
1000
MTEXTEND
  0
POINT
  5
641
330
639
100
AcDbEntity
  8
Defpoints
 62
     0
100
AcDbPoint
 10
159.0000000119999
 20
0.0
 30
0.0
  0
POINT
  5
642
330
639
100
AcDbEntity
  8
Defpoints
 62
     0
100
AcDbPoint
 10
759.0000000119998
 20
0.0000000000011859
 30
0.0000000000000946
  0
POINT
  5
643
330
639
100
AcDbEntity
  8
Defpoints
 62
     0
100
AcDbPoint
 10
759.0000000119998
 20
-229.9285153513574
 30
0.0
  0
ENDBLK
  5
645
330
639
100
AcDbEntity
  8
0
100
AcDbBlockEnd
  0
BLOCK
  5
652
330
647
100
AcDbEntity
  8
0
100
AcDbBlockBegin
  2
*D1
 70
     1
 10
0.0
 20
0.0
 30
0.0
  3
*D1
  1

  0
LINE
  5
648
330
647
100
AcDbEntity
  8
0
 62
     0
370
    -2
100
AcDbLine
 10
-0.0625
 20
-972.7846559234938
 30
0.0
 11
-315.0717132407513
 21
-972.7846559234938
 31
0.0
  0
LINE
  5
649
330
647
100
AcDbEntity
  8
0
 62
     0
370
    -2
100
AcDbLine
 10
-0.062500000000003
 20
-1572.784655923494
 30
0.0
 11
-315.0717132407514
 21
-1572.784655923494
 31
0.0
  0
LINE
  5
64A
330
647
100
AcDbEntity
  8
0
 62
     0
370
    -2
100
AcDbLine
 10
-314.8917132407513
 20
-972.9646559234938
 30
0.0
 11
-314.8917132407514
 21
-1272.604655923494
 31
0.0
  0
LINE
  5
64B
330
647
100
AcDbEntity
  8
0
 62
     0
370
    -2
100
AcDbLine
 10
-314.8917132407514
 20
-1572.604655923494
 30
0.0
 11
-314.8917132407514
 21
-1272.964655923494
 31
0.0
  0
SOLID
  5
64C
330
647
100
AcDbEntity
  8
0
 62
     0
100
AcDbTrace
 10
-314.9217132407513
 20
-972.9646559234938
 30
0.0
 11
-314.8617132407513
 21
-972.9646559234938
 31
0.0
 12
-314.8917132407513
 22
-972.7846559234938
 32
0.0
 13
-314.8917132407513
 23
-972.7846559234938
 33
0.0
  0
SOLID
  5
64D
330
647
100
AcDbEntity
  8
0
 62
     0
100
AcDbTrace
 10
-314.9217132407514
 20
-1572.604655923494
 30
0.0
 11
-314.8617132407514
 21
-1572.604655923494
 31
0.0
 12
-314.8917132407514
 22
-1572.784655923494
 32
0.0
 13
-314.8917132407514
 23
-1572.784655923494
 33
0.0
  0
MTEXT
  5
64E
330
647
100
AcDbEntity
  8
0
 62
     0
100
AcDbMText
 10
-314.8917132407512
 20
-1272.784655923494
 30
0.0
 40
0.18
 41
0.0
 46
0.0
 71
     5
 72
     1
  1
\A1;600.0000
 73
     1
 44
1.0
1001
ACAD
1000
MTEXTBEGIN
1070
    73
1070
     1
1070
    44
1040
1.0
1070
    74
1070
     0
1000
MTEXTEND
  0
POINT
  5
64F
330
647
100
AcDbEntity
  8
Defpoints
 62
     0
100
AcDbPoint
 10
0.0
 20
-972.7846559234938
 30
0.0
  0
POINT
  5
650
330
647
100
AcDbEntity
  8
Defpoints
 62
     0
100
AcDbPoint
 10
-0.000000000000003
 20
-1572.784655923494
 30
0.0
  0
POINT
  5
651
330
647
100
AcDbEntity
  8
Defpoints
 62
     0
100
AcDbPoint
 10
-314.8917132407514
 20
-1572.784655923494
 30
0.0
  0
ENDBLK
  5
653
330
647
100
AcDbEntity
  8
0
100
AcDbBlockEnd
  0
BLOCK
  5
660
330
655
100
AcDbEntity
  8
0
100
AcDbBlockBegin
  2
*D2
 70
     1
 10
0.0
 20
0.0
 30
0.0
  3
*D2
  1

  0
LINE
  5
656
330
655
100
AcDbEntity
  8
0
 62
     0
370
    -2
100
AcDbLine
 10
1132.863954863796
 20
770.9999770000003
 30
0.0
 11
1473.458403694687
 21
770.9999770000003
 31
0.0
  0
LINE
  5
657
330
655
100
AcDbEntity
  8
0
 62
     0
370
    -2
100
AcDbLine
 10
1132.863954863796
 20
50.11807728408348
 30
0.0
 11
1473.458403694687
 21
50.11807728408339
 31
0.0
  0
LINE
  5
658
330
655
100
AcDbEntity
  8
0
 62
     0
370
    -2
100
AcDbLine
 10
1473.278403694687
 20
770.8199770000003
 30
0.0
 11
1473.278403694687
 21
410.7390271420418
 31
0.0
  0
LINE
  5
659
330
655
100
AcDbEntity
  8
0
 62
     0
370
    -2
100
AcDbLine
 10
1473.278403694687
 20
50.29807728408338
 30
0.0
 11
1473.278403694687
 21
410.3790271420416
 31
0.0
  0
SOLID
  5
65A
330
655
100
AcDbEntity
  8
0
 62
     0
100
AcDbTrace
 10
1473.248403694687
 20
770.8199770000003
 30
0.0
 11
1473.308403694687
 21
770.8199770000003
 31
0.0
 12
1473.278403694687
 22
770.9999770000003
 32
0.0
 13
1473.278403694687
 23
770.9999770000003
 33
0.0
  0
SOLID
  5
65B
330
655
100
AcDbEntity
  8
0
 62
     0
100
AcDbTrace
 10
1473.248403694687
 20
50.29807728408338
 30
0.0
 11
1473.308403694687
 21
50.29807728408338
 31
0.0
 12
1473.278403694687
 22
50.11807728408339
 32
0.0
 13
1473.278403694687
 23
50.11807728408339
 33
0.0
  0
MTEXT
  5
65C
330
655
100
AcDbEntity
  8
0
 62
     0
100
AcDbMText
 10
1473.278403694687
 20
410.5590271420417
 30
0.0
 40
0.18
 41
0.0
 46
0.0
 71
     5
 72
     1
  1
\A1;720.8819
 73
     1
 44
1.0
1001
ACAD
1000
MTEXTBEGIN
1070
    73
1070
     1
1070
    44
1040
1.0
1070
    74
1070
     0
1000
MTEXTEND
  0
POINT
  5
65D
330
655
100
AcDbEntity
  8
Defpoints
 62
     0
100
AcDbPoint
 10
1132.801454863796
 20
770.9999770000003
 30
0.000000000000003
  0
POINT
  5
65E
330
655
100
AcDbEntity
  8
Defpoints
 62
     0
100
AcDbPoint
 10
1132.801454863796
 20
50.11807728408348
 30
0.000000000000003
  0
POINT
  5
65F
330
655
100
AcDbEntity
  8
Defpoints
 62
     0
100
AcDbPoint
 10
1473.278403694687
 20
50.11807728408339
 30
0.0
  0
ENDBLK
  5
661
330
655
100
AcDbEntity
  8
0
100
AcDbBlockEnd
  0
BLOCK
  5
66E
330
663
100
AcDbEntity
  8
0
100
AcDbBlockBegin
  2
*D3
 70
     1
 10
0.0
 20
0.0
 30
0.0
  3
*D3
  1

  0
LINE
  5
664
330
663
100
AcDbEntity
  8
0
 62
     0
370
    -2
100
AcDbLine
 10
1748.305085863794
 20
3.720321193939807
 30
0.0
 11
1748.305085863794
 21
257.0550001868157
 31
0.0
  0
LINE
  5
665
330
663
100
AcDbEntity
  8
0
 62
     0
370
    -2
100
AcDbLine
 10
1031.805085863794
 20
3.720321193939807
 30
0.0
 11
1031.805085863794
 21
257.0550001868157
 31
0.0
  0
LINE
  5
666
330
663
100
AcDbEntity
  8
0
 62
     0
370
    -2
100
AcDbLine
 10
1748.125085863794
 20
256.8750001868157
 30
0.0
 11
1390.700085863794
 21
256.8750001868157
 31
0.0
  0
LINE
  5
667
330
663
100
AcDbEntity
  8
0
 62
     0
370
    -2
100
AcDbLine
 10
1031.985085863794
 20
256.8750001868157
 30
0.0
 11
1389.410085863794
 21
256.8750001868157
 31
0.0
  0
SOLID
  5
668
330
663
100
AcDbEntity
  8
0
 62
     0
100
AcDbTrace
 10
1748.125085863794
 20
256.9050001868157
 30
0.0
 11
1748.125085863794
 21
256.8450001868157
 31
0.0
 12
1748.305085863794
 22
256.8750001868157
 32
0.0
 13
1748.305085863794
 23
256.8750001868157
 33
0.0
  0
SOLID
  5
669
330
663
100
AcDbEntity
  8
0
 62
     0
100
AcDbTrace
 10
1031.985085863794
 20
256.9050001868157
 30
0.0
 11
1031.985085863794
 21
256.8450001868157
 31
0.0
 12
1031.805085863794
 22
256.8750001868157
 32
0.0
 13
1031.805085863794
 23
256.8750001868157
 33
0.0
  0
MTEXT
  5
66A
330
663
100
AcDbEntity
  8
0
 62
     0
100
AcDbMText
 10
1390.055085863794
 20
256.8750001868157
 30
0.0
 40
0.18
 41
0.0
 46
0.0
 71
     5
 72
     1
  1
\A1;716.5000
 73
     1
 44
1.0
1001
ACAD
1000
MTEXTBEGIN
1070
    73
1070
     1
1070
    44
1040
1.0
1070
    74
1070
     0
1000
MTEXTEND
  0
POINT
  5
66B
330
663
100
AcDbEntity
  8
Defpoints
 62
     0
100
AcDbPoint
 10
1748.305085863794
 20
3.657821193939807
 30
0.000000000000003
  0
POINT
  5
66C
330
663
100
AcDbEntity
  8
Defpoints
 62
     0
100
AcDbPoint
 10
1031.805085863794
 20
3.657821193939807
 30
0.0
  0
POINT
  5
66D
330
663
100
AcDbEntity
  8
Defpoints
 62
     0
100
AcDbPoint
 10
1031.805085863794
 20
256.8750001868157
 30
0.0
  0
ENDBLK
  5
66F
330
663
100
AcDbEntity
  8
0
100
AcDbBlockEnd
  0
BLOCK
  5
6A8
330
6A7
100
AcDbEntity
  8
0
100
AcDbBlockBegin
  2
*D4
 70
     1
 10
0.0
 20
0.0
 30
0.0
  3
*D4
  1

  0
LINE
  5
6A9
330
6A7
100
AcDbEntity
  8
AM_5
100
AcDbLine
 10
-75845.38321154997
 20
-74028.96382414821
 30
0.0
 11
-75732.84173460193
 21
-74028.96382414821
 31
0.0
  0
LINE
  5
6AA
330
6A7
100
AcDbEntity
  8
AM_5
100
AcDbLine
 10
-75859.13321154997
 20
-74860.46383864822
 30
0.0
 11
-75732.84173460193
 21
-74860.46383864822
 31
0.0
  0
LINE
  5
6AB
330
6A7
100
AcDbEntity
  8
AM_5
100
AcDbLine
 10
-75742.84173460193
 20
-74053.96382414822
 30
0.0
 11
-75742.84173460193
 21
-74835.46383864823
 31
0.0
  0
SOLID
  5
6AC
330
6A7
100
AcDbEntity
  8
AM_5
100
AcDbTrace
 10
-75747.0084012686
 20
-74053.96382414822
 30
0.0
 11
-75738.67506793527
 21
-74053.96382414822
 31
0.0
 12
-75742.84173460193
 22
-74028.96382414821
 32
0.0
 13
-75742.84173460193
 23
-74028.96382414821
 33
0.0
  0
SOLID
  5
6AD
330
6A7
100
AcDbEntity
  8
AM_5
100
AcDbTrace
 10
-75747.0084012686
 20
-74835.46383864823
 30
0.0
 11
-75738.67506793527
 21
-74835.46383864823
 31
0.0
 12
-75742.84173460193
 22
-74860.46383864822
 32
0.0
 13
-75742.84173460193
 23
-74860.46383864822
 33
0.0
  0
MTEXT
  5
6AE
330
6A7
100
AcDbEntity
  8
AM_5
100
AcDbMText
 10
-75775.34173460191
 20
-74444.71383139823
 30
0.0
 40
45.0
 41
0.0
 46
0.0
 71
     5
 72
     1
  1
L
  7
Entro
 11
0.0000000000000001
 21
1.0
 31
0.0
 73
     1
 44
1.0
1001
ACAD
1000
MTEXTBEGIN
1070
    73
1070
     1
1070
    44
1040
1.0
1070
    74
1070
     0
1000
MTEXTEND
  0
POINT
  5
6AF
330
6A7
100
AcDbEntity
  8
Defpoints
 62
     0
100
AcDbPoint
 10
-75846.38321154996
 20
-74028.96382414821
 30
0.0
  0
POINT
  5
6B0
330
6A7
100
AcDbEntity
  8
Defpoints
 62
     0
100
AcDbPoint
 10
-75860.13321154997
 20
-74860.46383864822
 30
0.0
  0
POINT
  5
6B1
330
6A7
100
AcDbEntity
  8
Defpoints
 62
     0
100
AcDbPoint
 10
-75742.84173460193
 20
-74860.46383864822
 30
0.0
  0
ENDBLK
  5
6B2
330
6A7
100
AcDbEntity
  8
0
100
AcDbBlockEnd
  0
BLOCK
  5
6B4
330
6B3
100
AcDbEntity
  8
0
100
AcDbBlockBegin
  2
*D5
 70
     1
 10
0.0
 20
0.0
 30
0.0
  3
*D5
  1

  0
LINE
  5
6B5
330
6B3
100
AcDbEntity
  8
0
 62
     0
370
    -2
100
AcDbLine
 10
-76554.36167349803
 20
-74115.46740564822
 30
0.0
 11
-76554.36167349803
 21
-74416.90700208084
 31
0.0
  0
LINE
  5
6B6
330
6B3
100
AcDbEntity
  8
0
 62
     0
370
    -2
100
AcDbLine
 10
-75854.36192778463
 20
-74113.75579407143
 30
0.0
 11
-75854.36192778463
 21
-74416.90700208084
 31
0.0
  0
LINE
  5
6B7
330
6B3
100
AcDbEntity
  8
0
 62
     0
370
    -2
100
AcDbLine
 10
-76524.36167349803
 20
-74406.90700208084
 30
0.0
 11
-75884.36192778463
 21
-74406.90700208084
 31
0.0
  0
SOLID
  5
6B8
330
6B3
100
AcDbEntity
  8
0
 62
     0
100
AcDbTrace
 10
-76524.36167349803
 20
-74401.90700208084
 30
0.0
 11
-76524.36167349803
 21
-74411.90700208085
 31
0.0
 12
-76554.36167349803
 22
-74406.90700208084
 32
0.0
 13
-76554.36167349803
 23
-74406.90700208084
 33
0.0
  0
SOLID
  5
6B9
330
6B3
100
AcDbEntity
  8
0
 62
     0
100
AcDbTrace
 10
-75884.36192778463
 20
-74401.90700208084
 30
0.0
 11
-75884.36192778463
 21
-74411.90700208085
 31
0.0
 12
-75854.36192778463
 22
-74406.90700208084
 32
0.0
 13
-75854.36192778463
 23
-74406.90700208084
 33
0.0
  0
MTEXT
  5
6BA
330
6B3
100
AcDbEntity
  8
0
 62
     0
100
AcDbMText
 10
-76204.36180064133
 20
-74381.90700208084
 30
0.0
 40
30.0
 41
0.0
 46
0.0
 71
     5
 72
     1
  1
\A1;700
 73
     1
 44
1.0
1001
ACAD
1000
MTEXTBEGIN
1070
    73
1070
     1
1070
    44
1040
1.0
1070
    74
1070
     0
1000
MTEXTEND
  0
POINT
  5
6BB
330
6B3
100
AcDbEntity
  8
Defpoints
 62
     0
100
AcDbPoint
 10
-76554.36167349803
 20
-74115.46740564822
 30
0.0
  0
POINT
  5
6BC
330
6B3
100
AcDbEntity
  8
Defpoints
 62
     0
100
AcDbPoint
 10
-75854.36192778463
 20
-74113.75579407143
 30
0.0
  0
POINT
  5
6BD
330
6B3
100
AcDbEntity
  8
Defpoints
 62
     0
100
AcDbPoint
 10
-75854.36192778463
 20
-74406.90700208084
 30
0.0
  0
ENDBLK
  5
6BE
330
6B3
100
AcDbEntity
  8
0
100
AcDbBlockEnd
  0
BLOCK
  5
6C0
330
6BF
100
AcDbEntity
  8
0
100
AcDbBlockBegin
  2
*D6
 70
     1
 10
0.0
 20
0.0
 30
0.0
  3
*D6
  1

  0
LINE
  5
6C1
330
6BF
100
AcDbEntity
  8
AM_5
440
 16777216
100
AcDbLine
 10
-74513.89772333657
 20
-73199.81148704313
 30
0.0
 11
-74401.35624638862
 21
-73199.81148704313
 31
0.0
  0
LINE
  5
6C2
330
6BF
100
AcDbEntity
  8
AM_5
440
 16777216
100
AcDbLine
 10
-74527.64772333657
 20
-74031.31150154313
 30
0.0
 11
-74401.35624638862
 21
-74031.31150154313
 31
0.0
  0
LINE
  5
6C3
330
6BF
100
AcDbEntity
  8
AM_5
440
 16777216
100
AcDbLine
 10
-74411.35624638862
 20
-73224.81148704313
 30
0.0
 11
-74411.35624638862
 21
-74006.31150154312
 31
0.0
  0
SOLID
  5
6C4
330
6BF
100
AcDbEntity
  8
AM_5
440
 16777216
100
AcDbTrace
 10
-74415.52291305529
 20
-73224.81148704313
 30
0.0
 11
-74407.18957972195
 21
-73224.81148704313
 31
0.0
 12
-74411.35624638862
 22
-73199.81148704313
 32
0.0
 13
-74411.35624638862
 23
-73199.81148704313
 33
0.0
  0
SOLID
  5
6C5
330
6BF
100
AcDbEntity
  8
AM_5
440
 16777216
100
AcDbTrace
 10
-74415.52291305529
 20
-74006.31150154312
 30
0.0
 11
-74407.18957972195
 21
-74006.31150154312
 31
0.0
 12
-74411.35624638862
 22
-74031.31150154313
 32
0.0
 13
-74411.35624638862
 23
-74031.31150154313
 33
0.0
  0
MTEXT
  5
6C6
330
6BF
100
AcDbEntity
  8
AM_5
440
 16777216
100
AcDbMText
 10
-74443.85624638861
 20
-73615.56149429314
 30
0.0
 40
45.0
 41
0.0
 46
0.0
 71
     5
 72
     1
  1
L
  7
Entro
 11
0.0000000000000001
 21
1.0
 31
0.0
 73
     1
 44
1.0
  0
POINT
  5
6C7
330
6BF
100
AcDbEntity
  8
Defpoints
 62
     0
440
 16777216
100
AcDbPoint
 10
-74514.89772333657
 20
-73199.81148704313
 30
0.0
  0
POINT
  5
6C8
330
6BF
100
AcDbEntity
  8
Defpoints
 62
     0
440
 16777216
100
AcDbPoint
 10
-74528.64772333657
 20
-74031.31150154313
 30
0.0
  0
POINT
  5
6C9
330
6BF
100
AcDbEntity
  8
Defpoints
 62
     0
440
 16777216
100
AcDbPoint
 10
-74411.35624638862
 20
-74031.31150154313
 30
0.0
  0
ENDBLK
  5
6CA
330
6BF
100
AcDbEntity
  8
0
100
AcDbBlockEnd
  0
BLOCK
  5
6CC
330
6CB
100
AcDbEntity
  8
0
100
AcDbBlockBegin
  2
*D7
 70
     1
 10
0.0
 20
0.0
 30
0.0
  3
*D7
  1

  0
LINE
  5
6CD
330
6CB
100
AcDbEntity
  8
0
 62
     0
370
    -2
100
AcDbLine
 10
-75520.26814953449
 20
-74960.37299806268
 30
0.0
 11
-75094.18075331815
 21
-74960.37299806268
 31
0.0
  0
LINE
  5
6CE
330
6CB
100
AcDbEntity
  8
0
 62
     0
370
    -2
100
AcDbLine
 10
-75521.87618529664
 20
-74260.45154194614
 30
0.0
 11
-75094.18075331815
 21
-74260.45154194614
 31
0.0
  0
LINE
  5
6CF
330
6CB
100
AcDbEntity
  8
0
 62
     0
370
    -2
100
AcDbLine
 10
-75104.18075331815
 20
-74930.37299806268
 30
0.0
 11
-75104.18075331815
 21
-74290.45154194612
 31
0.0
  0
SOLID
  5
6D0
330
6CB
100
AcDbEntity
  8
0
 62
     0
100
AcDbTrace
 10
-75109.18075331815
 20
-74930.37299806268
 30
0.0
 11
-75099.18075331817
 21
-74930.37299806268
 31
0.0
 12
-75104.18075331815
 22
-74960.37299806268
 32
0.0
 13
-75104.18075331815
 23
-74960.37299806268
 33
0.0
  0
SOLID
  5
6D1
330
6CB
100
AcDbEntity
  8
0
 62
     0
100
AcDbTrace
 10
-75109.18075331815
 20
-74290.45154194612
 30
0.0
 11
-75099.18075331817
 21
-74290.45154194612
 31
0.0
 12
-75104.18075331815
 22
-74260.45154194614
 32
0.0
 13
-75104.18075331815
 23
-74260.45154194614
 33
0.0
  0
MTEXT
  5
6D2
330
6CB
100
AcDbEntity
  8
0
 62
     0
100
AcDbMText
 10
-75129.18075331814
 20
-74610.41227000443
 30
0.0
 40
30.0
 41
0.0
 46
0.0
 71
     5
 72
     1
  1
\A1;700
 11
0.0000000000000001
 21
1.0
 31
0.0
 73
     1
 44
1.0
1001
ACAD
1000
MTEXTBEGIN
1070
    73
1070
     1
1070
    44
1040
1.0
1070
    74
1070
     0
1000
MTEXTEND
  0
POINT
  5
6D3
330
6CB
100
AcDbEntity
  8
Defpoints
 62
     0
100
AcDbPoint
 10
-75520.26814953449
 20
-74960.37299806268
 30
0.0
  0
POINT
  5
6D4
330
6CB
100
AcDbEntity
  8
Defpoints
 62
     0
100
AcDbPoint
 10
-75521.87618529664
 20
-74260.45154194614
 30
0.0
  0
POINT
  5
6D5
330
6CB
100
AcDbEntity
  8
Defpoints
 62
     0
100
AcDbPoint
 10
-75104.18075331815
 20
-74260.45154194614
 30
0.0
  0
ENDBLK
  5
6D6
330
6CB
100
AcDbEntity
  8
0
100
AcDbBlockEnd
  0
BLOCK
  5
6D8
330
6D7
100
AcDbEntity
  8
0
100
AcDbBlockBegin
  2
*D8
 70
     1
 10
0.0
 20
0.0
 30
0.0
  3
*D8
  1

  0
LINE
  5
6D9
330
6D7
100
AcDbEntity
  8
0
 62
     0
370
    -2
100
AcDbLine
 10
-75067.62618528464
 20
-73202.66688602262
 30
0.0
 11
-74650.13229653508
 21
-73202.66688602262
 31
0.0
  0
LINE
  5
6DA
330
6D7
100
AcDbEntity
  8
0
 62
     0
370
    -2
100
AcDbLine
 10
-75067.62618528464
 20
-74031.31150154313
 30
0.0
 11
-74650.13229653508
 21
-74031.31150154313
 31
0.0
  0
LINE
  5
6DB
330
6D7
100
AcDbEntity
  8
0
 62
     0
370
    -2
100
AcDbLine
 10
-74660.13229653508
 20
-73232.66688602262
 30
0.0
 11
-74660.13229653508
 21
-74001.31150154312
 31
0.0
  0
SOLID
  5
6DC
330
6D7
100
AcDbEntity
  8
0
 62
     0
100
AcDbTrace
 10
-74665.13229653508
 20
-73232.66688602262
 30
0.0
 11
-74655.13229653509
 21
-73232.66688602262
 31
0.0
 12
-74660.13229653508
 22
-73202.66688602262
 32
0.0
 13
-74660.13229653508
 23
-73202.66688602262
 33
0.0
  0
SOLID
  5
6DD
330
6D7
100
AcDbEntity
  8
0
 62
     0
100
AcDbTrace
 10
-74665.13229653508
 20
-74001.31150154312
 30
0.0
 11
-74655.13229653509
 21
-74001.31150154312
 31
0.0
 12
-74660.13229653508
 22
-74031.31150154313
 32
0.0
 13
-74660.13229653508
 23
-74031.31150154313
 33
0.0
  0
MTEXT
  5
6DE
330
6D7
100
AcDbEntity
  8
0
 62
     0
100
AcDbMText
 10
-74685.13524929098
 20
-73616.98919378291
 30
0.0
 40
30.0
 41
0.0
 46
0.0
 71
     5
 72
     1
  1
\A1;829
 11
0.0000000000000001
 21
1.0
 31
0.0
 73
     1
 44
1.0
1001
ACAD
1000
MTEXTBEGIN
1070
    73
1070
     1
1070
    44
1040
1.0
1070
    74
1070
     0
1000
MTEXTEND
  0
POINT
  5
6DF
330
6D7
100
AcDbEntity
  8
Defpoints
 62
     0
100
AcDbPoint
 10
-75067.62618528464
 20
-73202.66688602262
 30
0.0000000000000543
  0
POINT
  5
6E0
330
6D7
100
AcDbEntity
  8
Defpoints
 62
     0
100
AcDbPoint
 10
-75067.62618528464
 20
-74031.31150154313
 30
0.0
  0
POINT
  5
6E1
330
6D7
100
AcDbEntity
  8
Defpoints
 62
     0
100
AcDbPoint
 10
-74660.13229653508
 20
-74031.31150154313
 30
0.0
  0
ENDBLK
  5
6E2
330
6D7
100
AcDbEntity
  8
0
100
AcDbBlockEnd
  0
BLOCK
  5
6E4
330
6E3
100
AcDbEntity
  8
0
100
AcDbBlockBegin
  2
*D9
 70
     1
 10
0.0
 20
0.0
 30
0.0
  3
*D9
  1

  0
LINE
  5
6E5
330
6E3
100
AcDbEntity
  8
0
 62
     0
370
    -2
100
AcDbLine
 10
-75521.87618529664
 20
-74260.45154194614
 30
0.0
 11
-75305.61908825156
 21
-74260.45154194614
 31
0.0
  0
LINE
  5
6E6
330
6E3
100
AcDbEntity
  8
0
 62
     0
370
    -2
100
AcDbLine
 10
-75521.87618529664
 20
-74960.45154194614
 30
0.0
 11
-75305.61908825156
 21
-74960.45154194614
 31
0.0
  0
LINE
  5
6E7
330
6E3
100
AcDbEntity
  8
0
 62
     0
370
    -2
100
AcDbLine
 10
-75315.61908825157
 20
-74290.45154194612
 30
0.0
 11
-75315.61908825157
 21
-74930.45154194613
 31
0.0
  0
SOLID
  5
6E8
330
6E3
100
AcDbEntity
  8
0
 62
     0
100
AcDbTrace
 10
-75320.61908825157
 20
-74290.45154194612
 30
0.0
 11
-75310.61908825156
 21
-74290.45154194612
 31
0.0
 12
-75315.61908825157
 22
-74260.45154194614
 32
0.0
 13
-75315.61908825157
 23
-74260.45154194614
 33
0.0
  0
SOLID
  5
6E9
330
6E3
100
AcDbEntity
  8
0
 62
     0
100
AcDbTrace
 10
-75320.61908825157
 20
-74930.45154194613
 30
0.0
 11
-75310.61908825156
 21
-74930.45154194613
 31
0.0
 12
-75315.61908825157
 22
-74960.45154194614
 32
0.0
 13
-75315.61908825157
 23
-74960.45154194614
 33
0.0
  0
MTEXT
  5
6EA
330
6E3
100
AcDbEntity
  8
0
 62
     0
100
AcDbMText
 10
-75340.61908825156
 20
-74610.45154194615
 30
0.0
 40
30.0
 41
0.0
 46
0.0
 71
     5
 72
     1
  1
\A1;700
 11
0.0000000000000001
 21
1.0
 31
0.0
 73
     1
 44
1.0
1001
ACAD
1000
MTEXTBEGIN
1070
    73
1070
     1
1070
    44
1040
1.0
1070
    74
1070
     0
1000
MTEXTEND
  0
POINT
  5
6EB
330
6E3
100
AcDbEntity
  8
Defpoints
 62
     0
100
AcDbPoint
 10
-75521.87618529664
 20
-74260.45154194614
 30
0.0
  0
POINT
  5
6EC
330
6E3
100
AcDbEntity
  8
Defpoints
 62
     0
100
AcDbPoint
 10
-75521.87618529664
 20
-74960.45154194614
 30
0.0
  0
POINT
  5
6ED
330
6E3
100
AcDbEntity
  8
Defpoints
 62
     0
100
AcDbPoint
 10
-75315.61908825157
 20
-74960.45154194614
 30
0.0
  0
ENDBLK
  5
6EE
330
6E3
100
AcDbEntity
  8
0
100
AcDbBlockEnd
  0
BLOCK
  5
6F0
330
6EF
100
AcDbEntity
  8
0
100
AcDbBlockBegin
  2
*D10
 70
     1
 10
0.0
 20
0.0
 30
0.0
  3
*D10
  1

  0
LINE
  5
6F1
330
6EF
100
AcDbEntity
  8
0
 62
     0
370
    -2
100
AcDbLine
 10
-75362.87618528462
 20
-73273.14855373077
 30
0.0
 11
-75362.87618528462
 21
-73130.03115155219
 31
0.0
  0
LINE
  5
6F2
330
6EF
100
AcDbEntity
  8
0
 62
     0
370
    -2
100
AcDbLine
 10
-74762.87618528462
 20
-73287.66688602262
 30
0.0
 11
-74762.87618528462
 21
-73130.03115155219
 31
0.0
  0
LINE
  5
6F3
330
6EF
100
AcDbEntity
  8
0
 62
     0
370
    -2
100
AcDbLine
 10
-75332.87618528462
 20
-73140.03115155219
 30
0.0
 11
-74792.87618528462
 21
-73140.03115155219
 31
0.0
  0
SOLID
  5
6F4
330
6EF
100
AcDbEntity
  8
0
 62
     0
100
AcDbTrace
 10
-75332.87618528462
 20
-73135.03115155219
 30
0.0
 11
-75332.87618528462
 21
-73145.03115155218
 31
0.0
 12
-75362.87618528462
 22
-73140.03115155219
 32
0.0
 13
-75362.87618528462
 23
-73140.03115155219
 33
0.0
  0
SOLID
  5
6F5
330
6EF
100
AcDbEntity
  8
0
 62
     0
100
AcDbTrace
 10
-74792.87618528462
 20
-73135.03115155219
 30
0.0
 11
-74792.87618528462
 21
-73145.03115155218
 31
0.0
 12
-74762.87618528462
 22
-73140.03115155219
 32
0.0
 13
-74762.87618528462
 23
-73140.03115155219
 33
0.0
  0
MTEXT
  5
6F6
330
6EF
100
AcDbEntity
  8
0
 62
     0
100
AcDbMText
 10
-75062.87618528462
 20
-73115.03115155219
 30
0.0
 40
30.0
 41
0.0
 46
0.0
 71
     5
 72
     1
  1
\A1;600
 73
     1
 44
1.0
1001
ACAD
1000
MTEXTBEGIN
1070
    73
1070
     1
1070
    44
1040
1.0
1070
    74
1070
     0
1000
MTEXTEND
  0
POINT
  5
6F7
330
6EF
100
AcDbEntity
  8
Defpoints
 62
     0
100
AcDbPoint
 10
-75362.87618528462
 20
-73273.14855373077
 30
0.0
  0
POINT
  5
6F8
330
6EF
100
AcDbEntity
  8
Defpoints
 62
     0
100
AcDbPoint
 10
-74762.87618528462
 20
-73287.66688602262
 30
0.0000000000000946
  0
POINT
  5
6F9
330
6EF
100
AcDbEntity
  8
Defpoints
 62
     0
100
AcDbPoint
 10
-74762.87618528462
 20
-73140.03115155219
 30
0.0
  0
ENDBLK
  5
6FA
330
6EF
100
AcDbEntity
  8
0
100
AcDbBlockEnd
  0
BLOCK
  5
6FC
330
6FB
100
AcDbEntity
  8
0
100
AcDbBlockBegin
  2
*D11
 70
     1
 10
0.0
 20
0.0
 30
0.0
  3
*D11
  1

  0
LINE
  5
6FD
330
6FB
100
AcDbEntity
  8
0
 62
     0
370
    -2
100
AcDbLine
 10
-74049.19430117082
 20
-72516.66690902262
 30
0.0
 11
-73591.4779451497
 21
-72516.66690902262
 31
0.0
  0
LINE
  5
6FE
330
6FB
100
AcDbEntity
  8
0
 62
     0
370
    -2
100
AcDbLine
 10
-74118.12605754849
 20
-73237.43431209102
 30
0.0
 11
-73591.4779451497
 21
-73237.43431209102
 31
0.0
  0
LINE
  5
6FF
330
6FB
100
AcDbEntity
  8
0
 62
     0
370
    -2
100
AcDbLine
 10
-73601.4779451497
 20
-72546.66690902262
 30
0.0
 11
-73601.4779451497
 21
-73207.43431209102
 31
0.0
  0
SOLID
  5
700
330
6FB
100
AcDbEntity
  8
0
 62
     0
100
AcDbTrace
 10
-73606.4779451497
 20
-72546.66690902262
 30
0.0
 11
-73596.4779451497
 21
-72546.66690902262
 31
0.0
 12
-73601.4779451497
 22
-72516.66690902262
 32
0.0
 13
-73601.4779451497
 23
-72516.66690902262
 33
0.0
  0
SOLID
  5
701
330
6FB
100
AcDbEntity
  8
0
 62
     0
100
AcDbTrace
 10
-73606.4779451497
 20
-73207.43431209102
 30
0.0
 11
-73596.4779451497
 21
-73207.43431209102
 31
0.0
 12
-73601.4779451497
 22
-73237.43431209102
 32
0.0
 13
-73601.4779451497
 23
-73237.43431209102
 33
0.0
  0
MTEXT
  5
702
330
6FB
100
AcDbEntity
  8
0
 62
     0
100
AcDbMText
 10
-73626.48089790558
 20
-72877.05061055685
 30
0.0
 40
30.0
 41
0.0
 46
0.0
 71
     5
 72
     1
  1
\A1;721
 11
0.0000000000000001
 21
1.0
 31
0.0
 73
     1
 44
1.0
1001
ACAD
1000
MTEXTBEGIN
1070
    73
1070
     1
1070
    44
1040
1.0
1070
    74
1070
     0
1000
MTEXTEND
  0
POINT
  5
703
330
6FB
100
AcDbEntity
  8
Defpoints
 62
     0
100
AcDbPoint
 10
-74049.19430117082
 20
-72516.66690902262
 30
0.000000000000003
  0
POINT
  5
704
330
6FB
100
AcDbEntity
  8
Defpoints
 62
     0
100
AcDbPoint
 10
-74118.12605754849
 20
-73237.43431209102
 30
0.000000000000003
  0
POINT
  5
705
330
6FB
100
AcDbEntity
  8
Defpoints
 62
     0
100
AcDbPoint
 10
-73601.4779451497
 20
-73237.43431209102
 30
0.0
  0
ENDBLK
  5
706
330
6FB
100
AcDbEntity
  8
0
100
AcDbBlockEnd
  0
BLOCK
  5
708
330
707
100
AcDbEntity
  8
0
100
AcDbBlockBegin
  2
*D12
 70
     1
 10
0.0
 20
0.0
 30
0.0
  3
*D12
  1

  0
LINE
  5
709
330
707
100
AcDbEntity
  8
0
 62
     0
370
    -2
100
AcDbLine
 10
-75521.87618529664
 20
-74260.45154194614
 30
0.0
 11
-75852.62202622351
 21
-74260.45154194614
 31
0.0
  0
LINE
  5
70A
330
707
100
AcDbEntity
  8
0
 62
     0
370
    -2
100
AcDbLine
 10
-75521.87618529664
 20
-75060.45154194612
 30
0.0
 11
-75852.62202622351
 21
-75060.45154194612
 31
0.0
  0
LINE
  5
70B
330
707
100
AcDbEntity
  8
0
 62
     0
370
    -2
100
AcDbLine
 10
-75842.62202622351
 20
-74290.45154194612
 30
0.0
 11
-75842.62202622351
 21
-75030.45154194614
 31
0.0
  0
SOLID
  5
70C
330
707
100
AcDbEntity
  8
0
 62
     0
100
AcDbTrace
 10
-75847.62202622353
 20
-74290.45154194612
 30
0.0
 11
-75837.62202622351
 21
-74290.45154194612
 31
0.0
 12
-75842.62202622351
 22
-74260.45154194614
 32
0.0
 13
-75842.62202622351
 23
-74260.45154194614
 33
0.0
  0
SOLID
  5
70D
330
707
100
AcDbEntity
  8
0
 62
     0
100
AcDbTrace
 10
-75847.62202622353
 20
-75030.45154194614
 30
0.0
 11
-75837.62202622351
 21
-75030.45154194614
 31
0.0
 12
-75842.62202622351
 22
-75060.45154194612
 32
0.0
 13
-75842.62202622351
 23
-75060.45154194612
 33
0.0
  0
MTEXT
  5
70E
330
707
100
AcDbEntity
  8
0
 62
     0
100
AcDbMText
 10
-75867.6220262235
 20
-74660.45154194615
 30
0.0
 40
30.0
 41
0.0
 46
0.0
 71
     5
 72
     1
  1
\A1;800
 11
0.0000000000000001
 21
1.0
 31
0.0
 73
     1
 44
1.0
1001
ACAD
1000
MTEXTBEGIN
1070
    73
1070
     1
1070
    44
1040
1.0
1070
    74
1070
     0
1000
MTEXTEND
  0
POINT
  5
70F
330
707
100
AcDbEntity
  8
Defpoints
 62
     0
100
AcDbPoint
 10
-75521.87618529664
 20
-74260.45154194614
 30
0.0
  0
POINT
  5
710
330
707
100
AcDbEntity
  8
Defpoints
 62
     0
100
AcDbPoint
 10
-75521.87618529664
 20
-75060.45154194612
 30
0.0
  0
POINT
  5
711
330
707
100
AcDbEntity
  8
Defpoints
 62
     0
100
AcDbPoint
 10
-75842.62202622351
 20
-75060.45154194612
 30
0.0
  0
ENDBLK
  5
712
330
707
100
AcDbEntity
  8
0
100
AcDbBlockEnd
  0
BLOCK
  5
714
330
713
100
AcDbEntity
  8
0
100
AcDbBlockBegin
  2
*D13
 70
     1
 10
0.0
 20
0.0
 30
0.0
  3
*D13
  1

  0
LINE
  5
715
330
713
100
AcDbEntity
  8
0
 62
     0
370
    -2
100
AcDbLine
 10
-74662.87618528462
 20
-73287.66688602262
 30
0.0
 11
-74662.87618528462
 21
-73572.30807527102
 31
0.0
  0
LINE
  5
716
330
713
100
AcDbEntity
  8
0
 62
     0
370
    -2
100
AcDbLine
 10
-75362.87618528462
 20
-73287.66688602262
 30
0.0
 11
-75362.87618528462
 21
-73572.30807527102
 31
0.0
  0
LINE
  5
717
330
713
100
AcDbEntity
  8
0
 62
     0
370
    -2
100
AcDbLine
 10
-74692.87618528462
 20
-73562.30807527103
 30
0.0
 11
-75332.87618528462
 21
-73562.30807527103
 31
0.0
  0
SOLID
  5
718
330
713
100
AcDbEntity
  8
0
 62
     0
100
AcDbTrace
 10
-74692.87618528462
 20
-73557.30807527102
 30
0.0
 11
-74692.87618528462
 21
-73567.30807527102
 31
0.0
 12
-74662.87618528462
 22
-73562.30807527103
 32
0.0
 13
-74662.87618528462
 23
-73562.30807527103
 33
0.0
  0
SOLID
  5
719
330
713
100
AcDbEntity
  8
0
 62
     0
100
AcDbTrace
 10
-75332.87618528462
 20
-73557.30807527102
 30
0.0
 11
-75332.87618528462
 21
-73567.30807527102
 31
0.0
 12
-75362.87618528462
 22
-73562.30807527103
 32
0.0
 13
-75362.87618528462
 23
-73562.30807527103
 33
0.0
  0
MTEXT
  5
71A
330
713
100
AcDbEntity
  8
0
 62
     0
100
AcDbMText
 10
-75012.87618528462
 20
-73537.30807527102
 30
0.0
 40
30.0
 41
0.0
 46
0.0
 71
     5
 72
     1
  1
\A1;700
 73
     1
 44
1.0
1001
ACAD
1000
MTEXTBEGIN
1070
    73
1070
     1
1070
    44
1040
1.0
1070
    74
1070
     0
1000
MTEXTEND
  0
POINT
  5
71B
330
713
100
AcDbEntity
  8
Defpoints
 62
     0
100
AcDbPoint
 10
-74662.87618528462
 20
-73287.66688602262
 30
0.0000000000000946
  0
POINT
  5
71C
330
713
100
AcDbEntity
  8
Defpoints
 62
     0
100
AcDbPoint
 10
-75362.87618528462
 20
-73287.66688602262
 30
0.0
  0
POINT
  5
71D
330
713
100
AcDbEntity
  8
Defpoints
 62
     0
100
AcDbPoint
 10
-75362.87618528462
 20
-73562.30807527103
 30
0.0
  0
ENDBLK
  5
71E
330
713
100
AcDbEntity
  8
0
100
AcDbBlockEnd
  0
BLOCK
  5
720
330
71F
100
AcDbEntity
  8
0
100
AcDbBlockBegin
  2
*D14
 70
     1
 10
0.0
 20
0.0
 30
0.0
  3
*D14
  1

  0
LINE
  5
721
330
71F
100
AcDbEntity
  8
0
 62
     0
370
    -2
100
AcDbLine
 10
-74150.19067017085
 20
-73287.66688602262
 30
0.0
 11
-74150.19067017085
 21
-73007.76943039829
 31
0.0
  0
LINE
  5
722
330
71F
100
AcDbEntity
  8
0
 62
     0
370
    -2
100
AcDbLine
 10
-73416.53645697691
 20
-73284.0090648287
 30
0.0
 11
-73416.53645697691
 21
-73007.76943039829
 31
0.0
  0
LINE
  5
723
330
71F
100
AcDbEntity
  8
0
 62
     0
370
    -2
100
AcDbLine
 10
-74120.19067017085
 20
-73017.76943039827
 30
0.0
 11
-73446.53645697691
 21
-73017.76943039827
 31
0.0
  0
SOLID
  5
724
330
71F
100
AcDbEntity
  8
0
 62
     0
100
AcDbTrace
 10
-74120.19067017085
 20
-73012.76943039827
 30
0.0
 11
-74120.19067017085
 21
-73022.76943039829
 31
0.0
 12
-74150.19067017085
 22
-73017.76943039827
 32
0.0
 13
-74150.19067017085
 23
-73017.76943039827
 33
0.0
  0
SOLID
  5
725
330
71F
100
AcDbEntity
  8
0
 62
     0
100
AcDbTrace
 10
-73446.53645697691
 20
-73012.76943039827
 30
0.0
 11
-73446.53645697691
 21
-73022.76943039829
 31
0.0
 12
-73416.53645697691
 22
-73017.76943039827
 32
0.0
 13
-73416.53645697691
 23
-73017.76943039827
 33
0.0
  0
MTEXT
  5
726
330
71F
100
AcDbEntity
  8
0
 62
     0
100
AcDbMText
 10
-73783.36356357388
 20
-72992.76943039829
 30
0.0
 40
30.0
 41
0.0
 46
0.0
 71
     5
 72
     1
  1
\A1;734
 73
     1
 44
1.0
1001
ACAD
1000
MTEXTBEGIN
1070
    73
1070
     1
1070
    44
1040
1.0
1070
    74
1070
     0
1000
MTEXTEND
  0
POINT
  5
727
330
71F
100
AcDbEntity
  8
Defpoints
 62
     0
100
AcDbPoint
 10
-74150.19067017085
 20
-73287.66688602262
 30
0.0
  0
POINT
  5
728
330
71F
100
AcDbEntity
  8
Defpoints
 62
     0
100
AcDbPoint
 10
-73416.53645697691
 20
-73284.0090648287
 30
0.000000000000003
  0
POINT
  5
729
330
71F
100
AcDbEntity
  8
Defpoints
 62
     0
100
AcDbPoint
 10
-73416.53645697691
 20
-73017.76943039827
 30
0.0
  0
ENDBLK
  5
72A
330
71F
100
AcDbEntity
  8
0
100
AcDbBlockEnd
  0
BLOCK
  5
72C
330
72B
100
AcDbEntity
  8
0
100
AcDbBlockBegin
  2
*D15
 70
     1
 10
0.0
 20
0.0
 30
0.0
  3
*D15
  1

  0
LINE
  5
72D
330
72B
100
AcDbEntity
  8
0
 62
     0
440
 16777216
370
    -2
100
AcDbLine
 10
-75521.87618529669
 20
-74260.45154194617
 30
0.0
 11
-75353.49966409031
 21
-74260.45154194617
 31
0.0
  0
LINE
  5
72E
330
72B
100
AcDbEntity
  8
0
 62
     0
440
 16777216
370
    -2
100
AcDbLine
 10
-75521.87618529669
 20
-75010.45154194617
 30
0.0
 11
-75353.49966409031
 21
-75010.45154194617
 31
0.0
  0
LINE
  5
72F
330
72B
100
AcDbEntity
  8
0
 62
     0
440
 16777216
370
    -2
100
AcDbLine
 10
-75363.49966409031
 20
-74290.45154194617
 30
0.0
 11
-75363.49966409031
 21
-74980.45154194617
 31
0.0
  0
SOLID
  5
730
330
72B
100
AcDbEntity
  8
0
 62
     0
440
 16777216
100
AcDbTrace
 10
-75368.49966409031
 20
-74290.45154194617
 30
0.0
 11
-75358.49966409031
 21
-74290.45154194617
 31
0.0
 12
-75363.49966409031
 22
-74260.45154194617
 32
0.0
 13
-75363.49966409031
 23
-74260.45154194617
 33
0.0
  0
SOLID
  5
731
330
72B
100
AcDbEntity
  8
0
 62
     0
440
 16777216
100
AcDbTrace
 10
-75368.49966409031
 20
-74980.45154194617
 30
0.0
 11
-75358.49966409031
 21
-74980.45154194617
 31
0.0
 12
-75363.49966409031
 22
-75010.45154194617
 32
0.0
 13
-75363.49966409031
 23
-75010.45154194617
 33
0.0
  0
MTEXT
  5
732
330
72B
100
AcDbEntity
  8
0
 62
     0
440
 16777216
100
AcDbMText
 10
-75388.49966409031
 20
-74635.45154194614
 30
0.0
 40
30.0
 41
0.0
 46
0.0
 71
     5
 72
     1
  1
\A1;750
 11
0.0000000000000001
 21
1.0
 31
0.0
 73
     1
 44
1.0
  0
POINT
  5
733
330
72B
100
AcDbEntity
  8
Defpoints
 62
     0
440
 16777216
100
AcDbPoint
 10
-75521.87618529669
 20
-74260.45154194617
 30
0.0
  0
POINT
  5
734
330
72B
100
AcDbEntity
  8
Defpoints
 62
     0
440
 16777216
100
AcDbPoint
 10
-75521.87618529669
 20
-75010.45154194617
 30
0.0
  0
POINT
  5
735
330
72B
100
AcDbEntity
  8
Defpoints
 62
     0
440
 16777216
100
AcDbPoint
 10
-75363.49966409031
 20
-75010.45154194617
 30
0.0
  0
ENDBLK
  5
736
330
72B
100
AcDbEntity
  8
0
100
AcDbBlockEnd
  0
BLOCK
  5
830
330
746
100
AcDbEntity
  8
0
100
AcDbBlockBegin
  2
801_50_144S
 70
     0
 10
0.0
 20
0.0
 30
0.0
  3
801_50_144S
  1

  0
LINE
  5
747
330
746
100
AcDbEntity
  8
HEWI
100
AcDbLine
 10
-75287.37618528462
 20
-73219.16688602262
 30
0.0000000000000139
 11
-75287.37618528462
 21
-73235.66688602262
 31
0.0000000000000139
210
0.0
220
1.0
230
0.0
  0
LINE
  5
748
330
746
100
AcDbEntity
  8
HEWI
100
AcDbLine
 10
-75287.37618528462
 20
-73202.66688602262
 30
0.0000000000000139
 11
-75287.37618528462
 21
-73219.16688602262
 31
0.0000000000000139
210
0.0
220
1.0
230
0.0
  0
LINE
  5
749
330
746
100
AcDbEntity
  8
HEWI
100
AcDbLine
 10
-75212.87618528464
 20
-73219.16688602262
 30
0.0000000000000276
 11
-75196.37618528464
 21
-73235.66688602262
 31
0.0000000000000306
210
0.0
220
1.0
230
0.0
  0
LINE
  5
74A
330
746
100
AcDbEntity
  8
HEWI
100
AcDbLine
 10
-75229.37618528462
 20
-73235.66688602262
 30
0.0000000000000245
 11
-75212.87618528464
 21
-73219.16688602262
 31
0.0000000000000276
210
0.0
220
1.0
230
0.0
  0
LINE
  5
74B
330
746
100
AcDbEntity
  8
HEWI
100
AcDbLine
 10
-75196.37618528464
 20
-73339.66688602262
 30
0.0000000000000306
 11
-75212.87618528464
 21
-73356.16688602264
 31
0.0000000000000276
210
0.0
220
1.0
230
0.0
  0
LINE
  5
74C
330
746
100
AcDbEntity
  8
HEWI
100
AcDbLine
 10
-75212.87618528464
 20
-73356.16688602264
 30
0.0000000000000276
 11
-75229.37618528462
 21
-73339.66688602262
 31
0.0000000000000245
210
0.0
220
1.0
230
0.0
  0
LINE
  5
74D
330
746
100
AcDbEntity
  8
HEWI
100
AcDbLine
 10
-75346.37618528464
 20
-73196.41688602262
 30
0.000000000000003
 11
-75321.87618528464
 21
-73196.41688602262
 31
0.0000000000000075
210
0.0
220
1.0
230
0.0
  0
LINE
  5
74E
330
746
100
AcDbEntity
  8
HEWI
100
AcDbLine
 10
-75321.87618528464
 20
-73241.91688602262
 30
0.0000000000000075
 11
-75346.37618528464
 21
-73241.91688602262
 31
0.000000000000003
210
0.0
220
1.0
230
0.0
  0
ARC
  5
74F
330
746
100
AcDbEntity
  8
HEWI
100
AcDbCircle
 10
-75321.87618528464
 20
-73219.16688602262
 30
0.0000000000000075
 40
22.74999999999999
100
AcDbArc
 50
270.0
 51
90.0
  0
LINE
  5
750
330
746
100
AcDbEntity
  8
HEWI
100
AcDbLine
 10
-75362.87618528462
 20
-73414.16688602262
 30
0.0
 11
-75362.87618528462
 21
-73161.16688602264
 31
0.0
210
0.0
220
1.0
230
0.0
  0
LINE
  5
751
330
746
100
AcDbEntity
  8
HEWI
100
AcDbLine
 10
-75362.87618528462
 20
-73159.66688602262
 30
0.0
 11
-75362.87618528462
 21
-73161.16688602264
 31
0.0
210
0.0
220
1.0
230
0.0
  0
LINE
  5
752
330
746
100
AcDbEntity
  8
HEWI
100
AcDbLine
 10
-75362.87618528462
 20
-73414.16688602262
 30
0.0
 11
-75362.87618528462
 21
-73415.66688602262
 31
0.0
210
0.0
220
1.0
230
0.0
  0
LINE
  5
753
330
746
100
AcDbEntity
  8
HEWI
100
AcDbLine
 10
-75357.87618528464
 20
-73159.66688602262
 30
0.0000000000000009
 11
-75362.87618528462
 21
-73159.66688602262
 31
0.0
210
0.0
220
1.0
230
0.0
  0
ARC
  5
754
330
746
100
AcDbEntity
  8
HEWI
100
AcDbCircle
 10
-75357.87618528464
 20
-73171.16688602262
 30
0.0000000000000009
 40
11.5
100
AcDbArc
 50
0.0
 51
90.0
  0
LINE
  5
755
330
746
100
AcDbEntity
  8
HEWI
100
AcDbLine
 10
-75346.37618528464
 20
-73404.16688602262
 30
0.000000000000003
 11
-75346.37618528464
 21
-73171.16688602262
 31
0.000000000000003
210
0.0
220
1.0
230
0.0
  0
ARC
  5
756
330
746
100
AcDbEntity
  8
HEWI
100
AcDbCircle
 10
-75357.87618528464
 20
-73404.16688602262
 30
0.0000000000000009
 40
11.5
100
AcDbArc
 50
270.0
 51
0.0
  0
LINE
  5
757
330
746
100
AcDbEntity
  8
HEWI
100
AcDbLine
 10
-75362.87618528462
 20
-73415.66688602262
 30
0.0
 11
-75357.87618528464
 21
-73415.66688602262
 31
0.0000000000000009
210
0.0
220
1.0
230
0.0
  0
LINE
  5
758
330
746
100
AcDbEntity
  8
HEWI
100
AcDbLine
 10
-75287.37618528462
 20
-73202.66688602262
 30
0.0000000000000139
 11
-75287.37618528462
 21
-73235.66688602262
 31
0.0000000000000139
210
0.0
220
1.0
230
0.0
  0
LINE
  5
759
330
746
100
AcDbEntity
  8
HEWI
100
AcDbLine
 10
-75306.21373017697
 20
-73235.66688602262
 30
0.0000000000000104
 11
-75287.37618528462
 21
-73235.66688602262
 31
0.0000000000000139
210
0.0
220
1.0
230
0.0
  0
LINE
  5
75A
330
746
100
AcDbEntity
  8
HEWI
100
AcDbLine
 10
-75306.21373017697
 20
-73202.66688602262
 30
0.0000000000000104
 11
-75287.37618528462
 21
-73202.66688602262
 31
0.0000000000000139
210
0.0
220
1.0
230
0.0
  0
LINE
  5
75B
330
746
100
AcDbEntity
  8
HEWI
100
AcDbLine
 10
-75229.37618528462
 20
-73235.66688602262
 30
0.0000000000000245
 11
-75229.37618528462
 21
-73339.66688602262
 31
0.0000000000000245
210
0.0
220
1.0
230
0.0
  0
LINE
  5
75C
330
746
100
AcDbEntity
  8
HEWI
100
AcDbLine
 10
-75196.37618528464
 20
-73235.66688602262
 30
0.0000000000000306
 11
-75196.37618528464
 21
-73339.66688602262
 31
0.0000000000000306
210
0.0
220
1.0
230
0.0
  0
LINE
  5
75D
330
746
100
AcDbEntity
  8
HEWI
100
AcDbLine
 10
-75229.37618528462
 20
-73339.66688602262
 30
0.0000000000000245
 11
-75346.37618528464
 21
-73339.66688602262
 31
0.000000000000003
210
0.0
220
1.0
230
0.0
  0
LINE
  5
75E
330
746
100
AcDbEntity
  8
HEWI
100
AcDbLine
 10
-74697.87618528462
 20
-73339.66688602262
 30
0.0000000000001222
 11
-75196.37618528464
 21
-73339.66688602262
 31
0.0000000000000306
210
0.0
220
1.0
230
0.0
  0
LINE
  5
75F
330
746
100
AcDbEntity
  8
HEWI
100
AcDbLine
 10
-74777.48199409897
 20
-73372.66688602261
 30
0.0000000000001075
 11
-75346.37618528464
 21
-73372.66688602261
 31
0.000000000000003
210
0.0
220
1.0
230
0.0
  0
LINE
  5
760
330
746
100
AcDbEntity
  8
HEWI
100
AcDbLine
 10
-75196.37618528464
 20
-73235.66688602262
 30
0.0000000000000306
 11
-74697.87618528462
 21
-73235.66688602262
 31
0.0000000000001222
210
0.0
220
1.0
230
0.0
  0
LINE
  5
761
330
746
100
AcDbEntity
  8
HEWI
100
AcDbLine
 10
-75287.37618528462
 20
-73235.66688602262
 30
0.0000000000000139
 11
-75229.37618528462
 21
-73235.66688602262
 31
0.0000000000000245
210
0.0
220
1.0
230
0.0
  0
LINE
  5
762
330
746
100
AcDbEntity
  8
HEWI
100
AcDbLine
 10
-75287.37618528462
 20
-73202.66688602262
 30
0.0000000000000139
 11
-74697.87618528462
 21
-73202.66688602262
 31
0.0000000000001222
210
0.0
220
1.0
230
0.0
  0
ARC
  5
763
330
746
100
AcDbEntity
  8
HEWI
100
AcDbCircle
 10
-74697.87618528462
 20
-73287.66688602262
 30
0.0000000000000946
 40
52.0
100
AcDbArc
 50
270.0
 51
90.0
  0
ARC
  5
764
330
746
100
AcDbEntity
  8
HEWI
100
AcDbCircle
 10
-74697.87618528462
 20
-73287.66688602262
 30
0.0000000000000946
 40
85.0
100
AcDbArc
 50
270.0
 51
90.0
  0
ARC
  5
765
330
746
100
AcDbEntity
  8
HEWI
100
AcDbCircle
 10
-75521.87618529664
 20
-73219.16688602262
 30
0.0
 40
16.5
100
AcDbArc
 50
0.0
 51
180.0
  0
ARC
  5
766
330
746
100
AcDbEntity
  8
HEWI
100
AcDbCircle
 10
-75521.87618529664
 20
-73356.16688602264
 30
0.0
 40
16.5
100
AcDbArc
 50
180.0
 51
0.0
  0
LINE
  5
767
330
746
100
AcDbEntity
  8
HEWI
100
AcDbLine
 10
-75542.37618529664
 20
-73196.41688602262
 30
-0.0000000000000025
 11
-75558.87618529664
 21
-73196.41688602262
 31
-0.0000000000000045
210
0.0
220
1.0
230
0.0
  0
LINE
  5
768
330
746
100
AcDbEntity
  8
HEWI
100
AcDbLine
 10
-75542.37618529664
 20
-73241.91688602262
 30
-0.0000000000000025
 11
-75542.37618529664
 21
-73196.41688602262
 31
-0.0000000000000025
210
0.0
220
1.0
230
0.0
  0
LINE
  5
769
330
746
100
AcDbEntity
  8
HEWI
100
AcDbLine
 10
-75542.37618529664
 20
-73241.91688602262
 30
-0.0000000000000025
 11
-75558.87618529664
 21
-73241.91688602262
 31
-0.0000000000000045
210
0.0
220
1.0
230
0.0
  0
LINE
  5
76A
330
746
100
AcDbEntity
  8
HEWI
100
AcDbLine
 10
-75558.87618529664
 20
-73196.41688602262
 30
-0.0000000000000045
 11
-75558.87618529664
 21
-73241.91688602262
 31
-0.0000000000000045
210
0.0
220
1.0
230
0.0
  0
LINE
  5
76B
330
746
100
AcDbEntity
  8
HEWI
100
AcDbLine
 10
-75560.87618529664
 20
-73171.16688602262
 30
-0.0000000000000048
 11
-75560.87618529664
 21
-73404.16688602262
 31
-0.0000000000000048
210
0.0
220
1.0
230
0.0
  0
LINE
  5
76C
330
746
100
AcDbEntity
  8
HEWI
100
AcDbLine
 10
-75560.87618529664
 20
-73161.16688602264
 30
-0.0000000000000048
 11
-75560.87618529664
 21
-73171.16688602262
 31
-0.0000000000000048
210
0.0
220
1.0
230
0.0
  0
LINE
  5
76D
330
746
100
AcDbEntity
  8
HEWI
100
AcDbLine
 10
-75560.87618529664
 20
-73404.16688602262
 30
-0.0000000000000048
 11
-75560.87618529664
 21
-73414.16688602262
 31
-0.0000000000000048
210
0.0
220
1.0
230
0.0
  0
ARC
  5
76E
330
746
100
AcDbEntity
  8
HEWI
100
AcDbCircle
 10
-75559.37618529664
 20
-73161.16688602264
 30
-0.0000000000000046
 40
1.5
100
AcDbArc
 50
90.0
 51
180.0
  0
ARC
  5
76F
330
746
100
AcDbEntity
  8
HEWI
100
AcDbCircle
 10
-75559.37618529664
 20
-73414.16688602262
 30
-0.0000000000000046
 40
1.5
100
AcDbArc
 50
180.0
 51
270.0
  0
LINE
  5
770
330
746
100
AcDbEntity
  8
HEWI
100
AcDbLine
 10
-75484.37618529664
 20
-73159.66688602262
 30
0.0000000000000046
 11
-75559.37618529664
 21
-73159.66688602262
 31
-0.0000000000000046
210
0.0
220
1.0
230
0.0
  0
LINE
  5
771
330
746
100
AcDbEntity
  8
HEWI
100
AcDbLine
 10
-75482.87618529664
 20
-73404.16688602262
 30
0.0000000000000048
 11
-75482.87618529664
 21
-73171.16688602262
 31
0.0000000000000048
210
0.0
220
1.0
230
0.0
  0
LINE
  5
772
330
746
100
AcDbEntity
  8
HEWI
100
AcDbLine
 10
-75482.87618529664
 20
-73171.16688602262
 30
0.0000000000000048
 11
-75482.87618529664
 21
-73161.16688602264
 31
0.0000000000000048
210
0.0
220
1.0
230
0.0
  0
LINE
  5
773
330
746
100
AcDbEntity
  8
HEWI
100
AcDbLine
 10
-75482.87618529664
 20
-73414.16688602262
 30
0.0000000000000048
 11
-75482.87618529664
 21
-73404.16688602262
 31
0.0000000000000048
210
0.0
220
1.0
230
0.0
  0
ARC
  5
774
330
746
100
AcDbEntity
  8
HEWI
100
AcDbCircle
 10
-75484.37618529664
 20
-73161.16688602264
 30
0.0000000000000046
 40
1.5
100
AcDbArc
 50
0.0
 51
90.0
  0
ARC
  5
775
330
746
100
AcDbEntity
  8
HEWI
100
AcDbCircle
 10
-75484.37618529664
 20
-73414.16688602262
 30
0.0000000000000046
 40
1.5
100
AcDbArc
 50
270.0
 51
0.0
  0
LINE
  5
776
330
746
100
AcDbEntity
  8
HEWI
100
AcDbLine
 10
-75484.87618529664
 20
-73196.41688602262
 30
0.0000000000000045
 11
-75501.37618529664
 21
-73196.41688602262
 31
0.0000000000000025
210
0.0
220
1.0
230
0.0
  0
LINE
  5
777
330
746
100
AcDbEntity
  8
HEWI
100
AcDbLine
 10
-75484.87618529664
 20
-73241.91688602262
 30
0.0000000000000045
 11
-75484.87618529664
 21
-73196.41688602262
 31
0.0000000000000045
210
0.0
220
1.0
230
0.0
  0
LINE
  5
778
330
746
100
AcDbEntity
  8
HEWI
100
AcDbLine
 10
-75484.87618529664
 20
-73241.91688602262
 30
0.0000000000000045
 11
-75501.37618529664
 21
-73241.91688602262
 31
0.0000000000000025
210
0.0
220
1.0
230
0.0
  0
LINE
  5
779
330
746
100
AcDbEntity
  8
HEWI
100
AcDbLine
 10
-75501.37618529664
 20
-73196.41688602262
 30
0.0000000000000025
 11
-75501.37618529664
 21
-73241.91688602262
 31
0.0000000000000025
210
0.0
220
1.0
230
0.0
  0
LINE
  5
77A
330
746
100
AcDbEntity
  8
HEWI
100
AcDbLine
 10
-75542.37618529664
 20
-73241.66688602264
 30
-0.0000000000000025
 11
-75538.37618529664
 21
-73241.66688602264
 31
-0.000000000000002
210
0.0
220
1.0
230
0.0
  0
LINE
  5
77B
330
746
100
AcDbEntity
  8
HEWI
100
AcDbLine
 10
-75505.37618529664
 20
-73241.66688602264
 30
0.000000000000002
 11
-75501.37618529664
 21
-73241.66688602264
 31
0.0000000000000025
210
0.0
220
1.0
230
0.0
  0
LINE
  5
77C
330
746
100
AcDbEntity
  8
HEWI
100
AcDbLine
 10
-75542.37618529664
 20
-73196.66688602262
 30
-0.0000000000000025
 11
-75501.37618529664
 21
-73196.66688602262
 31
0.0000000000000025
210
0.0
220
1.0
230
0.0
  0
LINE
  5
77D
330
746
100
AcDbEntity
  8
HEWI
100
AcDbLine
 10
-75505.37618529664
 20
-73356.16688602264
 30
0.000000000000002
 11
-75505.37618529664
 21
-73219.16688602262
 31
0.000000000000002
210
0.0
220
1.0
230
0.0
  0
LINE
  5
77E
330
746
100
AcDbEntity
  8
HEWI
100
AcDbLine
 10
-75538.37618529664
 20
-73219.16688602262
 30
-0.000000000000002
 11
-75538.37618529664
 21
-73356.16688602264
 31
-0.000000000000002
210
0.0
220
1.0
230
0.0
  0
LINE
  5
77F
330
746
100
AcDbEntity
  8
HEWI
100
AcDbLine
 10
-75505.37618529664
 20
-74335.95154194613
 30
0.0
 11
-75538.37618529664
 21
-74335.95154194613
 31
0.0
  0
LINE
  5
780
330
746
100
AcDbEntity
  8
HEWI
100
AcDbLine
 10
-75542.37618529664
 20
-74301.45154194613
 30
0.0
 11
-75542.37618529664
 21
-74276.95154194614
 31
0.0
  0
LINE
  5
781
330
746
100
AcDbEntity
  8
HEWI
100
AcDbLine
 10
-75558.87618529664
 20
-74276.95154194614
 30
0.0
 11
-75558.87618529664
 21
-74301.45154194613
 31
0.0
  0
LINE
  5
782
330
746
100
AcDbEntity
  8
HEWI
100
AcDbLine
 10
-75542.37618529664
 20
-74324.20154194613
 30
0.0
 11
-75542.37618529664
 21
-74301.45154194613
 31
0.0
  0
LINE
  5
783
330
746
100
AcDbEntity
  8
HEWI
100
AcDbLine
 10
-75558.87618529664
 20
-74301.45154194613
 30
0.0
 11
-75558.87618529664
 21
-74324.20154194613
 31
0.0
  0
ARC
  5
784
330
746
100
AcDbEntity
  8
HEWI
100
AcDbCircle
 10
-75559.37618529664
 20
-74275.45154194612
 30
0.0
 40
1.5
100
AcDbArc
 50
180.0
 51
270.0
  0
LINE
  5
785
330
746
100
AcDbEntity
  8
HEWI
100
AcDbLine
 10
-75560.87618529664
 20
-74265.45154194614
 30
0.0
 11
-75560.87618529664
 21
-74275.45154194612
 31
0.0
  0
LINE
  5
786
330
746
100
AcDbEntity
  8
HEWI
100
AcDbLine
 10
-75559.37618529664
 20
-74260.45154194614
 30
0.0
 11
-75560.87618529664
 21
-74260.45154194614
 31
0.0
  0
LINE
  5
787
330
746
100
AcDbEntity
  8
HEWI
100
AcDbLine
 10
-75560.87618529664
 20
-74260.45154194614
 30
0.0
 11
-75560.87618529664
 21
-74265.45154194614
 31
0.0
  0
LINE
  5
788
330
746
100
AcDbEntity
  8
HEWI
100
AcDbLine
 10
-75484.37618529664
 20
-74260.45154194614
 30
0.0
 11
-75559.37618529664
 21
-74260.45154194614
 31
0.0
  0
LINE
  5
789
330
746
100
AcDbEntity
  8
HEWI
100
AcDbLine
 10
-75484.37618529664
 20
-74276.95154194614
 30
0.0
 11
-75559.37618529664
 21
-74276.95154194614
 31
0.0
  0
LINE
  5
78A
330
746
100
AcDbEntity
  8
HEWI
100
AcDbLine
 10
-75482.87618529664
 20
-74275.45154194612
 30
0.0
 11
-75482.87618529664
 21
-74265.45154194614
 31
0.0
  0
ARC
  5
78B
330
746
100
AcDbEntity
  8
HEWI
100
AcDbCircle
 10
-75484.37618529664
 20
-74275.45154194612
 30
0.0
 40
1.5
100
AcDbArc
 50
270.0
 51
0.0
  0
LINE
  5
78C
330
746
100
AcDbEntity
  8
HEWI
100
AcDbLine
 10
-75482.87618529664
 20
-74260.45154194614
 30
0.0
 11
-75484.37618529664
 21
-74260.45154194614
 31
0.0
  0
LINE
  5
78D
330
746
100
AcDbEntity
  8
HEWI
100
AcDbLine
 10
-75482.87618529664
 20
-74265.45154194614
 30
0.0
 11
-75482.87618529664
 21
-74260.45154194614
 31
0.0
  0
LINE
  5
78E
330
746
100
AcDbEntity
  8
HEWI
100
AcDbLine
 10
-75484.87618529664
 20
-74301.45154194613
 30
0.0
 11
-75484.87618529664
 21
-74276.95154194614
 31
0.0
  0
LINE
  5
78F
330
746
100
AcDbEntity
  8
HEWI
100
AcDbLine
 10
-75501.37618529664
 20
-74276.95154194614
 30
0.0
 11
-75501.37618529664
 21
-74301.45154194613
 31
0.0
  0
LINE
  5
790
330
746
100
AcDbEntity
  8
HEWI
100
AcDbLine
 10
-75484.87618529664
 20
-74324.20154194613
 30
0.0
 11
-75484.87618529664
 21
-74301.45154194613
 31
0.0
  0
LINE
  5
791
330
746
100
AcDbEntity
  8
HEWI
100
AcDbLine
 10
-75501.37618529664
 20
-74301.45154194613
 30
0.0
 11
-75501.37618529664
 21
-74324.20154194613
 31
0.0
  0
LINE
  5
792
330
746
100
AcDbEntity
  8
HEWI
100
AcDbLine
 10
-75505.37618529664
 20
-74335.95154194613
 30
0.0
 11
-75538.37618529664
 21
-74335.95154194613
 31
0.0
  0
SPLINE
  5
793
330
746
100
AcDbEntity
  8
HEWI
100
AcDbSpline
210
0.0
220
0.0
230
1.0
 70
     8
 71
     3
 72
    42
 73
    38
 74
     0
 42
0.000000001
 43
0.0000000001
 40
26.21588118668894
 40
26.21588118668894
 40
26.21588118668894
 40
26.21588118668894
 40
29.46229922291184
 40
29.46229922291184
 40
32.70871725913472
 40
32.70871725913472
 40
35.95513529535762
 40
35.95513529535762
 40
39.20155333158049
 40
39.20155333158049
 40
42.50910559202984
 40
42.50910559202984
 40
45.8166578524792
 40
45.8166578524792
 40
49.12421011292853
 40
49.12421011292853
 40
50.77798624315322
 40
50.77798624315322
 40
52.43176237337789
 40
52.43176237337789
 40
54.08553850360258
 40
54.08553850360258
 40
55.73931463382725
 40
55.73931463382725
 40
59.04686689427662
 40
59.04686689427662
 40
62.35441915472598
 40
62.35441915472598
 40
65.66197141517534
 40
65.66197141517534
 40
68.90838945139825
 40
68.90838945139825
 40
72.15480748762115
 40
72.15480748762115
 40
75.40122552384406
 40
75.40122552384406
 40
78.64764356006697
 40
78.64764356006697
 40
78.64764356006697
 40
78.64764356006697
 10
-75505.37618529664
 20
-74323.95154194614
 30
0.0
 10
-75505.37618529664
 20
-74323.95154194614
 30
0.0
 10
-75505.48435001751
 20
-74323.87183228973
 30
0.0
 10
-75505.92424600819
 20
-74323.55225510965
 30
0.0
 10
-75506.25578760158
 20
-74323.31256364371
 30
0.0
 10
-75507.11330387771
 20
-74322.70830833787
 30
0.0
 10
-75507.63999749781
 20
-74322.34340048941
 30
0.0
 10
-75508.83615402192
 20
-74321.54739042521
 30
0.0
 10
-75509.50566908825
 20
-74321.1166632759
 30
0.0
 10
-75510.9254209086
 20
-74320.25565530824
 30
0.0
 10
-75511.73143946032
 20
-74319.79142976389
 30
0.0
 10
-75513.48812170865
 20
-74318.88126448629
 30
0.0
 10
-75514.43872353678
 20
-74318.43572681115
 30
0.0
 10
-75516.4429704021
 20
-74317.65853539017
 30
0.0
 10
-75517.49865016201
 20
-74317.32739897384
 30
0.0
 10
-75519.12249253454
 20
-74316.98546708954
 30
0.0
 10
-75519.67051433058
 20
-74316.89710195704
 30
0.0
 10
-75520.77172861036
 20
-74316.7786474856
 30
0.0
 10
-75521.32492658656
 20
-74316.74860048691
 30
0.0
 10
-75522.42744400672
 20
-74316.74860048691
 30
0.0
 10
-75522.98064198293
 20
-74316.7786474856
 30
0.0
 10
-75524.08185626271
 20
-74316.89710195704
 30
0.0
 10
-75524.62987805872
 20
-74316.98546708954
 30
0.0
 10
-75526.25372043126
 20
-74317.32739897384
 30
0.0
 10
-75527.30940019117
 20
-74317.65853539017
 30
0.0
 10
-75529.31364705647
 20
-74318.43572681115
 30
0.0
 10
-75530.26424888463
 20
-74318.88126448629
 30
0.0
 10
-75532.02093113298
 20
-74319.79142976389
 30
0.0
 10
-75532.82694968467
 20
-74320.25565530824
 30
0.0
 10
-75534.24670150505
 20
-74321.1166632759
 30
0.0
 10
-75534.91621657138
 20
-74321.54739042521
 30
0.0
 10
-75536.11237309547
 20
-74322.34340048941
 30
0.0
 10
-75536.63906671554
 20
-74322.70830833787
 30
0.0
 10
-75537.4965829917
 20
-74323.31256364371
 30
0.0
 10
-75537.8281245851
 20
-74323.55225510965
 30
0.0
 10
-75538.26802057576
 20
-74323.87183228973
 30
0.0
 10
-75538.37618529664
 20
-74323.95154194614
 30
0.0
 10
-75538.37618529664
 20
-74323.95154194614
 30
0.0
  0
LINE
  5
794
330
746
100
AcDbEntity
  8
HEWI
100
AcDbLine
 10
-75505.37618529664
 20
-74323.95154194614
 30
0.0
 11
-75501.37618529664
 21
-74323.95154194614
 31
0.0
  0
LINE
  5
795
330
746
100
AcDbEntity
  8
HEWI
100
AcDbLine
 10
-75542.37618529664
 20
-74323.95154194614
 30
0.0
 11
-75538.37618529664
 21
-74323.95154194614
 31
0.0
  0
LINE
  5
796
330
746
100
AcDbEntity
  8
HEWI
100
AcDbLine
 10
-75542.37618529664
 20
-74278.95154194612
 30
0.0
 11
-75501.37618529664
 21
-74278.95154194612
 31
0.0
  0
LINE
  5
797
330
746
100
AcDbEntity
  8
HEWI
100
AcDbLine
 10
-75538.37618529664
 20
-74323.95154194614
 30
0.0
 11
-75538.37618529664
 21
-74335.95154194613
 31
0.0
  0
LINE
  5
798
330
746
100
AcDbEntity
  8
HEWI
100
AcDbLine
 10
-75505.37618529664
 20
-74323.95154194614
 30
0.0
 11
-75505.37618529664
 21
-74335.95154194613
 31
0.0
  0
LINE
  5
799
330
746
100
AcDbEntity
  8
HEWI
100
AcDbLine
 10
-75484.87618529664
 20
-74324.20154194613
 30
0.0
 11
-75501.37618529664
 21
-74324.20154194613
 31
0.0
  0
LINE
  5
79A
330
746
100
AcDbEntity
  8
HEWI
100
AcDbLine
 10
-75542.37618529664
 20
-74324.20154194613
 30
0.0
 11
-75558.87618529664
 21
-74324.20154194613
 31
0.0
  0
LINE
  5
79B
330
746
100
AcDbEntity
  8
HEWI
100
AcDbLine
 10
-75505.37618529664
 20
-74278.95154194612
 30
0.0
 11
-75505.37618529664
 21
-74276.95154194614
 31
0.0
  0
LINE
  5
79C
330
746
100
AcDbEntity
  8
HEWI
100
AcDbLine
 10
-75538.37618529664
 20
-74278.95154194612
 30
0.0
 11
-75538.37618529664
 21
-74276.95154194614
 31
0.0
  0
LINE
  5
79D
330
746
100
AcDbEntity
  8
HEWI
100
AcDbLine
 10
-75538.37618529664
 20
-74335.95154194613
 30
0.0
 11
-75538.37618529664
 21
-74943.95154194614
 31
0.0
  0
LINE
  5
79E
330
746
100
AcDbEntity
  8
HEWI
100
AcDbLine
 10
-75505.37618529664
 20
-74335.95154194613
 30
0.0
 11
-75505.37618529664
 21
-74943.95154194614
 31
0.0
  0
LINE
  5
79F
330
746
100
AcDbEntity
  8
HEWI
100
AcDbLine
 10
-75505.37618529664
 20
-74993.95154194614
 30
0.0
 11
-75505.37618529664
 21
-74925.45154194614
 31
0.0
  0
LINE
  5
7A0
330
746
100
AcDbEntity
  8
HEWI
100
AcDbLine
 10
-75538.37618529664
 20
-74925.45154194614
 30
0.0
 11
-75538.37618529664
 21
-74993.95154194614
 31
0.0
  0
ARC
  5
7A1
330
746
100
AcDbEntity
  8
HEWI
100
AcDbCircle
 10
-75521.87618529664
 20
-74993.95154194614
 30
0.0
 40
16.5
100
AcDbArc
 50
180.0
 51
0.0
  0
ARC
  5
7A2
330
746
100
AcDbEntity
  8
HEWI
100
AcDbCircle
 10
-74116.5364569769
 20
-73216.66690902262
 30
0.000000000000003
 40
20.828150666408
100
AcDbArc
 50
265.622940580857
 51
94.37705941914288
  0
LINE
  5
7A3
330
746
100
AcDbEntity
  8
HEWI
100
AcDbLine
 10
-74118.12605717084
 20
-73237.43431202264
 30
0.000000000000003
 11
-74133.69067017085
 21
-73238.16688602262
 31
0.000000000000003
  0
LINE
  5
7A4
330
746
100
AcDbEntity
  8
HEWI
100
AcDbLine
 10
-74118.12605717084
 20
-73195.89950602265
 30
0.000000000000003
 11
-74133.69067017085
 21
-73195.16693202262
 31
0.000000000000003
  0
LINE
  5
7A5
330
746
100
AcDbEntity
  8
HEWI
100
AcDbLine
 10
-74136.19067017084
 20
-73415.66688602262
 30
0.000000000000003
 11
-74143.69067017084
 21
-73415.66688602262
 31
0.000000000000003
  0
LINE
  5
7A6
330
746
100
AcDbEntity
  8
HEWI
100
AcDbLine
 10
-74100.69071617085
 20
-72587.80626802254
 30
0.000000000000003
 11
-74100.69071617085
 21
-73086.52284702263
 31
0.000000000000003
  0
LINE
  5
7A7
330
746
100
AcDbEntity
  8
HEWI
100
AcDbLine
 10
-73963.69067017086
 20
-72971.55112402263
 30
0.000000000000003
 11
-73963.69067017086
 21
-73057.5228320226
 31
0.000000000000003
  0
LINE
  5
7A8
330
746
100
AcDbEntity
  8
HEWI
100
AcDbLine
 10
-73996.69070117088
 20
-73024.58585802264
 30
0.000000000000003
 11
-73996.69070117088
 21
-73086.52284702263
 31
0.000000000000003
  0
LINE
  5
7A9
330
746
100
AcDbEntity
  8
HEWI
100
AcDbLine
 10
-74133.69067017082
 20
-72586.36545702262
 30
0.000000000000003
 11
-74133.69067017085
 21
-73195.16693202262
 31
0.000000000000003
  0
ARC
  5
7AA
330
746
100
AcDbEntity
  8
HEWI
100
AcDbCircle
 10
-74048.69067017086
 20
-72587.0858260226
 30
0.000000000000003
 40
51.93695300000001
100
AcDbArc
 50
9.999967999547845
 51
170.0000320004517
  0
ARC
  5
7AB
330
746
100
AcDbEntity
  8
HEWI
100
AcDbCircle
 10
-74048.69070817085
 20
-72587.08585502261
 30
0.000000000000003
 40
85.06301200000004
100
AcDbArc
 50
9.999997999674727
 51
170.0000020003253
  0
LINE
  5
7AC
330
746
100
AcDbEntity
  8
HEWI
100
AcDbLine
 10
-73963.69067017086
 20
-72586.36545702262
 30
0.000000000000003
 11
-73963.69067017086
 21
-72630.58585802263
 31
0.000000000000003
  0
LINE
  5
7AD
330
746
100
AcDbEntity
  8
HEWI
100
AcDbLine
 10
-73996.69070117088
 20
-72587.80626802261
 30
0.000000000000003
 11
-73996.69070117088
 21
-72641.39214514261
 31
0.000000000000003
  0
LINE
  5
7AE
330
746
100
AcDbEntity
  8
HEWI
100
AcDbLine
 10
-73964.91999517087
 20
-72572.31482002262
 30
0.000000000000003
 11
-73963.69067017086
 21
-72586.36545702262
 31
0.000000000000003
  0
LINE
  5
7AF
330
746
100
AcDbEntity
  8
HEWI
100
AcDbLine
 10
-73997.54275217087
 20
-72578.06709802259
 30
0.000000000000003
 11
-73996.69070117088
 21
-72587.80626802261
 31
0.000000000000003
  0
LINE
  5
7B0
330
746
100
AcDbEntity
  8
HEWI
100
AcDbLine
 10
-73963.69067017086
 20
-72608.58585802263
 30
0.000000000000003
 11
-73996.69070117088
 21
-72608.58585802263
 31
0.000000000000003
  0
LINE
  5
7B1
330
746
100
AcDbEntity
  8
HEWI
100
AcDbLine
 10
-74099.83858917088
 20
-72578.06709802259
 30
0.000000000000003
 11
-74100.69071617085
 21
-72587.80626802261
 31
0.000000000000003
  0
LINE
  5
7B2
330
746
100
AcDbEntity
  8
HEWI
100
AcDbLine
 10
-74132.46142217087
 20
-72572.31482002262
 30
0.000000000000003
 11
-74133.69067017085
 21
-72586.36545702262
 31
0.000000000000003
  0
LINE
  5
7B3
330
746
100
AcDbEntity
  8
HEWI
100
AcDbLine
 10
-74100.69071617085
 20
-72608.58585802263
 30
0.000000000000003
 11
-74133.69067017085
 21
-72608.58585802263
 31
0.000000000000003
  0
LINE
  5
7B4
330
746
100
AcDbEntity
  8
HEWI
100
AcDbLine
 10
-73996.69070117088
 20
-73086.52284702263
 30
0.000000000000003
 11
-74100.69071617085
 21
-73086.52284702263
 31
0.000000000000003
  0
LINE
  5
7B5
330
746
100
AcDbEntity
  8
HEWI
100
AcDbLine
 10
-73996.69070117088
 20
-73119.52285902263
 30
0.000000000000003
 11
-74100.69071617085
 21
-73119.52285902263
 31
0.000000000000003
  0
LINE
  5
7B6
330
746
100
AcDbEntity
  8
HEWI
100
AcDbLine
 10
-73963.69067017086
 20
-73057.5228320226
 30
0.000000000000003
 11
-73963.69067017086
 21
-73209.58585802261
 31
0.000000000000003
  0
LINE
  5
7B7
330
746
100
AcDbEntity
  8
HEWI
100
AcDbLine
 10
-73967.69067017086
 20
-73209.58585802261
 30
0.000000000000003
 11
-73967.69067017086
 21
-73218.02284302258
 31
0.000000000000003
  0
LINE
  5
7B8
330
746
100
AcDbEntity
  8
HEWI
100
AcDbLine
 10
-73996.69070117088
 20
-73119.52285902263
 30
0.000000000000003
 11
-73996.69070117088
 21
-73209.58585802261
 31
0.000000000000003
  0
LINE
  5
7B9
330
746
100
AcDbEntity
  8
HEWI
100
AcDbLine
 10
-73992.69070117088
 20
-73209.58585802261
 30
0.000000000000003
 11
-73992.69070117088
 21
-73218.02284302258
 31
0.000000000000003
  0
LINE
  5
7BA
330
746
100
AcDbEntity
  8
HEWI
100
AcDbLine
 10
-73996.12849117085
 20
-73087.0850760226
 30
0.000000000000003
 11
-73994.48008417087
 21
-73088.73344502263
 31
0.000000000000003
  0
LINE
  5
7BB
330
746
100
AcDbEntity
  8
HEWI
100
AcDbLine
 10
-74008.69067017085
 20
-73086.52284702263
 30
0.000000000000003
 11
-74008.69067017085
 21
-73119.52285902263
 31
0.000000000000003
  0
LINE
  5
7BC
330
746
100
AcDbEntity
  8
HEWI
100
AcDbLine
 10
-74088.69067017085
 20
-73086.52284702263
 30
0.000000000000003
 11
-74088.69067017085
 21
-73119.52285902263
 31
0.000000000000003
  0
LINE
  5
7BD
330
746
100
AcDbEntity
  8
HEWI
100
AcDbLine
 10
-73996.69070117088
 20
-73086.52284702263
 30
0.000000000000003
 11
-73996.12849117085
 21
-73087.0850760226
 31
0.000000000000003
  0
LINE
  5
7BE
330
746
100
AcDbEntity
  8
HEWI
100
AcDbLine
 10
-73994.48008417087
 20
-73117.31224102262
 30
0.000000000000003
 11
-73996.12849117085
 21
-73118.9606100226
 31
0.000000000000003
  0
LINE
  5
7BF
330
746
100
AcDbEntity
  8
HEWI
100
AcDbLine
 10
-73980.19068617088
 20
-73103.02284302261
 30
0.000000000000003
 11
-73988.44065517088
 21
-73111.2728510226
 31
0.000000000000003
  0
LINE
  5
7C0
330
746
100
AcDbEntity
  8
HEWI
100
AcDbLine
 10
-73994.48008417087
 20
-73088.73344502263
 30
0.000000000000003
 11
-73991.85793717087
 21
-73091.35559202262
 31
0.000000000000003
  0
LINE
  5
7C1
330
746
100
AcDbEntity
  8
HEWI
100
AcDbLine
 10
-73988.44065517088
 20
-73094.77283602261
 30
0.000000000000003
 11
-73980.19068617088
 21
-73103.02284302261
 31
0.000000000000003
  0
LINE
  5
7C2
330
746
100
AcDbEntity
  8
HEWI
100
AcDbLine
 10
-73991.85793717087
 20
-73091.35559202262
 30
0.000000000000003
 11
-73988.44065517088
 21
-73094.77283602261
 31
0.000000000000003
  0
LINE
  5
7C3
330
746
100
AcDbEntity
  8
HEWI
100
AcDbLine
 10
-73988.44065517088
 20
-73111.2728510226
 30
0.000000000000003
 11
-73991.85793717087
 21
-73114.69009502261
 31
0.000000000000003
  0
LINE
  5
7C4
330
746
100
AcDbEntity
  8
HEWI
100
AcDbLine
 10
-73991.85793717087
 20
-73114.69009502261
 30
0.000000000000003
 11
-73994.48008417087
 21
-73117.31224102262
 31
0.000000000000003
  0
LINE
  5
7C5
330
746
100
AcDbEntity
  8
HEWI
100
AcDbLine
 10
-73996.12849117085
 20
-73118.9606100226
 30
0.000000000000003
 11
-73996.69070117088
 21
-73119.52285902263
 31
0.000000000000003
  0
LINE
  5
7C6
330
746
100
AcDbEntity
  8
HEWI
100
AcDbLine
 10
-74100.69071617085
 20
-73119.52285902263
 30
0.000000000000003
 11
-74100.69071617085
 21
-73203.93631183571
 31
0.000000000000003
  0
LINE
  5
7C7
330
746
100
AcDbEntity
  8
HEWI
100
AcDbLine
 10
-74101.25292617088
 20
-73087.0850760226
 30
0.000000000000003
 11
-74105.52340317085
 21
-73091.35559202262
 31
0.000000000000003
  0
LINE
  5
7C8
330
746
100
AcDbEntity
  8
HEWI
100
AcDbLine
 10
-74100.69071617085
 20
-73086.52284702263
 30
0.000000000000003
 11
-74101.18723717087
 21
-73087.01938702262
 31
0.000000000000003
  0
LINE
  5
7C9
330
746
100
AcDbEntity
  8
HEWI
100
AcDbLine
 10
-74112.92017817086
 20
-73107.29335902261
 30
0.000000000000003
 11
-74109.17353517088
 21
-73111.03996402263
 31
0.000000000000003
  0
LINE
  5
7CA
330
746
100
AcDbEntity
  8
HEWI
100
AcDbLine
 10
-74117.19065517088
 20
-73103.02284302261
 30
0.000000000000003
 11
-74112.92017817086
 21
-73107.29335902261
 31
0.000000000000003
  0
LINE
  5
7CB
330
746
100
AcDbEntity
  8
HEWI
100
AcDbLine
 10
-74105.52340317085
 20
-73091.35559202262
 30
0.000000000000003
 11
-74108.72965717087
 21
-73094.56180702261
 31
0.000000000000003
  0
LINE
  5
7CC
330
746
100
AcDbEntity
  8
HEWI
100
AcDbLine
 10
-74112.79238517086
 20
-73098.6245740226
 30
0.000000000000003
 11
-74112.92017817086
 21
-73098.75232802261
 31
0.000000000000003
  0
LINE
  5
7CD
330
746
100
AcDbEntity
  8
HEWI
100
AcDbLine
 10
-74108.72965717087
 20
-73094.56180702261
 30
0.000000000000003
 11
-74112.79238517086
 21
-73098.6245740226
 31
0.000000000000003
  0
LINE
  5
7CE
330
746
100
AcDbEntity
  8
HEWI
100
AcDbLine
 10
-74112.92017817086
 20
-73098.75232802261
 30
0.000000000000003
 11
-74117.19065517088
 21
-73103.02284302261
 31
0.000000000000003
  0
LINE
  5
7CF
330
746
100
AcDbEntity
  8
HEWI
100
AcDbLine
 10
-74109.17353517088
 20
-73111.03996402263
 30
0.000000000000003
 11
-74105.80737017087
 21
-73114.40616702259
 31
0.000000000000003
  0
LINE
  5
7D0
330
746
100
AcDbEntity
  8
HEWI
100
AcDbLine
 10
-74105.52340317085
 20
-73114.69009502261
 30
0.000000000000003
 11
-74103.16965917086
 21
-73117.04391602262
 31
0.000000000000003
  0
LINE
  5
7D1
330
746
100
AcDbEntity
  8
HEWI
100
AcDbLine
 10
-74102.90125717088
 20
-73117.31224102262
 30
0.000000000000003
 11
-74100.75816017086
 21
-73119.45541502263
 31
0.000000000000003
  0
LINE
  5
7D2
330
746
100
AcDbEntity
  8
HEWI
100
AcDbLine
 10
-74105.80737017087
 20
-73114.40616702259
 30
0.000000000000003
 11
-74105.52340317085
 21
-73114.69009502261
 31
0.000000000000003
  0
LINE
  5
7D3
330
746
100
AcDbEntity
  8
HEWI
100
AcDbLine
 10
-74103.16965917086
 20
-73117.04391602262
 30
0.000000000000003
 11
-74102.90125717088
 21
-73117.31224102262
 31
0.000000000000003
  0
LINE
  5
7D4
330
746
100
AcDbEntity
  8
HEWI
100
AcDbLine
 10
-74117.19065517088
 20
-73152.58585802263
 30
0.000000000000003
 11
-74133.69067017085
 21
-73152.58585802263
 31
0.000000000000003
  0
LINE
  5
7D5
330
746
100
AcDbEntity
  8
HEWI
100
AcDbLine
 10
-74117.19065517088
 20
-73152.58585802263
 30
0.000000000000003
 11
-74100.69071617085
 21
-73152.58585802263
 31
0.000000000000003
  0
LINE
  5
7D6
330
746
100
AcDbEntity
  8
HEWI
100
AcDbLine
 10
-73980.19068617088
 20
-73209.58585802261
 30
0.000000000000003
 11
-73996.69068617089
 21
-73209.58585802261
 31
0.000000000000003
  0
LINE
  5
7D7
330
746
100
AcDbEntity
  8
HEWI
100
AcDbLine
 10
-73980.19068617088
 20
-73209.58585802261
 30
0.000000000000003
 11
-73963.69068617088
 21
-73209.58585802261
 31
0.000000000000003
  0
HATCH
  5
7D8
330
746
100
AcDbEntity
  8
HEWI
100
AcDbHatch
 10
0.0
 20
0.0
 30
0.000000000000003
210
0.0
220
0.0
230
1.0
  2
_U
 70
     0
 71
     0
 91
        1
 92
        1
 93
        4
 72
     1
 10
-73967.69067017086
 20
-73218.02284302258
 11
-73992.69070117088
 21
-73218.02284302258
 72
     1
 10
-73992.69070117088
 20
-73218.02284302258
 11
-73992.69070117088
 21
-73209.58585802259
 72
     1
 10
-73992.69070117088
 20
-73209.58585802261
 11
-73967.69067017086
 21
-73209.58585802261
 72
     1
 10
-73967.69067017086
 20
-73209.58585802261
 11
-73967.69067017086
 21
-73218.02284302258
 97
        0
 75
     0
 76
     0
 52
135.0
 41
2.6
 77
     0
 78
     1
 53
225.0
 43
-73827.19268093651
 44
-72307.60795455076
 45
-1.838477631085022
 46
1.838477631085024
 79
     0
 98
        1
 10
-73827.19268093651
 20
-72307.60795455076
1001
GENIUS_GENODEF_13
1002
{
1000
HIER
1070
     0
1002
}
1002
{
1000
MANEDIT
1070
     0
1002
}
1002
{
1000
NOSEL
1070
     0
1002
}
1002
{
1000
BEHIND
1070
     0
1002
}
1002
{
1000
OTHER
1070
     0
1002
}
1002
{
1000
REACTOR
1002
}
1001
GENIUS_GENOBJ-N-HTC_13
1002
{
1000
OWNER
1000
GEN
1002
}
1001
GENIUS_GENHATCH_13
1002
{
1000
DATA
1040
45.0
1042
-13.0
1000
_U
1070
     0
1011
-73986.71373883527
1021
-73533.7511643232
1031
0.000000000000003
1002
}
1002
{
1000
UCS
1010
0.0
1020
0.0
1030
0.0
1010
1.0
1020
0.0
1030
0.0
1010
0.0
1020
1.0
1030
0.0
1002
}
  0
LINE
  5
7D9
330
746
100
AcDbEntity
  8
HEWI
100
AcDbLine
 10
-73992.69070117088
 20
-73218.02284302258
 30
0.000000000000003
 11
-73967.69067017086
 21
-73218.02284302258
 31
0.000000000000003
  0
LINE
  5
7DA
330
746
100
AcDbEntity
  8
HEWI
100
AcDbLine
 10
-73980.19068617088
 20
-72630.58585802263
 30
0.000000000000003
 11
-73910.19068617088
 21
-72630.58585802263
 31
0.000000000000003
1001
GENIUS_GENODEF_13
1002
{
1000
HIER
1070
     0
1002
}
1002
{
1000
MANEDIT
1070
     0
1002
}
1002
{
1000
NOSEL
1070
     0
1002
}
1002
{
1000
BEHIND
1070
     0
1002
}
1002
{
1000
OTHER
1070
     0
1002
}
1002
{
1000
REACTOR
1002
}
1001
GENIUS_GENOBJ-N-CEN_13
1002
{
1000
OWNER
1000
GEN
1002
}
1001
GENIUS_GENCEN_19
1002
{
1040
0.0
1002
}
  0
LINE
  5
7DB
330
746
100
AcDbEntity
  8
HEWI
100
AcDbLine
 10
-73980.19068617088
 20
-72666.58585802264
 30
0.000000000000003
 11
-73910.19068617088
 21
-72666.58585802264
 31
0.000000000000003
1001
GENIUS_GENODEF_13
1002
{
1000
HIER
1070
     0
1002
}
1002
{
1000
MANEDIT
1070
     0
1002
}
1002
{
1000
NOSEL
1070
     0
1002
}
1002
{
1000
BEHIND
1070
     0
1002
}
1002
{
1000
OTHER
1070
     0
1002
}
1002
{
1000
REACTOR
1002
}
1001
GENIUS_GENOBJ-N-CEN_13
1002
{
1000
OWNER
1000
GEN
1002
}
1001
GENIUS_GENCEN_19
1002
{
1040
0.0
1002
}
  0
ARC
  5
7DC
330
746
100
AcDbEntity
  8
HEWI
100
AcDbCircle
 10
-73980.19068617088
 20
-72648.58585802263
 30
0.000000000000003
 40
18.0
100
AcDbArc
 50
90.0
 51
270.0
  0
ARC
  5
7DD
330
746
100
AcDbEntity
  8
HEWI
100
AcDbCircle
 10
-73910.19068617088
 20
-72648.58585802263
 30
0.000000000000003
 40
18.0
100
AcDbArc
 50
270.0
 51
90.0
  0
ARC
  5
7DE
330
746
100
AcDbEntity
  8
HEWI
100
AcDbCircle
 10
-73910.19068617088
 20
-72648.58585802263
 30
0.000000000000003
 40
18.0
100
AcDbArc
 50
270.0
 51
0.0
  0
LINE
  5
7DF
330
746
100
AcDbEntity
  8
HEWI
100
AcDbLine
 10
-73926.69068617088
 20
-72666.58585802264
 30
0.000000000000003
 11
-73926.69068617088
 21
-72678.58585802263
 31
0.000000000000003
  0
LINE
  5
7E0
330
746
100
AcDbEntity
  8
HEWI
100
AcDbLine
 10
-73926.69068617088
 20
-72678.58585802263
 30
0.000000000000003
 11
-73893.69068617089
 21
-72678.58585802263
 31
0.000000000000003
  0
LINE
  5
7E1
330
746
100
AcDbEntity
  8
HEWI
100
AcDbLine
 10
-73893.69068617089
 20
-72678.58585802263
 30
0.000000000000003
 11
-73893.69068617089
 21
-72655.7796053076
 31
0.000000000000003
  0
HATCH
  5
7E2
330
746
100
AcDbEntity
  8
HEWI
100
AcDbHatch
 10
0.0
 20
0.0
 30
0.000000000000003
210
0.0
220
0.0
230
1.0
  2
SOLID
 70
     1
 71
     0
 91
        1
 92
        7
 72
     0
 73
     1
 93
        4
 10
-73910.19068617088
 20
-73291.58588852263
 10
-73910.19068617088
 20
-73287.58588852263
 10
-73922.69068617088
 20
-73287.58588852263
 10
-73922.69068617088
 20
-73291.58588852263
 97
        0
 75
     0
 76
     1
 47
0.0726074577041698
 98
        1
 10
-73919.06582673471
 20
-73289.88354107732
450
        0
451
        0
460
0.0
461
0.0
452
        0
462
0.0
453
        0
470

1001
ACAD
1010
0.0
1020
0.0
1030
0.0
  0
HATCH
  5
7E3
330
746
100
AcDbEntity
  8
HEWI
100
AcDbHatch
 10
0.0
 20
0.0
 30
0.000000000000003
210
0.0
220
0.0
230
1.0
  2
SOLID
 70
     1
 71
     0
 91
        1
 92
        7
 72
     0
 73
     1
 93
        4
 10
-73897.69068617089
 20
-73291.58588852263
 10
-73897.69068617089
 20
-73287.58588852263
 10
-73910.19068617088
 20
-73287.58588852263
 10
-73910.19068617088
 20
-73291.58588852263
 97
        0
 75
     0
 76
     1
 47
0.0726074577041698
 98
        1
 10
-73906.28044702219
 20
-73290.10136377478
450
        0
451
        0
460
0.0
461
0.0
452
        0
462
0.0
453
        0
470

1001
ACAD
1010
0.0
1020
0.0
1030
0.0
  0
LINE
  5
7E4
330
746
100
AcDbEntity
  8
HEWI
100
AcDbLine
 10
-73926.69068617088
 20
-73287.58588852263
 30
0.000000000000003
 11
-73893.69068617089
 21
-73287.58588852263
 31
0.000000000000003
  0
LINE
  5
7E5
330
746
100
AcDbEntity
  8
HEWI
100
AcDbLine
 10
-73926.69068617088
 20
-73287.58588852263
 30
0.000000000000003
 11
-73926.69068617088
 21
-72678.58585802263
 31
0.000000000000003
  0
LINE
  5
7E6
330
746
100
AcDbEntity
  8
HEWI
100
AcDbLine
 10
-73893.69068617089
 20
-72678.58585802263
 30
0.000000000000003
 11
-73893.69068617089
 21
-73287.58588852263
 31
0.000000000000003
  0
LINE
  5
7E7
330
746
100
AcDbEntity
  8
HEWI
100
AcDbLine
 10
-73922.69068617088
 20
-73287.58588852263
 30
0.000000000000003
 11
-73922.69068617088
 21
-73291.58588852263
 31
0.000000000000003
  0
LINE
  5
7E8
330
746
100
AcDbEntity
  8
HEWI
100
AcDbLine
 10
-73922.69068617088
 20
-73291.58588852263
 30
0.000000000000003
 11
-73897.69068617089
 21
-73291.58588852263
 31
0.000000000000003
  0
LINE
  5
7E9
330
746
100
AcDbEntity
  8
HEWI
100
AcDbLine
 10
-73897.69068617089
 20
-73287.58588852263
 30
0.000000000000003
 11
-73897.69068617089
 21
-73291.58588852263
 31
0.000000000000003
  0
ARC
  5
7EA
330
746
100
AcDbEntity
  8
HEWI
  6
IMPORT
 62
     7
100
AcDbCircle
 10
-75521.87618529664
 20
-73356.16325602264
 30
0.0
 40
16.5
100
AcDbArc
 50
180.000073000148
 51
359.9999269998518
  0
LINE
  5
7EB
330
746
100
AcDbEntity
  8
HEWI
 48
0.1
100
AcDbLine
 10
-75560.87618529664
 20
-73418.66686302263
 30
0.0
 11
-75482.87618529664
 21
-73418.66686302263
 31
0.0
  0
ARC
  5
7EC
330
746
100
AcDbEntity
  8
HEWI
 48
0.1
100
AcDbCircle
 10
-75521.87618429662
 20
-73426.16327752263
 30
0.0
 40
18.0
100
AcDbArc
 50
180.0
 51
0.0
  0
LINE
  5
7ED
330
746
100
AcDbEntity
  8
HEWI
 48
0.1
100
AcDbLine
 10
-75538.37618429662
 20
-73433.35702480763
 30
0.0
 11
-75538.37618429662
 21
-73456.16327752263
 31
0.0
  0
LINE
  5
7EE
330
746
100
AcDbEntity
  8
HEWI
 48
0.1
100
AcDbLine
 10
-75538.37618429662
 20
-73456.16327752263
 30
0.0
 11
-75505.37618429665
 21
-73456.16327752263
 31
0.0
  0
LINE
  5
7EF
330
746
100
AcDbEntity
  8
HEWI
 48
0.1
100
AcDbLine
 10
-75505.37618429665
 20
-73456.16327752263
 30
0.0
 11
-75505.37618429665
 21
-73433.35702480763
 31
0.0
  0
HATCH
  5
7F0
330
746
100
AcDbEntity
  8
HEWI
 62
   135
 48
0.1
100
AcDbHatch
 10
0.0
 20
0.0
 30
0.0
210
0.0
220
0.0
230
1.0
  2
SOLID
 70
     1
 71
     0
 91
        1
 92
        7
 72
     0
 73
     1
 93
        4
 10
-75521.87618429662
 20
-74031.31150154313
 10
-75521.87618429662
 20
-74027.31150154314
 10
-75534.37618429665
 20
-74027.31150154314
 10
-75534.37618429665
 20
-74031.31150154313
 97
        0
 75
     0
 76
     1
 47
0.0726074577041698
 98
        1
 10
-75530.75132486048
 20
-74029.60915409785
450
        0
451
        0
460
0.0
461
0.0
452
        0
462
0.0
453
        0
470

1001
ACAD
1010
0.0
1020
0.0
1030
0.0
  0
HATCH
  5
7F1
330
746
100
AcDbEntity
  8
HEWI
 62
   135
 48
0.1
100
AcDbHatch
 10
0.0
 20
0.0
 30
0.0
210
0.0
220
0.0
230
1.0
  2
SOLID
 70
     1
 71
     0
 91
        1
 92
        7
 72
     0
 73
     1
 93
        4
 10
-75509.37618429665
 20
-74031.31150154313
 10
-75509.37618429665
 20
-74027.31150154314
 10
-75521.87618429662
 20
-74027.31150154314
 10
-75521.87618429662
 20
-74031.31150154313
 97
        0
 75
     0
 76
     1
 47
0.0726074577041698
 98
        1
 10
-75517.96594514796
 20
-74029.82697679528
450
        0
451
        0
460
0.0
461
0.0
452
        0
462
0.0
453
        0
470

1001
ACAD
1010
0.0
1020
0.0
1030
0.0
  0
LINE
  5
7F2
330
746
100
AcDbEntity
  8
HEWI
 48
0.1
100
AcDbLine
 10
-75538.37618429662
 20
-74027.31150154314
 30
0.0
 11
-75505.37618429665
 21
-74027.31150154314
 31
0.0
  0
LINE
  5
7F3
330
746
100
AcDbEntity
  8
HEWI
 48
0.1
100
AcDbLine
 10
-75538.37618429662
 20
-74027.31150154314
 30
0.0
 11
-75538.37618429662
 21
-73456.16327752263
 31
0.0
  0
LINE
  5
7F4
330
746
100
AcDbEntity
  8
HEWI
 48
0.1
100
AcDbLine
 10
-75538.37618429662
 20
-73456.16327752263
 30
0.0
 11
-75505.37618429665
 21
-73456.16327752263
 31
0.0
  0
LINE
  5
7F5
330
746
100
AcDbEntity
  8
HEWI
 48
0.1
100
AcDbLine
 10
-75505.37618429665
 20
-73456.16327752263
 30
0.0
 11
-75505.37618429665
 21
-74027.31150154314
 31
0.0
  0
LINE
  5
7F6
330
746
100
AcDbEntity
  8
HEWI
 48
0.1
100
AcDbLine
 10
-75534.37618429665
 20
-74027.31150154314
 30
0.0
 11
-75534.37618429665
 21
-74031.31150154313
 31
0.0
  0
LINE
  5
7F7
330
746
100
AcDbEntity
  8
HEWI
 48
0.1
100
AcDbLine
 10
-75534.37618429665
 20
-74031.31150154313
 30
0.0
 11
-75509.37618429665
 21
-74031.31150154313
 31
0.0
  0
LINE
  5
7F8
330
746
100
AcDbEntity
  8
HEWI
 48
0.1
100
AcDbLine
 10
-75509.37618429665
 20
-74027.31150154314
 30
0.0
 11
-75509.37618429665
 21
-74031.31150154313
 31
0.0
  0
LINE
  5
7F9
330
746
100
AcDbEntity
  8
HEWI
 48
0.1
100
AcDbLine
 10
-75494.87618529664
 20
-73338.17210978272
 30
0.0
 11
-75494.87618529664
 21
-73444.17210978273
 31
0.0
  0
LINE
  5
7FA
330
746
100
AcDbEntity
  8
HEWI
 48
0.1
100
AcDbLine
 10
-75482.87618529664
 20
-73340.67210978273
 30
0.0
 11
-75482.87618529664
 21
-73441.67210978272
 31
0.0
  0
ARC
  5
7FB
330
746
100
AcDbEntity
  8
HEWI
 48
0.1
100
AcDbCircle
 10
-75485.37618529664
 20
-73441.67210978272
 30
0.0
 40
2.5
100
AcDbArc
 50
270.0
 51
0.0
  0
ARC
  5
7FC
330
746
100
AcDbEntity
  8
HEWI
 48
0.1
100
AcDbCircle
 10
-75485.37618529664
 20
-73340.67210978273
 30
0.0
 40
2.5
100
AcDbArc
 50
0.0
 51
90.0
  0
LINE
  5
7FD
330
746
100
AcDbEntity
  8
HEWI
 48
0.1
100
AcDbLine
 10
-75494.87618529664
 20
-73338.17210978272
 30
0.0
 11
-75485.37618529664
 21
-73338.17210978272
 31
0.0
  0
LINE
  5
7FE
330
746
100
AcDbEntity
  8
HEWI
 48
0.1
100
AcDbLine
 10
-75494.87618529664
 20
-73444.17210978273
 30
0.0
 11
-75485.37618529664
 21
-73444.17210978273
 31
0.0
  0
LINE
  5
7FF
330
746
100
AcDbEntity
  8
HEWI
 48
0.1
100
AcDbLine
 10
-75560.87618429661
 20
-73340.66325602264
 30
0.0
 11
-75560.87618429661
 21
-73441.66325602264
 31
0.0
  0
ARC
  5
800
330
746
100
AcDbEntity
  8
HEWI
 48
0.1
100
AcDbCircle
 10
-75558.37618429662
 20
-73441.66325602264
 30
0.0
 40
2.5
100
AcDbArc
 50
180.0
 51
270.0
  0
ARC
  5
801
330
746
100
AcDbEntity
  8
HEWI
 48
0.1
100
AcDbCircle
 10
-75558.37618429662
 20
-73340.66325602264
 30
0.0
 40
2.5
100
AcDbArc
 50
90.0
 51
180.0
  0
LINE
  5
802
330
746
100
AcDbEntity
  8
HEWI
 48
0.1
100
AcDbLine
 10
-75548.87618429662
 20
-73338.16325602264
 30
0.0
 11
-75548.87618429662
 21
-73444.16325602264
 31
0.0
  0
LINE
  5
803
330
746
100
AcDbEntity
  8
HEWI
 48
0.1
100
AcDbLine
 10
-75558.37618429662
 20
-73338.16325602264
 30
0.0
 11
-75548.87618429662
 21
-73338.16325602264
 31
0.0
  0
LINE
  5
804
330
746
100
AcDbEntity
  8
HEWI
 48
0.1
100
AcDbLine
 10
-75558.37618429662
 20
-73444.16325602264
 30
0.0
 11
-75548.87618429662
 21
-73444.16325602264
 31
0.0
  0
LINE
  5
805
330
746
100
AcDbEntity
  8
HEWI
 48
0.1
100
AcDbLine
 10
-75521.87618429662
 20
-73426.16327752263
 30
0.0
 11
-75548.87618429662
 21
-73426.16325602264
 31
0.0
  0
LINE
  5
806
330
746
100
AcDbEntity
  8
HEWI
 48
0.1
100
AcDbLine
 10
-75548.87618429662
 20
-73426.16325602264
 30
0.0
 11
-75521.87618429662
 21
-73426.16327752263
 31
0.0
  0
LINE
  5
807
330
746
100
AcDbEntity
  8
HEWI
 48
0.1
100
AcDbLine
 10
-75521.87618429662
 20
-73426.16327752263
 30
0.0
 11
-75494.87618529664
 21
-73426.17210978272
 31
0.0
  0
LINE
  5
808
330
746
100
AcDbEntity
  8
HEWI
 48
0.1
100
AcDbLine
 10
-75494.87618529664
 20
-73339.67210978272
 30
0.0
 11
-75505.37618529664
 21
-73339.67210978272
 31
0.0
  0
LINE
  5
809
330
746
100
AcDbEntity
  8
HEWI
 48
0.1
100
AcDbLine
 10
-75494.87618529664
 20
-73372.67210978272
 30
0.0
 11
-75521.87618429662
 21
-73372.66325602264
 31
0.0
  0
LINE
  5
80A
330
746
100
AcDbEntity
  8
HEWI
 48
0.1
100
AcDbLine
 10
-75548.87618429662
 20
-73339.66325602264
 30
0.0
 11
-75538.37618529664
 21
-73339.66325602264
 31
0.0
  0
LINE
  5
80B
330
746
100
AcDbEntity
  8
HEWI
 48
0.1
100
AcDbLine
 10
-75548.87618429662
 20
-73372.66325602264
 30
0.0
 11
-75521.87618429661
 21
-73372.66325602264
 31
0.0
  0
ARC
  5
80C
330
746
100
AcDbEntity
  8
HEWI
 48
0.1
100
AcDbCircle
 10
-75521.87618429662
 20
-73426.16327752263
 30
0.0
 40
18.0
100
AcDbArc
 50
0.0
 51
180.0
  0
LINE
  5
80D
330
746
100
AcDbEntity
  8
HEWI
 48
0.1
100
AcDbLine
 10
-75548.87618429662
 20
-73426.16329902264
 30
0.0
 11
-75521.87618429662
 21
-73426.16327752263
 31
0.0
  0
LINE
  5
80E
330
746
100
AcDbEntity
  8
HEWI
 48
0.1
100
AcDbLine
 10
-75521.87618429662
 20
-73426.16327752263
 30
0.0
 11
-75494.87618529664
 21
-73426.15444526255
 31
0.0
  0
LINE
  5
80F
330
746
100
AcDbEntity
  8
HEWI
 48
0.1
100
AcDbLine
 10
-74741.481994099
 20
-73360.35365630807
 30
0.0000000000000946
 11
-74741.481994099
 21
-73430.35365630807
 31
0.0000000000000946
1001
GENIUS_GENODEF_13
1002
{
1000
HIER
1070
     0
1002
}
1002
{
1000
MANEDIT
1070
     0
1002
}
1002
{
1000
NOSEL
1070
     0
1002
}
1002
{
1000
BEHIND
1070
     0
1002
}
1002
{
1000
OTHER
1070
     0
1002
}
1002
{
1000
REACTOR
1002
}
1001
GENIUS_GENOBJ-N-CEN_13
1002
{
1000
OWNER
1000
GEN
1002
}
1001
GENIUS_GENCEN_19
1002
{
1040
0.0
1002
}
  0
LINE
  5
810
330
746
100
AcDbEntity
  8
HEWI
 48
0.1
100
AcDbLine
 10
-74777.48199409897
 20
-73360.35365630807
 30
0.0000000000000946
 11
-74777.48199409897
 21
-73430.35365630807
 31
0.0000000000000946
1001
GENIUS_GENODEF_13
1002
{
1000
HIER
1070
     0
1002
}
1002
{
1000
MANEDIT
1070
     0
1002
}
1002
{
1000
NOSEL
1070
     0
1002
}
1002
{
1000
BEHIND
1070
     0
1002
}
1002
{
1000
OTHER
1070
     0
1002
}
1002
{
1000
REACTOR
1002
}
1001
GENIUS_GENOBJ-N-CEN_13
1002
{
1000
OWNER
1000
GEN
1002
}
1001
GENIUS_GENCEN_19
1002
{
1040
0.0
1002
}
  0
ARC
  5
811
330
746
100
AcDbEntity
  8
HEWI
 48
0.1
100
AcDbCircle
 10
-74759.48199409899
 20
-73360.35365630807
 30
0.0000000000000946
 40
18.0
100
AcDbArc
 50
0.0
 51
180.0
  0
ARC
  5
812
330
746
100
AcDbEntity
  8
HEWI
 48
0.1
100
AcDbCircle
 10
-74759.48199409899
 20
-73430.35365630807
 30
0.0000000000000946
 40
18.0
100
AcDbArc
 50
180.0
 51
0.0
  0
LINE
  5
813
330
746
100
AcDbEntity
  8
HEWI
 48
0.1
100
AcDbLine
 10
-74775.981994099
 20
-73437.54740359302
 30
0.0000000000000946
 11
-74775.981994099
 21
-73460.35365630807
 31
0.0000000000000946
  0
LINE
  5
814
330
746
100
AcDbEntity
  8
HEWI
 48
0.1
100
AcDbLine
 10
-74775.981994099
 20
-73460.35365630807
 30
0.0000000000000946
 11
-74742.98199409897
 21
-73460.35365630807
 31
0.0000000000000946
  0
LINE
  5
815
330
746
100
AcDbEntity
  8
HEWI
 48
0.1
100
AcDbLine
 10
-74742.98199409897
 20
-73460.35365630807
 30
0.0000000000000946
 11
-74742.98199409897
 21
-73437.54740359302
 31
0.0000000000000946
  0
HATCH
  5
816
330
746
100
AcDbEntity
  8
HEWI
100
AcDbHatch
 10
0.0
 20
0.0
 30
0.0
210
0.0
220
0.0
230
1.0
  2
SOLID
 70
     1
 71
     0
 91
        1
 92
        7
 72
     0
 73
     1
 93
        4
 10
-74759.48199409899
 20
-74031.31150154313
 10
-74759.48199409899
 20
-74027.31150154314
 10
-74771.981994099
 20
-74027.31150154314
 10
-74771.981994099
 20
-74031.31150154313
 97
        0
 75
     0
 76
     1
 47
0.0726074577041698
 98
        1
 10
-74768.35713466284
 20
-74029.60915409787
450
        0
451
        0
460
0.0
461
0.0
452
        0
462
0.0
453
        0
470

1001
ACAD
1010
0.0
1020
0.0
1030
0.0
  0
HATCH
  5
817
330
746
100
AcDbEntity
  8
HEWI
100
AcDbHatch
 10
0.0
 20
0.0
 30
0.0
210
0.0
220
0.0
230
1.0
  2
SOLID
 70
     1
 71
     0
 91
        1
 92
        7
 72
     0
 73
     1
 93
        4
 10
-74746.98199409897
 20
-74031.31150154313
 10
-74746.98199409897
 20
-74027.31150154314
 10
-74759.48199409899
 20
-74027.31150154314
 10
-74759.48199409899
 20
-74031.31150154313
 97
        0
 75
     0
 76
     1
 47
0.0726074577041698
 98
        1
 10
-74755.57175495032
 20
-74029.82697679528
450
        0
451
        0
460
0.0
461
0.0
452
        0
462
0.0
453
        0
470

1001
ACAD
1010
0.0
1020
0.0
1030
0.0
  0
LINE
  5
818
330
746
100
AcDbEntity
  8
HEWI
100
AcDbLine
 10
-74775.981994099
 20
-74027.31150154314
 30
0.0
 11
-74742.98199409897
 21
-74027.31150154314
 31
0.0
  0
LINE
  5
819
330
746
100
AcDbEntity
  8
HEWI
100
AcDbLine
 10
-74775.981994099
 20
-74027.31150154314
 30
0.0000000000000946
 11
-74775.981994099
 21
-73460.35365630807
 31
0.0000000000000946
  0
LINE
  5
81A
330
746
100
AcDbEntity
  8
HEWI
 48
0.1
100
AcDbLine
 10
-74775.981994099
 20
-73460.35365630807
 30
0.0000000000000946
 11
-74742.98199409897
 21
-73460.35365630807
 31
0.0000000000000946
  0
LINE
  5
81B
330
746
100
AcDbEntity
  8
HEWI
100
AcDbLine
 10
-74742.98199409897
 20
-73460.35365630807
 30
0.0000000000000946
 11
-74742.98199409897
 21
-74027.31150154314
 31
0.0000000000000946
  0
LINE
  5
81C
330
746
100
AcDbEntity
  8
HEWI
100
AcDbLine
 10
-74771.981994099
 20
-74027.31150154314
 30
0.0
 11
-74771.981994099
 21
-74031.31150154313
 31
0.0
  0
LINE
  5
81D
330
746
100
AcDbEntity
  8
HEWI
100
AcDbLine
 10
-74771.981994099
 20
-74031.31150154313
 30
0.0
 11
-74746.98199409897
 21
-74031.31150154313
 31
0.0
  0
LINE
  5
81E
330
746
100
AcDbEntity
  8
HEWI
100
AcDbLine
 10
-74746.98199409897
 20
-74027.31150154314
 30
0.0
 11
-74746.98199409897
 21
-74031.31150154313
 31
0.0
  0
CIRCLE
  5
81F
330
746
100
AcDbEntity
  8
HEWI
100
AcDbCircle
 10
-74724.37766963912
 20
-73392.79570408269
 30
0.0000000000000946
 40
17.08854554217942
  0
LINE
  5
820
330
746
100
AcDbEntity
  8
HEWI
100
AcDbLine
 10
-74150.19067017085
 20
-73414.16688602262
 30
0.0
 11
-74150.19067017085
 21
-73161.16688602264
 31
0.0
210
0.0
220
1.0
230
0.0
  0
LINE
  5
821
330
746
100
AcDbEntity
  8
HEWI
100
AcDbLine
 10
-74150.19067017085
 20
-73159.66688602262
 30
0.0
 11
-74150.19067017085
 21
-73161.16688602264
 31
0.0
210
0.0
220
1.0
230
0.0
  0
LINE
  5
822
330
746
100
AcDbEntity
  8
HEWI
100
AcDbLine
 10
-74150.19067017085
 20
-73414.16688602262
 30
0.0
 11
-74150.19067017085
 21
-73415.66688602262
 31
0.0
210
0.0
220
1.0
230
0.0
  0
LINE
  5
823
330
746
100
AcDbEntity
  8
HEWI
100
AcDbLine
 10
-74145.19067017085
 20
-73159.66688602262
 30
0.0000000000000009
 11
-74150.19067017085
 21
-73159.66688602262
 31
0.0
210
0.0
220
1.0
230
0.0
  0
ARC
  5
824
330
746
100
AcDbEntity
  8
HEWI
100
AcDbCircle
 10
-74145.19067017085
 20
-73171.16688602262
 30
0.0000000000000009
 40
11.5
100
AcDbArc
 50
0.0
 51
90.0
  0
LINE
  5
825
330
746
100
AcDbEntity
  8
HEWI
100
AcDbLine
 10
-74133.69067017085
 20
-73404.16688602262
 30
0.000000000000003
 11
-74133.69067017085
 21
-73171.16688602262
 31
0.000000000000003
210
0.0
220
1.0
230
0.0
  0
ARC
  5
826
330
746
100
AcDbEntity
  8
HEWI
100
AcDbCircle
 10
-74145.19067017085
 20
-73404.16688602262
 30
0.0000000000000009
 40
11.5
100
AcDbArc
 50
270.0
 51
0.0
  0
LINE
  5
827
330
746
100
AcDbEntity
  8
HEWI
100
AcDbLine
 10
-74150.19067017085
 20
-73415.66688602262
 30
0.0
 11
-74145.19067017085
 21
-73415.66688602262
 31
0.0000000000000009
210
0.0
220
1.0
230
0.0
  0
LINE
  5
828
330
746
100
AcDbEntity
  8
0
 48
0.1
100
AcDbLine
 10
-75362.87618528462
 20
-73415.66688602262
 30
0.0
 11
-75362.87618528462
 21
-74031.31150154313
 31
0.0
  0
LINE
  5
829
330
746
100
AcDbEntity
  8
0
 48
0.1
100
AcDbLine
 10
-74509.43920028464
 20
-74031.31150154313
 30
0.0
 11
-75362.87618528462
 21
-74031.31150154313
 31
0.0
  0
DIMENSION
  5
82A
330
746
100
AcDbEntity
  8
AM_5
100
AcDbDimension
280
     0
  2
*D6
 10
-74411.35624638862
 20
-74031.31150154313
 30
0.0
 11
-74443.85624638861
 21
-73615.56149429314
 31
0.0
 70
    32
  1
L
 71
     5
 42
831.500014499994
 73
     0
 74
     0
 75
     0
  3
AM_DIN$0
100
AcDbAlignedDimension
 13
-74514.89772333657
 23
-73199.81148704313
 33
0.0
 14
-74528.64772333657
 24
-74031.31150154313
 34
0.0
 50
90.0
100
AcDbRotatedDimension
1001
ACAD
1000
DSTYLE
1002
{
1070
   140
1040
45.0
1070
   271
1070
     0
1002
}
  0
LINE
  5
82B
330
746
100
AcDbEntity
  8
0
100
AcDbLine
 10
-74741.481994099
 20
-73372.66688602261
 30
0.0000000000000967
 11
-74697.87618528462
 21
-73372.66688602261
 31
0.0000000000000946
  0
LINE
  5
82C
330
746
100
AcDbEntity
  8
HEWI
100
AcDbLine
 10
-73963.69067017086
 20
-72666.58585802264
 30
0.000000000000003
 11
-73963.69067017086
 21
-72971.55112402263
 31
0.000000000000003
  0
LINE
  5
82D
330
746
100
AcDbEntity
  8
HEWI
100
AcDbLine
 10
-73996.69070117088
 20
-72655.77957090258
 30
0.000000000000003
 11
-73996.69070117088
 21
-73024.58585802264
 31
0.000000000000003
  0
ENDBLK
  5
831
330
746
100
AcDbEntity
  8
0
100
AcDbBlockEnd
  0
BLOCK
  5
834
330
833
100
AcDbEntity
  8
0
100
AcDbBlockBegin
  2
_Dot
 70
     0
 10
0.0
 20
0.0
 30
0.0
  3
_Dot
  1

  0
LWPOLYLINE
  5
835
330
833
100
AcDbEntity
  8
0
  6
ByBlock
 62
     0
100
AcDbPolyline
 90
        2
 70
     1
 43
0.5
 10
-0.25
 20
0.0
 42
1.0
 10
0.25
 20
0.0
 42
1.0
  0
LINE
  5
836
330
833
100
AcDbEntity
  8
0
  6
ByBlock
 62
     0
370
    -2
100
AcDbLine
 10
-0.5
 20
0.0
 30
0.0
 11
-1.0
 21
0.0
 31
0.0
  0
ENDBLK
  5
837
330
833
100
AcDbEntity
  8
0
100
AcDbBlockEnd
  0
BLOCK
  5
839
330
838
100
AcDbEntity
  8
0
100
AcDbBlockBegin
  2
*D18
 70
     1
 10
0.0
 20
0.0
 30
0.0
  3
*D18
  1

  0
LINE
  5
83A
330
838
100
AcDbEntity
  8
0
 62
     0
440
 16777216
370
    -2
100
AcDbLine
 10
1178.295955269504
 20
1941.647275126578
 30
-0.0000000000000059
 11
1315.74085694706
 21
1941.647275126578
 31
-0.0000000000000059
  0
LINE
  5
83B
330
838
100
AcDbEntity
  8
0
 62
     0
440
 16777216
370
    -2
100
AcDbLine
 10
1178.295955269504
 20
1075.709571805165
 30
-0.0000000000000059
 11
1315.74085694706
 21
1075.709571805165
 31
-0.0000000000000059
  0
LINE
  5
83C
330
838
100
AcDbEntity
  8
0
 62
     0
440
 16777216
370
    -2
100
AcDbLine
 10
1314.490856947061
 20
1921.647275126578
 30
-0.0000000000000059
 11
1314.49085694706
 21
1095.709571805165
 31
-0.0000000000000059
  0
INSERT
  5
83D
330
838
100
AcDbEntity
  8
0
 62
     0
440
 16777216
370
    -2
100
AcDbBlockReference
  2
_Dot
 10
1314.490856947061
 20
1941.647275126578
 30
-0.0000000000000059
 41
20.0
 42
20.0
 43
20.0
 50
90.0
  0
INSERT
  5
83E
330
838
100
AcDbEntity
  8
0
 62
     0
440
 16777216
370
    -2
100
AcDbBlockReference
  2
_Dot
 10
1314.49085694706
 20
1075.709571805165
 30
-0.0000000000000059
 41
20.0
 42
20.0
 43
20.0
 50
270.0
  0
MTEXT
  5
83F
330
838
100
AcDbEntity
  8
0
 62
     0
440
 16777216
370
     9
100
AcDbMText
 10
1276.99085694706
 20
1508.678423465872
 30
-0.0000000000000059
 40
55.0
 41
0.0
 46
0.0
 71
     5
 72
     1
  1
L
  7
ARIAL
 11
0.0000000000000001
 21
1.0
 31
0.0
 73
     1
 44
1.0
  0
POINT
  5
840
330
838
100
AcDbEntity
  8
Defpoints
 62
     0
440
 16777216
100
AcDbPoint
 10
1177.670955269505
 20
1941.647275126578
 30
0.0000000000000614
  0
POINT
  5
841
330
838
100
AcDbEntity
  8
Defpoints
 62
     0
440
 16777216
100
AcDbPoint
 10
1177.670955269505
 20
1075.709571805165
 30
0.0000000000000016
  0
POINT
  5
842
330
838
100
AcDbEntity
  8
Defpoints
 62
     0
440
 16777216
100
AcDbPoint
 10
1314.49085694706
 20
1075.709571805165
 30
-0.0000000000000059
  0
ENDBLK
  5
843
330
838
100
AcDbEntity
  8
0
100
AcDbBlockEnd
  0
BLOCK
  5
855
330
854
100
AcDbEntity
  8
0
100
AcDbBlockBegin
  2
*D20
 70
     1
 10
0.0
 20
0.0
 30
0.0
  3
*D20
  1

  0
LINE
  5
872
330
854
100
AcDbEntity
  8
0
 62
     0
440
 16777216
370
    -2
100
AcDbLine
 10
836.6331635847018
 20
85.0
 30
0.0000000000000122
 11
974.078065262257
 21
84.99999999999996
 31
0.0000000000000122
  0
LINE
  5
873
330
854
100
AcDbEntity
  8
0
 62
     0
440
 16777216
370
    -2
100
AcDbLine
 10
836.6331635847018
 20
-780.9377033214132
 30
0.0000000000000122
 11
974.0780652622568
 21
-780.9377033214132
 31
0.0000000000000122
  0
LINE
  5
874
330
854
100
AcDbEntity
  8
0
 62
     0
440
 16777216
370
    -2
100
AcDbLine
 10
972.828065262257
 20
64.99999999999996
 30
0.0000000000000122
 11
972.8280652622569
 21
-760.9377033214132
 31
0.0000000000000122
  0
INSERT
  5
875
330
854
100
AcDbEntity
  8
0
 62
     0
440
 16777216
370
    -2
100
AcDbBlockReference
  2
_Dot
 10
972.828065262257
 20
84.99999999999996
 30
0.0000000000000122
 41
20.0
 42
20.0
 43
20.0
 50
90.0
  0
INSERT
  5
876
330
854
100
AcDbEntity
  8
0
 62
     0
440
 16777216
370
    -2
100
AcDbBlockReference
  2
_Dot
 10
972.8280652622569
 20
-780.9377033214132
 30
0.0000000000000122
 41
20.0
 42
20.0
 43
20.0
 50
270.0
  0
MTEXT
  5
877
330
854
100
AcDbEntity
  8
0
 62
     0
440
 16777216
370
     9
100
AcDbMText
 10
935.328065262257
 20
-347.9688516607065
 30
0.0000000000000122
 40
55.0
 41
0.0
 46
0.0
 71
     5
 72
     1
  1
L
  7
ARIAL
 11
0.0000000000000001
 21
1.0
 31
0.0
 73
     1
 44
1.0
  0
POINT
  5
878
330
854
100
AcDbEntity
  8
Defpoints
 62
     0
440
 16777216
100
AcDbPoint
 10
836.0081635847018
 20
85.0
 30
0.0000000000000795
  0
POINT
  5
879
330
854
100
AcDbEntity
  8
Defpoints
 62
     0
440
 16777216
100
AcDbPoint
 10
836.0081635847018
 20
-780.9377033214132
 30
0.0000000000000197
  0
POINT
  5
87A
330
854
100
AcDbEntity
  8
Defpoints
 62
     0
440
 16777216
100
AcDbPoint
 10
972.8280652622569
 20
-780.9377033214132
 30
0.0000000000000122
  0
ENDBLK
  5
856
330
854
100
AcDbEntity
  8
0
100
AcDbBlockEnd
  0
ENDSEC
  0
SECTION
  2
ENTITIES
  0
LINE
  5
113
330
1F
100
AcDbEntity
  8
HEWI
100
AcDbLine
 10
234.5000000119999
 20
68.50000000000034
 30
0.0000000000000139
 11
234.5000000119999
 21
52.0
 31
0.0000000000000139
210
0.0
220
1.0
230
0.0
  0
LINE
  5
114
330
1F
100
AcDbEntity
  8
HEWI
100
AcDbLine
 10
234.5000000119999
 20
85.0
 30
0.0000000000000139
 11
234.5000000119999
 21
68.50000000000012
 31
0.0000000000000139
210
0.0
220
1.0
230
0.0
  0
LINE
  5
115
330
1F
100
AcDbEntity
  8
HEWI
100
AcDbLine
 10
309.0000000119999
 20
68.5
 30
0.0000000000000276
 11
325.5000000119999
 21
52.0
 31
0.0000000000000306
210
0.0
220
1.0
230
0.0
  0
LINE
  5
116
330
1F
100
AcDbEntity
  8
HEWI
100
AcDbLine
 10
292.5000000119998
 20
52.0
 30
0.0000000000000245
 11
309.0000000119999
 21
68.5
 31
0.0000000000000276
210
0.0
220
1.0
230
0.0
  0
LINE
  5
117
330
1F
100
AcDbEntity
  8
HEWI
100
AcDbLine
 10
325.5000000119999
 20
-52.0
 30
0.0000000000000306
 11
309.0000000119997
 21
-68.50000000000012
 31
0.0000000000000276
210
0.0
220
1.0
230
0.0
  0
LINE
  5
118
330
1F
100
AcDbEntity
  8
HEWI
100
AcDbLine
 10
309.0000000119999
 20
-68.5
 30
0.0000000000000276
 11
292.5000000119998
 21
-52.0
 31
0.0000000000000245
210
0.0
220
1.0
230
0.0
  0
LINE
  5
119
330
1F
100
AcDbEntity
  8
HEWI
100
AcDbLine
 10
175.5000000119999
 20
91.24999999999998
 30
0.000000000000003
 11
200.000000012
 21
91.24999999999998
 31
0.0000000000000075
210
0.0
220
1.0
230
0.0
  0
LINE
  5
11A
330
1F
100
AcDbEntity
  8
HEWI
100
AcDbLine
 10
200.000000012
 20
45.75000000000001
 30
0.0000000000000075
 11
175.5000000119999
 21
45.75000000000001
 31
0.000000000000003
210
0.0
220
1.0
230
0.0
  0
ARC
  5
11B
330
1F
100
AcDbEntity
  8
HEWI
100
AcDbCircle
 10
200.000000012
 20
68.5
 30
0.0000000000000075
 40
22.74999999999999
100
AcDbArc
 50
270.0
 51
90.0
  0
LINE
  5
11C
330
1F
100
AcDbEntity
  8
HEWI
100
AcDbLine
 10
159.0000000119999
 20
-126.5
 30
0.0
 11
159.0000000119999
 21
126.5
 31
0.0
210
0.0
220
1.0
230
0.0
  0
LINE
  5
11D
330
1F
100
AcDbEntity
  8
HEWI
100
AcDbLine
 10
159.0000000119999
 20
128.0
 30
0.0
 11
159.0000000119999
 21
126.5
 31
0.0
210
0.0
220
1.0
230
0.0
  0
LINE
  5
11E
330
1F
100
AcDbEntity
  8
HEWI
100
AcDbLine
 10
159.0000000119999
 20
-126.5
 30
0.0
 11
159.0000000119999
 21
-128.0
 31
0.0
210
0.0
220
1.0
230
0.0
  0
LINE
  5
11F
330
1F
100
AcDbEntity
  8
HEWI
100
AcDbLine
 10
164.0000000119999
 20
128.0
 30
0.0000000000000009
 11
159.0000000119999
 21
128.0
 31
0.0
210
0.0
220
1.0
230
0.0
  0
ARC
  5
120
330
1F
100
AcDbEntity
  8
HEWI
100
AcDbCircle
 10
164.0000000119999
 20
116.5
 30
0.0000000000000009
 40
11.5
100
AcDbArc
 50
0.0
 51
90.0
  0
LINE
  5
121
330
1F
100
AcDbEntity
  8
HEWI
100
AcDbLine
 10
175.5000000119999
 20
-116.5
 30
0.000000000000003
 11
175.5000000119999
 21
116.5
 31
0.000000000000003
210
0.0
220
1.0
230
0.0
  0
ARC
  5
122
330
1F
100
AcDbEntity
  8
HEWI
100
AcDbCircle
 10
164.0000000119999
 20
-116.5
 30
0.0000000000000009
 40
11.5
100
AcDbArc
 50
270.0
 51
0.0
  0
LINE
  5
123
330
1F
100
AcDbEntity
  8
HEWI
100
AcDbLine
 10
159.0000000119999
 20
-128.0
 30
0.0
 11
164.0000000119999
 21
-128.0
 31
0.0000000000000009
210
0.0
220
1.0
230
0.0
  0
LINE
  5
124
330
1F
100
AcDbEntity
  8
HEWI
100
AcDbLine
 10
234.5000000119999
 20
85.0
 30
0.0000000000000139
 11
234.5000000119999
 21
52.0
 31
0.0000000000000139
210
0.0
220
1.0
230
0.0
  0
LINE
  5
125
330
1F
100
AcDbEntity
  8
HEWI
100
AcDbLine
 10
215.662455119677
 20
52.0
 30
0.0000000000000104
 11
234.5000000119999
 21
52.0
 31
0.0000000000000139
210
0.0
220
1.0
230
0.0
  0
LINE
  5
126
330
1F
100
AcDbEntity
  8
HEWI
100
AcDbLine
 10
215.662455119677
 20
85.0
 30
0.0000000000000104
 11
234.5000000119999
 21
85.0
 31
0.0000000000000139
210
0.0
220
1.0
230
0.0
  0
LINE
  5
127
330
1F
100
AcDbEntity
  8
HEWI
100
AcDbLine
 10
292.5000000119998
 20
52.0
 30
0.0000000000000245
 11
292.5000000119998
 21
-52.0
 31
0.0000000000000245
210
0.0
220
1.0
230
0.0
  0
LINE
  5
128
330
1F
100
AcDbEntity
  8
HEWI
100
AcDbLine
 10
325.5000000119999
 20
52.0
 30
0.0000000000000306
 11
325.5000000119999
 21
-52.0
 31
0.0000000000000306
210
0.0
220
1.0
230
0.0
  0
LINE
  5
129
330
1F
100
AcDbEntity
  8
HEWI
100
AcDbLine
 10
292.5000000119998
 20
-52.0
 30
0.0000000000000245
 11
175.5000000119999
 21
-52.0
 31
0.000000000000003
210
0.0
220
1.0
230
0.0
  0
LINE
  5
12A
330
1F
100
AcDbEntity
  8
HEWI
100
AcDbLine
 10
674.000000012
 20
-52.0
 30
0.0000000000000946
 11
325.5000000119999
 21
-52.0
 31
0.0000000000000306
210
0.0
220
1.0
230
0.0
  0
LINE
  5
12B
330
1F
100
AcDbEntity
  8
HEWI
100
AcDbLine
 10
674.000000012
 20
-85.0
 30
0.0000000000000946
 11
175.5000000119999
 21
-85.0
 31
0.000000000000003
210
0.0
220
1.0
230
0.0
  0
LINE
  5
12C
330
1F
100
AcDbEntity
  8
HEWI
100
AcDbLine
 10
325.5000000119999
 20
52.0
 30
0.0000000000000306
 11
674.000000012
 21
52.0
 31
0.0000000000000946
210
0.0
220
1.0
230
0.0
  0
LINE
  5
12D
330
1F
100
AcDbEntity
  8
HEWI
100
AcDbLine
 10
234.5000000119999
 20
52.0
 30
0.0000000000000139
 11
292.5000000119998
 21
52.0
 31
0.0000000000000245
210
0.0
220
1.0
230
0.0
  0
LINE
  5
12E
330
1F
100
AcDbEntity
  8
HEWI
100
AcDbLine
 10
234.5000000119999
 20
85.0
 30
0.0000000000000139
 11
674.000000012
 21
85.0
 31
0.0000000000000946
210
0.0
220
1.0
230
0.0
  0
ARC
  5
12F
330
1F
100
AcDbEntity
  8
HEWI
100
AcDbCircle
 10
674.000000012
 20
0.0
 30
0.0000000000000946
 40
52.0
100
AcDbArc
 50
270.0
 51
90.00000000000161
  0
ARC
  5
130
330
1F
100
AcDbEntity
  8
HEWI
100
AcDbCircle
 10
674.000000012
 20
0.0
 30
0.0000000000000946
 40
85.0
100
AcDbArc
 50
270.0
 51
90.00000000000161
  0
ARC
  5
132
330
1F
100
AcDbEntity
  8
HEWI
100
AcDbCircle
 10
0.0
 20
68.5
 30
0.0
 40
16.5
100
AcDbArc
 50
359.9999999999992
 51
179.9999999999974
  0
ARC
  5
133
330
1F
100
AcDbEntity
  8
HEWI
100
AcDbCircle
 10
0.0
 20
-68.5
 30
0.0
 40
16.5
100
AcDbArc
 50
180.0000000000008
 51
0.0000000000008142
  0
LINE
  5
134
330
1F
100
AcDbEntity
  8
HEWI
100
AcDbLine
 10
-20.5
 20
91.24999999999998
 30
-0.0000000000000025
 11
-37.0
 21
91.24999999999998
 31
-0.0000000000000045
210
0.0
220
1.0
230
0.0
  0
LINE
  5
135
330
1F
100
AcDbEntity
  8
HEWI
100
AcDbLine
 10
-20.5
 20
45.75000000000001
 30
-0.0000000000000025
 11
-20.5
 21
91.24999999999998
 31
-0.0000000000000025
210
0.0
220
1.0
230
0.0
  0
LINE
  5
136
330
1F
100
AcDbEntity
  8
HEWI
100
AcDbLine
 10
-20.5
 20
45.75000000000001
 30
-0.0000000000000025
 11
-37.0
 21
45.75000000000001
 31
-0.0000000000000045
210
0.0
220
1.0
230
0.0
  0
LINE
  5
137
330
1F
100
AcDbEntity
  8
HEWI
100
AcDbLine
 10
-37.0
 20
91.24999999999998
 30
-0.0000000000000045
 11
-37.0
 21
45.75000000000001
 31
-0.0000000000000045
210
0.0
220
1.0
230
0.0
  0
LINE
  5
138
330
1F
100
AcDbEntity
  8
HEWI
100
AcDbLine
 10
-39.0
 20
116.5
 30
-0.0000000000000048
 11
-39.0
 21
-116.5
 31
-0.0000000000000048
210
0.0
220
1.0
230
0.0
  0
LINE
  5
139
330
1F
100
AcDbEntity
  8
HEWI
100
AcDbLine
 10
-39.0
 20
126.5
 30
-0.0000000000000048
 11
-39.0
 21
116.5
 31
-0.0000000000000048
210
0.0
220
1.0
230
0.0
  0
LINE
  5
13A
330
1F
100
AcDbEntity
  8
HEWI
100
AcDbLine
 10
-39.0
 20
-116.5
 30
-0.0000000000000048
 11
-39.0
 21
-126.5
 31
-0.0000000000000048
210
0.0
220
1.0
230
0.0
  0
ARC
  5
13B
330
1F
100
AcDbEntity
  8
HEWI
100
AcDbCircle
 10
-37.5
 20
126.5
 30
-0.0000000000000046
 40
1.5
100
AcDbArc
 50
90.0
 51
180.0
  0
ARC
  5
13C
330
1F
100
AcDbEntity
  8
HEWI
100
AcDbCircle
 10
-37.5
 20
-126.5
 30
-0.0000000000000046
 40
1.5
100
AcDbArc
 50
180.0
 51
270.0
  0
LINE
  5
13D
330
1F
100
AcDbEntity
  8
HEWI
100
AcDbLine
 10
37.5
 20
128.0
 30
0.0000000000000046
 11
-37.5
 21
128.0
 31
-0.0000000000000046
210
0.0
220
1.0
230
0.0
  0
LINE
  5
13F
330
1F
100
AcDbEntity
  8
HEWI
100
AcDbLine
 10
39.0
 20
-116.5
 30
0.0000000000000048
 11
39.0
 21
116.5
 31
0.0000000000000048
210
0.0
220
1.0
230
0.0
  0
LINE
  5
140
330
1F
100
AcDbEntity
  8
HEWI
100
AcDbLine
 10
39.0
 20
116.5
 30
0.0000000000000048
 11
39.0
 21
126.5
 31
0.0000000000000048
210
0.0
220
1.0
230
0.0
  0
LINE
  5
141
330
1F
100
AcDbEntity
  8
HEWI
100
AcDbLine
 10
39.0
 20
-126.5
 30
0.0000000000000048
 11
39.0
 21
-116.5
 31
0.0000000000000048
210
0.0
220
1.0
230
0.0
  0
ARC
  5
142
330
1F
100
AcDbEntity
  8
HEWI
100
AcDbCircle
 10
37.5
 20
126.5
 30
0.0000000000000046
 40
1.5
100
AcDbArc
 50
0.0
 51
90.0
  0
ARC
  5
143
330
1F
100
AcDbEntity
  8
HEWI
100
AcDbCircle
 10
37.5
 20
-126.5
 30
0.0000000000000046
 40
1.5
100
AcDbArc
 50
270.0
 51
0.0
  0
LINE
  5
144
330
1F
100
AcDbEntity
  8
HEWI
100
AcDbLine
 10
37.0
 20
91.24999999999998
 30
0.0000000000000045
 11
20.5
 21
91.24999999999998
 31
0.0000000000000025
210
0.0
220
1.0
230
0.0
  0
LINE
  5
145
330
1F
100
AcDbEntity
  8
HEWI
100
AcDbLine
 10
37.0
 20
45.75000000000001
 30
0.0000000000000045
 11
37.0
 21
91.24999999999998
 31
0.0000000000000045
210
0.0
220
1.0
230
0.0
  0
LINE
  5
146
330
1F
100
AcDbEntity
  8
HEWI
100
AcDbLine
 10
37.0
 20
45.75000000000001
 30
0.0000000000000045
 11
20.5
 21
45.75000000000001
 31
0.0000000000000025
210
0.0
220
1.0
230
0.0
  0
LINE
  5
147
330
1F
100
AcDbEntity
  8
HEWI
100
AcDbLine
 10
20.5
 20
91.24999999999998
 30
0.0000000000000025
 11
20.5
 21
45.75000000000001
 31
0.0000000000000025
210
0.0
220
1.0
230
0.0
  0
LINE
  5
148
330
1F
100
AcDbEntity
  8
HEWI
100
AcDbLine
 10
-20.5
 20
46.0
 30
-0.0000000000000025
 11
-16.5
 21
46.0
 31
-0.000000000000002
210
0.0
220
1.0
230
0.0
  0
LINE
  5
149
330
1F
100
AcDbEntity
  8
HEWI
100
AcDbLine
 10
16.5
 20
46.0
 30
0.000000000000002
 11
20.5
 21
46.0
 31
0.0000000000000025
210
0.0
220
1.0
230
0.0
  0
LINE
  5
14A
330
1F
100
AcDbEntity
  8
HEWI
100
AcDbLine
 10
-20.5
 20
91.0
 30
-0.0000000000000025
 11
20.5
 21
91.0
 31
0.0000000000000025
210
0.0
220
1.0
230
0.0
  0
LINE
  5
14B
330
1F
100
AcDbEntity
  8
HEWI
100
AcDbLine
 10
16.5
 20
-68.5
 30
0.000000000000002
 11
16.5
 21
68.5
 31
0.000000000000002
210
0.0
220
1.0
230
0.0
  0
LINE
  5
14C
330
1F
100
AcDbEntity
  8
HEWI
100
AcDbLine
 10
-16.5
 20
68.5
 30
-0.000000000000002
 11
-16.5
 21
-68.5
 31
-0.000000000000002
210
0.0
220
1.0
230
0.0
  0
LINE
  5
14E
330
1F
100
AcDbEntity
  8
HEWI
100
AcDbLine
 10
16.5
 20
-1048.284655923494
 30
0.0
 11
-16.5
 21
-1048.284655923494
 31
0.0
  0
LINE
  5
14F
330
1F
100
AcDbEntity
  8
HEWI
100
AcDbLine
 10
-20.5
 20
-1013.784655923494
 30
0.0
 11
-20.5
 21
-989.2846559234939
 31
0.0
  0
LINE
  5
150
330
1F
100
AcDbEntity
  8
HEWI
100
AcDbLine
 10
-37.0
 20
-989.2846559234939
 30
0.0
 11
-37.0
 21
-1013.784655923494
 31
0.0
  0
LINE
  5
151
330
1F
100
AcDbEntity
  8
HEWI
100
AcDbLine
 10
-20.5
 20
-1036.534655923494
 30
0.0
 11
-20.5
 21
-1013.784655923494
 31
0.0
  0
LINE
  5
152
330
1F
100
AcDbEntity
  8
HEWI
100
AcDbLine
 10
-37.0
 20
-1013.784655923494
 30
0.0
 11
-37.0
 21
-1036.534655923494
 31
0.0
  0
ARC
  5
153
330
1F
100
AcDbEntity
  8
HEWI
100
AcDbCircle
 10
-37.5
 20
-987.7846559234939
 30
0.0
 40
1.5
100
AcDbArc
 50
180.0
 51
270.0
  0
LINE
  5
154
330
1F
100
AcDbEntity
  8
HEWI
100
AcDbLine
 10
-39.0
 20
-977.7846559234939
 30
0.0
 11
-39.0
 21
-987.7846559234939
 31
0.0
  0
LINE
  5
155
330
1F
100
AcDbEntity
  8
HEWI
100
AcDbLine
 10
-37.5
 20
-972.7846559234938
 30
0.0
 11
-39.0
 21
-972.7846559234938
 31
0.0
  0
LINE
  5
156
330
1F
100
AcDbEntity
  8
HEWI
100
AcDbLine
 10
-39.0
 20
-972.7846559234938
 30
0.0
 11
-39.0
 21
-977.7846559234939
 31
0.0
  0
LINE
  5
157
330
1F
100
AcDbEntity
  8
HEWI
100
AcDbLine
 10
37.5
 20
-972.7846559234938
 30
0.0
 11
-37.5
 21
-972.7846559234938
 31
0.0
  0
LINE
  5
158
330
1F
100
AcDbEntity
  8
HEWI
100
AcDbLine
 10
37.5
 20
-989.2846559234939
 30
0.0
 11
-37.5
 21
-989.2846559234939
 31
0.0
  0
LINE
  5
159
330
1F
100
AcDbEntity
  8
HEWI
100
AcDbLine
 10
39.0
 20
-987.7846559234939
 30
0.0
 11
39.0
 21
-977.7846559234939
 31
0.0
  0
ARC
  5
15A
330
1F
100
AcDbEntity
  8
HEWI
100
AcDbCircle
 10
37.5
 20
-987.7846559234939
 30
0.0
 40
1.5
100
AcDbArc
 50
270.0
 51
0.0
  0
LINE
  5
15B
330
1F
100
AcDbEntity
  8
HEWI
100
AcDbLine
 10
39.0
 20
-972.7846559234938
 30
0.0
 11
37.5
 21
-972.7846559234938
 31
0.0
  0
LINE
  5
15C
330
1F
100
AcDbEntity
  8
HEWI
100
AcDbLine
 10
39.0
 20
-977.7846559234939
 30
0.0
 11
39.0
 21
-972.7846559234938
 31
0.0
  0
LINE
  5
15D
330
1F
100
AcDbEntity
  8
HEWI
100
AcDbLine
 10
37.0
 20
-1013.784655923494
 30
0.0
 11
37.0
 21
-989.2846559234939
 31
0.0
  0
LINE
  5
15E
330
1F
100
AcDbEntity
  8
HEWI
100
AcDbLine
 10
20.5
 20
-989.2846559234939
 30
0.0
 11
20.5
 21
-1013.784655923494
 31
0.0
  0
LINE
  5
15F
330
1F
100
AcDbEntity
  8
HEWI
100
AcDbLine
 10
37.0
 20
-1036.534655923494
 30
0.0
 11
37.0
 21
-1013.784655923494
 31
0.0
  0
LINE
  5
160
330
1F
100
AcDbEntity
  8
HEWI
100
AcDbLine
 10
20.5
 20
-1013.784655923494
 30
0.0
 11
20.5
 21
-1036.534655923494
 31
0.0
  0
LINE
  5
161
330
1F
100
AcDbEntity
  8
HEWI
100
AcDbLine
 10
16.5
 20
-1048.284655923494
 30
0.0
 11
-16.5
 21
-1048.284655923494
 31
0.0
  0
SPLINE
  5
162
330
1F
100
AcDbEntity
  8
HEWI
100
AcDbSpline
210
0.0
220
0.0
230
1.0
 70
     8
 71
     3
 72
    42
 73
    38
 74
     0
 42
0.000000001
 43
0.0000000001
 40
26.21588118668894
 40
26.21588118668894
 40
26.21588118668894
 40
26.21588118668894
 40
29.46229922291184
 40
29.46229922291184
 40
32.70871725913472
 40
32.70871725913472
 40
35.95513529535762
 40
35.95513529535762
 40
39.20155333158049
 40
39.20155333158049
 40
42.50910559202984
 40
42.50910559202984
 40
45.8166578524792
 40
45.8166578524792
 40
49.12421011292853
 40
49.12421011292853
 40
50.77798624315322
 40
50.77798624315322
 40
52.43176237337789
 40
52.43176237337789
 40
54.08553850360258
 40
54.08553850360258
 40
55.73931463382725
 40
55.73931463382725
 40
59.04686689427662
 40
59.04686689427662
 40
62.35441915472598
 40
62.35441915472598
 40
65.66197141517534
 40
65.66197141517534
 40
68.90838945139825
 40
68.90838945139825
 40
72.15480748762115
 40
72.15480748762115
 40
75.40122552384406
 40
75.40122552384406
 40
78.64764356006697
 40
78.64764356006697
 40
78.64764356006697
 40
78.64764356006697
 10
16.5
 20
-1036.284655923494
 30
0.0
 10
16.5
 20
-1036.284655923494
 30
0.0
 10
16.39183527914406
 20
-1036.204946267087
 30
0.0
 10
15.95193928845765
 20
-1035.885369087008
 30
0.0
 10
15.62039769506282
 20
-1035.645677621094
 30
0.0
 10
14.76288141890791
 20
-1035.041422315236
 30
0.0
 10
14.23618779883281
 20
-1034.676514466761
 30
0.0
 10
13.0400312747397
 20
-1033.880504402571
 30
0.0
 10
12.37051620840879
 20
-1033.449777253262
 30
0.0
 10
10.95076438803448
 20
-1032.588769285597
 30
0.0
 10
10.1447458363296
 20
-1032.124543741266
 30
0.0
 10
8.388063587989902
 20
-1031.214378463652
 30
0.0
 10
7.437461759841369
 20
-1030.768840788502
 30
0.0
 10
5.433214894535296
 20
-1029.991649367529
 30
0.0
 10
4.377535134614332
 20
-1029.6605129512
 30
0.0
 10
2.7536927620946
 20
-1029.318581066898
 30
0.0
 10
2.205670966067826
 20
-1029.2302159344
 30
0.0
 10
1.104456686280173
 20
-1029.111761462956
 30
0.0
 10
0.5512587100748762
 20
-1029.081714464272
 30
0.0
 10
-0.5512587100748762
 20
-1029.081714464272
 30
0.0
 10
-1.104456686280173
 20
-1029.111761462956
 30
0.0
 10
-2.205670966067884
 20
-1029.2302159344
 30
0.0
 10
-2.7536927620946
 20
-1029.318581066898
 30
0.0
 10
-4.377535134614332
 20
-1029.6605129512
 30
0.0
 10
-5.433214894535296
 20
-1029.991649367529
 30
0.0
 10
-7.437461759841369
 20
-1030.768840788502
 30
0.0
 10
-8.388063587989961
 20
-1031.214378463652
 30
0.0
 10
-10.1447458363296
 20
-1032.124543741266
 30
0.0
 10
-10.95076438803454
 20
-1032.588769285597
 30
0.0
 10
-12.37051620840884
 20
-1033.449777253262
 30
0.0
 10
-13.04003127473976
 20
-1033.880504402571
 30
0.0
 10
-14.23618779883287
 20
-1034.676514466761
 30
0.0
 10
-14.76288141890796
 20
-1035.041422315236
 30
0.0
 10
-15.62039769506287
 20
-1035.645677621094
 30
0.0
 10
-15.95193928845768
 20
-1035.885369087008
 30
0.0
 10
-16.39183527914409
 20
-1036.204946267087
 30
0.0
 10
-16.5
 20
-1036.284655923494
 30
0.0
 10
-16.5
 20
-1036.284655923494
 30
0.0
  0
LINE
  5
163
330
1F
100
AcDbEntity
  8
HEWI
100
AcDbLine
 10
16.5
 20
-1036.284655923494
 30
0.0
 11
20.5
 21
-1036.284655923494
 31
0.0
  0
LINE
  5
164
330
1F
100
AcDbEntity
  8
HEWI
100
AcDbLine
 10
-20.5
 20
-1036.284655923494
 30
0.0
 11
-16.5
 21
-1036.284655923494
 31
0.0
  0
LINE
  5
165
330
1F
100
AcDbEntity
  8
HEWI
100
AcDbLine
 10
-20.5
 20
-991.2846559234939
 30
0.0
 11
20.5
 21
-991.2846559234939
 31
0.0
  0
LINE
  5
166
330
1F
100
AcDbEntity
  8
HEWI
100
AcDbLine
 10
-16.5
 20
-1036.284655923494
 30
0.0
 11
-16.5
 21
-1048.284655923494
 31
0.0
  0
LINE
  5
167
330
1F
100
AcDbEntity
  8
HEWI
100
AcDbLine
 10
16.5
 20
-1036.284655923494
 30
0.0
 11
16.5
 21
-1048.284655923494
 31
0.0
  0
LINE
  5
168
330
1F
100
AcDbEntity
  8
HEWI
100
AcDbLine
 10
37.0
 20
-1036.534655923494
 30
0.0
 11
20.5
 21
-1036.534655923494
 31
0.0
  0
LINE
  5
169
330
1F
100
AcDbEntity
  8
HEWI
100
AcDbLine
 10
-20.5
 20
-1036.534655923494
 30
0.0
 11
-37.0
 21
-1036.534655923494
 31
0.0
  0
LINE
  5
16A
330
1F
100
AcDbEntity
  8
HEWI
100
AcDbLine
 10
16.5
 20
-991.2846559234939
 30
0.0
 11
16.5
 21
-989.2846559234939
 31
0.0
  0
LINE
  5
16B
330
1F
100
AcDbEntity
  8
HEWI
100
AcDbLine
 10
-16.5
 20
-991.2846559234939
 30
0.0
 11
-16.5
 21
-989.2846559234939
 31
0.0
  0
LINE
  5
16C
330
1F
100
AcDbEntity
  8
HEWI
100
AcDbLine
 10
-16.5
 20
-1048.284655923494
 30
0.0
 11
-16.5
 21
-1487.784655923494
 31
0.0
  0
LINE
  5
16D
330
1F
100
AcDbEntity
  8
HEWI
100
AcDbLine
 10
16.5
 20
-1048.284655923494
 30
0.0
 11
16.5
 21
-1487.784655923494
 31
0.0
  0
LINE
  5
16E
330
1F
100
AcDbEntity
  8
HEWI
100
AcDbLine
 10
16.5
 20
-1556.284655923494
 30
0.0
 11
16.5
 21
-1487.784655923493
 31
0.0
  0
LINE
  5
16F
330
1F
100
AcDbEntity
  8
HEWI
100
AcDbLine
 10
-16.5
 20
-1487.784655923493
 30
0.0
 11
-16.5
 21
-1556.284655923494
 31
0.0
  0
ARC
  5
170
330
1F
100
AcDbEntity
  8
HEWI
100
AcDbCircle
 10
0.0
 20
-1556.284655923494
 30
0.0
 40
16.5
100
AcDbArc
 50
180.0
 51
0.0
  0
ARC
  5
3B5
330
1F
100
AcDbEntity
  8
HEWI
100
AcDbCircle
 10
-332.7956567376597
 20
70.99997700000017
 30
0.000000000000003
 40
20.828150666408
100
AcDbArc
 50
85.62294058089959
 51
274.3770594191005
  0
LINE
  5
3B9
330
1F
100
AcDbEntity
  8
HEWI
100
AcDbLine
 10
-331.2060565437176
 20
50.23257400000058
 30
0.000000000000003
 11
-315.6414435437176
 21
49.5
 31
0.000000000000003
  0
LINE
  5
3BB
330
1F
100
AcDbEntity
  8
HEWI
100
AcDbLine
 10
-331.2060565437176
 20
91.76738000000023
 30
0.000000000000003
 11
-315.6414435437176
 21
92.49995400000079
 31
0.000000000000003
  0
LINE
  5
3BD
330
1F
100
AcDbEntity
  8
HEWI
100
AcDbLine
 10
-313.1414435437176
 20
-128.0
 30
0.000000000000003
 11
-305.6414435437176
 21
-128.0
 31
0.000000000000003
  0
LINE
  5
49A
330
1F
100
AcDbEntity
  8
HEWI
100
AcDbLine
 10
-348.1378045437188
 20
652.0623388060588
 30
0.000000000000003
 11
-348.1378045437176
 21
185.3457598060577
 31
0.000000000000003
  0
LINE
  5
49D
330
1F
100
AcDbEntity
  8
HEWI
100
AcDbLine
 10
-485.1378505437176
 20
300.3174828060573
 30
0.000000000000003
 11
-485.1378505437176
 21
214.3457748060573
 31
0.000000000000003
  0
LINE
  5
49E
330
1F
100
AcDbEntity
  8
HEWI
100
AcDbLine
 10
-452.1378195437177
 20
247.2827488060584
 30
0.000000000000003
 11
-452.1378195437177
 21
185.3457598060577
 31
0.000000000000003
  0
LINE
  5
49F
330
1F
100
AcDbEntity
  8
HEWI
100
AcDbLine
 10
-315.1378505437187
 20
653.5031498060592
 30
0.000000000000003
 11
-315.1378505437177
 21
76.70167480605778
 31
0.000000000000003
  0
ARC
  5
4A1
330
1F
100
AcDbEntity
  8
HEWI
100
AcDbCircle
 10
-400.1378505437186
 20
652.7827808060587
 30
0.000000000000003
 40
51.93695300000001
100
AcDbArc
 50
9.999967999946665
 51
170.00003199995
  0
ARC
  5
4A2
330
1F
100
AcDbEntity
  8
HEWI
100
AcDbCircle
 10
-400.1378125437196
 20
652.7827518060579
 30
0.000000000000003
 40
85.06301200000004
100
AcDbArc
 50
9.99999800002322
 51
170.0000019999768
  0
LINE
  5
4A3
330
1F
100
AcDbEntity
  8
HEWI
100
AcDbLine
 10
-485.1378505437186
 20
653.5031498060599
 30
0.000000000000003
 11
-485.1378505437186
 21
609.2827488060589
 31
0.000000000000003
  0
LINE
  5
4A4
330
1F
100
AcDbEntity
  8
HEWI
100
AcDbLine
 10
-452.1378195437188
 20
652.0623388060596
 30
0.000000000000003
 11
-452.1378195437177
 21
247.2827488060584
 31
0.000000000000003
  0
LINE
  5
4A5
330
1F
100
AcDbEntity
  8
HEWI
100
AcDbLine
 10
-483.9085255437185
 20
667.5537868060577
 30
0.000000000000003
 11
-485.1378505437186
 21
653.5031498060592
 31
0.000000000000003
  0
LINE
  5
4A6
330
1F
100
AcDbEntity
  8
HEWI
100
AcDbLine
 10
-451.2857685437187
 20
661.8015088060579
 30
0.000000000000003
 11
-452.1378195437188
 21
652.0623388060588
 31
0.000000000000003
  0
LINE
  5
4A7
330
1F
100
AcDbEntity
  8
HEWI
100
AcDbLine
 10
-485.1378505437186
 20
631.2827488060587
 30
0.000000000000003
 11
-452.1378195437188
 21
631.2827488060587
 31
0.000000000000003
  0
LINE
  5
4A8
330
1F
100
AcDbEntity
  8
HEWI
100
AcDbLine
 10
-348.9899315437195
 20
661.8015088060579
 30
0.000000000000003
 11
-348.1378045437188
 21
652.0623388060588
 31
0.000000000000003
  0
LINE
  5
4A9
330
1F
100
AcDbEntity
  8
HEWI
100
AcDbLine
 10
-316.3670985437187
 20
667.5537868060577
 30
0.000000000000003
 11
-315.1378505437187
 21
653.5031498060592
 31
0.000000000000003
  0
LINE
  5
4AA
330
1F
100
AcDbEntity
  8
HEWI
100
AcDbLine
 10
-348.1378045437188
 20
631.2827488060587
 30
0.000000000000003
 11
-315.1378505437187
 21
631.2827488060587
 31
0.000000000000003
  0
LINE
  5
4AB
330
1F
100
AcDbEntity
  8
HEWI
100
AcDbLine
 10
-452.1378195437177
 20
185.3457598060577
 30
0.000000000000003
 11
-348.1378045437176
 21
185.3457598060577
 31
0.000000000000003
  0
LINE
  5
4AC
330
1F
100
AcDbEntity
  8
HEWI
100
AcDbLine
 10
-452.1378195437177
 20
152.3457478060582
 30
0.000000000000003
 11
-348.1378045437176
 21
152.3457478060582
 31
0.000000000000003
  0
LINE
  5
4AD
330
1F
100
AcDbEntity
  8
HEWI
100
AcDbLine
 10
-485.1378505437176
 20
214.3457748060573
 30
0.000000000000003
 11
-485.1378505437176
 21
62.28274880605841
 31
0.000000000000003
  0
LINE
  5
4AE
330
1F
100
AcDbEntity
  8
HEWI
100
AcDbLine
 10
-481.1378505437176
 20
62.28274880605841
 30
0.000000000000003
 11
-481.1378505437176
 21
53.84576380605813
 31
0.000000000000003
  0
LINE
  5
4AF
330
1F
100
AcDbEntity
  8
HEWI
100
AcDbLine
 10
-452.1378195437177
 20
152.3457478060582
 30
0.000000000000003
 11
-452.1378195437177
 21
62.28274880605841
 31
0.000000000000003
  0
LINE
  5
4B0
330
1F
100
AcDbEntity
  8
HEWI
100
AcDbLine
 10
-456.1378195437177
 20
62.28274880605841
 30
0.000000000000003
 11
-456.1378195437177
 21
53.84576380605813
 31
0.000000000000003
  0
LINE
  5
4B1
330
1F
100
AcDbEntity
  8
HEWI
100
AcDbLine
 10
-452.7000295437177
 20
184.7835308060585
 30
0.000000000000003
 11
-454.3484365437176
 21
183.135161806058
 31
0.000000000000003
  0
LINE
  5
4B2
330
1F
100
AcDbEntity
  8
HEWI
100
AcDbLine
 10
-440.1378505437177
 20
185.3457598060577
 30
0.000000000000003
 11
-440.1378505437177
 21
152.3457478060582
 31
0.000000000000003
  0
LINE
  5
4B3
330
1F
100
AcDbEntity
  8
HEWI
100
AcDbLine
 10
-360.1378505437177
 20
185.3457598060577
 30
0.000000000000003
 11
-360.1378505437177
 21
152.3457478060582
 31
0.000000000000003
  0
LINE
  5
4B4
330
1F
100
AcDbEntity
  8
HEWI
100
AcDbLine
 10
-452.1378195437177
 20
185.3457598060577
 30
0.000000000000003
 11
-452.7000295437177
 21
184.7835308060585
 31
0.000000000000003
  0
LINE
  5
4B5
330
1F
100
AcDbEntity
  8
HEWI
100
AcDbLine
 10
-454.3484365437176
 20
154.5563658060582
 30
0.000000000000003
 11
-452.7000295437177
 21
152.9079968060577
 31
0.000000000000003
  0
LINE
  5
4B6
330
1F
100
AcDbEntity
  8
HEWI
100
AcDbLine
 10
-468.6378345437177
 20
168.8457638060581
 30
0.000000000000003
 11
-460.3878655437175
 21
160.5957558060581
 31
0.000000000000003
  0
LINE
  5
4B7
330
1F
100
AcDbEntity
  8
HEWI
100
AcDbLine
 10
-454.3484365437176
 20
183.135161806058
 30
0.000000000000003
 11
-456.9705835437177
 21
180.513014806058
 31
0.000000000000003
  0
LINE
  5
4B8
330
1F
100
AcDbEntity
  8
HEWI
100
AcDbLine
 10
-460.3878655437175
 20
177.0957708060578
 30
0.000000000000003
 11
-468.6378345437177
 21
168.8457638060581
 31
0.000000000000003
  0
LINE
  5
4B9
330
1F
100
AcDbEntity
  8
HEWI
100
AcDbLine
 10
-456.9705835437177
 20
180.513014806058
 30
0.000000000000003
 11
-460.3878655437175
 21
177.0957708060578
 31
0.000000000000003
  0
LINE
  5
4BA
330
1F
100
AcDbEntity
  8
HEWI
100
AcDbLine
 10
-460.3878655437175
 20
160.5957558060581
 30
0.000000000000003
 11
-456.9705835437177
 21
157.1785118060579
 31
0.000000000000003
  0
LINE
  5
4BB
330
1F
100
AcDbEntity
  8
HEWI
100
AcDbLine
 10
-456.9705835437177
 20
157.1785118060579
 30
0.000000000000003
 11
-454.3484365437176
 21
154.5563658060582
 31
0.000000000000003
  0
LINE
  5
4BC
330
1F
100
AcDbEntity
  8
HEWI
100
AcDbLine
 10
-452.7000295437177
 20
152.9079968060577
 30
0.000000000000003
 11
-452.1378195437177
 21
152.3457478060582
 31
0.000000000000003
  0
LINE
  5
4BD
330
1F
100
AcDbEntity
  8
HEWI
100
AcDbLine
 10
-348.1378045437176
 20
152.3457478060582
 30
0.000000000000003
 11
-348.1378045437176
 21
85.08650818690576
 31
0.000000000000003
  0
LINE
  5
4BE
330
1F
100
AcDbEntity
  8
HEWI
100
AcDbLine
 10
-347.5755945437176
 20
184.7835308060585
 30
0.000000000000003
 11
-343.3051175437187
 21
180.513014806058
 31
0.000000000000003
  0
LINE
  5
4BF
330
1F
100
AcDbEntity
  8
HEWI
100
AcDbLine
 10
-348.1378045437176
 20
185.3457598060577
 30
0.000000000000003
 11
-347.6412835437187
 21
184.8492198060576
 31
0.000000000000003
  0
LINE
  5
4C0
330
1F
100
AcDbEntity
  8
HEWI
100
AcDbLine
 10
-335.9083425437176
 20
164.5752478060576
 30
0.000000000000003
 11
-339.6549855437166
 21
160.8286428060582
 31
0.000000000000003
  0
LINE
  5
4C1
330
1F
100
AcDbEntity
  8
HEWI
100
AcDbLine
 10
-331.6378655437176
 20
168.8457638060581
 30
0.000000000000003
 11
-335.9083425437176
 21
164.5752478060576
 31
0.000000000000003
  0
LINE
  5
4C2
330
1F
100
AcDbEntity
  8
HEWI
100
AcDbLine
 10
-343.3051175437187
 20
180.513014806058
 30
0.000000000000003
 11
-340.0988635437176
 21
177.3067998060578
 31
0.000000000000003
  0
LINE
  5
4C3
330
1F
100
AcDbEntity
  8
HEWI
100
AcDbLine
 10
-336.0361355437177
 20
173.2440328060584
 30
0.000000000000003
 11
-335.9083425437176
 21
173.1162788060573
 31
0.000000000000003
  0
LINE
  5
4C4
330
1F
100
AcDbEntity
  8
HEWI
100
AcDbLine
 10
-340.0988635437176
 20
177.3067998060578
 30
0.000000000000003
 11
-336.0361355437177
 21
173.2440328060584
 31
0.000000000000003
  0
LINE
  5
4C5
330
1F
100
AcDbEntity
  8
HEWI
100
AcDbLine
 10
-335.9083425437176
 20
173.1162788060573
 30
0.000000000000003
 11
-331.6378655437176
 21
168.8457638060581
 31
0.000000000000003
  0
LINE
  5
4C6
330
1F
100
AcDbEntity
  8
HEWI
100
AcDbLine
 10
-339.6549855437166
 20
160.8286428060582
 30
0.000000000000003
 11
-343.0211505437177
 21
157.4624398060578
 31
0.000000000000003
  0
LINE
  5
4C7
330
1F
100
AcDbEntity
  8
HEWI
100
AcDbLine
 10
-343.3051175437187
 20
157.1785118060579
 30
0.000000000000003
 11
-345.6588615437187
 21
154.8246908060573
 31
0.000000000000003
  0
LINE
  5
4C8
330
1F
100
AcDbEntity
  8
HEWI
100
AcDbLine
 10
-345.9272635437177
 20
154.5563658060582
 30
0.000000000000003
 11
-348.0703605437176
 21
152.4131918060574
 31
0.000000000000003
  0
LINE
  5
4C9
330
1F
100
AcDbEntity
  8
HEWI
100
AcDbLine
 10
-343.0211505437177
 20
157.4624398060578
 30
0.000000000000003
 11
-343.3051175437187
 21
157.1785118060579
 31
0.000000000000003
  0
LINE
  5
4CA
330
1F
100
AcDbEntity
  8
HEWI
100
AcDbLine
 10
-345.6588615437187
 20
154.8246908060573
 30
0.000000000000003
 11
-345.9272635437177
 21
154.5563658060582
 31
0.000000000000003
  0
LINE
  5
4CC
330
1F
100
AcDbEntity
  8
HEWI
100
AcDbLine
 10
-331.6378655437176
 20
119.2827488060584
 30
0.000000000000003
 11
-315.1378505437177
 21
119.2827488060584
 31
0.000000000000003
  0
LINE
  5
4CD
330
1F
100
AcDbEntity
  8
HEWI
100
AcDbLine
 10
-331.6378655437176
 20
119.2827488060584
 30
0.000000000000003
 11
-348.1378045437176
 21
119.2827488060584
 31
0.000000000000003
  0
LINE
  5
4CE
330
1F
100
AcDbEntity
  8
HEWI
100
AcDbLine
 10
-468.6378345437177
 20
62.28274880605841
 30
0.000000000000003
 11
-452.1378345437177
 21
62.28274880605841
 31
0.000000000000003
  0
LINE
  5
4CF
330
1F
100
AcDbEntity
  8
HEWI
100
AcDbLine
 10
-468.6378345437177
 20
62.28274880605841
 30
0.000000000000003
 11
-485.1378345437177
 21
62.28274880605841
 31
0.000000000000003
  0
HATCH
  5
4D0
330
1F
100
AcDbEntity
  8
HEWI
100
AcDbHatch
 10
0.0
 20
0.0
 30
0.000000000000003
210
0.0
220
0.0
230
1.0
  2
_U
 70
     0
 71
     0
 91
        1
 92
        1
 93
        4
 72
     1
 10
-481.1378505437176
 20
53.84576380605813
 11
-456.1378195437177
 21
53.84576380605814
 72
     1
 10
-456.1378195437177
 20
53.84576380605813
 11
-456.1378195437177
 21
62.28274880605841
 72
     1
 10
-456.1378195437177
 20
62.28274880605841
 11
-481.1378505437176
 21
62.2827488060584
 72
     1
 10
-481.1378505437176
 20
62.28274880605841
 11
-481.1378505437176
 21
53.84576380605813
 97
        0
 75
     0
 76
     0
 52
135.0
 41
2.6
 77
     0
 78
     1
 53
225.0
 43
2396.451524358075
 44
964.260652277886
 45
-1.838477631085022
 46
1.838477631085024
 79
     0
 98
        1
 10
-621.6358397780818
 20
964.260652277886
1001
GENIUS_GENODEF_13
1002
{
1000
HIER
1070
     0
1002
}
1002
{
1000
MANEDIT
1070
     0
1002
}
1002
{
1000
NOSEL
1070
     0
1002
}
1002
{
1000
BEHIND
1070
     0
1002
}
1002
{
1000
OTHER
1070
     0
1002
}
1002
{
1000
REACTOR
1002
}
1001
GENIUS_GENOBJ-N-HTC_13
1002
{
1000
OWNER
1000
GEN
1002
}
1001
GENIUS_GENHATCH_13
1002
{
1000
DATA
1040
45.0
1042
13.0
1000
_U
1070
     0
1011
-462.1147818793046
1021
-261.8825574945213
1031
0.000000000000003
1002
}
1002
{
1000
UCS
1010
0.0
1020
0.0
1030
0.0
1010
1.0
1020
0.0
1030
0.0
1010
0.0
1020
1.0
1030
0.0
1002
}
  0
LINE
  5
4D1
330
1F
100
AcDbEntity
  8
HEWI
100
AcDbLine
 10
-456.1378195437177
 20
53.84576380605813
 30
0.000000000000003
 11
-481.1378505437176
 21
53.84576380605813
 31
0.000000000000003
  0
LINE
  5
509
330
1F
100
AcDbEntity
  8
HEWI
100
AcDbLine
 10
-468.6378345437186
 20
609.2827488060589
 30
0.000000000000003
 11
-538.6378345437186
 21
609.2827488060589
 31
0.000000000000003
1001
GENIUS_GENODEF_13
1002
{
1000
HIER
1070
     0
1002
}
1002
{
1000
MANEDIT
1070
     0
1002
}
1002
{
1000
NOSEL
1070
     0
1002
}
1002
{
1000
BEHIND
1070
     0
1002
}
1002
{
1000
OTHER
1070
     0
1002
}
1002
{
1000
REACTOR
1002
}
1001
GENIUS_GENOBJ-N-CEN_13
1002
{
1000
OWNER
1000
GEN
1002
}
1001
GENIUS_GENCEN_19
1002
{
1040
0.0
1002
}
  0
LINE
  5
50A
330
1F
100
AcDbEntity
  8
HEWI
100
AcDbLine
 10
-468.6378345437186
 20
573.2827488060587
 30
0.000000000000003
 11
-538.6378345437186
 21
573.2827488060587
 31
0.000000000000003
1001
GENIUS_GENODEF_13
1002
{
1000
HIER
1070
     0
1002
}
1002
{
1000
MANEDIT
1070
     0
1002
}
1002
{
1000
NOSEL
1070
     0
1002
}
1002
{
1000
BEHIND
1070
     0
1002
}
1002
{
1000
OTHER
1070
     0
1002
}
1002
{
1000
REACTOR
1002
}
1001
GENIUS_GENOBJ-N-CEN_13
1002
{
1000
OWNER
1000
GEN
1002
}
1001
GENIUS_GENCEN_19
1002
{
1040
0.0
1002
}
  0
ARC
  5
50B
330
1F
100
AcDbEntity
  8
HEWI
100
AcDbCircle
 10
-468.6378345437186
 20
591.2827488060587
 30
0.000000000000003
 40
18.0
100
AcDbArc
 50
270.0
 51
90.0
  0
ARC
  5
50C
330
1F
100
AcDbEntity
  8
HEWI
100
AcDbCircle
 10
-538.6378345437186
 20
591.2827488060587
 30
0.000000000000003
 40
18.0
100
AcDbArc
 50
90.0
 51
270.0
  0
ARC
  5
515
330
1F
100
AcDbEntity
  8
HEWI
100
AcDbCircle
 10
-538.6378345437186
 20
591.2827488060587
 30
0.000000000000003
 40
18.0
100
AcDbArc
 50
180.0
 51
270.0
  0
LINE
  5
51A
330
1F
100
AcDbEntity
  8
HEWI
100
AcDbLine
 10
-522.1378345437178
 20
573.2827488060587
 30
0.000000000000003
 11
-522.1378345437186
 21
561.2827488060588
 31
0.000000000000003
  0
LINE
  5
51B
330
1F
100
AcDbEntity
  8
HEWI
100
AcDbLine
 10
-522.1378345437186
 20
561.2827488060588
 30
0.000000000000003
 11
-555.1378345437187
 21
561.2827488060588
 31
0.000000000000003
  0
LINE
  5
51C
330
1F
100
AcDbEntity
  8
HEWI
100
AcDbLine
 10
-555.1378345437187
 20
561.2827488060588
 30
0.000000000000003
 11
-555.1378345437187
 21
584.0890015210898
 31
0.000000000000003
  0
HATCH
  5
51E
330
1F
100
AcDbEntity
  8
HEWI
100
AcDbHatch
 10
0.0
 20
0.0
 30
0.000000000000003
210
0.0
220
0.0
230
1.0
  2
SOLID
 70
     1
 71
     0
 91
        1
 92
        7
 72
     0
 73
     1
 93
        4
 10
-538.6378345437186
 20
-51.71728169394146
 10
-538.6378345437186
 20
-47.71728169394146
 10
-526.1378345437186
 20
-47.71728169394146
 10
-526.1378345437186
 20
-51.71728169394146
 97
        0
 75
     0
 76
     1
 47
0.0726074577041698
 98
        1
 10
-529.7626939798736
 20
-50.01493424866476
450
        0
451
        0
460
0.0
461
0.0
452
        0
462
0.0
453
        0
470

1001
ACAD
1010
0.0
1020
0.0
1030
0.0
  0
HATCH
  5
51F
330
1F
100
AcDbEntity
  8
HEWI
100
AcDbHatch
 10
0.0
 20
0.0
 30
0.000000000000003
210
0.0
220
0.0
230
1.0
  2
SOLID
 70
     1
 71
     0
 91
        1
 92
        7
 72
     0
 73
     1
 93
        4
 10
-551.1378345437186
 20
-51.71728169394146
 10
-551.1378345437186
 20
-47.71728169394146
 10
-538.6378345437186
 20
-47.71728169394146
 10
-538.6378345437186
 20
-51.71728169394146
 97
        0
 75
     0
 76
     1
 47
0.0726074577041698
 98
        1
 10
-542.5480736923977
 20
-50.2327569460881
450
        0
451
        0
460
0.0
461
0.0
452
        0
462
0.0
453
        0
470

1001
ACAD
1010
0.0
1020
0.0
1030
0.0
  0
LINE
  5
521
330
1F
100
AcDbEntity
  8
HEWI
100
AcDbLine
 10
-522.1378345437186
 20
-47.71728169394146
 30
0.000000000000003
 11
-555.1378345437187
 21
-47.71728169394146
 31
0.000000000000003
  0
LINE
  5
522
330
1F
100
AcDbEntity
  8
HEWI
100
AcDbLine
 10
-522.1378345437186
 20
-47.71728169394146
 30
0.000000000000003
 11
-522.1378345437186
 21
561.2827488060588
 31
0.000000000000003
  0
LINE
  5
523
330
1F
100
AcDbEntity
  8
HEWI
100
AcDbLine
 10
-555.1378345437187
 20
561.2827488060588
 30
0.000000000000003
 11
-555.1378345437187
 21
-47.71728169394146
 31
0.000000000000003
  0
LINE
  5
524
330
1F
100
AcDbEntity
  8
HEWI
100
AcDbLine
 10
-526.1378345437186
 20
-47.71728169394146
 30
0.000000000000003
 11
-526.1378345437186
 21
-51.71728169394146
 31
0.000000000000003
  0
LINE
  5
525
330
1F
100
AcDbEntity
  8
HEWI
100
AcDbLine
 10
-526.1378345437186
 20
-51.71728169394146
 30
0.000000000000003
 11
-551.1378345437186
 21
-51.71728169394146
 31
0.000000000000003
  0
LINE
  5
526
330
1F
100
AcDbEntity
  8
HEWI
100
AcDbLine
 10
-551.1378345437186
 20
-47.71728169394146
 30
0.000000000000003
 11
-551.1378345437186
 21
-51.71728169394146
 31
0.000000000000003
  0
ARC
  5
5A7
330
1F
100
AcDbEntity
  8
HEWI
  6
IMPORT
 62
     7
100
AcDbCircle
 10
0.0
 20
-68.49636999999984
 30
0.0
 40
16.5
100
AcDbArc
 50
180.0000729999917
 51
359.9999269999822
  0
LINE
  5
5A8
330
1F
100
AcDbEntity
  8
HEWI
 48
0.1
100
AcDbLine
 10
-39.0
 20
-130.9999769999995
 30
0.0
 11
39.0
 21
-130.9999769999995
 31
0.0
  0
ARC
  5
5A9
330
1F
100
AcDbEntity
  8
HEWI
 48
0.1
100
AcDbCircle
 10
0.0000010000003385
 20
-138.496391499999
 30
0.0
 40
18.0
100
AcDbArc
 50
180.0
 51
0.0
  0
LINE
  5
5AE
330
1F
100
AcDbEntity
  8
HEWI
 48
0.1
100
AcDbLine
 10
-16.49999899999966
 20
-145.6901387849681
 30
0.0
 11
-16.49999899999966
 21
-168.496391499999
 31
0.0
  0
LINE
  5
5AF
330
1F
100
AcDbEntity
  8
HEWI
 48
0.1
100
AcDbLine
 10
-16.49999899999966
 20
-168.496391499999
 30
0.0
 11
16.50000100000034
 21
-168.496391499999
 31
0.0
  0
LINE
  5
5B0
330
1F
100
AcDbEntity
  8
HEWI
 48
0.1
100
AcDbLine
 10
16.50000100000034
 20
-168.496391499999
 30
0.0
 11
16.50000100000034
 21
-145.6901387849681
 31
0.0
  0
HATCH
  5
5B1
330
1F
100
AcDbEntity
  8
HEWI
 62
   135
 48
0.1
100
AcDbHatch
 10
0.0
 20
0.0
 30
0.0
210
0.0
220
0.0
230
1.0
  2
SOLID
 70
     1
 71
     0
 91
        1
 92
        7
 72
     0
 73
     1
 93
        4
 10
0.0000010000003385
 20
-781.4964219999995
 10
0.0000010000003385
 20
-777.4964219999993
 10
-12.49999899999966
 20
-777.4964219999993
 10
-12.49999899999966
 20
-781.4964219999994
 97
        0
 75
     0
 76
     1
 47
0.0726074577041698
 98
        1
 10
-8.875139563844641
 20
-779.7940745547228
450
        0
451
        0
460
0.0
461
0.0
452
        0
462
0.0
453
        0
470

1001
ACAD
1010
0.0
1020
0.0
1030
0.0
  0
HATCH
  5
5B2
330
1F
100
AcDbEntity
  8
HEWI
 62
   135
 48
0.1
100
AcDbHatch
 10
0.0
 20
0.0
 30
0.0
210
0.0
220
0.0
230
1.0
  2
SOLID
 70
     1
 71
     0
 91
        1
 92
        7
 72
     0
 73
     1
 93
        4
 10
12.50000100000034
 20
-781.4964219999994
 10
12.50000100000034
 20
-777.4964219999993
 10
0.000001000001248
 20
-777.4964219999995
 10
0.0000010000003385
 20
-781.4964219999995
 97
        0
 75
     0
 76
     1
 47
0.0726074577041698
 98
        1
 10
3.910240148679802
 20
-780.0118972521461
450
        0
451
        0
460
0.0
461
0.0
452
        0
462
0.0
453
        0
470

1001
ACAD
1010
0.0
1020
0.0
1030
0.0
  0
LINE
  5
5B3
330
1F
100
AcDbEntity
  8
HEWI
 48
0.1
100
AcDbLine
 10
-16.49999899999966
 20
-777.4964219999993
 30
0.0
 11
16.50000100000034
 21
-777.4964219999993
 31
0.0
  0
LINE
  5
5B4
330
1F
100
AcDbEntity
  8
HEWI
 48
0.1
100
AcDbLine
 10
-16.49999899999966
 20
-777.4964219999993
 30
0.0
 11
-16.49999899999966
 21
-168.496391499999
 31
0.0
  0
LINE
  5
5B5
330
1F
100
AcDbEntity
  8
HEWI
 48
0.1
100
AcDbLine
 10
-16.49999899999966
 20
-168.496391499999
 30
0.0
 11
16.50000100000034
 21
-168.496391499999
 31
0.0
  0
LINE
  5
5B6
330
1F
100
AcDbEntity
  8
HEWI
 48
0.1
100
AcDbLine
 10
16.50000100000034
 20
-168.496391499999
 30
0.0
 11
16.50000100000034
 21
-777.4964219999993
 31
0.0
  0
LINE
  5
5B7
330
1F
100
AcDbEntity
  8
HEWI
 48
0.1
100
AcDbLine
 10
-12.49999899999966
 20
-777.4964219999993
 30
0.0
 11
-12.49999899999966
 21
-781.4964219999994
 31
0.0
  0
LINE
  5
5B8
330
1F
100
AcDbEntity
  8
HEWI
 48
0.1
100
AcDbLine
 10
-12.49999899999966
 20
-781.4964219999994
 30
0.0
 11
12.50000100000034
 21
-781.4964219999994
 31
0.0
  0
LINE
  5
5B9
330
1F
100
AcDbEntity
  8
HEWI
 48
0.1
100
AcDbLine
 10
12.50000100000034
 20
-777.4964219999993
 30
0.0
 11
12.50000100000034
 21
-781.4964219999994
 31
0.0
  0
LINE
  5
5BA
330
1F
100
AcDbEntity
  8
HEWI
 48
0.1
100
AcDbLine
 10
27.0
 20
-50.5052237600828
 30
0.0
 11
27.0
 21
-156.5052237600828
 31
0.0
  0
LINE
  5
5BB
330
1F
100
AcDbEntity
  8
HEWI
 48
0.1
100
AcDbLine
 10
39.00000000000091
 20
-53.0052237600828
 30
0.0
 11
39.00000000000091
 21
-154.0052237600828
 31
0.0
  0
ARC
  5
5BC
330
1F
100
AcDbEntity
  8
HEWI
 48
0.1
100
AcDbCircle
 10
36.50000000000091
 20
-154.0052237600828
 30
0.0
 40
2.5
100
AcDbArc
 50
270.0
 51
0.0
  0
ARC
  5
5BD
330
1F
100
AcDbEntity
  8
HEWI
 48
0.1
100
AcDbCircle
 10
36.50000000000091
 20
-53.0052237600828
 30
0.0
 40
2.5
100
AcDbArc
 50
0.0
 51
90.0
  0
LINE
  5
5BE
330
1F
100
AcDbEntity
  8
HEWI
 48
0.1
100
AcDbLine
 10
27.0
 20
-50.5052237600828
 30
0.0
 11
36.50000000000091
 21
-50.5052237600828
 31
0.0
  0
LINE
  5
5BF
330
1F
100
AcDbEntity
  8
HEWI
 48
0.1
100
AcDbLine
 10
27.0
 20
-156.5052237600828
 30
0.0
 11
36.50000000000091
 21
-156.5052237600828
 31
0.0
  0
LINE
  5
5C3
330
1F
100
AcDbEntity
  8
HEWI
 48
0.1
100
AcDbLine
 10
-38.99999899999329
 20
-52.99636999999985
 30
0.0
 11
-38.9999989999942
 21
-153.9963699999998
 31
0.0
  0
ARC
  5
5C4
330
1F
100
AcDbEntity
  8
HEWI
 48
0.1
100
AcDbCircle
 10
-36.4999989999942
 20
-153.9963699999998
 30
0.0
 40
2.5
100
AcDbArc
 50
180.0
 51
270.0
  0
ARC
  5
5C5
330
1F
100
AcDbEntity
  8
HEWI
 48
0.1
100
AcDbCircle
 10
-36.49999899999329
 20
-52.99636999999985
 30
0.0
 40
2.5
100
AcDbArc
 50
90.0
 51
180.0
  0
LINE
  5
5C6
330
1F
100
AcDbEntity
  8
HEWI
 48
0.1
100
AcDbLine
 10
-26.99999899999421
 20
-50.49636999999985
 30
0.0
 11
-26.99999899999421
 21
-156.4963699999998
 31
0.0
  0
LINE
  5
5C7
330
1F
100
AcDbEntity
  8
HEWI
 48
0.1
100
AcDbLine
 10
-36.49999899999329
 20
-50.49636999999985
 30
0.0
 11
-26.99999899999421
 21
-50.49636999999985
 31
0.0
  0
LINE
  5
5C8
330
1F
100
AcDbEntity
  8
HEWI
 48
0.1
100
AcDbLine
 10
-36.4999989999942
 20
-156.4963699999998
 30
0.0
 11
-26.99999899999421
 21
-156.4963699999998
 31
0.0
  0
LINE
  5
5CC
330
1F
100
AcDbEntity
  8
HEWI
 48
0.1
100
AcDbLine
 10
0.0000010000003385
 20
-138.496391499999
 30
0.0
 11
-26.9999989999933
 21
-138.4963699999998
 31
0.0
  0
LINE
  5
5CD
330
1F
100
AcDbEntity
  8
HEWI
 48
0.1
100
AcDbLine
 10
-26.9999989999933
 20
-138.4963699999998
 30
0.0
 11
0.0000010000003385
 21
-138.496391499999
 31
0.0
  0
LINE
  5
5CE
330
1F
100
AcDbEntity
  8
HEWI
 48
0.1
100
AcDbLine
 10
0.0000010000003385
 20
-138.496391499999
 30
0.0
 11
27.0
 21
-138.5052237600828
 31
0.0
  0
LINE
  5
5CF
330
1F
100
AcDbEntity
  8
HEWI
 48
0.1
100
AcDbLine
 10
27.0
 20
-52.00522376008279
 30
0.0
 11
16.5
 21
-52.0052237600829
 31
0.0
  0
LINE
  5
5D0
330
1F
100
AcDbEntity
  8
HEWI
 48
0.1
100
AcDbLine
 10
27.0
 20
-85.0052237600828
 30
0.0
 11
0.0000010000003385
 21
-84.99636999999983
 31
0.0
  0
LINE
  5
5D1
330
1F
100
AcDbEntity
  8
HEWI
 48
0.1
100
AcDbLine
 10
-26.99999899999421
 20
-51.99636999999984
 30
0.0
 11
-16.5
 21
-51.99636999999984
 31
0.0
  0
LINE
  5
5D2
330
1F
100
AcDbEntity
  8
HEWI
 48
0.1
100
AcDbLine
 10
-26.99999899999421
 20
-84.99636999999983
 30
0.0
 11
0.0000010000303519
 21
-84.99636999999983
 31
0.0
  0
ARC
  5
5D3
330
1F
100
AcDbEntity
  8
HEWI
 48
0.1
100
AcDbCircle
 10
0.0000010000003385
 20
-138.496391499999
 30
0.0
 40
18.0
100
AcDbArc
 50
0.0
 51
180.0
  0
LINE
  5
5D4
330
1F
100
AcDbEntity
  8
HEWI
 48
0.1
100
AcDbLine
 10
-26.9999989999933
 20
-138.4964129999982
 30
0.0
 11
0.0000010000003385
 21
-138.496391499999
 31
0.0
  0
LINE
  5
5D5
330
1F
100
AcDbEntity
  8
HEWI
 48
0.1
100
AcDbLine
 10
0.0000010000003385
 20
-138.496391499999
 30
0.0
 11
27.0
 21
-138.4875592399153
 31
0.0
  0
LINE
  5
5EA
330
1F
100
AcDbEntity
  8
HEWI
 48
0.1
100
AcDbLine
 10
630.3941911976421
 20
-72.68677028541318
 30
0.0000000000000946
 11
630.3941911976421
 21
-142.6867702854132
 31
0.0000000000000946
1001
GENIUS_GENODEF_13
1002
{
1000
HIER
1070
     0
1002
}
1002
{
1000
MANEDIT
1070
     0
1002
}
1002
{
1000
NOSEL
1070
     0
1002
}
1002
{
1000
BEHIND
1070
     0
1002
}
1002
{
1000
OTHER
1070
     0
1002
}
1002
{
1000
REACTOR
1002
}
1001
GENIUS_GENOBJ-N-CEN_13
1002
{
1000
OWNER
1000
GEN
1002
}
1001
GENIUS_GENCEN_19
1002
{
1040
0.0
1002
}
  0
LINE
  5
5EB
330
1F
100
AcDbEntity
  8
HEWI
 48
0.1
100
AcDbLine
 10
594.3941911976422
 20
-72.68677028541318
 30
0.0000000000000946
 11
594.3941911976422
 21
-142.6867702854132
 31
0.0000000000000946
1001
GENIUS_GENODEF_13
1002
{
1000
HIER
1070
     0
1002
}
1002
{
1000
MANEDIT
1070
     0
1002
}
1002
{
1000
NOSEL
1070
     0
1002
}
1002
{
1000
BEHIND
1070
     0
1002
}
1002
{
1000
OTHER
1070
     0
1002
}
1002
{
1000
REACTOR
1002
}
1001
GENIUS_GENOBJ-N-CEN_13
1002
{
1000
OWNER
1000
GEN
1002
}
1001
GENIUS_GENCEN_19
1002
{
1040
0.0
1002
}
  0
ARC
  5
5EC
330
1F
100
AcDbEntity
  8
HEWI
 48
0.1
100
AcDbCircle
 10
612.3941911976421
 20
-72.68677028541318
 30
0.0000000000000946
 40
18.0
100
AcDbArc
 50
0.0
 51
180.0
  0
ARC
  5
5ED
330
1F
100
AcDbEntity
  8
HEWI
 48
0.1
100
AcDbCircle
 10
612.3941911976421
 20
-142.6867702854132
 30
0.0000000000000946
 40
18.0
100
AcDbArc
 50
180.0
 51
0.0
  0
LINE
  5
5F6
330
1F
100
AcDbEntity
  8
HEWI
 48
0.1
100
AcDbLine
 10
595.8941911976421
 20
-149.8805175703822
 30
0.0000000000000946
 11
595.8941911976421
 21
-172.6867702854131
 31
0.0000000000000946
  0
LINE
  5
5F7
330
1F
100
AcDbEntity
  8
HEWI
 48
0.1
100
AcDbLine
 10
595.8941911976421
 20
-172.6867702854131
 30
0.0000000000000946
 11
628.8941911976421
 21
-172.6867702854131
 31
0.0000000000000946
  0
LINE
  5
5F8
330
1F
100
AcDbEntity
  8
HEWI
 48
0.1
100
AcDbLine
 10
628.8941911976421
 20
-172.6867702854131
 30
0.0000000000000946
 11
628.8941911976421
 21
-149.8805175703822
 31
0.0000000000000946
  0
HATCH
  5
5F9
330
1F
100
AcDbEntity
  8
HEWI
100
AcDbHatch
 10
0.0
 20
0.0
 30
0.0000000000000946
210
0.0
220
0.0
230
1.0
  2
SOLID
 70
     1
 71
     0
 91
        1
 92
        7
 72
     0
 73
     1
 93
        4
 10
612.3941911976421
 20
-785.6868007854138
 10
612.3941911976412
 20
-781.6868007854136
 10
599.8941911976421
 20
-781.6868007854136
 10
599.8941911976421
 20
-785.6868007854136
 97
        0
 75
     0
 76
     1
 47
0.0726074577041698
 98
        1
 10
603.5190506337971
 20
-783.9844533401367
450
        0
451
        0
460
0.0
461
0.0
452
        0
462
0.0
453
        0
470

1001
ACAD
1010
0.0
1020
0.0
1030
0.0
  0
HATCH
  5
5FA
330
1F
100
AcDbEntity
  8
HEWI
100
AcDbHatch
 10
0.0
 20
0.0
 30
0.0000000000000946
210
0.0
220
0.0
230
1.0
  2
SOLID
 70
     1
 71
     0
 91
        1
 92
        7
 72
     0
 73
     1
 93
        4
 10
624.8941911976421
 20
-785.6868007854136
 10
624.8941911976421
 20
-781.6868007854136
 10
612.3941911976421
 20
-781.6868007854138
 10
612.3941911976421
 20
-785.6868007854138
 97
        0
 75
     0
 76
     1
 47
0.0726074577041698
 98
        1
 10
616.3044303463216
 20
-784.2022760375603
450
        0
451
        0
460
0.0
461
0.0
452
        0
462
0.0
453
        0
470

1001
ACAD
1010
0.0
1020
0.0
1030
0.0
  0
LINE
  5
5FB
330
1F
100
AcDbEntity
  8
HEWI
100
AcDbLine
 10
595.8941911976421
 20
-781.6868007854136
 30
0.0000000000000946
 11
628.8941911976421
 21
-781.6868007854136
 31
0.0000000000000946
  0
LINE
  5
5FC
330
1F
100
AcDbEntity
  8
HEWI
100
AcDbLine
 10
595.8941911976421
 20
-781.6868007854136
 30
0.0000000000000946
 11
595.8941911976421
 21
-172.6867702854131
 31
0.0000000000000946
  0
LINE
  5
5FD
330
1F
100
AcDbEntity
  8
HEWI
 48
0.1
100
AcDbLine
 10
595.8941911976421
 20
-172.6867702854131
 30
0.0000000000000946
 11
628.8941911976421
 21
-172.6867702854131
 31
0.0000000000000946
  0
LINE
  5
5FE
330
1F
100
AcDbEntity
  8
HEWI
100
AcDbLine
 10
628.8941911976421
 20
-172.6867702854131
 30
0.0000000000000946
 11
628.8941911976421
 21
-781.6868007854136
 31
0.0000000000000946
  0
LINE
  5
5FF
330
1F
100
AcDbEntity
  8
HEWI
100
AcDbLine
 10
599.8941911976421
 20
-781.6868007854136
 30
0.0000000000000946
 11
599.8941911976421
 21
-785.6868007854136
 31
0.0000000000000946
  0
LINE
  5
600
330
1F
100
AcDbEntity
  8
HEWI
100
AcDbLine
 10
599.8941911976421
 20
-785.6868007854136
 30
0.0000000000000946
 11
624.8941911976421
 21
-785.6868007854136
 31
0.0000000000000946
  0
LINE
  5
601
330
1F
100
AcDbEntity
  8
HEWI
100
AcDbLine
 10
624.8941911976421
 20
-781.6868007854136
 30
0.0000000000000946
 11
624.8941911976421
 21
-785.6868007854136
 31
0.0000000000000946
  0
CIRCLE
  5
602
330
1F
100
AcDbEntity
  8
HEWI
100
AcDbCircle
 10
647.4985156575278
 20
-105.128818060052
 30
0.0000000000000946
 40
17.08854554217942
  0
LINE
  5
619
330
1F
100
AcDbEntity
  8
HEWI
100
AcDbLine
 10
-299.1414435437176
 20
-126.5
 30
0.0
 11
-299.1414435437176
 21
126.5
 31
0.0
210
0.0
220
1.0
230
0.0
  0
LINE
  5
61A
330
1F
100
AcDbEntity
  8
HEWI
100
AcDbLine
 10
-299.1414435437176
 20
128.0
 30
0.0
 11
-299.1414435437176
 21
126.5
 31
0.0
210
0.0
220
1.0
230
0.0
  0
LINE
  5
61B
330
1F
100
AcDbEntity
  8
HEWI
100
AcDbLine
 10
-299.1414435437176
 20
-126.5
 30
0.0
 11
-299.1414435437176
 21
-128.0
 31
0.0
210
0.0
220
1.0
230
0.0
  0
LINE
  5
61C
330
1F
100
AcDbEntity
  8
HEWI
100
AcDbLine
 10
-304.1414435437176
 20
128.0
 30
0.0000000000000009
 11
-299.1414435437176
 21
128.0
 31
0.0
210
0.0
220
1.0
230
0.0
  0
ARC
  5
61D
330
1F
100
AcDbEntity
  8
HEWI
100
AcDbCircle
 10
-304.1414435437176
 20
116.5
 30
0.0000000000000009
 40
11.5
100
AcDbArc
 50
90.0
 51
180.0
  0
LINE
  5
61E
330
1F
100
AcDbEntity
  8
HEWI
100
AcDbLine
 10
-315.6414435437176
 20
-116.5
 30
0.000000000000003
 11
-315.6414435437176
 21
116.5
 31
0.000000000000003
210
0.0
220
1.0
230
0.0
  0
ARC
  5
61F
330
1F
100
AcDbEntity
  8
HEWI
100
AcDbCircle
 10
-304.1414435437176
 20
-116.5
 30
0.0000000000000009
 40
11.5
100
AcDbArc
 50
180.0
 51
270.0
  0
LINE
  5
620
330
1F
100
AcDbEntity
  8
HEWI
100
AcDbLine
 10
-299.1414435437176
 20
-128.0
 30
0.0
 11
-304.1414435437176
 21
-128.0
 31
0.0000000000000009
210
0.0
220
1.0
230
0.0
  0
LINE
  5
670
330
1F
100
AcDbEntity
  8
HEWI
100
AcDbLine
 10
-485.1378505437186
 20
573.2827488060587
 30
0.000000000000003
 11
-485.1378505437176
 21
300.3174828060573
 31
0.000000000000003
  0
MTEXT
  5
852
330
1F
100
AcDbEntity
  8
0
100
AcDbMText
 10
1114.408032439873
 20
62.21354730722601
 30
-0.0000000000001184
 40
40.0
 41
1658.764253440739
 46
0.0
 71
     1
 72
     5
  1
Bei Bestellung bitte Maß L angeben.\PPlease specify dimension L when ordering.\PÀ la commande, indiquer longueur L.\PBij bestelling lengte L aangeven.
  7
ARIAL
 73
     1
 44
1.0
1001
ACAD
1000
ACAD_MTEXT_COLUMN_INFO_BEGIN
1070
    75
1070
     2
1070
    79
1070
     0
1070
    76
1070
     1
1070
    78
1070
     0
1070
    48
1040
1658.764253440739
1070
    49
1040
1.0
1070
    50
1070
     1
1040
0.0
1000
ACAD_MTEXT_COLUMN_INFO_END
  0
DIMENSION
  5
853
330
1F
100
AcDbEntity
  8
0
370
     9
100
AcDbDimension
280
     0
  2
*D20
 10
972.8280652622569
 20
-780.9377033214132
 30
0.0000000000000122
 11
935.328065262257
 21
-347.9688516607065
 31
0.0000000000000122
 70
    32
  1
L
 71
     5
 42
865.9377033214132
 73
     0
 74
     0
 75
     0
  3
ISO-25
100
AcDbAlignedDimension
 13
836.0081635847018
 23
85.0
 33
0.0000000000000795
 14
836.0081635847018
 24
-780.9377033214132
 34
0.0000000000000197
 50
90.0
100
AcDbRotatedDimension
1001
ACAD
1000
DSTYLE
1002
{
1070
    41
1040
20.0
1070
   140
1040
55.0
1070
   147
1040
10.0
1070
   173
1070
     1
1070
   340
1005
844
1070
   343
1005
833
1070
   344
1005
833
1002
}
  0
ENDSEC
  0
SECTION
  2
OBJECTS
  0
DICTIONARY
  5
C
330
0
100
AcDbDictionary
281
     1
  3
ACAD_CIP_PREVIOUS_PRODUCT_INFO
350
6A6
  3
ACAD_COLOR
350
1AB
  3
ACAD_DETAILVIEWSTYLE
350
6A2
  3
ACAD_GROUP
350
D
  3
ACAD_LAYOUT
350
1AE
  3
ACAD_MATERIAL
350
196
  3
ACAD_MLEADERSTYLE
350
69E
  3
ACAD_MLINESTYLE
350
17
  3
ACAD_PLOTSETTINGS
350
19
  3
ACAD_PLOTSTYLENAME
350
ED
  3
ACAD_SCALELIST
350
68C
  3
ACAD_SECTIONVIEWSTYLE
350
6A0
  3
ACAD_TABLESTYLE
350
1AC
  3
ACAD_VISUALSTYLE
350
19A
  3
ACDB_RECOMPOSE_DATA
350
88C
  3
AcDbVariableDictionary
350
1B3
  0
DICTIONARY
  5
205
330
2
100
AcDbDictionary
280
     1
281
     1
  3
ACAD_LAYERSTATES
360
206
  0
DICTIONARY
  5
87B
330
10
100
AcDbDictionary
280
     1
281
     1
  3
ADSK_XREC_LAYER_RECONCILED
360
87C
  0
DICTIONARY
  5
87D
330
603
100
AcDbDictionary
280
     1
281
     1
  3
ADSK_XREC_LAYER_RECONCILED
360
87E
  0
DICTIONARY
  5
739
330
738
100
AcDbDictionary
280
     1
281
     1
  3
ADSK_XREC_LAYER_RECONCILED
360
87F
  0
DICTIONARY
  5
73B
330
73A
100
AcDbDictionary
280
     1
281
     1
  3
ADSK_XREC_LAYER_RECONCILED
360
880
  0
DICTIONARY
  5
73D
330
73C
100
AcDbDictionary
280
     1
281
     1
  3
ADSK_XREC_LAYER_RECONCILED
360
881
  0
DICTIONARY
  5
E7
330
1F
100
AcDbDictionary
281
     1
  3
ACAD_LAYOUTSELFREF
350
193
  3
ACAD_SORTENTS
350
671
  0
DICTIONARY
  5
E5
330
1B
100
AcDbDictionary
281
     1
  3
ACAD_LAYOUTSELFREF
350
192
  0
DICTIONARY
  5
82E
330
746
100
AcDbDictionary
280
     1
281
     1
  3
ACAD_SORTENTS
360
82F
  0
XRECORD
  5
6A6
102
{ACAD_REACTORS
330
C
102
}
330
C
100
AcDbXrecord
280
     1
300
ACDLT
300
2016
300

  0
DICTIONARY
  5
1AB
102
{ACAD_REACTORS
330
C
102
}
330
C
100
AcDbDictionary
281
     1
  0
DICTIONARY
  5
6A2
102
{ACAD_REACTORS
330
C
102
}
330
C
100
AcDbDictionary
281
     1
  3
Imperial24
350
6A3
  0
DICTIONARY
  5
D
102
{ACAD_REACTORS
330
C
102
}
330
C
100
AcDbDictionary
281
     1
  0
DICTIONARY
  5
1AE
102
{ACAD_REACTORS
330
C
102
}
330
C
100
AcDbDictionary
281
     1
  3
Layout1
350
1B0
  3
Model
350
1AF
  0
DICTIONARY
  5
196
102
{ACAD_REACTORS
330
C
102
}
330
C
100
AcDbDictionary
281
     1
  3
ByBlock
350
198
  3
ByLayer
350
197
  3
Global
350
199
  0
DICTIONARY
  5
69E
102
{ACAD_REACTORS
330
C
102
}
330
C
100
AcDbDictionary
281
     1
  3
Standard
350
69F
  0
DICTIONARY
  5
17
102
{ACAD_REACTORS
330
C
102
}
330
C
100
AcDbDictionary
281
     1
  3
STANDARD
350
18
  0
DICTIONARY
  5
19
102
{ACAD_REACTORS
330
C
102
}
330
C
100
AcDbDictionary
281
     1
  0
ACDBDICTIONARYWDFLT
  5
ED
102
{ACAD_REACTORS
330
C
102
}
330
C
100
AcDbDictionary
281
     1
  3
Normal
350
EE
100
AcDbDictionaryWithDefault
340
EE
  0
DICTIONARY
  5
68C
102
{ACAD_REACTORS
330
C
102
}
330
C
100
AcDbDictionary
281
     1
  3
A0
350
68D
  3
A1
350
68E
  3
A2
350
68F
  3
A3
350
690
  3
A4
350
691
  3
A5
350
692
  3
A6
350
693
  3
A7
350
694
  3
A8
350
695
  3
A9
350
696
  3
B0
350
697
  3
B1
350
698
  3
B2
350
699
  3
B3
350
69A
  3
B4
350
69B
  3
B5
350
69C
  3
B6
350
69D
  0
DICTIONARY
  5
6A0
102
{ACAD_REACTORS
330
C
102
}
330
C
100
AcDbDictionary
281
     1
  3
Imperial24
350
6A1
  0
DICTIONARY
  5
1AC
102
{ACAD_REACTORS
330
C
102
}
330
C
100
AcDbDictionary
281
     1
  3
Standard
350
1AD
  0
DICTIONARY
  5
19A
102
{ACAD_REACTORS
330
C
102
}
330
C
100
AcDbDictionary
281
     1
  3
2dWireframe
350
1A0
  3
3D Hidden
350
1A2
  3
3dWireframe
350
1A1
  3
Basic
350
19F
  3
Brighten
350
1A6
  3
ColorChange
350
1AA
  3
Conceptual
350
1A3
  3
Dim
350
1A5
  3
EdgeColorOff
350
68B
  3
Facepattern
350
1A9
  3
Flat
350
19B
  3
FlatWithEdges
350
19C
  3
Gouraud
350
19D
  3
GouraudWithEdges
350
19E
  3
Hidden
350
683
  3
JitterOff
350
689
  3
Linepattern
350
1A8
  3
OverhangOff
350
68A
  3
Realistic
350
1A4
  3
Shaded
350
688
  3
Shaded with edges
350
687
  3
Shades of Gray
350
684
  3
Sketchy
350
685
  3
Thicken
350
1A7
  3
Wireframe
350
682
  3
X-Ray
350
686
  0
XRECORD
  5
88C
102
{ACAD_REACTORS
330
C
102
}
330
C
100
AcDbXrecord
280
     1
 90
        1
330
1AD
330
852
  0
DICTIONARY
  5
1B3
102
{ACAD_REACTORS
330
C
102
}
330
C
100
AcDbDictionary
281
     1
  3
CANNOSCALE
350
886
  3
CMLEADERSTYLE
350
882
  3
CTABLESTYLE
350
1B4
  3
CVIEWDETAILSTYLE
350
883
  3
CVIEWSECTIONSTYLE
350
884
  3
DIMASSOC
350
623
  3
INDEXCTL
350
622
  3
LAYEREVAL
350
888
  3
LAYERNOTIFY
350
889
  3
LIGHTINGUNITS
350
887
  3
MSLTSCALE
350
885
  3
SORTENTS
350
621
  0
DICTIONARY
  5
206
102
{ACAD_REACTORS
330
205
102
}
330
205
100
AcDbDictionary
281
     1
  0
XRECORD
  5
87C
102
{ACAD_REACTORS
330
87B
102
}
330
87B
100
AcDbXrecord
280
     1
290
     1
  0
XRECORD
  5
87E
102
{ACAD_REACTORS
330
87D
102
}
330
87D
100
AcDbXrecord
280
     1
290
     1
  0
XRECORD
  5
87F
102
{ACAD_REACTORS
330
739
102
}
330
739
100
AcDbXrecord
280
     1
290
     1
  0
XRECORD
  5
880
102
{ACAD_REACTORS
330
73B
102
}
330
73B
100
AcDbXrecord
280
     1
290
     1
  0
XRECORD
  5
881
102
{ACAD_REACTORS
330
73D
102
}
330
73D
100
AcDbXrecord
280
     1
290
     1
  0
XRECORD
  5
193
102
{ACAD_REACTORS
330
E7
102
}
330
E7
100
AcDbXrecord
280
     1
340
1F
  0
SORTENTSTABLE
  5
671
102
{ACAD_REACTORS
330
E7
102
}
330
E7
100
AcDbSortentsTable
330
1F
331
116
  5
116
331
149
  5
149
331
4A6
  5
4A7
331
170
  5
170
331
4A2
  5
4A2
331
61F
  5
620
331
49E
  5
49E
331
509
  5
50A
331
5BC
  5
5BD
331
61B
  5
61C
331
49A
  5
49A
331
5B8
  5
5B9
331
145
  5
145
331
141
  5
141
331
13D
  5
13D
331
670
  5
4A4
331
139
  5
139
331
5FF
  5
600
331
4D1
  5
509
331
5B4
  5
5B5
331
5FB
  5
5FC
331
5F7
  5
5F8
331
4CD
  5
4CE
331
5B0
  5
5B1
331
4C9
  5
4CA
331
5A8
  5
5A9
331
135
  5
135
331
12D
  5
12D
331
129
  5
129
331
4C5
  5
4C6
331
16E
  5
16E
331
16A
  5
16A
331
4C1
  5
4C2
331
5EB
  5
5EC
331
166
  5
166
331
4BD
  5
4BE
331
524
  5
525
331
5D3
  5
5D4
331
162
  5
162
331
4B9
  5
4BA
331
125
  5
125
331
121
  5
121
331
11D
  5
11D
331
119
  5
119
331
4B5
  5
4B6
331
5CF
  5
5D0
331
15E
  5
15E
331
15A
  5
15A
331
4B1
  5
4B2
331
51C
  5
51E
331
5C7
  5
5C8
331
156
  5
156
331
4AD
  5
4AE
331
5C3
  5
5C4
331
152
  5
152
331
4A9
  5
4AA
331
115
  5
115
331
14C
  5
14C
331
148
  5
148
331
4A5
  5
4A6
331
4A1
  5
4A1
331
5BF
  5
5C3
331
61E
  5
61F
331
49D
  5
49D
331
50C
  5
515
331
5BB
  5
5BC
331
61A
  5
61B
331
144
  5
144
331
140
  5
140
331
13C
  5
13C
331
138
  5
138
331
3BD
  5
3BD
331
5B7
  5
5B8
331
5FE
  5
5FF
331
5FA
  5
5FB
331
3B9
  5
3B9
331
4D0
  5
4D1
331
5B3
  5
5B4
331
5F6
  5
5F7
331
3B5
  5
3B5
331
4CC
  5
4CD
331
5AF
  5
5B0
331
4C8
  5
4C9
331
134
  5
134
331
130
  5
130
331
12C
  5
12C
331
128
  5
128
331
16D
  5
16D
331
4C4
  5
4C5
331
5A7
  5
5A8
331
169
  5
169
331
4C0
  5
4C1
331
5EA
  5
5EB
331
165
  5
165
331
4BC
  5
4BD
331
4B8
  5
4B9
331
523
  5
524
331
5D2
  5
5D3
331
161
  5
161
331
124
  5
124
331
120
  5
120
331
11C
  5
11C
331
602
  5
619
331
118
  5
118
331
4B4
  5
4B5
331
51F
  5
521
331
5CE
  5
5CF
331
15D
  5
15D
331
159
  5
159
331
4B0
  5
4B1
331
51B
  5
51C
331
5C6
  5
5C7
331
155
  5
155
331
4AC
  5
4AD
331
151
  5
151
331
4A8
  5
4A9
331
114
  5
114
331
14F
  5
14F
331
14B
  5
14B
331
4A4
  5
4A5
331
5BE
  5
5BF
331
61D
  5
61E
331
50B
  5
50C
331
5BA
  5
5BB
331
619
  5
61A
331
147
  5
147
331
143
  5
143
331
13F
  5
13F
331
13B
  5
13B
331
5B6
  5
5B7
331
5FD
  5
5FE
331
5F9
  5
5FA
331
4CF
  5
4D0
331
5B2
  5
5B3
331
5AE
  5
5AF
331
137
  5
137
331
133
  5
133
331
12F
  5
12F
331
12B
  5
12B
331
4C7
  5
4C8
331
16C
  5
16C
331
4C3
  5
4C4
331
5ED
  5
5F6
331
168
  5
168
331
4BF
  5
4C0
331
5D5
  5
5EA
331
164
  5
164
331
4BB
  5
4BC
331
526
  5
5A7
331
522
  5
523
331
5D1
  5
5D2
331
160
  5
160
331
127
  5
127
331
123
  5
123
331
11F
  5
11F
331
11B
  5
11B
331
4B7
  5
4B8
331
601
  5
602
331
15C
  5
15C
331
4B3
  5
4B4
331
51E
  5
51F
331
5CD
  5
5CE
331
158
  5
158
331
4AF
  5
4B0
331
51A
  5
51B
331
5C5
  5
5C6
331
154
  5
154
331
4AB
  5
4AC
331
150
  5
150
331
620
  5
670
331
117
  5
117
331
113
  5
113
331
14E
  5
14E
331
14A
  5
14A
331
4A7
  5
4A8
331
4A3
  5
4A3
331
49F
  5
49F
331
50A
  5
50B
331
5BD
  5
5BE
331
61C
  5
61D
331
5B9
  5
5BA
331
146
  5
146
331
142
  5
142
331
13A
  5
13A
331
3BB
  5
3BB
331
5B5
  5
5B6
331
5FC
  5
5FD
331
5F8
  5
5F9
331
4CE
  5
4CF
331
5B1
  5
5B2
331
4CA
  5
4CC
331
5A9
  5
5AE
331
136
  5
136
331
132
  5
132
331
12E
  5
12E
331
12A
  5
12A
331
4C6
  5
4C7
331
16F
  5
16F
331
16B
  5
16B
331
4C2
  5
4C3
331
5EC
  5
5ED
331
167
  5
167
331
4BE
  5
4BF
331
525
  5
526
331
5D4
  5
5D5
331
163
  5
163
331
4BA
  5
4BB
331
521
  5
522
331
5D0
  5
5D1
331
126
  5
126
331
122
  5
122
331
11E
  5
11E
331
11A
  5
11A
331
4B6
  5
4B7
331
600
  5
601
331
15F
  5
15F
331
15B
  5
15B
331
4B2
  5
4B3
331
5CC
  5
5CD
331
5C8
  5
5CC
331
157
  5
157
331
4AE
  5
4AF
331
5C4
  5
5C5
331
153
  5
153
331
4AA
  5
4AB
331
515
  5
51A
  0
XRECORD
  5
192
102
{ACAD_REACTORS
330
E5
102
}
330
E5
100
AcDbXrecord
280
     1
340
1B
  0
SORTENTSTABLE
  5
82F
102
{ACAD_REACTORS
330
82E
102
}
330
82E
100
AcDbSortentsTable
330
746
331
7B7
  5
7B9
331
7B3
  5
7B5
331
7F4
  5
7F6
331
7F0
  5
7F2
331
7EC
  5
7EE
331
82B
  5
82D
331
7E8
  5
7EA
331
7AF
  5
7B1
331
827
  5
829
331
823
  5
825
331
7E4
  5
7E6
331
7E0
  5
7E2
331
81F
  5
821
331
7DC
  5
7DE
331
81B
  5
81D
331
7D8
  5
7DA
331
817
  5
819
331
813
  5
815
331
7D4
  5
7D6
331
7D0
  5
7D2
331
80F
  5
811
331
7CC
  5
7CE
331
80B
  5
80D
331
7C8
  5
7CA
331
807
  5
809
331
803
  5
805
331
7C4
  5
7C6
331
7C0
  5
7C2
331
7FF
  5
801
331
7BC
  5
7BE
331
7FB
  5
7FD
331
7B8
  5
7BA
331
7B6
  5
7B8
331
7B2
  5
7B4
331
7F7
  5
7F9
331
7F3
  5
7F5
331
7EF
  5
7F1
331
7EB
  5
7ED
331
82A
  5
82C
331
7AE
  5
7B0
331
826
  5
828
331
7E7
  5
7E9
331
7E3
  5
7E5
331
822
  5
824
331
7DF
  5
7E1
331
81E
  5
820
331
7DB
  5
7DD
331
81A
  5
81C
331
816
  5
818
331
7D7
  5
7D9
331
812
  5
814
331
7D3
  5
7D5
331
7CF
  5
7D1
331
80E
  5
810
331
7CB
  5
7CD
331
80A
  5
80C
331
7C7
  5
7C9
331
806
  5
808
331
802
  5
804
331
7C3
  5
7C5
331
7BF
  5
7C1
331
7FE
  5
800
331
7BB
  5
7BD
331
7FA
  5
7FC
331
7B5
  5
7B7
331
7B1
  5
7B3
331
7F6
  5
7F8
331
7F2
  5
7F4
331
7EE
  5
7F0
331
82D
  5
7AF
331
7EA
  5
7EC
331
829
  5
82B
331
7AD
  5
7AE
331
825
  5
827
331
7E6
  5
7E8
331
7E2
  5
7E4
331
821
  5
823
331
7DE
  5
7E0
331
81D
  5
81F
331
7DA
  5
7DC
331
819
  5
81B
331
815
  5
817
331
7D6
  5
7D8
331
7D2
  5
7D4
331
811
  5
813
331
7CE
  5
7D0
331
80D
  5
80F
331
7CA
  5
7CC
331
809
  5
80B
331
805
  5
807
331
7C6
  5
7C8
331
801
  5
803
331
7C2
  5
7C4
331
7BE
  5
7C0
331
7FD
  5
7FF
331
7BA
  5
7BC
331
7F9
  5
7FB
331
7B4
  5
7B6
331
7B0
  5
7B2
331
7F5
  5
7F7
331
7F1
  5
7F3
331
7ED
  5
7EF
331
82C
  5
7AD
331
7E9
  5
7EB
331
828
  5
82A
331
824
  5
826
331
7E5
  5
7E7
331
7E1
  5
7E3
331
820
  5
822
331
7DD
  5
7DF
331
81C
  5
81E
331
7D9
  5
7DB
331
818
  5
81A
331
814
  5
816
331
7D5
  5
7D7
331
7D1
  5
7D3
331
810
  5
812
331
7CD
  5
7CF
331
80C
  5
80E
331
7C9
  5
7CB
331
808
  5
80A
331
804
  5
806
331
7C5
  5
7C7
331
7C1
  5
7C3
331
800
  5
802
331
7BD
  5
7BF
331
7FC
  5
7FE
331
7B9
  5
7BB
331
7F8
  5
7FA
  0
ACDBDETAILVIEWSTYLE
  5
6A3
102
{ACAD_XDICTIONARY
360
8C3
102
}
102
{ACAD_REACTORS
330
6A2
102
}
330
6A2
100
AcDbModelDocViewStyle
 70
     0
  3
Imperial24
290
     0
100
AcDbDetailViewStyle
 70
     0
 71
     0
 90
        3
 71
     1
340
11
 62
   256
 40
0.24
340
0
 62
   256
 40
0.24
300

 40
0.36
280
     3
 71
     2
340
16
 90
       25
 62
   256
 71
     3
340
11
 62
   256
 40
0.24
 90
        1
 40
0.75
 90
        1
300
%<\AcVar ViewType \f "%tc1">% %<\AcVar ViewDetailId>%\PVARIA %<\AcVar ViewScale \f "%sn">%
 71
     4
340
16
 90
       25
 62
   256
340
16
 90
       25
 62
   256
280
     0
  0
LAYOUT
  5
1B0
102
{ACAD_REACTORS
330
1AE
102
}
330
1AE
100
AcDbPlotSettings
  1

  2
\\druckserv1\AROBBE04
  4

  6

 40
0.0
 41
0.0
 42
0.0
 43
0.0
 44
0.0
 45
0.0
 46
0.0
 47
0.0
 48
0.0
 49
0.0
140
0.0
141
0.0
142
1.0
143
1.0
 70
   688
 72
     0
 73
     0
 74
     5
  7

 75
    16
147
1.0
 76
     0
 77
     2
 78
   300
148
0.0
149
0.0
100
AcDbLayout
  1
Layout1
 70
     1
 71
     1
 10
0.0
 20
0.0
 11
12.0
 21
9.0
 12
0.0
 22
0.0
 32
0.0
 14
1.000000000000000E+20
 24
1.000000000000000E+20
 34
1.000000000000000E+20
 15
-1.000000000000000E+20
 25
-1.000000000000000E+20
 35
-1.000000000000000E+20
146
0.0
 13
0.0
 23
0.0
 33
0.0
 16
1.0
 26
0.0
 36
0.0
 17
0.0
 27
1.0
 37
0.0
 76
     0
330
1B
  0
LAYOUT
  5
1AF
102
{ACAD_REACTORS
330
1AE
102
}
330
1AE
100
AcDbPlotSettings
  1

  2
\\druckserv1\AROBBE04
  4

  6

 40
0.0
 41
0.0
 42
0.0
 43
0.0
 44
0.0
 45
0.0
 46
0.0
 47
0.0
 48
0.0
 49
0.0
140
0.0
141
0.0
142
1.0
143
1.0
 70
  1712
 72
     0
 73
     0
 74
     0
  7

 75
     0
147
1.0
 76
     0
 77
     2
 78
   300
148
0.0
149
0.0
100
AcDbLayout
  1
Model
 70
     1
 71
     0
 10
0.0
 20
0.0
 11
12.0
 21
9.0
 12
0.0
 22
0.0
 32
0.0
 14
0.0
 24
0.0
 34
0.0
 15
0.0
 25
0.0
 35
0.0
146
0.0
 13
0.0
 23
0.0
 33
0.0
 16
1.0
 26
0.0
 36
0.0
 17
0.0
 27
1.0
 37
0.0
 76
     0
330
1F
331
171
  0
MATERIAL
  5
198
102
{ACAD_XDICTIONARY
360
627
102
}
102
{ACAD_REACTORS
330
196
102
}
330
196
100
AcDbMaterial
  1
ByBlock
  0
MATERIAL
  5
197
102
{ACAD_XDICTIONARY
360
625
102
}
102
{ACAD_REACTORS
330
196
102
}
330
196
100
AcDbMaterial
  1
ByLayer
  0
MATERIAL
  5
199
102
{ACAD_XDICTIONARY
360
629
102
}
102
{ACAD_REACTORS
330
196
102
}
330
196
100
AcDbMaterial
  1
Global
  0
MLEADERSTYLE
  5
69F
102
{ACAD_REACTORS
330
69E
102
}
330
69E
100
AcDbMLeaderStyle
179
     2
170
     2
171
     1
172
     0
 90
        2
 40
0.0
 41
0.0
173
     1
 91
-1056964608
340
14
 92
       -2
290
     1
 42
0.09
291
     1
 43
0.36
  3
Standard
 44
0.18
300

342
11
174
     1
178
     6
175
     1
176
     0
 93
-1056964608
 45
0.18
292
     0
297
     0
 46
0.18
 94
-1056964608
 47
1.0
 49
1.0
140
1.0
293
     1
141
0.0
294
     1
177
     0
142
1.0
295
     0
296
     0
143
0.125
271
     0
272
     9
273
     9
  0
MLINESTYLE
  5
18
102
{ACAD_REACTORS
330
17
102
}
330
17
100
AcDbMlineStyle
  2
STANDARD
 70
     0
  3

 62
   256
 51
90.0
 52
90.0
 71
     2
 49
0.5
 62
   256
  6
BYLAYER
 49
-0.5
 62
   256
  6
BYLAYER
  0
ACDBPLACEHOLDER
  5
EE
102
{ACAD_REACTORS
330
ED
102
}
330
ED
  0
SCALE
  5
68D
102
{ACAD_REACTORS
330
68C
102
}
330
68C
100
AcDbScale
 70
     0
300
1:1
140
1.0
141
1.0
290
     1
  0
SCALE
  5
68E
102
{ACAD_REACTORS
330
68C
102
}
330
68C
100
AcDbScale
 70
     0
300
1/128" = 1'-0"
140
0.0078125
141
12.0
290
     0
  0
SCALE
  5
68F
102
{ACAD_REACTORS
330
68C
102
}
330
68C
100
AcDbScale
 70
     0
300
1/64" = 1'-0"
140
0.015625
141
12.0
290
     0
  0
SCALE
  5
690
102
{ACAD_REACTORS
330
68C
102
}
330
68C
100
AcDbScale
 70
     0
300
1/32" = 1'-0"
140
0.03125
141
12.0
290
     0
  0
SCALE
  5
691
102
{ACAD_REACTORS
330
68C
102
}
330
68C
100
AcDbScale
 70
     0
300
1/16" = 1'-0"
140
0.0625
141
12.0
290
     0
  0
SCALE
  5
692
102
{ACAD_REACTORS
330
68C
102
}
330
68C
100
AcDbScale
 70
     0
300
3/32" = 1'-0"
140
0.09375
141
12.0
290
     0
  0
SCALE
  5
693
102
{ACAD_REACTORS
330
68C
102
}
330
68C
100
AcDbScale
 70
     0
300
1/8" = 1'-0"
140
0.125
141
12.0
290
     0
  0
SCALE
  5
694
102
{ACAD_REACTORS
330
68C
102
}
330
68C
100
AcDbScale
 70
     0
300
3/16" = 1'-0"
140
0.1875
141
12.0
290
     0
  0
SCALE
  5
695
102
{ACAD_REACTORS
330
68C
102
}
330
68C
100
AcDbScale
 70
     0
300
1/4" = 1'-0"
140
0.25
141
12.0
290
     0
  0
SCALE
  5
696
102
{ACAD_REACTORS
330
68C
102
}
330
68C
100
AcDbScale
 70
     0
300
3/8" = 1'-0"
140
0.375
141
12.0
290
     0
  0
SCALE
  5
697
102
{ACAD_REACTORS
330
68C
102
}
330
68C
100
AcDbScale
 70
     0
300
1/2" = 1'-0"
140
0.5
141
12.0
290
     0
  0
SCALE
  5
698
102
{ACAD_REACTORS
330
68C
102
}
330
68C
100
AcDbScale
 70
     0
300
3/4" = 1'-0"
140
0.75
141
12.0
290
     0
  0
SCALE
  5
699
102
{ACAD_REACTORS
330
68C
102
}
330
68C
100
AcDbScale
 70
     0
300
1" = 1'-0"
140
1.0
141
12.0
290
     0
  0
SCALE
  5
69A
102
{ACAD_REACTORS
330
68C
102
}
330
68C
100
AcDbScale
 70
     0
300
1-1/2" = 1'-0"
140
1.5
141
12.0
290
     0
  0
SCALE
  5
69B
102
{ACAD_REACTORS
330
68C
102
}
330
68C
100
AcDbScale
 70
     0
300
3" = 1'-0"
140
3.0
141
12.0
290
     0
  0
SCALE
  5
69C
102
{ACAD_REACTORS
330
68C
102
}
330
68C
100
AcDbScale
 70
     0
300
6" = 1'-0"
140
6.0
141
12.0
290
     0
  0
SCALE
  5
69D
102
{ACAD_REACTORS
330
68C
102
}
330
68C
100
AcDbScale
 70
     0
300
1'-0" = 1'-0"
140
12.0
141
12.0
290
     0
  0
ACDBSECTIONVIEWSTYLE
  5
6A1
102
{ACAD_XDICTIONARY
360
8C1
102
}
102
{ACAD_REACTORS
330
6A0
102
}
330
6A0
100
AcDbModelDocViewStyle
 70
     0
  3
Imperial24
290
     0
100
AcDbSectionViewStyle
 70
     0
 71
     0
 90
       78
 71
     1
340
11
 62
   256
 40
0.24
340
0
340
0
 62
   256
 40
0.24
300
I, O, Q, S, X, Z
 40
0.48
 90
        3
 40
0.18
 90
        1
 71
     2
340
16
 90
       25
 62
   256
340
16
 90
       50
 62
   256
 40
0.24
 40
0.0
 40
0.24
 71
     3
340
11
 62
   256
 40
0.24
 90
        1
 40
0.75
 90
        1
300
%<\AcVar ViewType \f "%tc1">% %<\AcVar ViewSectionStartId>%-%<\AcVar ViewSectionEndId>%\PVARIA %<\AcVar ViewScale \f "%sn">%
 71
     4
 62
   256
 62
   257
300
ANSI31
 40
1.0
 90
        0
290
     0
290
     0
 90
        6
 40
0.0
 40
1.570796326794896
 40
0.2617993877991494
 40
1.308996938995747
 40
-0.2617993877991494
 40
1.832595714594046
  0
TABLESTYLE
  5
1AD
102
{ACAD_XDICTIONARY
360
88A
102
}
102
{ACAD_REACTORS
330
1AC
102
}
330
1AC
100
AcDbTableStyle
280
     0
  3
Standard
 70
     0
 71
     0
 40
0.06
 41
0.06
280
     0
281
     0
  7
STANDARD
140
0.18
170
     2
 62
     0
 63
     7
283
     0
 90
      512
 91
        0
  1

274
    -2
284
     1
 64
     0
275
    -2
285
     1
 65
     0
276
    -2
286
     1
 66
     0
277
    -2
287
     1
 67
     0
278
    -2
288
     1
 68
     0
279
    -2
289
     1
 69
     0
  7
STANDARD
140
0.25
170
     5
 62
     0
 63
     7
283
     0
 90
      512
 91
        0
  1

274
    -2
284
     1
 64
     0
275
    -2
285
     1
 65
     0
276
    -2
286
     1
 66
     0
277
    -2
287
     1
 67
     0
278
    -2
288
     1
 68
     0
279
    -2
289
     1
 69
     0
  7
STANDARD
140
0.18
170
     5
 62
     0
 63
     7
283
     0
 90
      512
 91
        0
  1

274
    -2
284
     1
 64
     0
275
    -2
285
     1
 65
     0
276
    -2
286
     1
 66
     0
277
    -2
287
     1
 67
     0
278
    -2
288
     1
 68
     0
279
    -2
289
     1
 69
     0
  0
VISUALSTYLE
  5
1A0
102
{ACAD_XDICTIONARY
360
897
102
}
102
{ACAD_REACTORS
330
19A
102
}
330
19A
100
AcDbVisualStyle
  2

 70
     4
177
     2
291
     0
 71
     0
176
     1
 72
     2
176
     1
 73
     0
176
     1
 90
        0
176
     1
 40
0.6
176
     1
 41
30.0
176
     1
 63
     7
176
     1
 74
     1
176
     1
 91
        4
176
     1
 64
     7
176
     1
 65
   257
176
     1
 75
     1
176
     1
175
     1
176
     1
 42
1.0
176
     1
 92
        0
176
     1
 66
   257
176
     1
 43
1.0
176
     1
 76
     1
176
     1
 77
     6
176
     1
 78
     2
176
     1
 67
     7
176
     1
 79
     5
176
     1
170
     0
176
     1
171
     0
176
     1
290
     0
176
     1
 93
        1
176
     1
 44
0.0
176
     1
173
     0
176
     1
1001
ACAD
1000
AcDbSavedByObjectVersion
1070
     0
  0
VISUALSTYLE
  5
1A2
102
{ACAD_XDICTIONARY
360
89B
102
}
102
{ACAD_REACTORS
330
19A
102
}
330
19A
100
AcDbVisualStyle
  2

 70
     6
177
     2
291
     0
 71
     1
176
     1
 72
     2
176
     1
 73
     2
176
     1
 90
        0
176
     1
 40
0.6
176
     1
 41
30.0
176
     1
 63
     7
176
     1
 74
     2
176
     1
 91
        2
176
     1
 64
     7
176
     1
 65
   257
176
     1
 75
     2
176
     1
175
     1
176
     1
 42
40.0
176
     1
 92
        0
176
     1
 66
   257
176
     1
 43
1.0
176
     1
 76
     1
176
     1
 77
     6
176
     1
 78
     2
176
     1
 67
     7
176
     1
 79
     3
176
     1
170
     0
176
     1
171
     0
176
     1
290
     0
176
     1
 93
        1
176
     1
 44
0.0
176
     1
173
     0
176
     1
1001
ACAD
1000
AcDbSavedByObjectVersion
1070
     0
  0
VISUALSTYLE
  5
1A1
102
{ACAD_XDICTIONARY
360
899
102
}
102
{ACAD_REACTORS
330
19A
102
}
330
19A
100
AcDbVisualStyle
  2

 70
     5
177
     2
291
     0
 71
     0
176
     1
 72
     2
176
     1
 73
     0
176
     1
 90
        0
176
     1
 40
0.6
176
     1
 41
30.0
176
     1
 63
     7
176
     1
 74
     1
176
     1
 91
        4
176
     1
 64
     7
176
     1
 65
   257
176
     1
 75
     1
176
     1
175
     1
176
     1
 42
1.0
176
     1
 92
        0
176
     1
 66
   257
176
     1
 43
1.0
176
     1
 76
     1
176
     1
 77
     6
176
     1
 78
     2
176
     1
 67
     7
176
     1
 79
     5
176
     1
170
     0
176
     1
171
     0
176
     1
290
     0
176
     1
 93
        1
176
     1
 44
0.0
176
     1
173
     0
176
     1
1001
ACAD
1000
AcDbSavedByObjectVersion
1070
     0
  0
VISUALSTYLE
  5
19F
102
{ACAD_XDICTIONARY
360
895
102
}
102
{ACAD_REACTORS
330
19A
102
}
330
19A
100
AcDbVisualStyle
  2

 70
     7
177
     2
291
     1
 71
     1
176
     1
 72
     0
176
     1
 73
     1
176
     1
 90
        0
176
     1
 40
0.6
176
     1
 41
30.0
176
     1
 63
     7
176
     1
 74
     0
176
     1
 91
        4
176
     1
 64
     7
176
     1
 65
   257
176
     1
 75
     1
176
     1
175
     1
176
     1
 42
1.0
176
     1
 92
        8
176
     1
 66
     7
176
     1
 43
1.0
176
     1
 76
     1
176
     1
 77
     6
176
     1
 78
     2
176
     1
 67
     7
176
     1
 79
     5
176
     1
170
     0
176
     1
171
     0
176
     1
290
     0
176
     1
 93
        1
176
     1
 44
0.0
176
     1
173
     0
176
     1
1001
ACAD
1000
AcDbSavedByObjectVersion
1070
     0
  0
VISUALSTYLE
  5
1A6
102
{ACAD_XDICTIONARY
360
8A3
102
}
102
{ACAD_REACTORS
330
19A
102
}
330
19A
100
AcDbVisualStyle
  2

 70
    12
177
     2
291
     1
 71
     2
176
     1
 72
     2
176
     1
 73
     0
176
     1
 90
        0
176
     1
 40
0.6
176
     1
 41
30.0
176
     1
 63
     7
176
     1
 74
     1
176
     1
 91
        4
176
     1
 64
     7
176
     1
 65
   257
176
     1
 75
     1
176
     1
175
     1
176
     1
 42
1.0
176
     1
 92
        8
176
     1
 66
     7
176
     1
 43
1.0
176
     1
 76
     1
176
     1
 77
     6
176
     1
 78
     2
176
     1
 67
     7
176
     1
 79
     5
176
     1
170
     0
176
     1
171
     0
176
     1
290
     0
176
     1
 93
        1
176
     1
 44
50.0
176
     1
173
     0
176
     1
1001
ACAD
1000
AcDbSavedByObjectVersion
1070
     0
  0
VISUALSTYLE
  5
1AA
102
{ACAD_XDICTIONARY
360
8AB
102
}
102
{ACAD_REACTORS
330
19A
102
}
330
19A
100
AcDbVisualStyle
  2

 70
    16
177
     2
291
     1
 71
     2
176
     1
 72
     2
176
     1
 73
     3
176
     1
 90
        0
176
     1
 40
0.6
176
     1
 41
30.0
176
     1
 63
     8
176
     1
 74
     1
176
     1
 91
        4
176
     1
 64
     7
176
     1
 65
   257
176
     1
 75
     1
176
     1
175
     1
176
     1
 42
1.0
176
     1
 92
        8
176
     1
 66
     8
176
     1
 43
1.0
176
     1
 76
     1
176
     1
 77
     6
176
     1
 78
     2
176
     1
 67
     7
176
     1
 79
     5
176
     1
170
     0
176
     1
171
     0
176
     1
290
     0
176
     1
 93
        1
176
     1
 44
0.0
176
     1
173
     0
176
     1
1001
ACAD
1000
AcDbSavedByObjectVersion
1070
     0
  0
VISUALSTYLE
  5
1A3
102
{ACAD_XDICTIONARY
360
89D
102
}
102
{ACAD_REACTORS
330
19A
102
}
330
19A
100
AcDbVisualStyle
  2

 70
     9
177
     2
291
     0
 71
     3
176
     1
 72
     2
176
     1
 73
     0
176
     1
 90
        0
176
     1
 40
0.6
176
     1
 41
30.0
176
     1
 63
     7
176
     1
 74
     2
176
     1
 91
        2
176
     1
 64
     7
176
     1
 65
   257
176
     1
 75
     1
176
     1
175
     1
176
     1
 42
40.0
176
     1
 92
        8
176
     1
 66
     7
176
     1
 43
1.0
176
     1
 76
     1
176
     1
 77
     6
176
     1
 78
     2
176
     1
 67
     7
176
     1
 79
     3
176
     1
170
     0
176
     1
171
     0
176
     1
290
     0
176
     1
 93
        1
176
     1
 44
0.0
176
     1
173
     0
176
     1
1001
ACAD
1000
AcDbSavedByObjectVersion
1070
     0
  0
VISUALSTYLE
  5
1A5
102
{ACAD_XDICTIONARY
360
8A1
102
}
102
{ACAD_REACTORS
330
19A
102
}
330
19A
100
AcDbVisualStyle
  2

 70
    11
177
     2
291
     1
 71
     2
176
     1
 72
     2
176
     1
 73
     0
176
     1
 90
        0
176
     1
 40
0.6
176
     1
 41
30.0
176
     1
 63
     7
176
     1
 74
     1
176
     1
 91
        4
176
     1
 64
     7
176
     1
 65
   257
176
     1
 75
     1
176
     1
175
     1
176
     1
 42
1.0
176
     1
 92
        8
176
     1
 66
     7
176
     1
 43
1.0
176
     1
 76
     1
176
     1
 77
     6
176
     1
 78
     2
176
     1
 67
     7
176
     1
 79
     5
176
     1
170
     0
176
     1
171
     0
176
     1
290
     0
176
     1
 93
        1
176
     1
 44
-50.0
176
     1
173
     0
176
     1
1001
ACAD
1000
AcDbSavedByObjectVersion
1070
     0
  0
VISUALSTYLE
  5
68B
102
{ACAD_XDICTIONARY
360
8BF
102
}
102
{ACAD_REACTORS
330
19A
102
}
330
19A
100
AcDbVisualStyle
  2
EdgeColorOff
 70
    22
177
     2
291
     1
 71
     2
176
     0
 72
     2
176
     0
 73
     0
176
     0
 90
        0
176
     0
 40
0.6
176
     0
 41
30.0
176
     0
 63
     7
421
 16777215
176
     0
 74
     1
176
     0
 91
        4
176
     0
 64
     7
176
     0
 65
   257
176
     0
 75
     1
176
     0
175
     1
176
     0
 42
1.0
176
     0
 92
        8
176
     2
 66
     7
176
     0
 43
1.0
176
     0
 76
     1
176
     0
 77
     6
176
     0
 78
     2
176
     0
 67
     7
176
     0
 79
     5
176
     0
170
     0
176
     0
171
     0
176
     0
290
     0
176
     0
 93
        1
176
     0
 44
0.0
176
     0
173
     0
176
     0
1001
ACAD
1000
AcDbSavedByObjectVersion
1070
     0
  0
VISUALSTYLE
  5
1A9
102
{ACAD_XDICTIONARY
360
8A9
102
}
102
{ACAD_REACTORS
330
19A
102
}
330
19A
100
AcDbVisualStyle
  2

 70
    15
177
     2
291
     1
 71
     2
176
     1
 72
     2
176
     1
 73
     0
176
     1
 90
        0
176
     1
 40
0.6
176
     1
 41
30.0
176
     1
 63
     7
176
     1
 74
     1
176
     1
 91
        4
176
     1
 64
     7
176
     1
 65
   257
176
     1
 75
     1
176
     1
175
     1
176
     1
 42
1.0
176
     1
 92
        8
176
     1
 66
     7
176
     1
 43
1.0
176
     1
 76
     1
176
     1
 77
     6
176
     1
 78
     2
176
     1
 67
     7
176
     1
 79
     5
176
     1
170
     0
176
     1
171
     0
176
     1
290
     0
176
     1
 93
        1
176
     1
 44
0.0
176
     1
173
     0
176
     1
1001
ACAD
1000
AcDbSavedByObjectVersion
1070
     0
  0
VISUALSTYLE
  5
19B
102
{ACAD_XDICTIONARY
360
88D
102
}
102
{ACAD_REACTORS
330
19A
102
}
330
19A
100
AcDbVisualStyle
  2

 70
     0
177
     2
291
     1
 71
     2
176
     1
 72
     1
176
     1
 73
     1
176
     1
 90
        2
176
     1
 40
0.6
176
     1
 41
30.0
176
     1
 63
     7
176
     1
 74
     0
176
     1
 91
        4
176
     1
 64
     7
176
     1
 65
   257
176
     1
 75
     1
176
     1
175
     1
176
     1
 42
1.0
176
     1
 92
        8
176
     1
 66
     7
176
     1
 43
1.0
176
     1
 76
     1
176
     1
 77
     6
176
     1
 78
     2
176
     1
 67
     7
176
     1
 79
     5
176
     1
170
     0
176
     1
171
     0
176
     1
290
     0
176
     1
 93
       13
176
     1
 44
0.0
176
     1
173
     0
176
     1
1001
ACAD
1000
AcDbSavedByObjectVersion
1070
     0
  0
VISUALSTYLE
  5
19C
102
{ACAD_XDICTIONARY
360
88F
102
}
102
{ACAD_REACTORS
330
19A
102
}
330
19A
100
AcDbVisualStyle
  2

 70
     1
177
     2
291
     1
 71
     2
176
     1
 72
     1
176
     1
 73
     1
176
     1
 90
        2
176
     1
 40
0.6
176
     1
 41
30.0
176
     1
 63
     7
176
     1
 74
     1
176
     1
 91
        4
176
     1
 64
     7
176
     1
 65
   257
176
     1
 75
     1
176
     1
175
     1
176
     1
 42
1.0
176
     1
 92
        0
176
     1
 66
   257
176
     1
 43
1.0
176
     1
 76
     1
176
     1
 77
     6
176
     1
 78
     2
176
     1
 67
     7
176
     1
 79
     5
176
     1
170
     0
176
     1
171
     0
176
     1
290
     0
176
     1
 93
       13
176
     1
 44
0.0
176
     1
173
     0
176
     1
1001
ACAD
1000
AcDbSavedByObjectVersion
1070
     0
  0
VISUALSTYLE
  5
19D
102
{ACAD_XDICTIONARY
360
891
102
}
102
{ACAD_REACTORS
330
19A
102
}
330
19A
100
AcDbVisualStyle
  2

 70
     2
177
     2
291
     1
 71
     2
176
     1
 72
     2
176
     1
 73
     1
176
     1
 90
        2
176
     1
 40
0.6
176
     1
 41
30.0
176
     1
 63
     7
176
     1
 74
     0
176
     1
 91
        4
176
     1
 64
     7
176
     1
 65
   257
176
     1
 75
     1
176
     1
175
     1
176
     1
 42
1.0
176
     1
 92
        0
176
     1
 66
     7
176
     1
 43
1.0
176
     1
 76
     1
176
     1
 77
     6
176
     1
 78
     2
176
     1
 67
     7
176
     1
 79
     5
176
     1
170
     0
176
     1
171
     0
176
     1
290
     0
176
     1
 93
       13
176
     1
 44
0.0
176
     1
173
     0
176
     1
1001
ACAD
1000
AcDbSavedByObjectVersion
1070
     0
  0
VISUALSTYLE
  5
19E
102
{ACAD_XDICTIONARY
360
893
102
}
102
{ACAD_REACTORS
330
19A
102
}
330
19A
100
AcDbVisualStyle
  2

 70
     3
177
     2
291
     1
 71
     2
176
     1
 72
     2
176
     1
 73
     1
176
     1
 90
        2
176
     1
 40
0.6
176
     1
 41
30.0
176
     1
 63
     7
176
     1
 74
     1
176
     1
 91
        4
176
     1
 64
     7
176
     1
 65
   257
176
     1
 75
     1
176
     1
175
     1
176
     1
 42
1.0
176
     1
 92
        0
176
     1
 66
   257
176
     1
 43
1.0
176
     1
 76
     1
176
     1
 77
     6
176
     1
 78
     2
176
     1
 67
     7
176
     1
 79
     5
176
     1
170
     0
176
     1
171
     0
176
     1
290
     0
176
     1
 93
       13
176
     1
 44
0.0
176
     1
173
     0
176
     1
1001
ACAD
1000
AcDbSavedByObjectVersion
1070
     0
  0
VISUALSTYLE
  5
683
102
{ACAD_XDICTIONARY
360
8AF
102
}
102
{ACAD_REACTORS
330
19A
102
}
330
19A
100
AcDbVisualStyle
  2
Hidden
 70
     6
177
     2
291
     0
 71
     1
176
     1
 72
     2
176
     1
 73
     2
176
     1
 90
        0
176
     1
 40
0.6
176
     1
 41
30.0
176
     1
 63
     7
421
 16777215
176
     1
 74
     2
176
     1
 91
        2
176
     1
 64
     7
176
     1
 65
   257
176
     1
 75
     2
176
     1
175
     1
176
     1
 42
40.0
176
     1
 92
        0
176
     1
 66
   257
176
     1
 43
1.0
176
     1
 76
     1
176
     1
 77
     6
176
     1
 78
     2
176
     1
 67
     7
176
     1
 79
     3
176
     1
170
     0
176
     1
171
     0
176
     1
290
     0
176
     1
 93
        1
176
     1
 44
0.0
176
     1
173
     0
176
     1
1001
ACAD
1000
AcDbSavedByObjectVersion
1070
     0
  0
VISUALSTYLE
  5
689
102
{ACAD_XDICTIONARY
360
8BB
102
}
102
{ACAD_REACTORS
330
19A
102
}
330
19A
100
AcDbVisualStyle
  2
JitterOff
 70
    20
177
     2
291
     1
 71
     2
176
     0
 72
     2
176
     0
 73
     0
176
     0
 90
        0
176
     0
 40
0.6
176
     0
 41
30.0
176
     0
 63
     7
421
 16777215
176
     0
 74
     1
176
     0
 91
        4
176
     0
 64
     7
176
     0
 65
   257
176
     0
 75
     1
176
     0
175
     1
176
     0
 42
1.0
176
     0
 92
       10
176
     2
 66
     7
176
     0
 43
1.0
176
     0
 76
     1
176
     0
 77
     6
176
     0
 78
     2
176
     0
 67
     7
176
     0
 79
     5
176
     0
170
     0
176
     0
171
     0
176
     0
290
     0
176
     0
 93
        1
176
     0
 44
0.0
176
     0
173
     0
176
     0
1001
ACAD
1000
AcDbSavedByObjectVersion
1070
     0
  0
VISUALSTYLE
  5
1A8
102
{ACAD_XDICTIONARY
360
8A7
102
}
102
{ACAD_REACTORS
330
19A
102
}
330
19A
100
AcDbVisualStyle
  2

 70
    14
177
     2
291
     1
 71
     2
176
     1
 72
     2
176
     1
 73
     0
176
     1
 90
        0
176
     1
 40
0.6
176
     1
 41
30.0
176
     1
 63
     7
176
     1
 74
     1
176
     1
 91
        4
176
     1
 64
     7
176
     1
 65
   257
176
     1
 75
     7
176
     1
175
     7
176
     1
 42
1.0
176
     1
 92
        8
176
     1
 66
     7
176
     1
 43
1.0
176
     1
 76
     1
176
     1
 77
     6
176
     1
 78
     2
176
     1
 67
     7
176
     1
 79
     5
176
     1
170
     0
176
     1
171
     0
176
     1
290
     0
176
     1
 93
        1
176
     1
 44
0.0
176
     1
173
     0
176
     1
1001
ACAD
1000
AcDbSavedByObjectVersion
1070
     0
  0
VISUALSTYLE
  5
68A
102
{ACAD_XDICTIONARY
360
8BD
102
}
102
{ACAD_REACTORS
330
19A
102
}
330
19A
100
AcDbVisualStyle
  2
OverhangOff
 70
    21
177
     2
291
     1
 71
     2
176
     0
 72
     2
176
     0
 73
     0
176
     0
 90
        0
176
     0
 40
0.6
176
     0
 41
30.0
176
     0
 63
     7
421
 16777215
176
     0
 74
     1
176
     0
 91
        4
176
     0
 64
     7
176
     0
 65
   257
176
     0
 75
     1
176
     0
175
     1
176
     0
 42
1.0
176
     0
 92
        9
176
     2
 66
     7
176
     0
 43
1.0
176
     0
 76
     1
176
     0
 77
     6
176
     0
 78
     2
176
     0
 67
     7
176
     0
 79
     5
176
     0
170
     0
176
     0
171
     0
176
     0
290
     0
176
     0
 93
        1
176
     0
 44
0.0
176
     0
173
     0
176
     0
1001
ACAD
1000
AcDbSavedByObjectVersion
1070
     0
  0
VISUALSTYLE
  5
1A4
102
{ACAD_XDICTIONARY
360
89F
102
}
102
{ACAD_REACTORS
330
19A
102
}
330
19A
100
AcDbVisualStyle
  2

 70
     8
177
     2
291
     0
 71
     2
176
     1
 72
     2
176
     1
 73
     0
176
     1
 90
        0
176
     1
 40
0.6
176
     1
 41
30.0
176
     1
 63
     7
176
     1
 74
     1
176
     1
 91
        0
176
     1
 64
     7
176
     1
 65
   257
176
     1
 75
     1
176
     1
175
     1
176
     1
 42
1.0
176
     1
 92
        8
176
     1
 66
     8
176
     1
 43
1.0
176
     1
 76
     1
176
     1
 77
     6
176
     1
 78
     2
176
     1
 67
     7
176
     1
 79
     5
176
     1
170
     0
176
     1
171
     0
176
     1
290
     0
176
     1
 93
       13
176
     1
 44
0.0
176
     1
173
     0
176
     1
1001
ACAD
1000
AcDbSavedByObjectVersion
1070
     0
  0
VISUALSTYLE
  5
688
102
{ACAD_XDICTIONARY
360
8B9
102
}
102
{ACAD_REACTORS
330
19A
102
}
330
19A
100
AcDbVisualStyle
  2
Shaded
 70
    27
177
     2
291
     0
 71
     2
176
     1
 72
     2
176
     1
 73
     1
176
     1
 90
        2
176
     1
 40
0.6
176
     1
 41
30.0
176
     1
 63
     7
421
 16777215
176
     1
 74
     0
176
     1
 91
        4
176
     1
 64
     7
176
     1
 65
   257
176
     1
 75
     1
176
     1
175
     1
176
     1
 42
1.0
176
     1
 92
        8
176
     1
 66
   257
176
     1
 43
1.0
176
     1
 76
     1
176
     1
 77
     6
176
     1
 78
     2
176
     1
 67
     8
425
  7895160
176
     1
 79
     3
176
     1
170
     0
176
     1
171
     0
176
     1
290
     0
176
     1
 93
        5
176
     1
 44
0.0
176
     1
173
     0
176
     1
1001
ACAD
1000
AcDbSavedByObjectVersion
1070
     0
  0
VISUALSTYLE
  5
687
102
{ACAD_XDICTIONARY
360
8B7
102
}
102
{ACAD_REACTORS
330
19A
102
}
330
19A
100
AcDbVisualStyle
  2
Shaded with edges
 70
    26
177
     2
291
     0
 71
     2
176
     1
 72
     2
176
     1
 73
     1
176
     1
 90
        2
176
     1
 40
0.6
176
     1
 41
30.0
176
     1
 63
     7
421
 16777215
176
     1
 74
     1
176
     1
 91
       10
176
     1
 64
     7
176
     1
 65
   257
176
     1
 75
     2
176
     1
175
     1
176
     1
 42
1.0
176
     1
 92
        8
176
     1
 66
   257
176
     1
 43
1.0
176
     1
 76
     1
176
     1
 77
     6
176
     1
 78
     2
176
     1
 67
     7
176
     1
 79
     3
176
     1
170
     0
176
     1
171
     0
176
     1
290
     0
176
     1
 93
        5
176
     1
 44
0.0
176
     1
173
     0
176
     1
1001
ACAD
1000
AcDbSavedByObjectVersion
1070
     0
  0
VISUALSTYLE
  5
684
102
{ACAD_XDICTIONARY
360
8B1
102
}
102
{ACAD_REACTORS
330
19A
102
}
330
19A
100
AcDbVisualStyle
  2
Shades of Gray
 70
    23
177
     2
291
     0
 71
     2
176
     1
 72
     2
176
     1
 73
     3
176
     1
 90
        0
176
     1
 40
0.6
176
     1
 41
30.0
176
     1
 63
     7
421
 16777215
176
     1
 74
     2
176
     1
 91
        2
176
     1
 64
     7
176
     1
 65
     7
176
     1
 75
     1
176
     1
175
     1
176
     1
 42
40.0
176
     1
 92
        8
176
     1
 66
     7
176
     1
 43
1.0
176
     1
 76
     1
176
     1
 77
     6
176
     1
 78
     2
176
     1
 67
     7
176
     1
 79
     3
176
     1
170
     0
176
     1
171
     0
176
     1
290
     0
176
     1
 93
        1
176
     1
 44
0.0
176
     1
173
     0
176
     1
1001
ACAD
1000
AcDbSavedByObjectVersion
1070
     0
  0
VISUALSTYLE
  5
685
102
{ACAD_XDICTIONARY
360
8B3
102
}
102
{ACAD_REACTORS
330
19A
102
}
330
19A
100
AcDbVisualStyle
  2
Sketchy
 70
    24
177
     2
291
     0
 71
     1
176
     1
 72
     2
176
     1
 73
     2
176
     1
 90
        0
176
     1
 40
0.6
176
     1
 41
30.0
176
     1
 63
     7
421
 16777215
176
     1
 74
     2
176
     1
 91
        2
176
     1
 64
     7
176
     1
 65
     7
176
     1
 75
     1
176
     1
175
     1
176
     1
 42
40.0
176
     1
 92
       11
176
     1
 66
     7
176
     1
 43
1.0
176
     1
 76
     1
176
     1
 77
     6
176
     1
 78
     2
176
     1
 67
     7
176
     1
 79
     6
176
     1
170
     0
176
     1
171
     0
176
     1
290
     0
176
     1
 93
        1
176
     1
 44
0.0
176
     1
173
     0
176
     1
1001
ACAD
1000
AcDbSavedByObjectVersion
1070
     0
  0
VISUALSTYLE
  5
1A7
102
{ACAD_XDICTIONARY
360
8A5
102
}
102
{ACAD_REACTORS
330
19A
102
}
330
19A
100
AcDbVisualStyle
  2

 70
    13
177
     2
291
     1
 71
     2
176
     1
 72
     2
176
     1
 73
     0
176
     1
 90
        0
176
     1
 40
0.6
176
     1
 41
30.0
176
     1
 63
     7
176
     1
 74
     1
176
     1
 91
        4
176
     1
 64
     7
176
     1
 65
   257
176
     1
 75
     1
176
     1
175
     1
176
     1
 42
1.0
176
     1
 92
       12
176
     1
 66
     7
176
     1
 43
1.0
176
     1
 76
     1
176
     1
 77
     6
176
     1
 78
     2
176
     1
 67
     7
176
     1
 79
     5
176
     1
170
     0
176
     1
171
     0
176
     1
290
     0
176
     1
 93
        1
176
     1
 44
0.0
176
     1
173
     0
176
     1
1001
ACAD
1000
AcDbSavedByObjectVersion
1070
     0
  0
VISUALSTYLE
  5
682
102
{ACAD_XDICTIONARY
360
8AD
102
}
102
{ACAD_REACTORS
330
19A
102
}
330
19A
100
AcDbVisualStyle
  2
Wireframe
 70
     5
177
     2
291
     0
 71
     0
176
     1
 72
     2
176
     1
 73
     0
176
     1
 90
        0
176
     1
 40
0.6
176
     1
 41
30.0
176
     1
 63
     7
421
 16777215
176
     1
 74
     1
176
     1
 91
        4
176
     1
 64
     7
176
     1
 65
   257
176
     1
 75
     1
176
     1
175
     1
176
     1
 42
1.0
176
     1
 92
        0
176
     1
 66
   257
176
     1
 43
1.0
176
     1
 76
     1
176
     1
 77
     6
176
     1
 78
     2
176
     1
 67
     7
176
     1
 79
     3
176
     1
170
     0
176
     1
171
     0
176
     1
290
     0
176
     1
 93
        1
176
     1
 44
0.0
176
     1
173
     0
176
     1
1001
ACAD
1000
AcDbSavedByObjectVersion
1070
     0
  0
VISUALSTYLE
  5
686
102
{ACAD_XDICTIONARY
360
8B5
102
}
102
{ACAD_REACTORS
330
19A
102
}
330
19A
100
AcDbVisualStyle
  2
X-Ray
 70
    25
177
     2
291
     0
 71
     2
176
     1
 72
     2
176
     1
 73
     1
176
     1
 90
        1
176
     1
 40
0.5
176
     1
 41
30.0
176
     1
 63
     7
421
 16777215
176
     1
 74
     1
176
     1
 91
        0
176
     1
 64
     7
176
     1
 65
   257
176
     1
 75
     1
176
     1
175
     1
176
     1
 42
1.0
176
     1
 92
        8
176
     1
 66
     7
176
     1
 43
1.0
176
     1
 76
     1
176
     1
 77
     6
176
     1
 78
     2
176
     1
 67
     7
176
     1
 79
     3
176
     1
170
     0
176
     1
171
     0
176
     1
290
     0
176
     1
 93
       13
176
     1
 44
0.0
176
     1
173
     0
176
     1
1001
ACAD
1000
AcDbSavedByObjectVersion
1070
     0
  0
DICTIONARYVAR
  5
886
102
{ACAD_REACTORS
330
1B3
102
}
330
1B3
100
DictionaryVariables
280
     0
  1
1:1
  0
DICTIONARYVAR
  5
882
102
{ACAD_REACTORS
330
1B3
102
}
330
1B3
100
DictionaryVariables
280
     0
  1
STANDARD
  0
DICTIONARYVAR
  5
1B4
102
{ACAD_REACTORS
330
1B3
102
}
330
1B3
100
DictionaryVariables
280
     0
  1
STANDARD
  0
DICTIONARYVAR
  5
883
102
{ACAD_REACTORS
330
1B3
102
}
330
1B3
100
DictionaryVariables
280
     0
  1
Imperial24
  0
DICTIONARYVAR
  5
884
102
{ACAD_REACTORS
330
1B3
102
}
330
1B3
100
DictionaryVariables
280
     0
  1
Imperial24
  0
DICTIONARYVAR
  5
623
102
{ACAD_REACTORS
330
1B3
102
}
330
1B3
100
DictionaryVariables
280
     0
  1
1
  0
DICTIONARYVAR
  5
622
102
{ACAD_REACTORS
330
1B3
102
}
330
1B3
100
DictionaryVariables
280
     0
  1
0
  0
DICTIONARYVAR
  5
888
102
{ACAD_REACTORS
330
1B3
102
}
330
1B3
100
DictionaryVariables
280
     0
  1
1
  0
DICTIONARYVAR
  5
889
102
{ACAD_REACTORS
330
1B3
102
}
330
1B3
100
DictionaryVariables
280
     0
  1
15
  0
DICTIONARYVAR
  5
887
102
{ACAD_REACTORS
330
1B3
102
}
330
1B3
100
DictionaryVariables
280
     0
  1
0
  0
DICTIONARYVAR
  5
885
102
{ACAD_REACTORS
330
1B3
102
}
330
1B3
100
DictionaryVariables
280
     0
  1
0
  0
DICTIONARYVAR
  5
621
102
{ACAD_REACTORS
330
1B3
102
}
330
1B3
100
DictionaryVariables
280
     0
  1
127
  0
DICTIONARY
  5
8C3
330
6A3
100
AcDbDictionary
280
     1
281
     1
  3
ACAD_XREC_ROUNDTRIP
360
8C4
  0
DICTIONARY
  5
627
330
198
100
AcDbDictionary
280
     1
281
     1
  3
ACAD_XREC_ROUNDTRIP
360
628
  0
DICTIONARY
  5
625
330
197
100
AcDbDictionary
280
     1
281
     1
  3
ACAD_XREC_ROUNDTRIP
360
626
  0
DICTIONARY
  5
629
330
199
100
AcDbDictionary
280
     1
281
     1
  3
ACAD_XREC_ROUNDTRIP
360
62A
  0
DICTIONARY
  5
8C1
330
6A1
100
AcDbDictionary
280
     1
281
     1
  3
ACAD_XREC_ROUNDTRIP
360
8C2
  0
DICTIONARY
  5
88A
330
1AD
100
AcDbDictionary
280
     1
281
     1
  3
ACAD_ROUNDTRIP_2008_TABLESTYLE_CELLSTYLEMAP
360
88B
  0
DICTIONARY
  5
897
330
1A0
100
AcDbDictionary
280
     1
281
     1
  3
ACAD_XREC_ROUNDTRIP
360
898
  0
DICTIONARY
  5
89B
330
1A2
100
AcDbDictionary
280
     1
281
     1
  3
ACAD_XREC_ROUNDTRIP
360
89C
  0
DICTIONARY
  5
899
330
1A1
100
AcDbDictionary
280
     1
281
     1
  3
ACAD_XREC_ROUNDTRIP
360
89A
  0
DICTIONARY
  5
895
330
19F
100
AcDbDictionary
280
     1
281
     1
  3
ACAD_XREC_ROUNDTRIP
360
896
  0
DICTIONARY
  5
8A3
330
1A6
100
AcDbDictionary
280
     1
281
     1
  3
ACAD_XREC_ROUNDTRIP
360
8A4
  0
DICTIONARY
  5
8AB
330
1AA
100
AcDbDictionary
280
     1
281
     1
  3
ACAD_XREC_ROUNDTRIP
360
8AC
  0
DICTIONARY
  5
89D
330
1A3
100
AcDbDictionary
280
     1
281
     1
  3
ACAD_XREC_ROUNDTRIP
360
89E
  0
DICTIONARY
  5
8A1
330
1A5
100
AcDbDictionary
280
     1
281
     1
  3
ACAD_XREC_ROUNDTRIP
360
8A2
  0
DICTIONARY
  5
8BF
330
68B
100
AcDbDictionary
280
     1
281
     1
  3
ACAD_XREC_ROUNDTRIP
360
8C0
  0
DICTIONARY
  5
8A9
330
1A9
100
AcDbDictionary
280
     1
281
     1
  3
ACAD_XREC_ROUNDTRIP
360
8AA
  0
DICTIONARY
  5
88D
330
19B
100
AcDbDictionary
280
     1
281
     1
  3
ACAD_XREC_ROUNDTRIP
360
88E
  0
DICTIONARY
  5
88F
330
19C
100
AcDbDictionary
280
     1
281
     1
  3
ACAD_XREC_ROUNDTRIP
360
890
  0
DICTIONARY
  5
891
330
19D
100
AcDbDictionary
280
     1
281
     1
  3
ACAD_XREC_ROUNDTRIP
360
892
  0
DICTIONARY
  5
893
330
19E
100
AcDbDictionary
280
     1
281
     1
  3
ACAD_XREC_ROUNDTRIP
360
894
  0
DICTIONARY
  5
8AF
330
683
100
AcDbDictionary
280
     1
281
     1
  3
ACAD_XREC_ROUNDTRIP
360
8B0
  0
DICTIONARY
  5
8BB
330
689
100
AcDbDictionary
280
     1
281
     1
  3
ACAD_XREC_ROUNDTRIP
360
8BC
  0
DICTIONARY
  5
8A7
330
1A8
100
AcDbDictionary
280
     1
281
     1
  3
ACAD_XREC_ROUNDTRIP
360
8A8
  0
DICTIONARY
  5
8BD
330
68A
100
AcDbDictionary
280
     1
281
     1
  3
ACAD_XREC_ROUNDTRIP
360
8BE
  0
DICTIONARY
  5
89F
330
1A4
100
AcDbDictionary
280
     1
281
     1
  3
ACAD_XREC_ROUNDTRIP
360
8A0
  0
DICTIONARY
  5
8B9
330
688
100
AcDbDictionary
280
     1
281
     1
  3
ACAD_XREC_ROUNDTRIP
360
8BA
  0
DICTIONARY
  5
8B7
330
687
100
AcDbDictionary
280
     1
281
     1
  3
ACAD_XREC_ROUNDTRIP
360
8B8
  0
DICTIONARY
  5
8B1
330
684
100
AcDbDictionary
280
     1
281
     1
  3
ACAD_XREC_ROUNDTRIP
360
8B2
  0
DICTIONARY
  5
8B3
330
685
100
AcDbDictionary
280
     1
281
     1
  3
ACAD_XREC_ROUNDTRIP
360
8B4
  0
DICTIONARY
  5
8A5
330
1A7
100
AcDbDictionary
280
     1
281
     1
  3
ACAD_XREC_ROUNDTRIP
360
8A6
  0
DICTIONARY
  5
8AD
330
682
100
AcDbDictionary
280
     1
281
     1
  3
ACAD_XREC_ROUNDTRIP
360
8AE
  0
DICTIONARY
  5
8B5
330
686
100
AcDbDictionary
280
     1
281
     1
  3
ACAD_XREC_ROUNDTRIP
360
8B6
  0
XRECORD
  5
8C4
102
{ACAD_REACTORS
330
8C3
102
}
330
8C3
100
AcDbXrecord
280
     1
102
DISPLAYNAME
  1
Imperial24
102
FLAGS
 90
        0
  0
XRECORD
  5
628
102
{ACAD_REACTORS
330
627
102
}
330
627
100
AcDbXrecord
280
     1
102
MATERIAL
148
0.0
149
0.0
149
0.0
 93
        0
 94
       63
282
     0
 72
     1
 77
     1
171
     1
175
     1
179
     1
273
     0
  0
XRECORD
  5
626
102
{ACAD_REACTORS
330
625
102
}
330
625
100
AcDbXrecord
280
     1
102
MATERIAL
148
0.0
149
0.0
149
0.0
 93
        0
 94
       63
282
     0
 72
     1
 77
     1
171
     1
175
     1
179
     1
273
     0
  0
XRECORD
  5
62A
102
{ACAD_REACTORS
330
629
102
}
330
629
100
AcDbXrecord
280
     1
102
MATERIAL
148
0.0
149
0.0
149
0.0
 93
        0
 94
       63
282
     0
 72
     1
 77
     1
171
     1
175
     1
179
     1
273
     0
  0
XRECORD
  5
8C2
102
{ACAD_REACTORS
330
8C1
102
}
330
8C1
100
AcDbXrecord
280
     1
102
DISPLAYNAME
  1
Imperial24
102
FLAGS
 90
        0
  0
CELLSTYLEMAP
  5
88B
102
{ACAD_REACTORS
330
88A
102
}
330
88A
100
AcDbCellStyleMap
 90
        3
300
CELLSTYLE
  1
TABLEFORMAT_BEGIN
 90
        5
170
     1
 91
        0
 92
    32768
 62
   257
 93
        1
300
CONTENTFORMAT
  1
CONTENTFORMAT_BEGIN
 90
        0
 91
        0
 92
      512
 93
        0
300

 40
0.0
140
1.0
 94
        5
 62
     0
340
11
144
0.25
309
CONTENTFORMAT_END
171
     0
 94
        6
 95
        1
302
GRIDFORMAT
  1
GRIDFORMAT_BEGIN
 90
        0
 91
        1
 62
     0
 92
       -2
340
0
 93
        0
 40
0.045
309
GRIDFORMAT_END
 95
        2
302
GRIDFORMAT
  1
GRIDFORMAT_BEGIN
 90
        0
 91
        1
 62
     0
 92
       -2
340
0
 93
        0
 40
0.045
309
GRIDFORMAT_END
 95
        4
302
GRIDFORMAT
  1
GRIDFORMAT_BEGIN
 90
        0
 91
        1
 62
     0
 92
       -2
340
0
 93
        0
 40
0.045
309
GRIDFORMAT_END
 95
        8
302
GRIDFORMAT
  1
GRIDFORMAT_BEGIN
 90
        0
 91
        1
 62
     0
 92
       -2
340
0
 93
        0
 40
0.045
309
GRIDFORMAT_END
 95
       16
302
GRIDFORMAT
  1
GRIDFORMAT_BEGIN
 90
        0
 91
        1
 62
     0
 92
       -2
340
0
 93
        0
 40
0.045
309
GRIDFORMAT_END
 95
       32
302
GRIDFORMAT
  1
GRIDFORMAT_BEGIN
 90
        0
 91
        1
 62
     0
 92
       -2
340
0
 93
        0
 40
0.045
309
GRIDFORMAT_END
309
TABLEFORMAT_END
  1
CELLSTYLE_BEGIN
 90
        1
 91
        1
300
_TITLE
309
CELLSTYLE_END
300
CELLSTYLE
  1
TABLEFORMAT_BEGIN
 90
        5
170
     1
 91
        0
 92
        0
 62
   257
 93
        1
300
CONTENTFORMAT
  1
CONTENTFORMAT_BEGIN
 90
        0
 91
        0
 92
      512
 93
        0
300

 40
0.0
140
1.0
 94
        5
 62
     0
340
11
144
0.18
309
CONTENTFORMAT_END
171
     0
 94
        6
 95
        1
302
GRIDFORMAT
  1
GRIDFORMAT_BEGIN
 90
        0
 91
        1
 62
     0
 92
       -2
340
0
 93
        0
 40
0.045
309
GRIDFORMAT_END
 95
        2
302
GRIDFORMAT
  1
GRIDFORMAT_BEGIN
 90
        0
 91
        1
 62
     0
 92
       -2
340
0
 93
        0
 40
0.045
309
GRIDFORMAT_END
 95
        4
302
GRIDFORMAT
  1
GRIDFORMAT_BEGIN
 90
        0
 91
        1
 62
     0
 92
       -2
340
0
 93
        0
 40
0.045
309
GRIDFORMAT_END
 95
        8
302
GRIDFORMAT
  1
GRIDFORMAT_BEGIN
 90
        0
 91
        1
 62
     0
 92
       -2
340
0
 93
        0
 40
0.045
309
GRIDFORMAT_END
 95
       16
302
GRIDFORMAT
  1
GRIDFORMAT_BEGIN
 90
        0
 91
        1
 62
     0
 92
       -2
340
0
 93
        0
 40
0.045
309
GRIDFORMAT_END
 95
       32
302
GRIDFORMAT
  1
GRIDFORMAT_BEGIN
 90
        0
 91
        1
 62
     0
 92
       -2
340
0
 93
        0
 40
0.045
309
GRIDFORMAT_END
309
TABLEFORMAT_END
  1
CELLSTYLE_BEGIN
 90
        2
 91
        1
300
_HEADER
309
CELLSTYLE_END
300
CELLSTYLE
  1
TABLEFORMAT_BEGIN
 90
        5
170
     1
 91
        0
 92
        0
 62
   257
 93
        1
300
CONTENTFORMAT
  1
CONTENTFORMAT_BEGIN
 90
        0
 91
        0
 92
      512
 93
        0
300

 40
0.0
140
1.0
 94
        2
 62
     0
340
11
144
0.18
309
CONTENTFORMAT_END
171
     0
 94
        6
 95
        1
302
GRIDFORMAT
  1
GRIDFORMAT_BEGIN
 90
        0
 91
        1
 62
     0
 92
       -2
340
0
 93
        0
 40
0.045
309
GRIDFORMAT_END
 95
        2
302
GRIDFORMAT
  1
GRIDFORMAT_BEGIN
 90
        0
 91
        1
 62
     0
 92
       -2
340
0
 93
        0
 40
0.045
309
GRIDFORMAT_END
 95
        4
302
GRIDFORMAT
  1
GRIDFORMAT_BEGIN
 90
        0
 91
        1
 62
     0
 92
       -2
340
0
 93
        0
 40
0.045
309
GRIDFORMAT_END
 95
        8
302
GRIDFORMAT
  1
GRIDFORMAT_BEGIN
 90
        0
 91
        1
 62
     0
 92
       -2
340
0
 93
        0
 40
0.045
309
GRIDFORMAT_END
 95
       16
302
GRIDFORMAT
  1
GRIDFORMAT_BEGIN
 90
        0
 91
        1
 62
     0
 92
       -2
340
0
 93
        0
 40
0.045
309
GRIDFORMAT_END
 95
       32
302
GRIDFORMAT
  1
GRIDFORMAT_BEGIN
 90
        0
 91
        1
 62
     0
 92
       -2
340
0
 93
        0
 40
0.045
309
GRIDFORMAT_END
309
TABLEFORMAT_END
  1
CELLSTYLE_BEGIN
 90
        3
 91
        2
300
_DATA
309
CELLSTYLE_END
  0
XRECORD
  5
898
102
{ACAD_REACTORS
330
897
102
}
330
897
100
AcDbXrecord
280
     1
102
RTVSPost2010Prop28
280
     1
102
RTVSPost2010PropOp28
 70
     1
102
RTVSPost2010Prop29
280
     1
102
RTVSPost2010PropOp29
 70
     1
102
RTVSPost2010Prop30
280
     0
102
RTVSPost2010PropOp30
 70
     1
102
RTVSPost2010Prop31
280
     0
102
RTVSPost2010PropOp31
 70
     1
102
RTVSPost2010Prop32
280
     0
102
RTVSPost2010PropOp32
 70
     1
102
RTVSPost2010Prop33
280
     0
102
RTVSPost2010PropOp33
 70
     1
102
RTVSPost2010Prop34
280
     0
102
RTVSPost2010PropOp34
 70
     1
102
RTVSPost2010Prop35
280
     0
102
RTVSPost2010PropOp35
 70
     1
102
RTVSPost2010Prop36
280
     0
102
RTVSPost2010PropOp36
 70
     1
102
RTVSPost2010Prop37
 90
       50
102
RTVSPost2010PropOp37
 70
     1
102
RTVSPost2010Prop38
140
0.0
102
RTVSPost2010PropOp38
 70
     1
102
RTVSPost2010Prop39
140
1.0
102
RTVSPost2010PropOp39
 70
     1
102
RTVSPost2010Prop40
 90
        0
102
RTVSPost2010PropOp40
 70
     1
102
RTVSPost2010Prop41ColorIndex
 90
       18
102
RTVSPost2010Prop41ColorRGB
 90
        0
102
RTVSPost2010PropOp41
 70
     1
102
RTVSPost2010Prop42
 90
       50
102
RTVSPost2010PropOp42
 70
     1
102
RTVSPost2010Prop43
 90
        3
102
RTVSPost2010PropOp43
 70
     1
102
RTVSPost2010Prop44ColorIndex
 90
        5
102
RTVSPost2010Prop44ColorRGB
 90
      255
102
RTVSPost2010PropOp44
 70
     1
102
RTVSPost2010Prop45
280
     0
102
RTVSPost2010PropOp45
 70
     1
102
RTVSPost2010Prop46
 90
       50
102
RTVSPost2010PropOp46
 70
     1
102
RTVSPost2010Prop47
 90
       50
102
RTVSPost2010PropOp47
 70
     1
102
RTVSPost2010Prop48
 90
       50
102
RTVSPost2010PropOp48
 70
     1
102
RTVSPost2010Prop49
280
     0
102
RTVSPost2010PropOp49
 70
     1
102
RTVSPost2010Prop50
 90
       50
102
RTVSPost2010PropOp50
 70
     1
102
RTVSPost2010Prop51ColorIndex
 90
      256
102
RTVSPost2010Prop51ColorRGB
 90
-16777216
102
RTVSPost2010PropOp51
 70
     0
102
RTVSPost2010Prop52
140
1.0
102
RTVSPost2010PropOp52
 70
     0
102
RTVSPost2010Prop53
 90
        2
102
RTVSPost2010PropOp53
 70
     1
102
RTVSPost2010Prop54
  1
strokes_ogs.tif
102
RTVSPost2010PropOp54
 70
     1
102
RTVSPost2010Prop55
280
     0
102
RTVSPost2010PropOp55
 70
     1
102
RTVSPost2010Prop56
140
1.0
102
RTVSPost2010PropOp56
 70
     1
102
RTVSPost2010Prop57
140
1.0
102
RTVSPost2010PropOp57
 70
     1
  0
XRECORD
  5
89C
102
{ACAD_REACTORS
330
89B
102
}
330
89B
100
AcDbXrecord
280
     1
102
RTVSPost2010Prop28
280
     0
102
RTVSPost2010PropOp28
 70
     1
102
RTVSPost2010Prop29
280
     1
102
RTVSPost2010PropOp29
 70
     1
102
RTVSPost2010Prop30
280
     1
102
RTVSPost2010PropOp30
 70
     1
102
RTVSPost2010Prop31
280
     0
102
RTVSPost2010PropOp31
 70
     1
102
RTVSPost2010Prop32
280
     0
102
RTVSPost2010PropOp32
 70
     1
102
RTVSPost2010Prop33
280
     0
102
RTVSPost2010PropOp33
 70
     1
102
RTVSPost2010Prop34
280
     0
102
RTVSPost2010PropOp34
 70
     1
102
RTVSPost2010Prop35
280
     0
102
RTVSPost2010PropOp35
 70
     1
102
RTVSPost2010Prop36
280
     0
102
RTVSPost2010PropOp36
 70
     1
102
RTVSPost2010Prop37
 90
       50
102
RTVSPost2010PropOp37
 70
     1
102
RTVSPost2010Prop38
140
0.0
102
RTVSPost2010PropOp38
 70
     1
102
RTVSPost2010Prop39
140
1.0
102
RTVSPost2010PropOp39
 70
     1
102
RTVSPost2010Prop40
 90
        0
102
RTVSPost2010PropOp40
 70
     1
102
RTVSPost2010Prop41ColorIndex
 90
       18
102
RTVSPost2010Prop41ColorRGB
 90
        0
102
RTVSPost2010PropOp41
 70
     1
102
RTVSPost2010Prop42
 90
       50
102
RTVSPost2010PropOp42
 70
     1
102
RTVSPost2010Prop43
 90
        3
102
RTVSPost2010PropOp43
 70
     1
102
RTVSPost2010Prop44ColorIndex
 90
        5
102
RTVSPost2010Prop44ColorRGB
 90
      255
102
RTVSPost2010PropOp44
 70
     1
102
RTVSPost2010Prop45
280
     0
102
RTVSPost2010PropOp45
 70
     1
102
RTVSPost2010Prop46
 90
       50
102
RTVSPost2010PropOp46
 70
     1
102
RTVSPost2010Prop47
 90
       50
102
RTVSPost2010PropOp47
 70
     1
102
RTVSPost2010Prop48
 90
       50
102
RTVSPost2010PropOp48
 70
     1
102
RTVSPost2010Prop49
280
     0
102
RTVSPost2010PropOp49
 70
     1
102
RTVSPost2010Prop50
 90
       50
102
RTVSPost2010PropOp50
 70
     1
102
RTVSPost2010Prop51ColorIndex
 90
      256
102
RTVSPost2010Prop51ColorRGB
 90
-16777216
102
RTVSPost2010PropOp51
 70
     0
102
RTVSPost2010Prop52
140
1.0
102
RTVSPost2010PropOp52
 70
     0
102
RTVSPost2010Prop53
 90
        2
102
RTVSPost2010PropOp53
 70
     1
102
RTVSPost2010Prop54
  1
strokes_ogs.tif
102
RTVSPost2010PropOp54
 70
     1
102
RTVSPost2010Prop55
280
     0
102
RTVSPost2010PropOp55
 70
     1
102
RTVSPost2010Prop56
140
1.0
102
RTVSPost2010PropOp56
 70
     1
102
RTVSPost2010Prop57
140
1.0
102
RTVSPost2010PropOp57
 70
     1
  0
XRECORD
  5
89A
102
{ACAD_REACTORS
330
899
102
}
330
899
100
AcDbXrecord
280
     1
102
RTVSPost2010Prop28
280
     0
102
RTVSPost2010PropOp28
 70
     1
102
RTVSPost2010Prop29
280
     1
102
RTVSPost2010PropOp29
 70
     1
102
RTVSPost2010Prop30
280
     1
102
RTVSPost2010PropOp30
 70
     1
102
RTVSPost2010Prop31
280
     0
102
RTVSPost2010PropOp31
 70
     1
102
RTVSPost2010Prop32
280
     0
102
RTVSPost2010PropOp32
 70
     1
102
RTVSPost2010Prop33
280
     0
102
RTVSPost2010PropOp33
 70
     1
102
RTVSPost2010Prop34
280
     0
102
RTVSPost2010PropOp34
 70
     1
102
RTVSPost2010Prop35
280
     0
102
RTVSPost2010PropOp35
 70
     1
102
RTVSPost2010Prop36
280
     0
102
RTVSPost2010PropOp36
 70
     1
102
RTVSPost2010Prop37
 90
       50
102
RTVSPost2010PropOp37
 70
     1
102
RTVSPost2010Prop38
140
0.0
102
RTVSPost2010PropOp38
 70
     1
102
RTVSPost2010Prop39
140
1.0
102
RTVSPost2010PropOp39
 70
     1
102
RTVSPost2010Prop40
 90
        0
102
RTVSPost2010PropOp40
 70
     1
102
RTVSPost2010Prop41ColorIndex
 90
       18
102
RTVSPost2010Prop41ColorRGB
 90
        0
102
RTVSPost2010PropOp41
 70
     1
102
RTVSPost2010Prop42
 90
       50
102
RTVSPost2010PropOp42
 70
     1
102
RTVSPost2010Prop43
 90
        3
102
RTVSPost2010PropOp43
 70
     1
102
RTVSPost2010Prop44ColorIndex
 90
        5
102
RTVSPost2010Prop44ColorRGB
 90
      255
102
RTVSPost2010PropOp44
 70
     1
102
RTVSPost2010Prop45
280
     0
102
RTVSPost2010PropOp45
 70
     1
102
RTVSPost2010Prop46
 90
       50
102
RTVSPost2010PropOp46
 70
     1
102
RTVSPost2010Prop47
 90
       50
102
RTVSPost2010PropOp47
 70
     1
102
RTVSPost2010Prop48
 90
       50
102
RTVSPost2010PropOp48
 70
     1
102
RTVSPost2010Prop49
280
     0
102
RTVSPost2010PropOp49
 70
     1
102
RTVSPost2010Prop50
 90
       50
102
RTVSPost2010PropOp50
 70
     1
102
RTVSPost2010Prop51ColorIndex
 90
      256
102
RTVSPost2010Prop51ColorRGB
 90
-16777216
102
RTVSPost2010PropOp51
 70
     0
102
RTVSPost2010Prop52
140
1.0
102
RTVSPost2010PropOp52
 70
     0
102
RTVSPost2010Prop53
 90
        2
102
RTVSPost2010PropOp53
 70
     1
102
RTVSPost2010Prop54
  1
strokes_ogs.tif
102
RTVSPost2010PropOp54
 70
     1
102
RTVSPost2010Prop55
280
     0
102
RTVSPost2010PropOp55
 70
     1
102
RTVSPost2010Prop56
140
1.0
102
RTVSPost2010PropOp56
 70
     1
102
RTVSPost2010Prop57
140
1.0
102
RTVSPost2010PropOp57
 70
     1
  0
XRECORD
  5
896
102
{ACAD_REACTORS
330
895
102
}
330
895
100
AcDbXrecord
280
     1
102
RTVSPost2010Prop28
280
     0
102
RTVSPost2010PropOp28
 70
     1
102
RTVSPost2010Prop29
280
     1
102
RTVSPost2010PropOp29
 70
     1
102
RTVSPost2010Prop30
280
     1
102
RTVSPost2010PropOp30
 70
     1
102
RTVSPost2010Prop31
280
     0
102
RTVSPost2010PropOp31
 70
     1
102
RTVSPost2010Prop32
280
     0
102
RTVSPost2010PropOp32
 70
     1
102
RTVSPost2010Prop33
280
     0
102
RTVSPost2010PropOp33
 70
     1
102
RTVSPost2010Prop34
280
     0
102
RTVSPost2010PropOp34
 70
     1
102
RTVSPost2010Prop35
280
     0
102
RTVSPost2010PropOp35
 70
     1
102
RTVSPost2010Prop36
280
     0
102
RTVSPost2010PropOp36
 70
     1
102
RTVSPost2010Prop37
 90
       50
102
RTVSPost2010PropOp37
 70
     1
102
RTVSPost2010Prop38
140
0.0
102
RTVSPost2010PropOp38
 70
     1
102
RTVSPost2010Prop39
140
1.0
102
RTVSPost2010PropOp39
 70
     1
102
RTVSPost2010Prop40
 90
        0
102
RTVSPost2010PropOp40
 70
     1
102
RTVSPost2010Prop41ColorIndex
 90
       18
102
RTVSPost2010Prop41ColorRGB
 90
        0
102
RTVSPost2010PropOp41
 70
     1
102
RTVSPost2010Prop42
 90
       50
102
RTVSPost2010PropOp42
 70
     1
102
RTVSPost2010Prop43
 90
        3
102
RTVSPost2010PropOp43
 70
     1
102
RTVSPost2010Prop44ColorIndex
 90
        5
102
RTVSPost2010Prop44ColorRGB
 90
      255
102
RTVSPost2010PropOp44
 70
     1
102
RTVSPost2010Prop45
280
     0
102
RTVSPost2010PropOp45
 70
     1
102
RTVSPost2010Prop46
 90
       50
102
RTVSPost2010PropOp46
 70
     1
102
RTVSPost2010Prop47
 90
       50
102
RTVSPost2010PropOp47
 70
     1
102
RTVSPost2010Prop48
 90
       50
102
RTVSPost2010PropOp48
 70
     1
102
RTVSPost2010Prop49
280
     0
102
RTVSPost2010PropOp49
 70
     1
102
RTVSPost2010Prop50
 90
       50
102
RTVSPost2010PropOp50
 70
     1
102
RTVSPost2010Prop51ColorIndex
 90
      256
102
RTVSPost2010Prop51ColorRGB
 90
-16777216
102
RTVSPost2010PropOp51
 70
     0
102
RTVSPost2010Prop52
140
1.0
102
RTVSPost2010PropOp52
 70
     0
102
RTVSPost2010Prop53
 90
        2
102
RTVSPost2010PropOp53
 70
     1
102
RTVSPost2010Prop54
  1
strokes_ogs.tif
102
RTVSPost2010PropOp54
 70
     1
102
RTVSPost2010Prop55
280
     0
102
RTVSPost2010PropOp55
 70
     1
102
RTVSPost2010Prop56
140
1.0
102
RTVSPost2010PropOp56
 70
     1
102
RTVSPost2010Prop57
140
1.0
102
RTVSPost2010PropOp57
 70
     1
  0
XRECORD
  5
8A4
102
{ACAD_REACTORS
330
8A3
102
}
330
8A3
100
AcDbXrecord
280
     1
102
RTVSPost2010Prop28
280
     0
102
RTVSPost2010PropOp28
 70
     1
102
RTVSPost2010Prop29
280
     1
102
RTVSPost2010PropOp29
 70
     1
102
RTVSPost2010Prop30
280
     1
102
RTVSPost2010PropOp30
 70
     1
102
RTVSPost2010Prop31
280
     0
102
RTVSPost2010PropOp31
 70
     1
102
RTVSPost2010Prop32
280
     0
102
RTVSPost2010PropOp32
 70
     1
102
RTVSPost2010Prop33
280
     0
102
RTVSPost2010PropOp33
 70
     1
102
RTVSPost2010Prop34
280
     0
102
RTVSPost2010PropOp34
 70
     1
102
RTVSPost2010Prop35
280
     0
102
RTVSPost2010PropOp35
 70
     1
102
RTVSPost2010Prop36
280
     0
102
RTVSPost2010PropOp36
 70
     1
102
RTVSPost2010Prop37
 90
       50
102
RTVSPost2010PropOp37
 70
     1
102
RTVSPost2010Prop38
140
0.0
102
RTVSPost2010PropOp38
 70
     1
102
RTVSPost2010Prop39
140
1.0
102
RTVSPost2010PropOp39
 70
     1
102
RTVSPost2010Prop40
 90
        0
102
RTVSPost2010PropOp40
 70
     1
102
RTVSPost2010Prop41ColorIndex
 90
       18
102
RTVSPost2010Prop41ColorRGB
 90
        0
102
RTVSPost2010PropOp41
 70
     1
102
RTVSPost2010Prop42
 90
       50
102
RTVSPost2010PropOp42
 70
     1
102
RTVSPost2010Prop43
 90
        3
102
RTVSPost2010PropOp43
 70
     1
102
RTVSPost2010Prop44ColorIndex
 90
        5
102
RTVSPost2010Prop44ColorRGB
 90
      255
102
RTVSPost2010PropOp44
 70
     1
102
RTVSPost2010Prop45
280
     0
102
RTVSPost2010PropOp45
 70
     1
102
RTVSPost2010Prop46
 90
       50
102
RTVSPost2010PropOp46
 70
     1
102
RTVSPost2010Prop47
 90
       50
102
RTVSPost2010PropOp47
 70
     1
102
RTVSPost2010Prop48
 90
       50
102
RTVSPost2010PropOp48
 70
     1
102
RTVSPost2010Prop49
280
     0
102
RTVSPost2010PropOp49
 70
     1
102
RTVSPost2010Prop50
 90
       50
102
RTVSPost2010PropOp50
 70
     1
102
RTVSPost2010Prop51ColorIndex
 90
      256
102
RTVSPost2010Prop51ColorRGB
 90
-16777216
102
RTVSPost2010PropOp51
 70
     0
102
RTVSPost2010Prop52
140
1.0
102
RTVSPost2010PropOp52
 70
     0
102
RTVSPost2010Prop53
 90
        2
102
RTVSPost2010PropOp53
 70
     1
102
RTVSPost2010Prop54
  1
strokes_ogs.tif
102
RTVSPost2010PropOp54
 70
     1
102
RTVSPost2010Prop55
280
     0
102
RTVSPost2010PropOp55
 70
     1
102
RTVSPost2010Prop56
140
1.0
102
RTVSPost2010PropOp56
 70
     1
102
RTVSPost2010Prop57
140
1.0
102
RTVSPost2010PropOp57
 70
     1
  0
XRECORD
  5
8AC
102
{ACAD_REACTORS
330
8AB
102
}
330
8AB
100
AcDbXrecord
280
     1
102
RTVSPost2010Prop28
280
     0
102
RTVSPost2010PropOp28
 70
     1
102
RTVSPost2010Prop29
280
     1
102
RTVSPost2010PropOp29
 70
     1
102
RTVSPost2010Prop30
280
     1
102
RTVSPost2010PropOp30
 70
     1
102
RTVSPost2010Prop31
280
     0
102
RTVSPost2010PropOp31
 70
     1
102
RTVSPost2010Prop32
280
     0
102
RTVSPost2010PropOp32
 70
     1
102
RTVSPost2010Prop33
280
     0
102
RTVSPost2010PropOp33
 70
     1
102
RTVSPost2010Prop34
280
     0
102
RTVSPost2010PropOp34
 70
     1
102
RTVSPost2010Prop35
280
     0
102
RTVSPost2010PropOp35
 70
     1
102
RTVSPost2010Prop36
280
     0
102
RTVSPost2010PropOp36
 70
     1
102
RTVSPost2010Prop37
 90
       50
102
RTVSPost2010PropOp37
 70
     1
102
RTVSPost2010Prop38
140
0.0
102
RTVSPost2010PropOp38
 70
     1
102
RTVSPost2010Prop39
140
1.0
102
RTVSPost2010PropOp39
 70
     1
102
RTVSPost2010Prop40
 90
        0
102
RTVSPost2010PropOp40
 70
     1
102
RTVSPost2010Prop41ColorIndex
 90
       18
102
RTVSPost2010Prop41ColorRGB
 90
        0
102
RTVSPost2010PropOp41
 70
     1
102
RTVSPost2010Prop42
 90
       50
102
RTVSPost2010PropOp42
 70
     1
102
RTVSPost2010Prop43
 90
        3
102
RTVSPost2010PropOp43
 70
     1
102
RTVSPost2010Prop44ColorIndex
 90
        5
102
RTVSPost2010Prop44ColorRGB
 90
      255
102
RTVSPost2010PropOp44
 70
     1
102
RTVSPost2010Prop45
280
     0
102
RTVSPost2010PropOp45
 70
     1
102
RTVSPost2010Prop46
 90
       50
102
RTVSPost2010PropOp46
 70
     1
102
RTVSPost2010Prop47
 90
       50
102
RTVSPost2010PropOp47
 70
     1
102
RTVSPost2010Prop48
 90
       50
102
RTVSPost2010PropOp48
 70
     1
102
RTVSPost2010Prop49
280
     0
102
RTVSPost2010PropOp49
 70
     1
102
RTVSPost2010Prop50
 90
       50
102
RTVSPost2010PropOp50
 70
     1
102
RTVSPost2010Prop51ColorIndex
 90
      256
102
RTVSPost2010Prop51ColorRGB
 90
-16777216
102
RTVSPost2010PropOp51
 70
     0
102
RTVSPost2010Prop52
140
1.0
102
RTVSPost2010PropOp52
 70
     0
102
RTVSPost2010Prop53
 90
        2
102
RTVSPost2010PropOp53
 70
     1
102
RTVSPost2010Prop54
  1
strokes_ogs.tif
102
RTVSPost2010PropOp54
 70
     1
102
RTVSPost2010Prop55
280
     0
102
RTVSPost2010PropOp55
 70
     1
102
RTVSPost2010Prop56
140
1.0
102
RTVSPost2010PropOp56
 70
     1
102
RTVSPost2010Prop57
140
1.0
102
RTVSPost2010PropOp57
 70
     1
  0
XRECORD
  5
89E
102
{ACAD_REACTORS
330
89D
102
}
330
89D
100
AcDbXrecord
280
     1
102
RTVSPost2010Prop28
280
     0
102
RTVSPost2010PropOp28
 70
     1
102
RTVSPost2010Prop29
280
     1
102
RTVSPost2010PropOp29
 70
     1
102
RTVSPost2010Prop30
280
     1
102
RTVSPost2010PropOp30
 70
     1
102
RTVSPost2010Prop31
280
     0
102
RTVSPost2010PropOp31
 70
     1
102
RTVSPost2010Prop32
280
     0
102
RTVSPost2010PropOp32
 70
     1
102
RTVSPost2010Prop33
280
     0
102
RTVSPost2010PropOp33
 70
     1
102
RTVSPost2010Prop34
280
     0
102
RTVSPost2010PropOp34
 70
     1
102
RTVSPost2010Prop35
280
     0
102
RTVSPost2010PropOp35
 70
     1
102
RTVSPost2010Prop36
280
     0
102
RTVSPost2010PropOp36
 70
     1
102
RTVSPost2010Prop37
 90
       50
102
RTVSPost2010PropOp37
 70
     1
102
RTVSPost2010Prop38
140
0.0
102
RTVSPost2010PropOp38
 70
     1
102
RTVSPost2010Prop39
140
1.0
102
RTVSPost2010PropOp39
 70
     1
102
RTVSPost2010Prop40
 90
        0
102
RTVSPost2010PropOp40
 70
     1
102
RTVSPost2010Prop41ColorIndex
 90
       18
102
RTVSPost2010Prop41ColorRGB
 90
        0
102
RTVSPost2010PropOp41
 70
     1
102
RTVSPost2010Prop42
 90
       50
102
RTVSPost2010PropOp42
 70
     1
102
RTVSPost2010Prop43
 90
        3
102
RTVSPost2010PropOp43
 70
     1
102
RTVSPost2010Prop44ColorIndex
 90
        5
102
RTVSPost2010Prop44ColorRGB
 90
      255
102
RTVSPost2010PropOp44
 70
     1
102
RTVSPost2010Prop45
280
     0
102
RTVSPost2010PropOp45
 70
     1
102
RTVSPost2010Prop46
 90
       50
102
RTVSPost2010PropOp46
 70
     1
102
RTVSPost2010Prop47
 90
       50
102
RTVSPost2010PropOp47
 70
     1
102
RTVSPost2010Prop48
 90
       50
102
RTVSPost2010PropOp48
 70
     1
102
RTVSPost2010Prop49
280
     0
102
RTVSPost2010PropOp49
 70
     1
102
RTVSPost2010Prop50
 90
       50
102
RTVSPost2010PropOp50
 70
     1
102
RTVSPost2010Prop51ColorIndex
 90
      256
102
RTVSPost2010Prop51ColorRGB
 90
-16777216
102
RTVSPost2010PropOp51
 70
     0
102
RTVSPost2010Prop52
140
1.0
102
RTVSPost2010PropOp52
 70
     0
102
RTVSPost2010Prop53
 90
        2
102
RTVSPost2010PropOp53
 70
     1
102
RTVSPost2010Prop54
  1
strokes_ogs.tif
102
RTVSPost2010PropOp54
 70
     1
102
RTVSPost2010Prop55
280
     0
102
RTVSPost2010PropOp55
 70
     1
102
RTVSPost2010Prop56
140
1.0
102
RTVSPost2010PropOp56
 70
     1
102
RTVSPost2010Prop57
140
1.0
102
RTVSPost2010PropOp57
 70
     1
  0
XRECORD
  5
8A2
102
{ACAD_REACTORS
330
8A1
102
}
330
8A1
100
AcDbXrecord
280
     1
102
RTVSPost2010Prop28
280
     0
102
RTVSPost2010PropOp28
 70
     1
102
RTVSPost2010Prop29
280
     1
102
RTVSPost2010PropOp29
 70
     1
102
RTVSPost2010Prop30
280
     1
102
RTVSPost2010PropOp30
 70
     1
102
RTVSPost2010Prop31
280
     0
102
RTVSPost2010PropOp31
 70
     1
102
RTVSPost2010Prop32
280
     0
102
RTVSPost2010PropOp32
 70
     1
102
RTVSPost2010Prop33
280
     0
102
RTVSPost2010PropOp33
 70
     1
102
RTVSPost2010Prop34
280
     0
102
RTVSPost2010PropOp34
 70
     1
102
RTVSPost2010Prop35
280
     0
102
RTVSPost2010PropOp35
 70
     1
102
RTVSPost2010Prop36
280
     0
102
RTVSPost2010PropOp36
 70
     1
102
RTVSPost2010Prop37
 90
       50
102
RTVSPost2010PropOp37
 70
     1
102
RTVSPost2010Prop38
140
0.0
102
RTVSPost2010PropOp38
 70
     1
102
RTVSPost2010Prop39
140
1.0
102
RTVSPost2010PropOp39
 70
     1
102
RTVSPost2010Prop40
 90
        0
102
RTVSPost2010PropOp40
 70
     1
102
RTVSPost2010Prop41ColorIndex
 90
       18
102
RTVSPost2010Prop41ColorRGB
 90
        0
102
RTVSPost2010PropOp41
 70
     1
102
RTVSPost2010Prop42
 90
       50
102
RTVSPost2010PropOp42
 70
     1
102
RTVSPost2010Prop43
 90
        3
102
RTVSPost2010PropOp43
 70
     1
102
RTVSPost2010Prop44ColorIndex
 90
        5
102
RTVSPost2010Prop44ColorRGB
 90
      255
102
RTVSPost2010PropOp44
 70
     1
102
RTVSPost2010Prop45
280
     0
102
RTVSPost2010PropOp45
 70
     1
102
RTVSPost2010Prop46
 90
       50
102
RTVSPost2010PropOp46
 70
     1
102
RTVSPost2010Prop47
 90
       50
102
RTVSPost2010PropOp47
 70
     1
102
RTVSPost2010Prop48
 90
       50
102
RTVSPost2010PropOp48
 70
     1
102
RTVSPost2010Prop49
280
     0
102
RTVSPost2010PropOp49
 70
     1
102
RTVSPost2010Prop50
 90
       50
102
RTVSPost2010PropOp50
 70
     1
102
RTVSPost2010Prop51ColorIndex
 90
      256
102
RTVSPost2010Prop51ColorRGB
 90
-16777216
102
RTVSPost2010PropOp51
 70
     0
102
RTVSPost2010Prop52
140
1.0
102
RTVSPost2010PropOp52
 70
     0
102
RTVSPost2010Prop53
 90
        2
102
RTVSPost2010PropOp53
 70
     1
102
RTVSPost2010Prop54
  1
strokes_ogs.tif
102
RTVSPost2010PropOp54
 70
     1
102
RTVSPost2010Prop55
280
     0
102
RTVSPost2010PropOp55
 70
     1
102
RTVSPost2010Prop56
140
1.0
102
RTVSPost2010PropOp56
 70
     1
102
RTVSPost2010Prop57
140
1.0
102
RTVSPost2010PropOp57
 70
     1
  0
XRECORD
  5
8C0
102
{ACAD_REACTORS
330
8BF
102
}
330
8BF
100
AcDbXrecord
280
     1
102
RTVSPost2010Prop28
280
     0
102
RTVSPost2010PropOp28
 70
     1
102
RTVSPost2010Prop29
280
     1
102
RTVSPost2010PropOp29
 70
     1
102
RTVSPost2010Prop30
280
     1
102
RTVSPost2010PropOp30
 70
     1
102
RTVSPost2010Prop31
280
     0
102
RTVSPost2010PropOp31
 70
     1
102
RTVSPost2010Prop32
280
     0
102
RTVSPost2010PropOp32
 70
     1
102
RTVSPost2010Prop33
280
     0
102
RTVSPost2010PropOp33
 70
     1
102
RTVSPost2010Prop34
280
     0
102
RTVSPost2010PropOp34
 70
     1
102
RTVSPost2010Prop35
280
     0
102
RTVSPost2010PropOp35
 70
     1
102
RTVSPost2010Prop36
280
     0
102
RTVSPost2010PropOp36
 70
     1
102
RTVSPost2010Prop37
 90
       50
102
RTVSPost2010PropOp37
 70
     0
102
RTVSPost2010Prop38
140
0.0
102
RTVSPost2010PropOp38
 70
     0
102
RTVSPost2010Prop39
140
1.0
102
RTVSPost2010PropOp39
 70
     0
102
RTVSPost2010Prop40
 90
        0
102
RTVSPost2010PropOp40
 70
     0
102
RTVSPost2010Prop41ColorIndex
 90
       18
102
RTVSPost2010Prop41ColorRGB
 90
        0
102
RTVSPost2010PropOp41
 70
     0
102
RTVSPost2010Prop42
 90
       50
102
RTVSPost2010PropOp42
 70
     0
102
RTVSPost2010Prop43
 90
        3
102
RTVSPost2010PropOp43
 70
     0
102
RTVSPost2010Prop44ColorIndex
 90
        5
102
RTVSPost2010Prop44ColorRGB
 90
      255
102
RTVSPost2010PropOp44
 70
     0
102
RTVSPost2010Prop45
280
     0
102
RTVSPost2010PropOp45
 70
     1
102
RTVSPost2010Prop46
 90
       50
102
RTVSPost2010PropOp46
 70
     0
102
RTVSPost2010Prop47
 90
       50
102
RTVSPost2010PropOp47
 70
     0
102
RTVSPost2010Prop48
 90
       50
102
RTVSPost2010PropOp48
 70
     0
102
RTVSPost2010Prop49
280
     0
102
RTVSPost2010PropOp49
 70
     1
102
RTVSPost2010Prop50
 90
       50
102
RTVSPost2010PropOp50
 70
     0
102
RTVSPost2010Prop51ColorIndex
 90
      256
102
RTVSPost2010Prop51ColorRGB
 90
-16777216
102
RTVSPost2010PropOp51
 70
     0
102
RTVSPost2010Prop52
140
1.0
102
RTVSPost2010PropOp52
 70
     0
102
RTVSPost2010Prop53
 90
        2
102
RTVSPost2010PropOp53
 70
     0
102
RTVSPost2010Prop54
  1
strokes_ogs.tif
102
RTVSPost2010PropOp54
 70
     0
102
RTVSPost2010Prop55
280
     0
102
RTVSPost2010PropOp55
 70
     1
102
RTVSPost2010Prop56
140
1.0
102
RTVSPost2010PropOp56
 70
     0
102
RTVSPost2010Prop57
140
1.0
102
RTVSPost2010PropOp57
 70
     0
  0
XRECORD
  5
8AA
102
{ACAD_REACTORS
330
8A9
102
}
330
8A9
100
AcDbXrecord
280
     1
102
RTVSPost2010Prop28
280
     0
102
RTVSPost2010PropOp28
 70
     1
102
RTVSPost2010Prop29
280
     1
102
RTVSPost2010PropOp29
 70
     1
102
RTVSPost2010Prop30
280
     1
102
RTVSPost2010PropOp30
 70
     1
102
RTVSPost2010Prop31
280
     0
102
RTVSPost2010PropOp31
 70
     1
102
RTVSPost2010Prop32
280
     0
102
RTVSPost2010PropOp32
 70
     1
102
RTVSPost2010Prop33
280
     0
102
RTVSPost2010PropOp33
 70
     1
102
RTVSPost2010Prop34
280
     0
102
RTVSPost2010PropOp34
 70
     1
102
RTVSPost2010Prop35
280
     0
102
RTVSPost2010PropOp35
 70
     1
102
RTVSPost2010Prop36
280
     0
102
RTVSPost2010PropOp36
 70
     1
102
RTVSPost2010Prop37
 90
       50
102
RTVSPost2010PropOp37
 70
     1
102
RTVSPost2010Prop38
140
0.0
102
RTVSPost2010PropOp38
 70
     1
102
RTVSPost2010Prop39
140
1.0
102
RTVSPost2010PropOp39
 70
     1
102
RTVSPost2010Prop40
 90
        0
102
RTVSPost2010PropOp40
 70
     1
102
RTVSPost2010Prop41ColorIndex
 90
       18
102
RTVSPost2010Prop41ColorRGB
 90
        0
102
RTVSPost2010PropOp41
 70
     1
102
RTVSPost2010Prop42
 90
       50
102
RTVSPost2010PropOp42
 70
     1
102
RTVSPost2010Prop43
 90
        3
102
RTVSPost2010PropOp43
 70
     1
102
RTVSPost2010Prop44ColorIndex
 90
        5
102
RTVSPost2010Prop44ColorRGB
 90
      255
102
RTVSPost2010PropOp44
 70
     1
102
RTVSPost2010Prop45
280
     0
102
RTVSPost2010PropOp45
 70
     1
102
RTVSPost2010Prop46
 90
       50
102
RTVSPost2010PropOp46
 70
     1
102
RTVSPost2010Prop47
 90
       50
102
RTVSPost2010PropOp47
 70
     1
102
RTVSPost2010Prop48
 90
       50
102
RTVSPost2010PropOp48
 70
     1
102
RTVSPost2010Prop49
280
     0
102
RTVSPost2010PropOp49
 70
     1
102
RTVSPost2010Prop50
 90
       50
102
RTVSPost2010PropOp50
 70
     1
102
RTVSPost2010Prop51ColorIndex
 90
      256
102
RTVSPost2010Prop51ColorRGB
 90
-16777216
102
RTVSPost2010PropOp51
 70
     0
102
RTVSPost2010Prop52
140
1.0
102
RTVSPost2010PropOp52
 70
     0
102
RTVSPost2010Prop53
 90
        2
102
RTVSPost2010PropOp53
 70
     1
102
RTVSPost2010Prop54
  1
strokes_ogs.tif
102
RTVSPost2010PropOp54
 70
     1
102
RTVSPost2010Prop55
280
     0
102
RTVSPost2010PropOp55
 70
     1
102
RTVSPost2010Prop56
140
1.0
102
RTVSPost2010PropOp56
 70
     1
102
RTVSPost2010Prop57
140
1.0
102
RTVSPost2010PropOp57
 70
     1
  0
XRECORD
  5
88E
102
{ACAD_REACTORS
330
88D
102
}
330
88D
100
AcDbXrecord
280
     1
102
RTVSPost2010Prop28
280
     0
102
RTVSPost2010PropOp28
 70
     1
102
RTVSPost2010Prop29
280
     1
102
RTVSPost2010PropOp29
 70
     1
102
RTVSPost2010Prop30
280
     1
102
RTVSPost2010PropOp30
 70
     1
102
RTVSPost2010Prop31
280
     0
102
RTVSPost2010PropOp31
 70
     1
102
RTVSPost2010Prop32
280
     0
102
RTVSPost2010PropOp32
 70
     1
102
RTVSPost2010Prop33
280
     0
102
RTVSPost2010PropOp33
 70
     1
102
RTVSPost2010Prop34
280
     0
102
RTVSPost2010PropOp34
 70
     1
102
RTVSPost2010Prop35
280
     0
102
RTVSPost2010PropOp35
 70
     1
102
RTVSPost2010Prop36
280
     0
102
RTVSPost2010PropOp36
 70
     1
102
RTVSPost2010Prop37
 90
       50
102
RTVSPost2010PropOp37
 70
     1
102
RTVSPost2010Prop38
140
0.0
102
RTVSPost2010PropOp38
 70
     1
102
RTVSPost2010Prop39
140
1.0
102
RTVSPost2010PropOp39
 70
     1
102
RTVSPost2010Prop40
 90
        0
102
RTVSPost2010PropOp40
 70
     1
102
RTVSPost2010Prop41ColorIndex
 90
       18
102
RTVSPost2010Prop41ColorRGB
 90
        0
102
RTVSPost2010PropOp41
 70
     1
102
RTVSPost2010Prop42
 90
       50
102
RTVSPost2010PropOp42
 70
     1
102
RTVSPost2010Prop43
 90
        3
102
RTVSPost2010PropOp43
 70
     1
102
RTVSPost2010Prop44ColorIndex
 90
        5
102
RTVSPost2010Prop44ColorRGB
 90
      255
102
RTVSPost2010PropOp44
 70
     1
102
RTVSPost2010Prop45
280
     0
102
RTVSPost2010PropOp45
 70
     1
102
RTVSPost2010Prop46
 90
       50
102
RTVSPost2010PropOp46
 70
     1
102
RTVSPost2010Prop47
 90
       50
102
RTVSPost2010PropOp47
 70
     1
102
RTVSPost2010Prop48
 90
       50
102
RTVSPost2010PropOp48
 70
     1
102
RTVSPost2010Prop49
280
     0
102
RTVSPost2010PropOp49
 70
     1
102
RTVSPost2010Prop50
 90
       50
102
RTVSPost2010PropOp50
 70
     1
102
RTVSPost2010Prop51ColorIndex
 90
      256
102
RTVSPost2010Prop51ColorRGB
 90
-16777216
102
RTVSPost2010PropOp51
 70
     0
102
RTVSPost2010Prop52
140
1.0
102
RTVSPost2010PropOp52
 70
     0
102
RTVSPost2010Prop53
 90
        2
102
RTVSPost2010PropOp53
 70
     1
102
RTVSPost2010Prop54
  1
strokes_ogs.tif
102
RTVSPost2010PropOp54
 70
     1
102
RTVSPost2010Prop55
280
     0
102
RTVSPost2010PropOp55
 70
     1
102
RTVSPost2010Prop56
140
1.0
102
RTVSPost2010PropOp56
 70
     1
102
RTVSPost2010Prop57
140
1.0
102
RTVSPost2010PropOp57
 70
     1
  0
XRECORD
  5
890
102
{ACAD_REACTORS
330
88F
102
}
330
88F
100
AcDbXrecord
280
     1
102
RTVSPost2010Prop28
280
     0
102
RTVSPost2010PropOp28
 70
     1
102
RTVSPost2010Prop29
280
     1
102
RTVSPost2010PropOp29
 70
     1
102
RTVSPost2010Prop30
280
     1
102
RTVSPost2010PropOp30
 70
     1
102
RTVSPost2010Prop31
280
     0
102
RTVSPost2010PropOp31
 70
     1
102
RTVSPost2010Prop32
280
     0
102
RTVSPost2010PropOp32
 70
     1
102
RTVSPost2010Prop33
280
     0
102
RTVSPost2010PropOp33
 70
     1
102
RTVSPost2010Prop34
280
     0
102
RTVSPost2010PropOp34
 70
     1
102
RTVSPost2010Prop35
280
     0
102
RTVSPost2010PropOp35
 70
     1
102
RTVSPost2010Prop36
280
     0
102
RTVSPost2010PropOp36
 70
     1
102
RTVSPost2010Prop37
 90
       50
102
RTVSPost2010PropOp37
 70
     1
102
RTVSPost2010Prop38
140
0.0
102
RTVSPost2010PropOp38
 70
     1
102
RTVSPost2010Prop39
140
1.0
102
RTVSPost2010PropOp39
 70
     1
102
RTVSPost2010Prop40
 90
        0
102
RTVSPost2010PropOp40
 70
     1
102
RTVSPost2010Prop41ColorIndex
 90
       18
102
RTVSPost2010Prop41ColorRGB
 90
        0
102
RTVSPost2010PropOp41
 70
     1
102
RTVSPost2010Prop42
 90
       50
102
RTVSPost2010PropOp42
 70
     1
102
RTVSPost2010Prop43
 90
        3
102
RTVSPost2010PropOp43
 70
     1
102
RTVSPost2010Prop44ColorIndex
 90
        5
102
RTVSPost2010Prop44ColorRGB
 90
      255
102
RTVSPost2010PropOp44
 70
     1
102
RTVSPost2010Prop45
280
     0
102
RTVSPost2010PropOp45
 70
     1
102
RTVSPost2010Prop46
 90
       50
102
RTVSPost2010PropOp46
 70
     1
102
RTVSPost2010Prop47
 90
       50
102
RTVSPost2010PropOp47
 70
     1
102
RTVSPost2010Prop48
 90
       50
102
RTVSPost2010PropOp48
 70
     1
102
RTVSPost2010Prop49
280
     0
102
RTVSPost2010PropOp49
 70
     1
102
RTVSPost2010Prop50
 90
       50
102
RTVSPost2010PropOp50
 70
     1
102
RTVSPost2010Prop51ColorIndex
 90
      256
102
RTVSPost2010Prop51ColorRGB
 90
-16777216
102
RTVSPost2010PropOp51
 70
     0
102
RTVSPost2010Prop52
140
1.0
102
RTVSPost2010PropOp52
 70
     0
102
RTVSPost2010Prop53
 90
        2
102
RTVSPost2010PropOp53
 70
     1
102
RTVSPost2010Prop54
  1
strokes_ogs.tif
102
RTVSPost2010PropOp54
 70
     1
102
RTVSPost2010Prop55
280
     0
102
RTVSPost2010PropOp55
 70
     1
102
RTVSPost2010Prop56
140
1.0
102
RTVSPost2010PropOp56
 70
     1
102
RTVSPost2010Prop57
140
1.0
102
RTVSPost2010PropOp57
 70
     1
  0
XRECORD
  5
892
102
{ACAD_REACTORS
330
891
102
}
330
891
100
AcDbXrecord
280
     1
102
RTVSPost2010Prop28
280
     0
102
RTVSPost2010PropOp28
 70
     1
102
RTVSPost2010Prop29
280
     1
102
RTVSPost2010PropOp29
 70
     1
102
RTVSPost2010Prop30
280
     1
102
RTVSPost2010PropOp30
 70
     1
102
RTVSPost2010Prop31
280
     0
102
RTVSPost2010PropOp31
 70
     1
102
RTVSPost2010Prop32
280
     0
102
RTVSPost2010PropOp32
 70
     1
102
RTVSPost2010Prop33
280
     0
102
RTVSPost2010PropOp33
 70
     1
102
RTVSPost2010Prop34
280
     0
102
RTVSPost2010PropOp34
 70
     1
102
RTVSPost2010Prop35
280
     0
102
RTVSPost2010PropOp35
 70
     1
102
RTVSPost2010Prop36
280
     0
102
RTVSPost2010PropOp36
 70
     1
102
RTVSPost2010Prop37
 90
       50
102
RTVSPost2010PropOp37
 70
     1
102
RTVSPost2010Prop38
140
0.0
102
RTVSPost2010PropOp38
 70
     1
102
RTVSPost2010Prop39
140
1.0
102
RTVSPost2010PropOp39
 70
     1
102
RTVSPost2010Prop40
 90
        0
102
RTVSPost2010PropOp40
 70
     1
102
RTVSPost2010Prop41ColorIndex
 90
       18
102
RTVSPost2010Prop41ColorRGB
 90
        0
102
RTVSPost2010PropOp41
 70
     1
102
RTVSPost2010Prop42
 90
       50
102
RTVSPost2010PropOp42
 70
     1
102
RTVSPost2010Prop43
 90
        3
102
RTVSPost2010PropOp43
 70
     1
102
RTVSPost2010Prop44ColorIndex
 90
        5
102
RTVSPost2010Prop44ColorRGB
 90
      255
102
RTVSPost2010PropOp44
 70
     1
102
RTVSPost2010Prop45
280
     0
102
RTVSPost2010PropOp45
 70
     1
102
RTVSPost2010Prop46
 90
       50
102
RTVSPost2010PropOp46
 70
     1
102
RTVSPost2010Prop47
 90
       50
102
RTVSPost2010PropOp47
 70
     1
102
RTVSPost2010Prop48
 90
       50
102
RTVSPost2010PropOp48
 70
     1
102
RTVSPost2010Prop49
280
     0
102
RTVSPost2010PropOp49
 70
     1
102
RTVSPost2010Prop50
 90
       50
102
RTVSPost2010PropOp50
 70
     1
102
RTVSPost2010Prop51ColorIndex
 90
      256
102
RTVSPost2010Prop51ColorRGB
 90
-16777216
102
RTVSPost2010PropOp51
 70
     0
102
RTVSPost2010Prop52
140
1.0
102
RTVSPost2010PropOp52
 70
     0
102
RTVSPost2010Prop53
 90
        2
102
RTVSPost2010PropOp53
 70
     1
102
RTVSPost2010Prop54
  1
strokes_ogs.tif
102
RTVSPost2010PropOp54
 70
     1
102
RTVSPost2010Prop55
280
     0
102
RTVSPost2010PropOp55
 70
     1
102
RTVSPost2010Prop56
140
1.0
102
RTVSPost2010PropOp56
 70
     1
102
RTVSPost2010Prop57
140
1.0
102
RTVSPost2010PropOp57
 70
     1
  0
XRECORD
  5
894
102
{ACAD_REACTORS
330
893
102
}
330
893
100
AcDbXrecord
280
     1
102
RTVSPost2010Prop28
280
     0
102
RTVSPost2010PropOp28
 70
     1
102
RTVSPost2010Prop29
280
     1
102
RTVSPost2010PropOp29
 70
     1
102
RTVSPost2010Prop30
280
     1
102
RTVSPost2010PropOp30
 70
     1
102
RTVSPost2010Prop31
280
     0
102
RTVSPost2010PropOp31
 70
     1
102
RTVSPost2010Prop32
280
     0
102
RTVSPost2010PropOp32
 70
     1
102
RTVSPost2010Prop33
280
     0
102
RTVSPost2010PropOp33
 70
     1
102
RTVSPost2010Prop34
280
     0
102
RTVSPost2010PropOp34
 70
     1
102
RTVSPost2010Prop35
280
     0
102
RTVSPost2010PropOp35
 70
     1
102
RTVSPost2010Prop36
280
     0
102
RTVSPost2010PropOp36
 70
     1
102
RTVSPost2010Prop37
 90
       50
102
RTVSPost2010PropOp37
 70
     1
102
RTVSPost2010Prop38
140
0.0
102
RTVSPost2010PropOp38
 70
     1
102
RTVSPost2010Prop39
140
1.0
102
RTVSPost2010PropOp39
 70
     1
102
RTVSPost2010Prop40
 90
        0
102
RTVSPost2010PropOp40
 70
     1
102
RTVSPost2010Prop41ColorIndex
 90
       18
102
RTVSPost2010Prop41ColorRGB
 90
        0
102
RTVSPost2010PropOp41
 70
     1
102
RTVSPost2010Prop42
 90
       50
102
RTVSPost2010PropOp42
 70
     1
102
RTVSPost2010Prop43
 90
        3
102
RTVSPost2010PropOp43
 70
     1
102
RTVSPost2010Prop44ColorIndex
 90
        5
102
RTVSPost2010Prop44ColorRGB
 90
      255
102
RTVSPost2010PropOp44
 70
     1
102
RTVSPost2010Prop45
280
     0
102
RTVSPost2010PropOp45
 70
     1
102
RTVSPost2010Prop46
 90
       50
102
RTVSPost2010PropOp46
 70
     1
102
RTVSPost2010Prop47
 90
       50
102
RTVSPost2010PropOp47
 70
     1
102
RTVSPost2010Prop48
 90
       50
102
RTVSPost2010PropOp48
 70
     1
102
RTVSPost2010Prop49
280
     0
102
RTVSPost2010PropOp49
 70
     1
102
RTVSPost2010Prop50
 90
       50
102
RTVSPost2010PropOp50
 70
     1
102
RTVSPost2010Prop51ColorIndex
 90
      256
102
RTVSPost2010Prop51ColorRGB
 90
-16777216
102
RTVSPost2010PropOp51
 70
     0
102
RTVSPost2010Prop52
140
1.0
102
RTVSPost2010PropOp52
 70
     0
102
RTVSPost2010Prop53
 90
        2
102
RTVSPost2010PropOp53
 70
     1
102
RTVSPost2010Prop54
  1
strokes_ogs.tif
102
RTVSPost2010PropOp54
 70
     1
102
RTVSPost2010Prop55
280
     0
102
RTVSPost2010PropOp55
 70
     1
102
RTVSPost2010Prop56
140
1.0
102
RTVSPost2010PropOp56
 70
     1
102
RTVSPost2010Prop57
140
1.0
102
RTVSPost2010PropOp57
 70
     1
  0
XRECORD
  5
8B0
102
{ACAD_REACTORS
330
8AF
102
}
330
8AF
100
AcDbXrecord
280
     1
102
RTVSPost2010Prop28
280
     0
102
RTVSPost2010PropOp28
 70
     1
102
RTVSPost2010Prop29
280
     1
102
RTVSPost2010PropOp29
 70
     1
102
RTVSPost2010Prop30
280
     1
102
RTVSPost2010PropOp30
 70
     1
102
RTVSPost2010Prop31
280
     0
102
RTVSPost2010PropOp31
 70
     1
102
RTVSPost2010Prop32
280
     0
102
RTVSPost2010PropOp32
 70
     1
102
RTVSPost2010Prop33
280
     0
102
RTVSPost2010PropOp33
 70
     1
102
RTVSPost2010Prop34
280
     0
102
RTVSPost2010PropOp34
 70
     1
102
RTVSPost2010Prop35
280
     0
102
RTVSPost2010PropOp35
 70
     1
102
RTVSPost2010Prop36
280
     0
102
RTVSPost2010PropOp36
 70
     1
102
RTVSPost2010Prop37
 90
       50
102
RTVSPost2010PropOp37
 70
     1
102
RTVSPost2010Prop38
140
0.0
102
RTVSPost2010PropOp38
 70
     1
102
RTVSPost2010Prop39
140
1.0
102
RTVSPost2010PropOp39
 70
     1
102
RTVSPost2010Prop40
 90
        0
102
RTVSPost2010PropOp40
 70
     1
102
RTVSPost2010Prop41ColorIndex
 90
       18
102
RTVSPost2010Prop41ColorRGB
 90
        0
102
RTVSPost2010PropOp41
 70
     1
102
RTVSPost2010Prop42
 90
       50
102
RTVSPost2010PropOp42
 70
     1
102
RTVSPost2010Prop43
 90
        3
102
RTVSPost2010PropOp43
 70
     1
102
RTVSPost2010Prop44ColorIndex
 90
        5
102
RTVSPost2010Prop44ColorRGB
 90
      255
102
RTVSPost2010PropOp44
 70
     1
102
RTVSPost2010Prop45
280
     0
102
RTVSPost2010PropOp45
 70
     1
102
RTVSPost2010Prop46
 90
       50
102
RTVSPost2010PropOp46
 70
     1
102
RTVSPost2010Prop47
 90
       50
102
RTVSPost2010PropOp47
 70
     1
102
RTVSPost2010Prop48
 90
       50
102
RTVSPost2010PropOp48
 70
     1
102
RTVSPost2010Prop49
280
     0
102
RTVSPost2010PropOp49
 70
     1
102
RTVSPost2010Prop50
 90
       50
102
RTVSPost2010PropOp50
 70
     1
102
RTVSPost2010Prop51ColorIndex
 90
      256
102
RTVSPost2010Prop51ColorRGB
 90
-16777216
102
RTVSPost2010PropOp51
 70
     0
102
RTVSPost2010Prop52
140
1.0
102
RTVSPost2010PropOp52
 70
     0
102
RTVSPost2010Prop53
 90
        2
102
RTVSPost2010PropOp53
 70
     1
102
RTVSPost2010Prop54
  1
strokes_ogs.tif
102
RTVSPost2010PropOp54
 70
     1
102
RTVSPost2010Prop55
280
     0
102
RTVSPost2010PropOp55
 70
     1
102
RTVSPost2010Prop56
140
1.0
102
RTVSPost2010PropOp56
 70
     1
102
RTVSPost2010Prop57
140
1.0
102
RTVSPost2010PropOp57
 70
     1
  0
XRECORD
  5
8BC
102
{ACAD_REACTORS
330
8BB
102
}
330
8BB
100
AcDbXrecord
280
     1
102
RTVSPost2010Prop28
280
     0
102
RTVSPost2010PropOp28
 70
     1
102
RTVSPost2010Prop29
280
     1
102
RTVSPost2010PropOp29
 70
     1
102
RTVSPost2010Prop30
280
     1
102
RTVSPost2010PropOp30
 70
     1
102
RTVSPost2010Prop31
280
     0
102
RTVSPost2010PropOp31
 70
     1
102
RTVSPost2010Prop32
280
     0
102
RTVSPost2010PropOp32
 70
     1
102
RTVSPost2010Prop33
280
     0
102
RTVSPost2010PropOp33
 70
     1
102
RTVSPost2010Prop34
280
     0
102
RTVSPost2010PropOp34
 70
     1
102
RTVSPost2010Prop35
280
     0
102
RTVSPost2010PropOp35
 70
     1
102
RTVSPost2010Prop36
280
     0
102
RTVSPost2010PropOp36
 70
     1
102
RTVSPost2010Prop37
 90
       50
102
RTVSPost2010PropOp37
 70
     0
102
RTVSPost2010Prop38
140
0.0
102
RTVSPost2010PropOp38
 70
     0
102
RTVSPost2010Prop39
140
1.0
102
RTVSPost2010PropOp39
 70
     0
102
RTVSPost2010Prop40
 90
        0
102
RTVSPost2010PropOp40
 70
     0
102
RTVSPost2010Prop41ColorIndex
 90
       18
102
RTVSPost2010Prop41ColorRGB
 90
        0
102
RTVSPost2010PropOp41
 70
     0
102
RTVSPost2010Prop42
 90
       50
102
RTVSPost2010PropOp42
 70
     0
102
RTVSPost2010Prop43
 90
        3
102
RTVSPost2010PropOp43
 70
     0
102
RTVSPost2010Prop44ColorIndex
 90
        5
102
RTVSPost2010Prop44ColorRGB
 90
      255
102
RTVSPost2010PropOp44
 70
     0
102
RTVSPost2010Prop45
280
     0
102
RTVSPost2010PropOp45
 70
     1
102
RTVSPost2010Prop46
 90
       50
102
RTVSPost2010PropOp46
 70
     0
102
RTVSPost2010Prop47
 90
       50
102
RTVSPost2010PropOp47
 70
     0
102
RTVSPost2010Prop48
 90
       50
102
RTVSPost2010PropOp48
 70
     0
102
RTVSPost2010Prop49
280
     0
102
RTVSPost2010PropOp49
 70
     1
102
RTVSPost2010Prop50
 90
       50
102
RTVSPost2010PropOp50
 70
     0
102
RTVSPost2010Prop51ColorIndex
 90
      256
102
RTVSPost2010Prop51ColorRGB
 90
-16777216
102
RTVSPost2010PropOp51
 70
     0
102
RTVSPost2010Prop52
140
1.0
102
RTVSPost2010PropOp52
 70
     0
102
RTVSPost2010Prop53
 90
        2
102
RTVSPost2010PropOp53
 70
     0
102
RTVSPost2010Prop54
  1
strokes_ogs.tif
102
RTVSPost2010PropOp54
 70
     0
102
RTVSPost2010Prop55
280
     0
102
RTVSPost2010PropOp55
 70
     1
102
RTVSPost2010Prop56
140
1.0
102
RTVSPost2010PropOp56
 70
     0
102
RTVSPost2010Prop57
140
1.0
102
RTVSPost2010PropOp57
 70
     0
  0
XRECORD
  5
8A8
102
{ACAD_REACTORS
330
8A7
102
}
330
8A7
100
AcDbXrecord
280
     1
102
RTVSPost2010Prop28
280
     0
102
RTVSPost2010PropOp28
 70
     1
102
RTVSPost2010Prop29
280
     1
102
RTVSPost2010PropOp29
 70
     1
102
RTVSPost2010Prop30
280
     1
102
RTVSPost2010PropOp30
 70
     1
102
RTVSPost2010Prop31
280
     0
102
RTVSPost2010PropOp31
 70
     1
102
RTVSPost2010Prop32
280
     0
102
RTVSPost2010PropOp32
 70
     1
102
RTVSPost2010Prop33
280
     0
102
RTVSPost2010PropOp33
 70
     1
102
RTVSPost2010Prop34
280
     0
102
RTVSPost2010PropOp34
 70
     1
102
RTVSPost2010Prop35
280
     0
102
RTVSPost2010PropOp35
 70
     1
102
RTVSPost2010Prop36
280
     0
102
RTVSPost2010PropOp36
 70
     1
102
RTVSPost2010Prop37
 90
       50
102
RTVSPost2010PropOp37
 70
     1
102
RTVSPost2010Prop38
140
0.0
102
RTVSPost2010PropOp38
 70
     1
102
RTVSPost2010Prop39
140
1.0
102
RTVSPost2010PropOp39
 70
     1
102
RTVSPost2010Prop40
 90
        0
102
RTVSPost2010PropOp40
 70
     1
102
RTVSPost2010Prop41ColorIndex
 90
       18
102
RTVSPost2010Prop41ColorRGB
 90
        0
102
RTVSPost2010PropOp41
 70
     1
102
RTVSPost2010Prop42
 90
       50
102
RTVSPost2010PropOp42
 70
     1
102
RTVSPost2010Prop43
 90
        3
102
RTVSPost2010PropOp43
 70
     1
102
RTVSPost2010Prop44ColorIndex
 90
        5
102
RTVSPost2010Prop44ColorRGB
 90
      255
102
RTVSPost2010PropOp44
 70
     1
102
RTVSPost2010Prop45
280
     0
102
RTVSPost2010PropOp45
 70
     1
102
RTVSPost2010Prop46
 90
       50
102
RTVSPost2010PropOp46
 70
     1
102
RTVSPost2010Prop47
 90
       50
102
RTVSPost2010PropOp47
 70
     1
102
RTVSPost2010Prop48
 90
       50
102
RTVSPost2010PropOp48
 70
     1
102
RTVSPost2010Prop49
280
     0
102
RTVSPost2010PropOp49
 70
     1
102
RTVSPost2010Prop50
 90
       50
102
RTVSPost2010PropOp50
 70
     1
102
RTVSPost2010Prop51ColorIndex
 90
      256
102
RTVSPost2010Prop51ColorRGB
 90
-16777216
102
RTVSPost2010PropOp51
 70
     0
102
RTVSPost2010Prop52
140
1.0
102
RTVSPost2010PropOp52
 70
     0
102
RTVSPost2010Prop53
 90
        2
102
RTVSPost2010PropOp53
 70
     1
102
RTVSPost2010Prop54
  1
strokes_ogs.tif
102
RTVSPost2010PropOp54
 70
     1
102
RTVSPost2010Prop55
280
     0
102
RTVSPost2010PropOp55
 70
     1
102
RTVSPost2010Prop56
140
1.0
102
RTVSPost2010PropOp56
 70
     1
102
RTVSPost2010Prop57
140
1.0
102
RTVSPost2010PropOp57
 70
     1
  0
XRECORD
  5
8BE
102
{ACAD_REACTORS
330
8BD
102
}
330
8BD
100
AcDbXrecord
280
     1
102
RTVSPost2010Prop28
280
     0
102
RTVSPost2010PropOp28
 70
     1
102
RTVSPost2010Prop29
280
     1
102
RTVSPost2010PropOp29
 70
     1
102
RTVSPost2010Prop30
280
     1
102
RTVSPost2010PropOp30
 70
     1
102
RTVSPost2010Prop31
280
     0
102
RTVSPost2010PropOp31
 70
     1
102
RTVSPost2010Prop32
280
     0
102
RTVSPost2010PropOp32
 70
     1
102
RTVSPost2010Prop33
280
     0
102
RTVSPost2010PropOp33
 70
     1
102
RTVSPost2010Prop34
280
     0
102
RTVSPost2010PropOp34
 70
     1
102
RTVSPost2010Prop35
280
     0
102
RTVSPost2010PropOp35
 70
     1
102
RTVSPost2010Prop36
280
     0
102
RTVSPost2010PropOp36
 70
     1
102
RTVSPost2010Prop37
 90
       50
102
RTVSPost2010PropOp37
 70
     0
102
RTVSPost2010Prop38
140
0.0
102
RTVSPost2010PropOp38
 70
     0
102
RTVSPost2010Prop39
140
1.0
102
RTVSPost2010PropOp39
 70
     0
102
RTVSPost2010Prop40
 90
        0
102
RTVSPost2010PropOp40
 70
     0
102
RTVSPost2010Prop41ColorIndex
 90
       18
102
RTVSPost2010Prop41ColorRGB
 90
        0
102
RTVSPost2010PropOp41
 70
     0
102
RTVSPost2010Prop42
 90
       50
102
RTVSPost2010PropOp42
 70
     0
102
RTVSPost2010Prop43
 90
        3
102
RTVSPost2010PropOp43
 70
     0
102
RTVSPost2010Prop44ColorIndex
 90
        5
102
RTVSPost2010Prop44ColorRGB
 90
      255
102
RTVSPost2010PropOp44
 70
     0
102
RTVSPost2010Prop45
280
     0
102
RTVSPost2010PropOp45
 70
     1
102
RTVSPost2010Prop46
 90
       50
102
RTVSPost2010PropOp46
 70
     0
102
RTVSPost2010Prop47
 90
       50
102
RTVSPost2010PropOp47
 70
     0
102
RTVSPost2010Prop48
 90
       50
102
RTVSPost2010PropOp48
 70
     0
102
RTVSPost2010Prop49
280
     0
102
RTVSPost2010PropOp49
 70
     1
102
RTVSPost2010Prop50
 90
       50
102
RTVSPost2010PropOp50
 70
     0
102
RTVSPost2010Prop51ColorIndex
 90
      256
102
RTVSPost2010Prop51ColorRGB
 90
-16777216
102
RTVSPost2010PropOp51
 70
     0
102
RTVSPost2010Prop52
140
1.0
102
RTVSPost2010PropOp52
 70
     0
102
RTVSPost2010Prop53
 90
        2
102
RTVSPost2010PropOp53
 70
     0
102
RTVSPost2010Prop54
  1
strokes_ogs.tif
102
RTVSPost2010PropOp54
 70
     0
102
RTVSPost2010Prop55
280
     0
102
RTVSPost2010PropOp55
 70
     1
102
RTVSPost2010Prop56
140
1.0
102
RTVSPost2010PropOp56
 70
     0
102
RTVSPost2010Prop57
140
1.0
102
RTVSPost2010PropOp57
 70
     0
  0
XRECORD
  5
8A0
102
{ACAD_REACTORS
330
89F
102
}
330
89F
100
AcDbXrecord
280
     1
102
RTVSPost2010Prop28
280
     0
102
RTVSPost2010PropOp28
 70
     1
102
RTVSPost2010Prop29
280
     1
102
RTVSPost2010PropOp29
 70
     1
102
RTVSPost2010Prop30
280
     1
102
RTVSPost2010PropOp30
 70
     1
102
RTVSPost2010Prop31
280
     0
102
RTVSPost2010PropOp31
 70
     1
102
RTVSPost2010Prop32
280
     0
102
RTVSPost2010PropOp32
 70
     1
102
RTVSPost2010Prop33
280
     0
102
RTVSPost2010PropOp33
 70
     1
102
RTVSPost2010Prop34
280
     0
102
RTVSPost2010PropOp34
 70
     1
102
RTVSPost2010Prop35
280
     0
102
RTVSPost2010PropOp35
 70
     1
102
RTVSPost2010Prop36
280
     0
102
RTVSPost2010PropOp36
 70
     1
102
RTVSPost2010Prop37
 90
       50
102
RTVSPost2010PropOp37
 70
     1
102
RTVSPost2010Prop38
140
0.0
102
RTVSPost2010PropOp38
 70
     1
102
RTVSPost2010Prop39
140
1.0
102
RTVSPost2010PropOp39
 70
     1
102
RTVSPost2010Prop40
 90
        0
102
RTVSPost2010PropOp40
 70
     1
102
RTVSPost2010Prop41ColorIndex
 90
       18
102
RTVSPost2010Prop41ColorRGB
 90
        0
102
RTVSPost2010PropOp41
 70
     1
102
RTVSPost2010Prop42
 90
       50
102
RTVSPost2010PropOp42
 70
     1
102
RTVSPost2010Prop43
 90
        3
102
RTVSPost2010PropOp43
 70
     1
102
RTVSPost2010Prop44ColorIndex
 90
        5
102
RTVSPost2010Prop44ColorRGB
 90
      255
102
RTVSPost2010PropOp44
 70
     1
102
RTVSPost2010Prop45
280
     0
102
RTVSPost2010PropOp45
 70
     1
102
RTVSPost2010Prop46
 90
       50
102
RTVSPost2010PropOp46
 70
     1
102
RTVSPost2010Prop47
 90
       50
102
RTVSPost2010PropOp47
 70
     1
102
RTVSPost2010Prop48
 90
       50
102
RTVSPost2010PropOp48
 70
     1
102
RTVSPost2010Prop49
280
     0
102
RTVSPost2010PropOp49
 70
     1
102
RTVSPost2010Prop50
 90
       50
102
RTVSPost2010PropOp50
 70
     1
102
RTVSPost2010Prop51ColorIndex
 90
      256
102
RTVSPost2010Prop51ColorRGB
 90
-16777216
102
RTVSPost2010PropOp51
 70
     0
102
RTVSPost2010Prop52
140
1.0
102
RTVSPost2010PropOp52
 70
     0
102
RTVSPost2010Prop53
 90
        2
102
RTVSPost2010PropOp53
 70
     1
102
RTVSPost2010Prop54
  1
strokes_ogs.tif
102
RTVSPost2010PropOp54
 70
     1
102
RTVSPost2010Prop55
280
     0
102
RTVSPost2010PropOp55
 70
     1
102
RTVSPost2010Prop56
140
1.0
102
RTVSPost2010PropOp56
 70
     1
102
RTVSPost2010Prop57
140
1.0
102
RTVSPost2010PropOp57
 70
     1
  0
XRECORD
  5
8BA
102
{ACAD_REACTORS
330
8B9
102
}
330
8B9
100
AcDbXrecord
280
     1
102
RTVSPost2010Prop28
280
     0
102
RTVSPost2010PropOp28
 70
     1
102
RTVSPost2010Prop29
280
     1
102
RTVSPost2010PropOp29
 70
     1
102
RTVSPost2010Prop30
280
     1
102
RTVSPost2010PropOp30
 70
     1
102
RTVSPost2010Prop31
280
     0
102
RTVSPost2010PropOp31
 70
     1
102
RTVSPost2010Prop32
280
     0
102
RTVSPost2010PropOp32
 70
     1
102
RTVSPost2010Prop33
280
     0
102
RTVSPost2010PropOp33
 70
     1
102
RTVSPost2010Prop34
280
     0
102
RTVSPost2010PropOp34
 70
     1
102
RTVSPost2010Prop35
280
     0
102
RTVSPost2010PropOp35
 70
     1
102
RTVSPost2010Prop36
280
     0
102
RTVSPost2010PropOp36
 70
     1
102
RTVSPost2010Prop37
 90
       50
102
RTVSPost2010PropOp37
 70
     1
102
RTVSPost2010Prop38
140
0.0
102
RTVSPost2010PropOp38
 70
     1
102
RTVSPost2010Prop39
140
1.0
102
RTVSPost2010PropOp39
 70
     1
102
RTVSPost2010Prop40
 90
        0
102
RTVSPost2010PropOp40
 70
     1
102
RTVSPost2010Prop41ColorIndex
 90
       18
102
RTVSPost2010Prop41ColorRGB
 90
        0
102
RTVSPost2010PropOp41
 70
     1
102
RTVSPost2010Prop42
 90
       50
102
RTVSPost2010PropOp42
 70
     1
102
RTVSPost2010Prop43
 90
        3
102
RTVSPost2010PropOp43
 70
     1
102
RTVSPost2010Prop44ColorIndex
 90
        5
102
RTVSPost2010Prop44ColorRGB
 90
      255
102
RTVSPost2010PropOp44
 70
     1
102
RTVSPost2010Prop45
280
     0
102
RTVSPost2010PropOp45
 70
     1
102
RTVSPost2010Prop46
 90
       50
102
RTVSPost2010PropOp46
 70
     1
102
RTVSPost2010Prop47
 90
       50
102
RTVSPost2010PropOp47
 70
     1
102
RTVSPost2010Prop48
 90
       50
102
RTVSPost2010PropOp48
 70
     1
102
RTVSPost2010Prop49
280
     0
102
RTVSPost2010PropOp49
 70
     1
102
RTVSPost2010Prop50
 90
       50
102
RTVSPost2010PropOp50
 70
     1
102
RTVSPost2010Prop51ColorIndex
 90
      256
102
RTVSPost2010Prop51ColorRGB
 90
-16777216
102
RTVSPost2010PropOp51
 70
     0
102
RTVSPost2010Prop52
140
1.0
102
RTVSPost2010PropOp52
 70
     0
102
RTVSPost2010Prop53
 90
        2
102
RTVSPost2010PropOp53
 70
     1
102
RTVSPost2010Prop54
  1
strokes_ogs.tif
102
RTVSPost2010PropOp54
 70
     1
102
RTVSPost2010Prop55
280
     0
102
RTVSPost2010PropOp55
 70
     1
102
RTVSPost2010Prop56
140
1.0
102
RTVSPost2010PropOp56
 70
     1
102
RTVSPost2010Prop57
140
1.0
102
RTVSPost2010PropOp57
 70
     1
  0
XRECORD
  5
8B8
102
{ACAD_REACTORS
330
8B7
102
}
330
8B7
100
AcDbXrecord
280
     1
102
RTVSPost2010Prop28
280
     0
102
RTVSPost2010PropOp28
 70
     1
102
RTVSPost2010Prop29
280
     1
102
RTVSPost2010PropOp29
 70
     1
102
RTVSPost2010Prop30
280
     1
102
RTVSPost2010PropOp30
 70
     1
102
RTVSPost2010Prop31
280
     0
102
RTVSPost2010PropOp31
 70
     1
102
RTVSPost2010Prop32
280
     0
102
RTVSPost2010PropOp32
 70
     1
102
RTVSPost2010Prop33
280
     0
102
RTVSPost2010PropOp33
 70
     1
102
RTVSPost2010Prop34
280
     0
102
RTVSPost2010PropOp34
 70
     1
102
RTVSPost2010Prop35
280
     0
102
RTVSPost2010PropOp35
 70
     1
102
RTVSPost2010Prop36
280
     0
102
RTVSPost2010PropOp36
 70
     1
102
RTVSPost2010Prop37
 90
       50
102
RTVSPost2010PropOp37
 70
     1
102
RTVSPost2010Prop38
140
0.0
102
RTVSPost2010PropOp38
 70
     1
102
RTVSPost2010Prop39
140
1.0
102
RTVSPost2010PropOp39
 70
     1
102
RTVSPost2010Prop40
 90
        0
102
RTVSPost2010PropOp40
 70
     1
102
RTVSPost2010Prop41ColorIndex
 90
       18
102
RTVSPost2010Prop41ColorRGB
 90
        0
102
RTVSPost2010PropOp41
 70
     1
102
RTVSPost2010Prop42
 90
       50
102
RTVSPost2010PropOp42
 70
     1
102
RTVSPost2010Prop43
 90
        3
102
RTVSPost2010PropOp43
 70
     1
102
RTVSPost2010Prop44ColorIndex
 90
        5
102
RTVSPost2010Prop44ColorRGB
 90
      255
102
RTVSPost2010PropOp44
 70
     1
102
RTVSPost2010Prop45
280
     0
102
RTVSPost2010PropOp45
 70
     1
102
RTVSPost2010Prop46
 90
       50
102
RTVSPost2010PropOp46
 70
     1
102
RTVSPost2010Prop47
 90
       50
102
RTVSPost2010PropOp47
 70
     1
102
RTVSPost2010Prop48
 90
       50
102
RTVSPost2010PropOp48
 70
     1
102
RTVSPost2010Prop49
280
     0
102
RTVSPost2010PropOp49
 70
     1
102
RTVSPost2010Prop50
 90
       50
102
RTVSPost2010PropOp50
 70
     1
102
RTVSPost2010Prop51ColorIndex
 90
      256
102
RTVSPost2010Prop51ColorRGB
 90
-16777216
102
RTVSPost2010PropOp51
 70
     0
102
RTVSPost2010Prop52
140
1.0
102
RTVSPost2010PropOp52
 70
     0
102
RTVSPost2010Prop53
 90
        2
102
RTVSPost2010PropOp53
 70
     1
102
RTVSPost2010Prop54
  1
strokes_ogs.tif
102
RTVSPost2010PropOp54
 70
     1
102
RTVSPost2010Prop55
280
     0
102
RTVSPost2010PropOp55
 70
     1
102
RTVSPost2010Prop56
140
1.0
102
RTVSPost2010PropOp56
 70
     1
102
RTVSPost2010Prop57
140
1.0
102
RTVSPost2010PropOp57
 70
     1
  0
XRECORD
  5
8B2
102
{ACAD_REACTORS
330
8B1
102
}
330
8B1
100
AcDbXrecord
280
     1
102
RTVSPost2010Prop28
280
     0
102
RTVSPost2010PropOp28
 70
     1
102
RTVSPost2010Prop29
280
     1
102
RTVSPost2010PropOp29
 70
     1
102
RTVSPost2010Prop30
280
     1
102
RTVSPost2010PropOp30
 70
     1
102
RTVSPost2010Prop31
280
     0
102
RTVSPost2010PropOp31
 70
     1
102
RTVSPost2010Prop32
280
     0
102
RTVSPost2010PropOp32
 70
     1
102
RTVSPost2010Prop33
280
     0
102
RTVSPost2010PropOp33
 70
     1
102
RTVSPost2010Prop34
280
     0
102
RTVSPost2010PropOp34
 70
     1
102
RTVSPost2010Prop35
280
     0
102
RTVSPost2010PropOp35
 70
     1
102
RTVSPost2010Prop36
280
     0
102
RTVSPost2010PropOp36
 70
     1
102
RTVSPost2010Prop37
 90
       50
102
RTVSPost2010PropOp37
 70
     1
102
RTVSPost2010Prop38
140
0.0
102
RTVSPost2010PropOp38
 70
     1
102
RTVSPost2010Prop39
140
1.0
102
RTVSPost2010PropOp39
 70
     1
102
RTVSPost2010Prop40
 90
        0
102
RTVSPost2010PropOp40
 70
     1
102
RTVSPost2010Prop41ColorIndex
 90
       18
102
RTVSPost2010Prop41ColorRGB
 90
        0
102
RTVSPost2010PropOp41
 70
     1
102
RTVSPost2010Prop42
 90
       50
102
RTVSPost2010PropOp42
 70
     1
102
RTVSPost2010Prop43
 90
        3
102
RTVSPost2010PropOp43
 70
     1
102
RTVSPost2010Prop44ColorIndex
 90
        5
102
RTVSPost2010Prop44ColorRGB
 90
      255
102
RTVSPost2010PropOp44
 70
     1
102
RTVSPost2010Prop45
280
     0
102
RTVSPost2010PropOp45
 70
     1
102
RTVSPost2010Prop46
 90
       50
102
RTVSPost2010PropOp46
 70
     1
102
RTVSPost2010Prop47
 90
       50
102
RTVSPost2010PropOp47
 70
     1
102
RTVSPost2010Prop48
 90
       50
102
RTVSPost2010PropOp48
 70
     1
102
RTVSPost2010Prop49
280
     0
102
RTVSPost2010PropOp49
 70
     1
102
RTVSPost2010Prop50
 90
       50
102
RTVSPost2010PropOp50
 70
     1
102
RTVSPost2010Prop51ColorIndex
 90
      256
102
RTVSPost2010Prop51ColorRGB
 90
-16777216
102
RTVSPost2010PropOp51
 70
     0
102
RTVSPost2010Prop52
140
1.0
102
RTVSPost2010PropOp52
 70
     0
102
RTVSPost2010Prop53
 90
        2
102
RTVSPost2010PropOp53
 70
     1
102
RTVSPost2010Prop54
  1
strokes_ogs.tif
102
RTVSPost2010PropOp54
 70
     1
102
RTVSPost2010Prop55
280
     0
102
RTVSPost2010PropOp55
 70
     1
102
RTVSPost2010Prop56
140
1.0
102
RTVSPost2010PropOp56
 70
     1
102
RTVSPost2010Prop57
140
1.0
102
RTVSPost2010PropOp57
 70
     1
  0
XRECORD
  5
8B4
102
{ACAD_REACTORS
330
8B3
102
}
330
8B3
100
AcDbXrecord
280
     1
102
RTVSPost2010Prop28
280
     0
102
RTVSPost2010PropOp28
 70
     1
102
RTVSPost2010Prop29
280
     1
102
RTVSPost2010PropOp29
 70
     1
102
RTVSPost2010Prop30
280
     1
102
RTVSPost2010PropOp30
 70
     1
102
RTVSPost2010Prop31
280
     0
102
RTVSPost2010PropOp31
 70
     1
102
RTVSPost2010Prop32
280
     0
102
RTVSPost2010PropOp32
 70
     1
102
RTVSPost2010Prop33
280
     0
102
RTVSPost2010PropOp33
 70
     1
102
RTVSPost2010Prop34
280
     0
102
RTVSPost2010PropOp34
 70
     1
102
RTVSPost2010Prop35
280
     0
102
RTVSPost2010PropOp35
 70
     1
102
RTVSPost2010Prop36
280
     0
102
RTVSPost2010PropOp36
 70
     1
102
RTVSPost2010Prop37
 90
       50
102
RTVSPost2010PropOp37
 70
     1
102
RTVSPost2010Prop38
140
0.0
102
RTVSPost2010PropOp38
 70
     1
102
RTVSPost2010Prop39
140
1.0
102
RTVSPost2010PropOp39
 70
     1
102
RTVSPost2010Prop40
 90
        0
102
RTVSPost2010PropOp40
 70
     1
102
RTVSPost2010Prop41ColorIndex
 90
       18
102
RTVSPost2010Prop41ColorRGB
 90
        0
102
RTVSPost2010PropOp41
 70
     1
102
RTVSPost2010Prop42
 90
       50
102
RTVSPost2010PropOp42
 70
     1
102
RTVSPost2010Prop43
 90
        3
102
RTVSPost2010PropOp43
 70
     1
102
RTVSPost2010Prop44ColorIndex
 90
        5
102
RTVSPost2010Prop44ColorRGB
 90
      255
102
RTVSPost2010PropOp44
 70
     1
102
RTVSPost2010Prop45
280
     0
102
RTVSPost2010PropOp45
 70
     1
102
RTVSPost2010Prop46
 90
       50
102
RTVSPost2010PropOp46
 70
     1
102
RTVSPost2010Prop47
 90
       50
102
RTVSPost2010PropOp47
 70
     1
102
RTVSPost2010Prop48
 90
       50
102
RTVSPost2010PropOp48
 70
     1
102
RTVSPost2010Prop49
280
     0
102
RTVSPost2010PropOp49
 70
     1
102
RTVSPost2010Prop50
 90
       50
102
RTVSPost2010PropOp50
 70
     1
102
RTVSPost2010Prop51ColorIndex
 90
      256
102
RTVSPost2010Prop51ColorRGB
 90
-16777216
102
RTVSPost2010PropOp51
 70
     0
102
RTVSPost2010Prop52
140
1.0
102
RTVSPost2010PropOp52
 70
     0
102
RTVSPost2010Prop53
 90
        2
102
RTVSPost2010PropOp53
 70
     1
102
RTVSPost2010Prop54
  1
strokes_ogs.tif
102
RTVSPost2010PropOp54
 70
     1
102
RTVSPost2010Prop55
280
     0
102
RTVSPost2010PropOp55
 70
     1
102
RTVSPost2010Prop56
140
1.0
102
RTVSPost2010PropOp56
 70
     1
102
RTVSPost2010Prop57
140
1.0
102
RTVSPost2010PropOp57
 70
     1
  0
XRECORD
  5
8A6
102
{ACAD_REACTORS
330
8A5
102
}
330
8A5
100
AcDbXrecord
280
     1
102
RTVSPost2010Prop28
280
     0
102
RTVSPost2010PropOp28
 70
     1
102
RTVSPost2010Prop29
280
     1
102
RTVSPost2010PropOp29
 70
     1
102
RTVSPost2010Prop30
280
     1
102
RTVSPost2010PropOp30
 70
     1
102
RTVSPost2010Prop31
280
     0
102
RTVSPost2010PropOp31
 70
     1
102
RTVSPost2010Prop32
280
     0
102
RTVSPost2010PropOp32
 70
     1
102
RTVSPost2010Prop33
280
     0
102
RTVSPost2010PropOp33
 70
     1
102
RTVSPost2010Prop34
280
     0
102
RTVSPost2010PropOp34
 70
     1
102
RTVSPost2010Prop35
280
     0
102
RTVSPost2010PropOp35
 70
     1
102
RTVSPost2010Prop36
280
     0
102
RTVSPost2010PropOp36
 70
     1
102
RTVSPost2010Prop37
 90
       50
102
RTVSPost2010PropOp37
 70
     1
102
RTVSPost2010Prop38
140
0.0
102
RTVSPost2010PropOp38
 70
     1
102
RTVSPost2010Prop39
140
1.0
102
RTVSPost2010PropOp39
 70
     1
102
RTVSPost2010Prop40
 90
        0
102
RTVSPost2010PropOp40
 70
     1
102
RTVSPost2010Prop41ColorIndex
 90
       18
102
RTVSPost2010Prop41ColorRGB
 90
        0
102
RTVSPost2010PropOp41
 70
     1
102
RTVSPost2010Prop42
 90
       50
102
RTVSPost2010PropOp42
 70
     1
102
RTVSPost2010Prop43
 90
        3
102
RTVSPost2010PropOp43
 70
     1
102
RTVSPost2010Prop44ColorIndex
 90
        5
102
RTVSPost2010Prop44ColorRGB
 90
      255
102
RTVSPost2010PropOp44
 70
     1
102
RTVSPost2010Prop45
280
     0
102
RTVSPost2010PropOp45
 70
     1
102
RTVSPost2010Prop46
 90
       50
102
RTVSPost2010PropOp46
 70
     1
102
RTVSPost2010Prop47
 90
       50
102
RTVSPost2010PropOp47
 70
     1
102
RTVSPost2010Prop48
 90
       50
102
RTVSPost2010PropOp48
 70
     1
102
RTVSPost2010Prop49
280
     0
102
RTVSPost2010PropOp49
 70
     1
102
RTVSPost2010Prop50
 90
       50
102
RTVSPost2010PropOp50
 70
     1
102
RTVSPost2010Prop51ColorIndex
 90
      256
102
RTVSPost2010Prop51ColorRGB
 90
-16777216
102
RTVSPost2010PropOp51
 70
     0
102
RTVSPost2010Prop52
140
1.0
102
RTVSPost2010PropOp52
 70
     0
102
RTVSPost2010Prop53
 90
        2
102
RTVSPost2010PropOp53
 70
     1
102
RTVSPost2010Prop54
  1
strokes_ogs.tif
102
RTVSPost2010PropOp54
 70
     1
102
RTVSPost2010Prop55
280
     0
102
RTVSPost2010PropOp55
 70
     1
102
RTVSPost2010Prop56
140
1.0
102
RTVSPost2010PropOp56
 70
     1
102
RTVSPost2010Prop57
140
1.0
102
RTVSPost2010PropOp57
 70
     1
  0
XRECORD
  5
8AE
102
{ACAD_REACTORS
330
8AD
102
}
330
8AD
100
AcDbXrecord
280
     1
102
RTVSPost2010Prop28
280
     0
102
RTVSPost2010PropOp28
 70
     1
102
RTVSPost2010Prop29
280
     1
102
RTVSPost2010PropOp29
 70
     1
102
RTVSPost2010Prop30
280
     1
102
RTVSPost2010PropOp30
 70
     1
102
RTVSPost2010Prop31
280
     0
102
RTVSPost2010PropOp31
 70
     1
102
RTVSPost2010Prop32
280
     0
102
RTVSPost2010PropOp32
 70
     1
102
RTVSPost2010Prop33
280
     0
102
RTVSPost2010PropOp33
 70
     1
102
RTVSPost2010Prop34
280
     0
102
RTVSPost2010PropOp34
 70
     1
102
RTVSPost2010Prop35
280
     0
102
RTVSPost2010PropOp35
 70
     1
102
RTVSPost2010Prop36
280
     0
102
RTVSPost2010PropOp36
 70
     1
102
RTVSPost2010Prop37
 90
       50
102
RTVSPost2010PropOp37
 70
     1
102
RTVSPost2010Prop38
140
0.0
102
RTVSPost2010PropOp38
 70
     1
102
RTVSPost2010Prop39
140
1.0
102
RTVSPost2010PropOp39
 70
     1
102
RTVSPost2010Prop40
 90
        0
102
RTVSPost2010PropOp40
 70
     1
102
RTVSPost2010Prop41ColorIndex
 90
       18
102
RTVSPost2010Prop41ColorRGB
 90
        0
102
RTVSPost2010PropOp41
 70
     1
102
RTVSPost2010Prop42
 90
       50
102
RTVSPost2010PropOp42
 70
     1
102
RTVSPost2010Prop43
 90
        3
102
RTVSPost2010PropOp43
 70
     1
102
RTVSPost2010Prop44ColorIndex
 90
        5
102
RTVSPost2010Prop44ColorRGB
 90
      255
102
RTVSPost2010PropOp44
 70
     1
102
RTVSPost2010Prop45
280
     0
102
RTVSPost2010PropOp45
 70
     1
102
RTVSPost2010Prop46
 90
       50
102
RTVSPost2010PropOp46
 70
     1
102
RTVSPost2010Prop47
 90
       50
102
RTVSPost2010PropOp47
 70
     1
102
RTVSPost2010Prop48
 90
       50
102
RTVSPost2010PropOp48
 70
     1
102
RTVSPost2010Prop49
280
     0
102
RTVSPost2010PropOp49
 70
     1
102
RTVSPost2010Prop50
 90
       50
102
RTVSPost2010PropOp50
 70
     1
102
RTVSPost2010Prop51ColorIndex
 90
      256
102
RTVSPost2010Prop51ColorRGB
 90
-16777216
102
RTVSPost2010PropOp51
 70
     0
102
RTVSPost2010Prop52
140
1.0
102
RTVSPost2010PropOp52
 70
     0
102
RTVSPost2010Prop53
 90
        2
102
RTVSPost2010PropOp53
 70
     1
102
RTVSPost2010Prop54
  1
strokes_ogs.tif
102
RTVSPost2010PropOp54
 70
     1
102
RTVSPost2010Prop55
280
     0
102
RTVSPost2010PropOp55
 70
     1
102
RTVSPost2010Prop56
140
1.0
102
RTVSPost2010PropOp56
 70
     1
102
RTVSPost2010Prop57
140
1.0
102
RTVSPost2010PropOp57
 70
     1
  0
XRECORD
  5
8B6
102
{ACAD_REACTORS
330
8B5
102
}
330
8B5
100
AcDbXrecord
280
     1
102
RTVSPost2010Prop28
280
     0
102
RTVSPost2010PropOp28
 70
     1
102
RTVSPost2010Prop29
280
     1
102
RTVSPost2010PropOp29
 70
     1
102
RTVSPost2010Prop30
280
     1
102
RTVSPost2010PropOp30
 70
     1
102
RTVSPost2010Prop31
280
     0
102
RTVSPost2010PropOp31
 70
     1
102
RTVSPost2010Prop32
280
     0
102
RTVSPost2010PropOp32
 70
     1
102
RTVSPost2010Prop33
280
     0
102
RTVSPost2010PropOp33
 70
     1
102
RTVSPost2010Prop34
280
     0
102
RTVSPost2010PropOp34
 70
     1
102
RTVSPost2010Prop35
280
     0
102
RTVSPost2010PropOp35
 70
     1
102
RTVSPost2010Prop36
280
     0
102
RTVSPost2010PropOp36
 70
     1
102
RTVSPost2010Prop37
 90
       50
102
RTVSPost2010PropOp37
 70
     1
102
RTVSPost2010Prop38
140
0.0
102
RTVSPost2010PropOp38
 70
     1
102
RTVSPost2010Prop39
140
1.0
102
RTVSPost2010PropOp39
 70
     1
102
RTVSPost2010Prop40
 90
        0
102
RTVSPost2010PropOp40
 70
     1
102
RTVSPost2010Prop41ColorIndex
 90
       18
102
RTVSPost2010Prop41ColorRGB
 90
        0
102
RTVSPost2010PropOp41
 70
     1
102
RTVSPost2010Prop42
 90
       50
102
RTVSPost2010PropOp42
 70
     1
102
RTVSPost2010Prop43
 90
        3
102
RTVSPost2010PropOp43
 70
     1
102
RTVSPost2010Prop44ColorIndex
 90
        5
102
RTVSPost2010Prop44ColorRGB
 90
      255
102
RTVSPost2010PropOp44
 70
     1
102
RTVSPost2010Prop45
280
     0
102
RTVSPost2010PropOp45
 70
     1
102
RTVSPost2010Prop46
 90
       50
102
RTVSPost2010PropOp46
 70
     1
102
RTVSPost2010Prop47
 90
       50
102
RTVSPost2010PropOp47
 70
     1
102
RTVSPost2010Prop48
 90
       50
102
RTVSPost2010PropOp48
 70
     1
102
RTVSPost2010Prop49
280
     0
102
RTVSPost2010PropOp49
 70
     1
102
RTVSPost2010Prop50
 90
       50
102
RTVSPost2010PropOp50
 70
     1
102
RTVSPost2010Prop51ColorIndex
 90
      256
102
RTVSPost2010Prop51ColorRGB
 90
-16777216
102
RTVSPost2010PropOp51
 70
     0
102
RTVSPost2010Prop52
140
1.0
102
RTVSPost2010PropOp52
 70
     0
102
RTVSPost2010Prop53
 90
        2
102
RTVSPost2010PropOp53
 70
     1
102
RTVSPost2010Prop54
  1
strokes_ogs.tif
102
RTVSPost2010PropOp54
 70
     1
102
RTVSPost2010Prop55
280
     0
102
RTVSPost2010PropOp55
 70
     1
102
RTVSPost2010Prop56
140
1.0
102
RTVSPost2010PropOp56
 70
     1
102
RTVSPost2010Prop57
140
1.0
102
RTVSPost2010PropOp57
 70
     1
  0
ENDSEC
  0
EOF
