  0
SECTION
  2
HEADER
  9
$ACADVER
  1
AC1024
  9
$ACADMAINTVER
 70
   205
  9
$DWGCODEPAGE
  3
ANSI_1252
  9
$LASTSAVEDBY
  1
kaschu
  9
$INSBASE
 10
0.0
 20
0.0
 30
0.0
  9
$EXTMIN
 10
-76376.9134149735
 20
-75010.45154194613
 30
-0.0000000000000225
  9
$EXTMAX
 10
-72568.69825401095
 20
-72502.02284302261
 30
0.0000000000001222
  9
$LIMMIN
 10
0.0
 20
0.0
  9
$LIMMAX
 10
1189.0
 20
841.0
  9
$ORTHOMODE
 70
     1
  9
$REGENMODE
 70
     1
  9
$FILLMODE
 70
     1
  9
$QTEXTMODE
 70
     0
  9
$MIRRTEXT
 70
     1
  9
$LTSCALE
 40
1.0
  9
$ATTMODE
 70
     1
  9
$TEXTSIZE
 40
30.0
  9
$TRACEWID
 40
1.0
  9
$TEXTSTYLE
  7
ROMANS
  9
$CLAYER
  8
0
  9
$CELTYPE
  6
BYLAYER
  9
$CECOLOR
 62
   256
  9
$CELTSCALE
 40
1.0
  9
$DISPSILH
 70
     0
  9
$DIMSCALE
 40
1.0
  9
$DIMASZ
 40
30.0
  9
$DIMEXO
 40
0.0
  9
$DIMDLI
 40
3.75
  9
$DIMRND
 40
0.0
  9
$DIMDLE
 40
0.0
  9
$DIMEXE
 40
10.0
  9
$DIMTP
 40
0.0
  9
$DIMTM
 40
0.0
  9
$DIMTXT
 40
30.0
  9
$DIMCEN
 40
2.5
  9
$DIMTSZ
 40
0.0
  9
$DIMTOL
 70
     0
  9
$DIMLIM
 70
     0
  9
$DIMTIH
 70
     0
  9
$DIMTOH
 70
     0
  9
$DIMSE1
 70
     0
  9
$DIMSE2
 70
     0
  9
$DIMTAD
 70
     1
  9
$DIMZIN
 70
     0
  9
$DIMBLK
  1

  9
$DIMASO
 70
     1
  9
$DIMSHO
 70
     1
  9
$DIMPOST
  1

  9
$DIMAPOST
  1

  9
$DIMALT
 70
     0
  9
$DIMALTD
 70
     2
  9
$DIMALTF
 40
25.4
  9
$DIMLFAC
 40
1.0
  9
$DIMTOFL
 70
     1
  9
$DIMTVP
 40
0.0
  9
$DIMTIX
 70
     0
  9
$DIMSOXD
 70
     0
  9
$DIMSAH
 70
     0
  9
$DIMBLK1
  1

  9
$DIMBLK2
  1

  9
$DIMSTYLE
  2
STANDARD
  9
$DIMCLRD
 70
     0
  9
$DIMCLRE
 70
     0
  9
$DIMCLRT
 70
     0
  9
$DIMTFAC
 40
1.0
  9
$DIMGAP
 40
10.0
  9
$DIMJUST
 70
     0
  9
$DIMSD1
 70
     0
  9
$DIMSD2
 70
     0
  9
$DIMTOLJ
 70
     1
  9
$DIMTZIN
 70
     0
  9
$DIMALTZ
 70
     0
  9
$DIMALTTZ
 70
     0
  9
$DIMUPT
 70
     0
  9
$DIMDEC
 70
     0
  9
$DIMTDEC
 70
     0
  9
$DIMALTU
 70
     2
  9
$DIMALTTD
 70
     2
  9
$DIMTXSTY
  7
STANDARD
  9
$DIMAUNIT
 70
     0
  9
$DIMADEC
 70
     0
  9
$DIMALTRND
 40
0.0
  9
$DIMAZIN
 70
     0
  9
$DIMDSEP
 70
    46
  9
$DIMATFIT
 70
     3
  9
$DIMFRAC
 70
     0
  9
$DIMLDRBLK
  1

  9
$DIMLUNIT
 70
     2
  9
$DIMLWD
 70
    -2
  9
$DIMLWE
 70
    -2
  9
$DIMTMOVE
 70
     0
  9
$DIMFXL
 40
1.0
  9
$DIMFXLON
 70
     0
  9
$DIMJOGANG
 40
1.570796326794896
  9
$DIMTFILL
 70
     0
  9
$DIMTFILLCLR
 70
     0
  9
$DIMARCSYM
 70
     0
  9
$DIMLTYPE
  6

  9
$DIMLTEX1
  6

  9
$DIMLTEX2
  6

  9
$DIMTXTDIRECTION
 70
     0
  9
$LUNITS
 70
     2
  9
$LUPREC
 70
     4
  9
$SKETCHINC
 40
1.0
  9
$FILLETRAD
 40
0.0
  9
$AUNITS
 70
     0
  9
$AUPREC
 70
     0
  9
$MENU
  1
C:\ACADR13\WIN\SUPPORT\ACADFULL
  9
$ELEVATION
 40
0.0
  9
$PELEVATION
 40
0.0
  9
$THICKNESS
 40
0.0
  9
$LIMCHECK
 70
     0
  9
$CHAMFERA
 40
10.0
  9
$CHAMFERB
 40
10.0
  9
$CHAMFERC
 40
0.0
  9
$CHAMFERD
 40
0.0
  9
$SKPOLY
 70
     0
  9
$TDCREATE
 40
2450382.392903472
  9
$TDUCREATE
 40
2450382.351236806
  9
$TDUPDATE
 40
2458801.373995961
  9
$TDUUPDATE
 40
2458801.332329294
  9
$TDINDWG
 40
0.8104422569
  9
$TDUSRTIMER
 40
0.8104320718
  9
$USRTIMER
 70
     1
  9
$ANGBASE
 50
0.0
  9
$ANGDIR
 70
     0
  9
$PDMODE
 70
     0
  9
$PDSIZE
 40
0.0
  9
$PLINEWID
 40
0.0
  9
$SPLFRAME
 70
     0
  9
$SPLINETYPE
 70
     6
  9
$SPLINESEGS
 70
     8
  9
$HANDSEED
  5
303D529
  9
$SURFTAB1
 70
     6
  9
$SURFTAB2
 70
     6
  9
$SURFTYPE
 70
     6
  9
$SURFU
 70
     6
  9
$SURFV
 70
     6
  9
$UCSBASE
  2

  9
$UCSNAME
  2

  9
$UCSORG
 10
0.0
 20
0.0
 30
0.0
  9
$UCSXDIR
 10
1.0
 20
0.0
 30
0.0
  9
$UCSYDIR
 10
0.0
 20
1.0
 30
0.0
  9
$UCSORTHOREF
  2

  9
$UCSORTHOVIEW
 70
     0
  9
$UCSORGTOP
 10
0.0
 20
0.0
 30
0.0
  9
$UCSORGBOTTOM
 10
0.0
 20
0.0
 30
0.0
  9
$UCSORGLEFT
 10
0.0
 20
0.0
 30
0.0
  9
$UCSORGRIGHT
 10
0.0
 20
0.0
 30
0.0
  9
$UCSORGFRONT
 10
0.0
 20
0.0
 30
0.0
  9
$UCSORGBACK
 10
0.0
 20
0.0
 30
0.0
  9
$PUCSBASE
  2

  9
$PUCSNAME
  2

  9
$PUCSORG
 10
0.0
 20
0.0
 30
0.0
  9
$PUCSXDIR
 10
1.0
 20
0.0
 30
0.0
  9
$PUCSYDIR
 10
0.0
 20
1.0
 30
0.0
  9
$PUCSORTHOREF
  2

  9
$PUCSORTHOVIEW
 70
     0
  9
$PUCSORGTOP
 10
0.0
 20
0.0
 30
0.0
  9
$PUCSORGBOTTOM
 10
0.0
 20
0.0
 30
0.0
  9
$PUCSORGLEFT
 10
0.0
 20
0.0
 30
0.0
  9
$PUCSORGRIGHT
 10
0.0
 20
0.0
 30
0.0
  9
$PUCSORGFRONT
 10
0.0
 20
0.0
 30
0.0
  9
$PUCSORGBACK
 10
0.0
 20
0.0
 30
0.0
  9
$USERI1
 70
     0
  9
$USERI2
 70
     0
  9
$USERI3
 70
     0
  9
$USERI4
 70
     0
  9
$USERI5
 70
     0
  9
$USERR1
 40
0.0
  9
$USERR2
 40
0.0
  9
$USERR3
 40
0.0
  9
$USERR4
 40
0.0
  9
$USERR5
 40
0.0
  9
$WORLDVIEW
 70
     1
  9
$SHADEDGE
 70
     3
  9
$SHADEDIF
 70
    70
  9
$TILEMODE
 70
     1
  9
$MAXACTVP
 70
    16
  9
$PINSBASE
 10
0.0
 20
0.0
 30
0.0
  9
$PLIMCHECK
 70
     0
  9
$PEXTMIN
 10
12.55000000000001
 20
41.32999999999998
 30
0.0
  9
$PEXTMAX
 10
195.5499999999999
 20
284.67
 30
0.0
  9
$PLIMMIN
 10
-0.0980265521206203
 20
-3.678311471965383
  9
$PLIMMAX
 10
207.2988188848241
 20
289.6460551372062
  9
$UNITMODE
 70
     0
  9
$VISRETAIN
 70
     0
  9
$PLINEGEN
 70
     0
  9
$PSLTSCALE
 70
     1
  9
$TREEDEPTH
 70
  3020
  9
$CMLSTYLE
  2
STANDARD
  9
$CMLJUST
 70
     0
  9
$CMLSCALE
 40
1.0
  9
$PROXYGRAPHICS
 70
     1
  9
$MEASUREMENT
 70
     0
  9
$CELWEIGHT
370
    -1
  9
$ENDCAPS
280
     0
  9
$JOINSTYLE
280
     0
  9
$LWDISPLAY
290
     0
  9
$INSUNITS
 70
     0
  9
$HYPERLINKBASE
  1

  9
$STYLESHEET
  1

  9
$XEDIT
290
     1
  9
$CEPSNTYPE
380
     0
  9
$PSTYLEMODE
290
     1
  9
$FINGERPRINTGUID
  2
{408A79E2-F00F-47E2-9806-578BB6257B10}
  9
$VERSIONGUID
  2
{DC100C2B-7779-4F84-847F-4537150CD2E5}
  9
$EXTNAMES
290
     1
  9
$PSVPSCALE
 40
0.0
  9
$OLESTARTUP
290
     0
  9
$SORTENTS
280
    96
  9
$INDEXCTL
280
     0
  9
$HIDETEXT
280
     0
  9
$XCLIPFRAME
280
     2
  9
$HALOGAP
280
     0
  9
$OBSCOLOR
 70
   257
  9
$OBSLTYPE
280
     0
  9
$INTERSECTIONDISPLAY
280
     0
  9
$INTERSECTIONCOLOR
 70
   257
  9
$DIMASSOC
280
     1
  9
$PROJECTNAME
  1

  9
$CAMERADISPLAY
290
     0
  9
$LENSLENGTH
 40
50.0
  9
$CAMERAHEIGHT
 40
0.0
  9
$STEPSPERSEC
 40
2.0
  9
$STEPSIZE
 40
6.0
  9
$3DDWFPREC
 40
2.0
  9
$PSOLWIDTH
 40
0.25
  9
$PSOLHEIGHT
 40
4.0
  9
$LOFTANG1
 40
1.570796326794896
  9
$LOFTANG2
 40
1.570796326794896
  9
$LOFTMAG1
 40
0.0
  9
$LOFTMAG2
 40
0.0
  9
$LOFTPARAM
 70
     7
  9
$LOFTNORMALS
280
     1
  9
$LATITUDE
 40
37.795
  9
$LONGITUDE
 40
-122.394
  9
$NORTHDIRECTION
 40
0.0
  9
$TIMEZONE
 70
 -8000
  9
$LIGHTGLYPHDISPLAY
280
     1
  9
$TILEMODELIGHTSYNCH
280
     1
  9
$CMATERIAL
347
39C1B
  9
$SOLIDHIST
280
     0
  9
$SHOWHIST
280
     1
  9
$DWFFRAME
280
     2
  9
$DGNFRAME
280
     0
  9
$REALWORLDSCALE
290
     1
  9
$INTERFERECOLOR
 62
     1
  9
$INTERFEREOBJVS
345
39C28
  9
$INTERFEREVPVS
346
303D31C
  9
$CSHADOW
280
     0
  9
$SHADOWPLANELOCATION
 40
0.0
  0
ENDSEC
  0
SECTION
  2
CLASSES
  0
CLASS
  1
DICTIONARYVAR
  2
AcDbDictionaryVar
  3
ObjectDBX Classes
 90
        0
 91
       13
280
     0
281
     0
  0
CLASS
  1
ACDBDICTIONARYWDFLT
  2
AcDbDictionaryWithDefault
  3
ObjectDBX Classes
 90
        0
 91
        1
280
     0
281
     0
  0
CLASS
  1
MATERIAL
  2
AcDbMaterial
  3
ObjectDBX Classes
 90
     1153
 91
        3
280
     0
281
     0
  0
CLASS
  1
VISUALSTYLE
  2
AcDbVisualStyle
  3
ObjectDBX Classes
 90
     4095
 91
       26
280
     0
281
     0
  0
CLASS
  1
TABLESTYLE
  2
AcDbTableStyle
  3
ObjectDBX Classes
 90
     4095
 91
        1
280
     0
281
     0
  0
CLASS
  1
SORTENTSTABLE
  2
AcDbSortentsTable
  3
ObjectDBX Classes
 90
        0
 91
        2
280
     0
281
     0
  0
CLASS
  1
DIMASSOC
  2
AcDbDimAssoc
  3
"AcDbDimAssoc|Product Desc:     AcDim ARX App For Dimension|Company:          Autodesk, Inc.|WEB Address:      www.autodesk.com"
 90
        0
 91
        0
280
     0
281
     0
  0
CLASS
  1
SCALE
  2
AcDbScale
  3
ObjectDBX Classes
 90
     1153
 91
       17
280
     0
281
     0
  0
CLASS
  1
MLEADERSTYLE
  2
AcDbMLeaderStyle
  3
ACDB_MLEADERSTYLE_CLASS
 90
     4095
 91
        1
280
     0
281
     0
  0
CLASS
  1
ACDBSECTIONVIEWSTYLE
  2
AcDbSectionViewStyle
  3
ObjectDBX Classes
 90
     1025
 91
        1
280
     0
281
     0
  0
CLASS
  1
ACDBDETAILVIEWSTYLE
  2
AcDbDetailViewStyle
  3
ObjectDBX Classes
 90
     1025
 91
        1
280
     0
281
     0
  0
CLASS
  1
CELLSTYLEMAP
  2
AcDbCellStyleMap
  3
ObjectDBX Classes
 90
     1152
 91
        3
280
     0
281
     0
  0
ENDSEC
  0
SECTION
  2
TABLES
  0
TABLE
  2
VPORT
  5
8
330
0
100
AcDbSymbolTable
 70
     1
  0
VPORT
  5
39C01
330
8
100
AcDbSymbolTableRecord
100
AcDbViewportTableRecord
  2
*Active
 70
     0
 10
0.0
 20
0.0
 11
1.0
 21
1.0
 12
-73830.32736210493
 22
-73851.19003429868
 13
0.0
 23
0.0
 14
10.0
 24
10.0
 15
10.0
 25
10.0
 16
0.0
 26
0.0
 36
1.0
 17
0.0
 27
0.0
 37
0.0
 40
4157.191379904056
 41
2.170603674540682
 42
50.0
 43
0.0
 44
0.0
 50
0.0
 51
0.0
 71
     0
 72
 20000
 73
     1
 74
     1
 75
     0
 76
     0
 77
     0
 78
     0
281
     0
 65
     1
110
0.0
120
0.0
130
0.0
111
1.0
121
0.0
131
0.0
112
0.0
122
1.0
132
0.0
 79
     0
146
0.0
348
39C24
 60
     3
 61
     5
292
     1
282
     1
141
0.0
142
0.0
 63
   250
421
  3355443
1001
ACAD_NAV_VCDISPLAY
1070
     3
  0
ENDTAB
  0
TABLE
  2
LTYPE
  5
5
330
0
100
AcDbSymbolTable
 70
     3
  0
LTYPE
  5
14
330
5
100
AcDbSymbolTableRecord
100
AcDbLinetypeTableRecord
  2
BYBLOCK
 70
     0
  3

 72
    65
 73
     0
 40
0.0
  0
LTYPE
  5
15
330
5
100
AcDbSymbolTableRecord
100
AcDbLinetypeTableRecord
  2
BYLAYER
 70
     0
  3

 72
    65
 73
     0
 40
0.0
  0
LTYPE
  5
16
330
5
100
AcDbSymbolTableRecord
100
AcDbLinetypeTableRecord
  2
CONTINUOUS
 70
     0
  3
Solid line
 72
    65
 73
     0
 40
0.0
  0
LTYPE
  5
3CC2A
330
5
100
AcDbSymbolTableRecord
100
AcDbLinetypeTableRecord
  2
AM_DIN_G_W050
 70
     0
  3
____ . ____ . ____ . ____ . ____ . ____ . ____
 72
    65
 73
     4
 40
13.75
 49
9.75
 74
     0
 49
-1.5
 74
     0
 49
1.0
 74
     0
 49
-1.5
 74
     0
  0
LTYPE
  5
3CC2B
330
5
100
AcDbSymbolTableRecord
100
AcDbLinetypeTableRecord
  2
IMPORT
 70
     0
  3

 72
    65
 73
     0
 40
0.0
  0
ENDTAB
  0
TABLE
  2
LAYER
  5
2
102
{ACAD_XDICTIONARY
360
39C3D
102
}
330
0
100
AcDbSymbolTable
 70
     6
  0
LAYER
  5
F
102
{ACAD_XDICTIONARY
360
303D356
102
}
330
2
100
AcDbSymbolTableRecord
100
AcDbLayerTableRecord
  2
0
 70
     0
 62
     7
  6
CONTINUOUS
370
    -3
390
39BF2
347
39C1D
  0
LAYER
  5
3FD
330
2
100
AcDbSymbolTableRecord
100
AcDbLayerTableRecord
  2
DEFPOINTS
 70
     0
 62
     7
  6
CONTINUOUS
290
     0
370
    -3
390
39BF2
347
39C1D
  0
LAYER
  5
3CAA4
102
{ACAD_XDICTIONARY
360
303D358
102
}
330
2
100
AcDbSymbolTableRecord
100
AcDbLayerTableRecord
  2
HEWI
 70
     0
 62
     7
  6
CONTINUOUS
370
    -3
390
39BF2
347
39C1D
  0
LAYER
  5
3CC2C
102
{ACAD_XDICTIONARY
360
303D35A
102
}
330
2
100
AcDbSymbolTableRecord
100
AcDbLayerTableRecord
  2
AM_7
 70
     0
 62
     4
  6
AM_DIN_G_W050
370
    25
390
39BF2
347
39C1D
  0
LAYER
  5
3CC2D
102
{ACAD_XDICTIONARY
360
303D35C
102
}
330
2
100
AcDbSymbolTableRecord
100
AcDbLayerTableRecord
  2
AM_5
 70
     0
 62
     3
  6
CONTINUOUS
370
    25
390
39BF2
347
39C1D
  0
LAYER
  5
3CC2E
102
{ACAD_XDICTIONARY
360
303D35E
102
}
330
2
100
AcDbSymbolTableRecord
100
AcDbLayerTableRecord
  2
STANDARD
 70
     0
 62
     7
  6
CONTINUOUS
370
    -3
390
39BF2
347
39C1D
  0
ENDTAB
  0
TABLE
  2
STYLE
  5
3
330
0
100
AcDbSymbolTable
 70
     4
  0
STYLE
  5
10
330
3
100
AcDbSymbolTableRecord
100
AcDbTextStyleTableRecord
  2
STANDARD
 70
     0
 40
0.0
 41
1.0
 50
0.0
 71
     0
 42
2.5
  3
ISOCP
  4

  0
STYLE
  5
3F
330
3
100
AcDbSymbolTableRecord
100
AcDbTextStyleTableRecord
  2
ROMANS
 70
     0
 40
0.0
 41
0.8
 50
0.0
 71
     0
 42
30.0
  3
romans.shx
  4

  0
STYLE
  5
3CC30
330
3
100
AcDbSymbolTableRecord
100
AcDbTextStyleTableRecord
  2
Entro
 70
     0
 40
0.0
 41
1.0
 50
0.0
 71
     0
 42
3.0
  3
isocpeur.ttf
  4

1001
ACAD
1000
ISOCPEUR
1071
       34
  0
STYLE
  5
303D426
330
3
100
AcDbSymbolTableRecord
100
AcDbTextStyleTableRecord
  2
ARIAL
 70
     0
 40
0.0
 41
1.0
 50
0.0
 71
     0
 42
0.0
  3
Arial
  4

  0
ENDTAB
  0
TABLE
  2
VIEW
  5
6
330
0
100
AcDbSymbolTable
 70
     1
  0
ENDTAB
  0
TABLE
  2
UCS
  5
7
330
0
100
AcDbSymbolTable
 70
     0
  0
ENDTAB
  0
TABLE
  2
APPID
  5
9
330
0
100
AcDbSymbolTable
 70
    15
  0
APPID
  5
11
330
9
100
AcDbSymbolTableRecord
100
AcDbRegAppTableRecord
  2
ACAD
 70
     0
  0
APPID
  5
36496
330
9
100
AcDbSymbolTableRecord
100
AcDbRegAppTableRecord
  2
ACADIGES
 70
     0
  0
APPID
  5
36497
330
9
100
AcDbSymbolTableRecord
100
AcDbRegAppTableRecord
  2
AUTOCAD_POSTSCRIPT_FIGURE
 70
     0
  0
APPID
  5
3A910
330
9
100
AcDbSymbolTableRecord
100
AcDbRegAppTableRecord
  2
ACAD_PSEXT
 70
     0
  0
APPID
  5
3AB52
330
9
100
AcDbSymbolTableRecord
100
AcDbRegAppTableRecord
  2
AcAecLayerStandard
 70
     0
  0
APPID
  5
3CC34
330
9
100
AcDbSymbolTableRecord
100
AcDbRegAppTableRecord
  2
GENIUS_GENODEF_13
 70
     0
  0
APPID
  5
3CC35
330
9
100
AcDbSymbolTableRecord
100
AcDbRegAppTableRecord
  2
ACAD_DSTYLE_DIMJOGGED_JOGANGLE_SYMBOL
 70
     0
  0
APPID
  5
3CC36
330
9
100
AcDbSymbolTableRecord
100
AcDbRegAppTableRecord
  2
GENIUS_GENOBJ-N-CEN_13
 70
     0
  0
APPID
  5
3CC37
330
9
100
AcDbSymbolTableRecord
100
AcDbRegAppTableRecord
  2
GENIUS_GENCEN_19
 70
     0
  0
APPID
  5
3CC38
330
9
100
AcDbSymbolTableRecord
100
AcDbRegAppTableRecord
  2
GENIUS_GENOREF_13
 70
     0
  0
APPID
  5
3CC39
330
9
100
AcDbSymbolTableRecord
100
AcDbRegAppTableRecord
  2
GENIUS_GENOBJ-N-HTC_13
 70
     0
  0
APPID
  5
3CC3A
330
9
100
AcDbSymbolTableRecord
100
AcDbRegAppTableRecord
  2
GENIUS_GENHATCH_13
 70
     0
  0
APPID
  5
3D218
330
9
100
AcDbSymbolTableRecord
100
AcDbRegAppTableRecord
  2
ACAD_EXEMPT_FROM_CAD_STANDARDS
 70
     0
  0
APPID
  5
303D365
330
9
100
AcDbSymbolTableRecord
100
AcDbRegAppTableRecord
  2
ACAD_NAV_VCDISPLAY
 70
     0
  0
APPID
  5
303D3F5
330
9
100
AcDbSymbolTableRecord
100
AcDbRegAppTableRecord
  2
ACAD_MLEADERVER
 70
     0
  0
ENDTAB
  0
TABLE
  2
DIMSTYLE
  5
A
330
0
100
AcDbSymbolTable
 70
     4
100
AcDbDimStyleTable
 71
     1
340
1D
  0
DIMSTYLE
105
1D
330
A
100
AcDbSymbolTableRecord
100
AcDbDimStyleTableRecord
  2
STANDARD
 70
     0
340
10
  0
DIMSTYLE
105
3CC31
330
A
100
AcDbSymbolTableRecord
100
AcDbDimStyleTableRecord
  2
AM_DIN
 70
     0
  4
"
 41
2.5
 42
1.0
 43
10.0
 44
1.0
 47
0.1
 48
0.1
 50
89.99999999999998
 73
     0
 74
     0
 77
     1
 78
     8
 79
     2
140
3.5
141
0.0
143
0.0393701
146
0.71
147
1.5
172
     1
176
   256
177
   256
178
     2
271
     2
272
     3
274
     4
283
     0
284
     8
340
10
371
    -1
372
    -1
1001
ACAD_DSTYLE_DIMJOGGED_JOGANGLE_SYMBOL
1070
   384
1040
1.570796326794896
  0
DIMSTYLE
105
3CC33
330
A
100
AcDbSymbolTableRecord
100
AcDbDimStyleTableRecord
  2
AM_DIN$0
 70
     0
  4
"
 41
25.0
 42
1.0
 43
10.0
 44
10.0
 47
0.1
 48
0.1
 50
89.99999999999998
 73
     0
 74
     0
 77
     1
 78
     8
 79
     2
140
25.0
141
0.0
143
0.0393701
146
0.71
147
10.0
172
     1
176
   256
177
   256
178
   256
271
     2
272
     2
283
     0
284
     8
340
3CC30
371
    -1
372
    -1
1001
ACAD_DSTYLE_DIMJOGGED_JOGANGLE_SYMBOL
1070
   384
1040
1.570796326794896
  0
DIMSTYLE
105
303D427
102
{ACAD_REACTORS
330
303D42A
330
303D433
102
}
330
A
100
AcDbSymbolTableRecord
100
AcDbDimStyleTableRecord
  2
ISO-25
 70
     0
 41
2.5
 42
0.625
 43
3.75
 44
1.25
 73
     0
 74
     0
 77
     1
 78
     8
140
2.5
141
2.5
143
0.03937007874016
147
0.625
171
     3
172
     1
271
     2
272
     2
274
     3
278
    44
283
     0
284
     8
340
10
  0
ENDTAB
  0
TABLE
  2
BLOCK_RECORD
  5
1
330
0
100
AcDbSymbolTable
 70
    18
  0
BLOCK_RECORD
  5
1A
102
{ACAD_XDICTIONARY
360
3B151
102
}
330
1
100
AcDbSymbolTableRecord
100
AcDbBlockTableRecord
  2
*MODEL_SPACE
340
39BF5
 70
     0
280
     1
281
     0
  0
BLOCK_RECORD
  5
17
330
1
100
AcDbSymbolTableRecord
100
AcDbBlockTableRecord
  2
*PAPER_SPACE
340
39BF6
 70
     0
280
     1
281
     0
  0
BLOCK_RECORD
  5
3CFD3
330
1
100
AcDbSymbolTableRecord
100
AcDbBlockTableRecord
  2
*D0
340
0
 70
     0
280
     1
281
     0
  0
BLOCK_RECORD
  5
3D012
330
1
100
AcDbSymbolTableRecord
100
AcDbBlockTableRecord
  2
*D1
340
0
 70
     0
280
     1
281
     0
  0
BLOCK_RECORD
  5
3D202
330
1
100
AcDbSymbolTableRecord
100
AcDbBlockTableRecord
  2
*D2
340
0
 70
     0
280
     1
281
     0
  0
BLOCK_RECORD
  5
3D21F
330
1
100
AcDbSymbolTableRecord
100
AcDbBlockTableRecord
  2
*D3
340
0
 70
     0
280
     1
281
     0
  0
BLOCK_RECORD
  5
3D22C
330
1
100
AcDbSymbolTableRecord
100
AcDbBlockTableRecord
  2
*D4
340
0
 70
     0
280
     1
281
     0
  0
BLOCK_RECORD
  5
3D243
330
1
100
AcDbSymbolTableRecord
100
AcDbBlockTableRecord
  2
*D5
340
0
 70
     0
280
     1
281
     0
  0
BLOCK_RECORD
  5
3D26C
330
1
100
AcDbSymbolTableRecord
100
AcDbBlockTableRecord
  2
*D6
340
0
 70
     0
280
     1
281
     0
  0
BLOCK_RECORD
  5
3D283
330
1
100
AcDbSymbolTableRecord
100
AcDbBlockTableRecord
  2
*D7
340
0
 70
     0
280
     1
281
     0
  0
BLOCK_RECORD
  5
3D2E0
330
1
100
AcDbSymbolTableRecord
100
AcDbBlockTableRecord
  2
*D8
340
0
 70
     0
280
     1
281
     0
  0
BLOCK_RECORD
  5
3D2ED
330
1
100
AcDbSymbolTableRecord
100
AcDbBlockTableRecord
  2
*D9
340
0
 70
     0
280
     1
281
     0
  0
BLOCK_RECORD
  5
3D2FA
330
1
100
AcDbSymbolTableRecord
100
AcDbBlockTableRecord
  2
*D10
340
0
 70
     0
280
     1
281
     0
  0
BLOCK_RECORD
  5
303D3AF
330
1
100
AcDbSymbolTableRecord
100
AcDbBlockTableRecord
  2
*D11
340
0
 70
     0
280
     1
281
     0
  0
BLOCK_RECORD
  5
303D415
330
1
100
AcDbSymbolTableRecord
100
AcDbBlockTableRecord
  2
_Dot
340
0
102
{BLKREFS
331
303D482
331
303D483
331
303D41F
331
303D420
102
}
 70
     0
280
     1
281
     0
  0
BLOCK_RECORD
  5
303D41A
330
1
100
AcDbSymbolTableRecord
100
AcDbBlockTableRecord
  2
*D13
340
0
 70
     0
280
     1
281
     0
  0
BLOCK_RECORD
  5
303D434
330
1
100
AcDbSymbolTableRecord
100
AcDbBlockTableRecord
  2
*D15
340
0
 70
     0
280
     1
281
     0
  0
BLOCK_RECORD
  5
303D489
330
1
100
AcDbSymbolTableRecord
100
AcDbBlockTableRecord
  2
*D16
340
0
 70
     0
280
     1
281
     0
  0
BLOCK_RECORD
  5
303D496
330
1
100
AcDbSymbolTableRecord
100
AcDbBlockTableRecord
  2
*D17
340
0
 70
     0
280
     1
281
     0
  0
ENDTAB
  0
ENDSEC
  0
SECTION
  2
BLOCKS
  0
BLOCK
  5
1B
330
1A
100
AcDbEntity
  8
0
100
AcDbBlockBegin
  2
*MODEL_SPACE
 70
     0
 10
0.0
 20
0.0
 30
0.0
  3
*MODEL_SPACE
  1

  0
ENDBLK
  5
1C
330
1A
100
AcDbEntity
  8
0
100
AcDbBlockEnd
  0
BLOCK
  5
18
330
17
100
AcDbEntity
 67
     1
  8
0
100
AcDbBlockBegin
  2
*PAPER_SPACE
 70
     0
 10
0.0
 20
0.0
 30
0.0
  3
*PAPER_SPACE
  1

  0
ENDBLK
  5
19
330
17
100
AcDbEntity
 67
     1
  8
0
100
AcDbBlockEnd
  0
BLOCK
  5
3CFDD
330
3CFD3
100
AcDbEntity
  8
0
100
AcDbBlockBegin
  2
*D0
 70
     1
 10
0.0
 20
0.0
 30
0.0
  3
*D0
  1

  0
LINE
  5
3D02B
330
3CFD3
100
AcDbEntity
  8
AM_5
100
AcDbLine
 10
-75845.38321154997
 20
-74028.96382414821
 30
0.0
 11
-75732.84173460193
 21
-74028.96382414821
 31
0.0
  0
LINE
  5
3D02C
330
3CFD3
100
AcDbEntity
  8
AM_5
100
AcDbLine
 10
-75859.13321154997
 20
-74860.46383864822
 30
0.0
 11
-75732.84173460193
 21
-74860.46383864822
 31
0.0
  0
LINE
  5
3D02D
330
3CFD3
100
AcDbEntity
  8
AM_5
100
AcDbLine
 10
-75742.84173460193
 20
-74053.96382414822
 30
0.0
 11
-75742.84173460193
 21
-74835.46383864823
 31
0.0
  0
SOLID
  5
3D02E
330
3CFD3
100
AcDbEntity
  8
AM_5
100
AcDbTrace
 10
-75747.0084012686
 20
-74053.96382414822
 30
0.0
 11
-75738.67506793527
 21
-74053.96382414822
 31
0.0
 12
-75742.84173460193
 22
-74028.96382414821
 32
0.0
 13
-75742.84173460193
 23
-74028.96382414821
 33
0.0
  0
SOLID
  5
3D02F
330
3CFD3
100
AcDbEntity
  8
AM_5
100
AcDbTrace
 10
-75747.0084012686
 20
-74835.46383864823
 30
0.0
 11
-75738.67506793527
 21
-74835.46383864823
 31
0.0
 12
-75742.84173460193
 22
-74860.46383864822
 32
0.0
 13
-75742.84173460193
 23
-74860.46383864822
 33
0.0
  0
MTEXT
  5
3D030
330
3CFD3
100
AcDbEntity
  8
AM_5
100
AcDbMText
 10
-75775.34173460191
 20
-74444.71383139823
 30
0.0
 40
45.0
 41
0.0
 46
0.0
 71
     5
 72
     1
  1
L
  7
Entro
 11
0.0000000000000001
 21
1.0
 31
0.0
 73
     1
 44
1.0
1001
ACAD
1000
MTEXTBEGIN
1070
    73
1070
     1
1070
    44
1040
1.0
1070
    74
1070
     0
1000
MTEXTEND
  0
POINT
  5
3D031
330
3CFD3
100
AcDbEntity
  8
DEFPOINTS
 62
     0
100
AcDbPoint
 10
-75846.38321154996
 20
-74028.96382414821
 30
0.0
  0
POINT
  5
3D032
330
3CFD3
100
AcDbEntity
  8
DEFPOINTS
 62
     0
100
AcDbPoint
 10
-75860.13321154997
 20
-74860.46383864822
 30
0.0
  0
POINT
  5
3D033
330
3CFD3
100
AcDbEntity
  8
DEFPOINTS
 62
     0
100
AcDbPoint
 10
-75742.84173460193
 20
-74860.46383864822
 30
0.0
  0
ENDBLK
  5
3CFDE
330
3CFD3
100
AcDbEntity
  8
0
100
AcDbBlockEnd
  0
BLOCK
  5
3D01C
330
3D012
100
AcDbEntity
  8
0
100
AcDbBlockBegin
  2
*D1
 70
     1
 10
0.0
 20
0.0
 30
0.0
  3
*D1
  1

  0
LINE
  5
3D013
330
3D012
100
AcDbEntity
  8
0
 62
     0
370
    -2
100
AcDbLine
 10
-76554.36167349803
 20
-74115.46740564822
 30
0.0
 11
-76554.36167349803
 21
-74416.90700208084
 31
0.0
  0
LINE
  5
3D014
330
3D012
100
AcDbEntity
  8
0
 62
     0
370
    -2
100
AcDbLine
 10
-75854.36192778463
 20
-74113.75579407143
 30
0.0
 11
-75854.36192778463
 21
-74416.90700208084
 31
0.0
  0
LINE
  5
3D015
330
3D012
100
AcDbEntity
  8
0
 62
     0
370
    -2
100
AcDbLine
 10
-76524.36167349803
 20
-74406.90700208084
 30
0.0
 11
-75884.36192778463
 21
-74406.90700208084
 31
0.0
  0
SOLID
  5
3D016
330
3D012
100
AcDbEntity
  8
0
 62
     0
100
AcDbTrace
 10
-76524.36167349803
 20
-74401.90700208084
 30
0.0
 11
-76524.36167349803
 21
-74411.90700208085
 31
0.0
 12
-76554.36167349803
 22
-74406.90700208084
 32
0.0
 13
-76554.36167349803
 23
-74406.90700208084
 33
0.0
  0
SOLID
  5
3D017
330
3D012
100
AcDbEntity
  8
0
 62
     0
100
AcDbTrace
 10
-75884.36192778463
 20
-74401.90700208084
 30
0.0
 11
-75884.36192778463
 21
-74411.90700208085
 31
0.0
 12
-75854.36192778463
 22
-74406.90700208084
 32
0.0
 13
-75854.36192778463
 23
-74406.90700208084
 33
0.0
  0
MTEXT
  5
3D018
330
3D012
100
AcDbEntity
  8
0
 62
     0
100
AcDbMText
 10
-76204.36180064133
 20
-74381.90700208084
 30
0.0
 40
30.0
 41
0.0
 46
0.0
 71
     5
 72
     1
  1
\A1;700
 73
     1
 44
1.0
1001
ACAD
1000
MTEXTBEGIN
1070
    73
1070
     1
1070
    44
1040
1.0
1070
    74
1070
     0
1000
MTEXTEND
  0
POINT
  5
3D019
330
3D012
100
AcDbEntity
  8
DEFPOINTS
 62
     0
100
AcDbPoint
 10
-76554.36167349803
 20
-74115.46740564822
 30
0.0
  0
POINT
  5
3D01A
330
3D012
100
AcDbEntity
  8
DEFPOINTS
 62
     0
100
AcDbPoint
 10
-75854.36192778463
 20
-74113.75579407143
 30
0.0
  0
POINT
  5
3D01B
330
3D012
100
AcDbEntity
  8
DEFPOINTS
 62
     0
100
AcDbPoint
 10
-75854.36192778463
 20
-74406.90700208084
 30
0.0
  0
ENDBLK
  5
3D01D
330
3D012
100
AcDbEntity
  8
0
100
AcDbBlockEnd
  0
BLOCK
  5
3D20C
330
3D202
100
AcDbEntity
  8
0
100
AcDbBlockBegin
  2
*D2
 70
     1
 10
0.0
 20
0.0
 30
0.0
  3
*D2
  1

  0
LINE
  5
303D408
330
3D202
100
AcDbEntity
  8
AM_5
440
 16777216
100
AcDbLine
 10
-74513.89772333657
 20
-73199.81148704313
 30
0.0
 11
-74401.35624638862
 21
-73199.81148704313
 31
0.0
  0
LINE
  5
303D409
330
3D202
100
AcDbEntity
  8
AM_5
440
 16777216
100
AcDbLine
 10
-74527.64772333657
 20
-74031.31150154313
 30
0.0
 11
-74401.35624638862
 21
-74031.31150154313
 31
0.0
  0
LINE
  5
303D40A
330
3D202
100
AcDbEntity
  8
AM_5
440
 16777216
100
AcDbLine
 10
-74411.35624638862
 20
-73224.81148704313
 30
0.0
 11
-74411.35624638862
 21
-74006.31150154312
 31
0.0
  0
SOLID
  5
303D40B
330
3D202
100
AcDbEntity
  8
AM_5
440
 16777216
100
AcDbTrace
 10
-74415.52291305529
 20
-73224.81148704313
 30
0.0
 11
-74407.18957972195
 21
-73224.81148704313
 31
0.0
 12
-74411.35624638862
 22
-73199.81148704313
 32
0.0
 13
-74411.35624638862
 23
-73199.81148704313
 33
0.0
  0
SOLID
  5
303D40C
330
3D202
100
AcDbEntity
  8
AM_5
440
 16777216
100
AcDbTrace
 10
-74415.52291305529
 20
-74006.31150154312
 30
0.0
 11
-74407.18957972195
 21
-74006.31150154312
 31
0.0
 12
-74411.35624638862
 22
-74031.31150154313
 32
0.0
 13
-74411.35624638862
 23
-74031.31150154313
 33
0.0
  0
MTEXT
  5
303D40D
330
3D202
100
AcDbEntity
  8
AM_5
440
 16777216
100
AcDbMText
 10
-74443.85624638861
 20
-73615.56149429314
 30
0.0
 40
45.0
 41
0.0
 46
0.0
 71
     5
 72
     1
  1
L
  7
Entro
 11
0.0000000000000001
 21
1.0
 31
0.0
 73
     1
 44
1.0
  0
POINT
  5
303D40E
330
3D202
100
AcDbEntity
  8
DEFPOINTS
 62
     0
440
 16777216
100
AcDbPoint
 10
-74514.89772333657
 20
-73199.81148704313
 30
0.0
  0
POINT
  5
303D40F
330
3D202
100
AcDbEntity
  8
DEFPOINTS
 62
     0
440
 16777216
100
AcDbPoint
 10
-74528.64772333657
 20
-74031.31150154313
 30
0.0
  0
POINT
  5
303D410
330
3D202
100
AcDbEntity
  8
DEFPOINTS
 62
     0
440
 16777216
100
AcDbPoint
 10
-74411.35624638862
 20
-74031.31150154313
 30
0.0
  0
ENDBLK
  5
3D20D
330
3D202
100
AcDbEntity
  8
0
100
AcDbBlockEnd
  0
BLOCK
  5
3D229
330
3D21F
100
AcDbEntity
  8
0
100
AcDbBlockBegin
  2
*D3
 70
     1
 10
0.0
 20
0.0
 30
0.0
  3
*D3
  1

  0
LINE
  5
3D220
330
3D21F
100
AcDbEntity
  8
0
 62
     0
370
    -2
100
AcDbLine
 10
-75520.26814953449
 20
-74960.37299806268
 30
0.0
 11
-75094.18075331815
 21
-74960.37299806268
 31
0.0
  0
LINE
  5
3D221
330
3D21F
100
AcDbEntity
  8
0
 62
     0
370
    -2
100
AcDbLine
 10
-75521.87618529664
 20
-74260.45154194614
 30
0.0
 11
-75094.18075331815
 21
-74260.45154194614
 31
0.0
  0
LINE
  5
3D222
330
3D21F
100
AcDbEntity
  8
0
 62
     0
370
    -2
100
AcDbLine
 10
-75104.18075331815
 20
-74930.37299806268
 30
0.0
 11
-75104.18075331815
 21
-74290.45154194612
 31
0.0
  0
SOLID
  5
3D223
330
3D21F
100
AcDbEntity
  8
0
 62
     0
100
AcDbTrace
 10
-75109.18075331815
 20
-74930.37299806268
 30
0.0
 11
-75099.18075331817
 21
-74930.37299806268
 31
0.0
 12
-75104.18075331815
 22
-74960.37299806268
 32
0.0
 13
-75104.18075331815
 23
-74960.37299806268
 33
0.0
  0
SOLID
  5
3D224
330
3D21F
100
AcDbEntity
  8
0
 62
     0
100
AcDbTrace
 10
-75109.18075331815
 20
-74290.45154194612
 30
0.0
 11
-75099.18075331817
 21
-74290.45154194612
 31
0.0
 12
-75104.18075331815
 22
-74260.45154194614
 32
0.0
 13
-75104.18075331815
 23
-74260.45154194614
 33
0.0
  0
MTEXT
  5
3D225
330
3D21F
100
AcDbEntity
  8
0
 62
     0
100
AcDbMText
 10
-75129.18075331814
 20
-74610.41227000443
 30
0.0
 40
30.0
 41
0.0
 46
0.0
 71
     5
 72
     1
  1
\A1;700
 11
0.0000000000000001
 21
1.0
 31
0.0
 73
     1
 44
1.0
1001
ACAD
1000
MTEXTBEGIN
1070
    73
1070
     1
1070
    44
1040
1.0
1070
    74
1070
     0
1000
MTEXTEND
  0
POINT
  5
3D226
330
3D21F
100
AcDbEntity
  8
DEFPOINTS
 62
     0
100
AcDbPoint
 10
-75520.26814953449
 20
-74960.37299806268
 30
0.0
  0
POINT
  5
3D227
330
3D21F
100
AcDbEntity
  8
DEFPOINTS
 62
     0
100
AcDbPoint
 10
-75521.87618529664
 20
-74260.45154194614
 30
0.0
  0
POINT
  5
3D228
330
3D21F
100
AcDbEntity
  8
DEFPOINTS
 62
     0
100
AcDbPoint
 10
-75104.18075331815
 20
-74260.45154194614
 30
0.0
  0
ENDBLK
  5
3D22A
330
3D21F
100
AcDbEntity
  8
0
100
AcDbBlockEnd
  0
BLOCK
  5
3D236
330
3D22C
100
AcDbEntity
  8
0
100
AcDbBlockBegin
  2
*D4
 70
     1
 10
0.0
 20
0.0
 30
0.0
  3
*D4
  1

  0
LINE
  5
3D22D
330
3D22C
100
AcDbEntity
  8
0
 62
     0
370
    -2
100
AcDbLine
 10
-75067.62618528464
 20
-73202.66688602262
 30
0.0
 11
-74650.13229653508
 21
-73202.66688602262
 31
0.0
  0
LINE
  5
3D22E
330
3D22C
100
AcDbEntity
  8
0
 62
     0
370
    -2
100
AcDbLine
 10
-75067.62618528464
 20
-74031.31150154313
 30
0.0
 11
-74650.13229653508
 21
-74031.31150154313
 31
0.0
  0
LINE
  5
3D22F
330
3D22C
100
AcDbEntity
  8
0
 62
     0
370
    -2
100
AcDbLine
 10
-74660.13229653508
 20
-73232.66688602262
 30
0.0
 11
-74660.13229653508
 21
-74001.31150154312
 31
0.0
  0
SOLID
  5
3D230
330
3D22C
100
AcDbEntity
  8
0
 62
     0
100
AcDbTrace
 10
-74665.13229653508
 20
-73232.66688602262
 30
0.0
 11
-74655.13229653509
 21
-73232.66688602262
 31
0.0
 12
-74660.13229653508
 22
-73202.66688602262
 32
0.0
 13
-74660.13229653508
 23
-73202.66688602262
 33
0.0
  0
SOLID
  5
3D231
330
3D22C
100
AcDbEntity
  8
0
 62
     0
100
AcDbTrace
 10
-74665.13229653508
 20
-74001.31150154312
 30
0.0
 11
-74655.13229653509
 21
-74001.31150154312
 31
0.0
 12
-74660.13229653508
 22
-74031.31150154313
 32
0.0
 13
-74660.13229653508
 23
-74031.31150154313
 33
0.0
  0
MTEXT
  5
3D232
330
3D22C
100
AcDbEntity
  8
0
 62
     0
100
AcDbMText
 10
-74685.13524929098
 20
-73616.98919378291
 30
0.0
 40
30.0
 41
0.0
 46
0.0
 71
     5
 72
     1
  1
\A1;829
 11
0.0000000000000001
 21
1.0
 31
0.0
 73
     1
 44
1.0
1001
ACAD
1000
MTEXTBEGIN
1070
    73
1070
     1
1070
    44
1040
1.0
1070
    74
1070
     0
1000
MTEXTEND
  0
POINT
  5
3D233
330
3D22C
100
AcDbEntity
  8
DEFPOINTS
 62
     0
100
AcDbPoint
 10
-75067.62618528464
 20
-73202.66688602262
 30
0.0000000000000543
  0
POINT
  5
3D234
330
3D22C
100
AcDbEntity
  8
DEFPOINTS
 62
     0
100
AcDbPoint
 10
-75067.62618528464
 20
-74031.31150154313
 30
0.0
  0
POINT
  5
3D235
330
3D22C
100
AcDbEntity
  8
DEFPOINTS
 62
     0
100
AcDbPoint
 10
-74660.13229653508
 20
-74031.31150154313
 30
0.0
  0
ENDBLK
  5
3D237
330
3D22C
100
AcDbEntity
  8
0
100
AcDbBlockEnd
  0
BLOCK
  5
3D24D
330
3D243
100
AcDbEntity
  8
0
100
AcDbBlockBegin
  2
*D5
 70
     1
 10
0.0
 20
0.0
 30
0.0
  3
*D5
  1

  0
LINE
  5
3D244
330
3D243
100
AcDbEntity
  8
0
 62
     0
370
    -2
100
AcDbLine
 10
-75521.87618529664
 20
-74260.45154194614
 30
0.0
 11
-75305.61908825156
 21
-74260.45154194614
 31
0.0
  0
LINE
  5
3D245
330
3D243
100
AcDbEntity
  8
0
 62
     0
370
    -2
100
AcDbLine
 10
-75521.87618529664
 20
-74960.45154194614
 30
0.0
 11
-75305.61908825156
 21
-74960.45154194614
 31
0.0
  0
LINE
  5
3D246
330
3D243
100
AcDbEntity
  8
0
 62
     0
370
    -2
100
AcDbLine
 10
-75315.61908825157
 20
-74290.45154194612
 30
0.0
 11
-75315.61908825157
 21
-74930.45154194613
 31
0.0
  0
SOLID
  5
3D247
330
3D243
100
AcDbEntity
  8
0
 62
     0
100
AcDbTrace
 10
-75320.61908825157
 20
-74290.45154194612
 30
0.0
 11
-75310.61908825156
 21
-74290.45154194612
 31
0.0
 12
-75315.61908825157
 22
-74260.45154194614
 32
0.0
 13
-75315.61908825157
 23
-74260.45154194614
 33
0.0
  0
SOLID
  5
3D248
330
3D243
100
AcDbEntity
  8
0
 62
     0
100
AcDbTrace
 10
-75320.61908825157
 20
-74930.45154194613
 30
0.0
 11
-75310.61908825156
 21
-74930.45154194613
 31
0.0
 12
-75315.61908825157
 22
-74960.45154194614
 32
0.0
 13
-75315.61908825157
 23
-74960.45154194614
 33
0.0
  0
MTEXT
  5
3D249
330
3D243
100
AcDbEntity
  8
0
 62
     0
100
AcDbMText
 10
-75340.61908825156
 20
-74610.45154194615
 30
0.0
 40
30.0
 41
0.0
 46
0.0
 71
     5
 72
     1
  1
\A1;700
 11
0.0000000000000001
 21
1.0
 31
0.0
 73
     1
 44
1.0
1001
ACAD
1000
MTEXTBEGIN
1070
    73
1070
     1
1070
    44
1040
1.0
1070
    74
1070
     0
1000
MTEXTEND
  0
POINT
  5
3D24A
330
3D243
100
AcDbEntity
  8
DEFPOINTS
 62
     0
100
AcDbPoint
 10
-75521.87618529664
 20
-74260.45154194614
 30
0.0
  0
POINT
  5
3D24B
330
3D243
100
AcDbEntity
  8
DEFPOINTS
 62
     0
100
AcDbPoint
 10
-75521.87618529664
 20
-74960.45154194614
 30
0.0
  0
POINT
  5
3D24C
330
3D243
100
AcDbEntity
  8
DEFPOINTS
 62
     0
100
AcDbPoint
 10
-75315.61908825157
 20
-74960.45154194614
 30
0.0
  0
ENDBLK
  5
3D24E
330
3D243
100
AcDbEntity
  8
0
100
AcDbBlockEnd
  0
BLOCK
  5
3D276
330
3D26C
100
AcDbEntity
  8
0
100
AcDbBlockBegin
  2
*D6
 70
     1
 10
0.0
 20
0.0
 30
0.0
  3
*D6
  1

  0
LINE
  5
3D26D
330
3D26C
100
AcDbEntity
  8
0
 62
     0
370
    -2
100
AcDbLine
 10
-75362.87618528462
 20
-73273.14855373077
 30
0.0
 11
-75362.87618528462
 21
-73130.03115155219
 31
0.0
  0
LINE
  5
3D26E
330
3D26C
100
AcDbEntity
  8
0
 62
     0
370
    -2
100
AcDbLine
 10
-74762.87618528462
 20
-73287.66688602262
 30
0.0
 11
-74762.87618528462
 21
-73130.03115155219
 31
0.0
  0
LINE
  5
3D26F
330
3D26C
100
AcDbEntity
  8
0
 62
     0
370
    -2
100
AcDbLine
 10
-75332.87618528462
 20
-73140.03115155219
 30
0.0
 11
-74792.87618528462
 21
-73140.03115155219
 31
0.0
  0
SOLID
  5
3D270
330
3D26C
100
AcDbEntity
  8
0
 62
     0
100
AcDbTrace
 10
-75332.87618528462
 20
-73135.03115155219
 30
0.0
 11
-75332.87618528462
 21
-73145.03115155218
 31
0.0
 12
-75362.87618528462
 22
-73140.03115155219
 32
0.0
 13
-75362.87618528462
 23
-73140.03115155219
 33
0.0
  0
SOLID
  5
3D271
330
3D26C
100
AcDbEntity
  8
0
 62
     0
100
AcDbTrace
 10
-74792.87618528462
 20
-73135.03115155219
 30
0.0
 11
-74792.87618528462
 21
-73145.03115155218
 31
0.0
 12
-74762.87618528462
 22
-73140.03115155219
 32
0.0
 13
-74762.87618528462
 23
-73140.03115155219
 33
0.0
  0
MTEXT
  5
3D272
330
3D26C
100
AcDbEntity
  8
0
 62
     0
100
AcDbMText
 10
-75062.87618528462
 20
-73115.03115155219
 30
0.0
 40
30.0
 41
0.0
 46
0.0
 71
     5
 72
     1
  1
\A1;600
 73
     1
 44
1.0
1001
ACAD
1000
MTEXTBEGIN
1070
    73
1070
     1
1070
    44
1040
1.0
1070
    74
1070
     0
1000
MTEXTEND
  0
POINT
  5
3D273
330
3D26C
100
AcDbEntity
  8
DEFPOINTS
 62
     0
100
AcDbPoint
 10
-75362.87618528462
 20
-73273.14855373077
 30
0.0
  0
POINT
  5
3D274
330
3D26C
100
AcDbEntity
  8
DEFPOINTS
 62
     0
100
AcDbPoint
 10
-74762.87618528462
 20
-73287.66688602262
 30
0.0000000000000946
  0
POINT
  5
3D275
330
3D26C
100
AcDbEntity
  8
DEFPOINTS
 62
     0
100
AcDbPoint
 10
-74762.87618528462
 20
-73140.03115155219
 30
0.0
  0
ENDBLK
  5
3D277
330
3D26C
100
AcDbEntity
  8
0
100
AcDbBlockEnd
  0
BLOCK
  5
3D28D
330
3D283
100
AcDbEntity
  8
0
100
AcDbBlockBegin
  2
*D7
 70
     1
 10
0.0
 20
0.0
 30
0.0
  3
*D7
  1

  0
LINE
  5
3D284
330
3D283
100
AcDbEntity
  8
0
 62
     0
370
    -2
100
AcDbLine
 10
-74049.19430117082
 20
-72516.66690902262
 30
0.0
 11
-73591.4779451497
 21
-72516.66690902262
 31
0.0
  0
LINE
  5
3D285
330
3D283
100
AcDbEntity
  8
0
 62
     0
370
    -2
100
AcDbLine
 10
-74118.12605754849
 20
-73237.43431209102
 30
0.0
 11
-73591.4779451497
 21
-73237.43431209102
 31
0.0
  0
LINE
  5
3D286
330
3D283
100
AcDbEntity
  8
0
 62
     0
370
    -2
100
AcDbLine
 10
-73601.4779451497
 20
-72546.66690902262
 30
0.0
 11
-73601.4779451497
 21
-73207.43431209102
 31
0.0
  0
SOLID
  5
3D287
330
3D283
100
AcDbEntity
  8
0
 62
     0
100
AcDbTrace
 10
-73606.4779451497
 20
-72546.66690902262
 30
0.0
 11
-73596.4779451497
 21
-72546.66690902262
 31
0.0
 12
-73601.4779451497
 22
-72516.66690902262
 32
0.0
 13
-73601.4779451497
 23
-72516.66690902262
 33
0.0
  0
SOLID
  5
3D288
330
3D283
100
AcDbEntity
  8
0
 62
     0
100
AcDbTrace
 10
-73606.4779451497
 20
-73207.43431209102
 30
0.0
 11
-73596.4779451497
 21
-73207.43431209102
 31
0.0
 12
-73601.4779451497
 22
-73237.43431209102
 32
0.0
 13
-73601.4779451497
 23
-73237.43431209102
 33
0.0
  0
MTEXT
  5
3D289
330
3D283
100
AcDbEntity
  8
0
 62
     0
100
AcDbMText
 10
-73626.48089790558
 20
-72877.05061055685
 30
0.0
 40
30.0
 41
0.0
 46
0.0
 71
     5
 72
     1
  1
\A1;721
 11
0.0000000000000001
 21
1.0
 31
0.0
 73
     1
 44
1.0
1001
ACAD
1000
MTEXTBEGIN
1070
    73
1070
     1
1070
    44
1040
1.0
1070
    74
1070
     0
1000
MTEXTEND
  0
POINT
  5
3D28A
330
3D283
100
AcDbEntity
  8
DEFPOINTS
 62
     0
100
AcDbPoint
 10
-74049.19430117082
 20
-72516.66690902262
 30
0.000000000000003
  0
POINT
  5
3D28B
330
3D283
100
AcDbEntity
  8
DEFPOINTS
 62
     0
100
AcDbPoint
 10
-74118.12605754849
 20
-73237.43431209102
 30
0.000000000000003
  0
POINT
  5
3D28C
330
3D283
100
AcDbEntity
  8
DEFPOINTS
 62
     0
100
AcDbPoint
 10
-73601.4779451497
 20
-73237.43431209102
 30
0.0
  0
ENDBLK
  5
3D28E
330
3D283
100
AcDbEntity
  8
0
100
AcDbBlockEnd
  0
BLOCK
  5
3D2EA
330
3D2E0
100
AcDbEntity
  8
0
100
AcDbBlockBegin
  2
*D8
 70
     1
 10
0.0
 20
0.0
 30
0.0
  3
*D8
  1

  0
LINE
  5
3D2E1
330
3D2E0
100
AcDbEntity
  8
0
 62
     0
370
    -2
100
AcDbLine
 10
-75521.87618529664
 20
-74260.45154194614
 30
0.0
 11
-75852.62202622351
 21
-74260.45154194614
 31
0.0
  0
LINE
  5
3D2E2
330
3D2E0
100
AcDbEntity
  8
0
 62
     0
370
    -2
100
AcDbLine
 10
-75521.87618529664
 20
-75060.45154194612
 30
0.0
 11
-75852.62202622351
 21
-75060.45154194612
 31
0.0
  0
LINE
  5
3D2E3
330
3D2E0
100
AcDbEntity
  8
0
 62
     0
370
    -2
100
AcDbLine
 10
-75842.62202622351
 20
-74290.45154194612
 30
0.0
 11
-75842.62202622351
 21
-75030.45154194614
 31
0.0
  0
SOLID
  5
3D2E4
330
3D2E0
100
AcDbEntity
  8
0
 62
     0
100
AcDbTrace
 10
-75847.62202622353
 20
-74290.45154194612
 30
0.0
 11
-75837.62202622351
 21
-74290.45154194612
 31
0.0
 12
-75842.62202622351
 22
-74260.45154194614
 32
0.0
 13
-75842.62202622351
 23
-74260.45154194614
 33
0.0
  0
SOLID
  5
3D2E5
330
3D2E0
100
AcDbEntity
  8
0
 62
     0
100
AcDbTrace
 10
-75847.62202622353
 20
-75030.45154194614
 30
0.0
 11
-75837.62202622351
 21
-75030.45154194614
 31
0.0
 12
-75842.62202622351
 22
-75060.45154194612
 32
0.0
 13
-75842.62202622351
 23
-75060.45154194612
 33
0.0
  0
MTEXT
  5
3D2E6
330
3D2E0
100
AcDbEntity
  8
0
 62
     0
100
AcDbMText
 10
-75867.6220262235
 20
-74660.45154194615
 30
0.0
 40
30.0
 41
0.0
 46
0.0
 71
     5
 72
     1
  1
\A1;800
 11
0.0000000000000001
 21
1.0
 31
0.0
 73
     1
 44
1.0
1001
ACAD
1000
MTEXTBEGIN
1070
    73
1070
     1
1070
    44
1040
1.0
1070
    74
1070
     0
1000
MTEXTEND
  0
POINT
  5
3D2E7
330
3D2E0
100
AcDbEntity
  8
DEFPOINTS
 62
     0
100
AcDbPoint
 10
-75521.87618529664
 20
-74260.45154194614
 30
0.0
  0
POINT
  5
3D2E8
330
3D2E0
100
AcDbEntity
  8
DEFPOINTS
 62
     0
100
AcDbPoint
 10
-75521.87618529664
 20
-75060.45154194612
 30
0.0
  0
POINT
  5
3D2E9
330
3D2E0
100
AcDbEntity
  8
DEFPOINTS
 62
     0
100
AcDbPoint
 10
-75842.62202622351
 20
-75060.45154194612
 30
0.0
  0
ENDBLK
  5
3D2EB
330
3D2E0
100
AcDbEntity
  8
0
100
AcDbBlockEnd
  0
BLOCK
  5
3D2F7
330
3D2ED
100
AcDbEntity
  8
0
100
AcDbBlockBegin
  2
*D9
 70
     1
 10
0.0
 20
0.0
 30
0.0
  3
*D9
  1

  0
LINE
  5
3D2EE
330
3D2ED
100
AcDbEntity
  8
0
 62
     0
370
    -2
100
AcDbLine
 10
-74662.87618528462
 20
-73287.66688602262
 30
0.0
 11
-74662.87618528462
 21
-73572.30807527102
 31
0.0
  0
LINE
  5
3D2EF
330
3D2ED
100
AcDbEntity
  8
0
 62
     0
370
    -2
100
AcDbLine
 10
-75362.87618528462
 20
-73287.66688602262
 30
0.0
 11
-75362.87618528462
 21
-73572.30807527102
 31
0.0
  0
LINE
  5
3D2F0
330
3D2ED
100
AcDbEntity
  8
0
 62
     0
370
    -2
100
AcDbLine
 10
-74692.87618528462
 20
-73562.30807527103
 30
0.0
 11
-75332.87618528462
 21
-73562.30807527103
 31
0.0
  0
SOLID
  5
3D2F1
330
3D2ED
100
AcDbEntity
  8
0
 62
     0
100
AcDbTrace
 10
-74692.87618528462
 20
-73557.30807527102
 30
0.0
 11
-74692.87618528462
 21
-73567.30807527102
 31
0.0
 12
-74662.87618528462
 22
-73562.30807527103
 32
0.0
 13
-74662.87618528462
 23
-73562.30807527103
 33
0.0
  0
SOLID
  5
3D2F2
330
3D2ED
100
AcDbEntity
  8
0
 62
     0
100
AcDbTrace
 10
-75332.87618528462
 20
-73557.30807527102
 30
0.0
 11
-75332.87618528462
 21
-73567.30807527102
 31
0.0
 12
-75362.87618528462
 22
-73562.30807527103
 32
0.0
 13
-75362.87618528462
 23
-73562.30807527103
 33
0.0
  0
MTEXT
  5
3D2F3
330
3D2ED
100
AcDbEntity
  8
0
 62
     0
100
AcDbMText
 10
-75012.87618528462
 20
-73537.30807527102
 30
0.0
 40
30.0
 41
0.0
 46
0.0
 71
     5
 72
     1
  1
\A1;700
 73
     1
 44
1.0
1001
ACAD
1000
MTEXTBEGIN
1070
    73
1070
     1
1070
    44
1040
1.0
1070
    74
1070
     0
1000
MTEXTEND
  0
POINT
  5
3D2F4
330
3D2ED
100
AcDbEntity
  8
DEFPOINTS
 62
     0
100
AcDbPoint
 10
-74662.87618528462
 20
-73287.66688602262
 30
0.0000000000000946
  0
POINT
  5
3D2F5
330
3D2ED
100
AcDbEntity
  8
DEFPOINTS
 62
     0
100
AcDbPoint
 10
-75362.87618528462
 20
-73287.66688602262
 30
0.0
  0
POINT
  5
3D2F6
330
3D2ED
100
AcDbEntity
  8
DEFPOINTS
 62
     0
100
AcDbPoint
 10
-75362.87618528462
 20
-73562.30807527103
 30
0.0
  0
ENDBLK
  5
3D2F8
330
3D2ED
100
AcDbEntity
  8
0
100
AcDbBlockEnd
  0
BLOCK
  5
3D304
330
3D2FA
100
AcDbEntity
  8
0
100
AcDbBlockBegin
  2
*D10
 70
     1
 10
0.0
 20
0.0
 30
0.0
  3
*D10
  1

  0
LINE
  5
3D2FB
330
3D2FA
100
AcDbEntity
  8
0
 62
     0
370
    -2
100
AcDbLine
 10
-74150.19067017085
 20
-73287.66688602262
 30
0.0
 11
-74150.19067017085
 21
-73007.76943039829
 31
0.0
  0
LINE
  5
3D2FC
330
3D2FA
100
AcDbEntity
  8
0
 62
     0
370
    -2
100
AcDbLine
 10
-73416.53645697691
 20
-73284.0090648287
 30
0.0
 11
-73416.53645697691
 21
-73007.76943039829
 31
0.0
  0
LINE
  5
3D2FD
330
3D2FA
100
AcDbEntity
  8
0
 62
     0
370
    -2
100
AcDbLine
 10
-74120.19067017085
 20
-73017.76943039827
 30
0.0
 11
-73446.53645697691
 21
-73017.76943039827
 31
0.0
  0
SOLID
  5
3D2FE
330
3D2FA
100
AcDbEntity
  8
0
 62
     0
100
AcDbTrace
 10
-74120.19067017085
 20
-73012.76943039827
 30
0.0
 11
-74120.19067017085
 21
-73022.76943039829
 31
0.0
 12
-74150.19067017085
 22
-73017.76943039827
 32
0.0
 13
-74150.19067017085
 23
-73017.76943039827
 33
0.0
  0
SOLID
  5
3D2FF
330
3D2FA
100
AcDbEntity
  8
0
 62
     0
100
AcDbTrace
 10
-73446.53645697691
 20
-73012.76943039827
 30
0.0
 11
-73446.53645697691
 21
-73022.76943039829
 31
0.0
 12
-73416.53645697691
 22
-73017.76943039827
 32
0.0
 13
-73416.53645697691
 23
-73017.76943039827
 33
0.0
  0
MTEXT
  5
3D300
330
3D2FA
100
AcDbEntity
  8
0
 62
     0
100
AcDbMText
 10
-73783.36356357388
 20
-72992.76943039829
 30
0.0
 40
30.0
 41
0.0
 46
0.0
 71
     5
 72
     1
  1
\A1;734
 73
     1
 44
1.0
1001
ACAD
1000
MTEXTBEGIN
1070
    73
1070
     1
1070
    44
1040
1.0
1070
    74
1070
     0
1000
MTEXTEND
  0
POINT
  5
3D301
330
3D2FA
100
AcDbEntity
  8
DEFPOINTS
 62
     0
100
AcDbPoint
 10
-74150.19067017085
 20
-73287.66688602262
 30
0.0
  0
POINT
  5
3D302
330
3D2FA
100
AcDbEntity
  8
DEFPOINTS
 62
     0
100
AcDbPoint
 10
-73416.53645697691
 20
-73284.0090648287
 30
0.000000000000003
  0
POINT
  5
3D303
330
3D2FA
100
AcDbEntity
  8
DEFPOINTS
 62
     0
100
AcDbPoint
 10
-73416.53645697691
 20
-73017.76943039827
 30
0.0
  0
ENDBLK
  5
3D305
330
3D2FA
100
AcDbEntity
  8
0
100
AcDbBlockEnd
  0
BLOCK
  5
303D3B0
330
303D3AF
100
AcDbEntity
  8
0
100
AcDbBlockBegin
  2
*D11
 70
     1
 10
0.0
 20
0.0
 30
0.0
  3
*D11
  1

  0
LINE
  5
303D3B2
330
303D3AF
100
AcDbEntity
  8
0
 62
     0
440
 16777216
370
    -2
100
AcDbLine
 10
-75521.87618529669
 20
-74260.45154194617
 30
0.0
 11
-75353.49966409031
 21
-74260.45154194617
 31
0.0
  0
LINE
  5
303D3B3
330
303D3AF
100
AcDbEntity
  8
0
 62
     0
440
 16777216
370
    -2
100
AcDbLine
 10
-75521.87618529669
 20
-75010.45154194617
 30
0.0
 11
-75353.49966409031
 21
-75010.45154194617
 31
0.0
  0
LINE
  5
303D3B4
330
303D3AF
100
AcDbEntity
  8
0
 62
     0
440
 16777216
370
    -2
100
AcDbLine
 10
-75363.49966409031
 20
-74290.45154194617
 30
0.0
 11
-75363.49966409031
 21
-74980.45154194617
 31
0.0
  0
SOLID
  5
303D3B5
330
303D3AF
100
AcDbEntity
  8
0
 62
     0
440
 16777216
100
AcDbTrace
 10
-75368.49966409031
 20
-74290.45154194617
 30
0.0
 11
-75358.49966409031
 21
-74290.45154194617
 31
0.0
 12
-75363.49966409031
 22
-74260.45154194617
 32
0.0
 13
-75363.49966409031
 23
-74260.45154194617
 33
0.0
  0
SOLID
  5
303D3B6
330
303D3AF
100
AcDbEntity
  8
0
 62
     0
440
 16777216
100
AcDbTrace
 10
-75368.49966409031
 20
-74980.45154194617
 30
0.0
 11
-75358.49966409031
 21
-74980.45154194617
 31
0.0
 12
-75363.49966409031
 22
-75010.45154194617
 32
0.0
 13
-75363.49966409031
 23
-75010.45154194617
 33
0.0
  0
MTEXT
  5
303D3B7
330
303D3AF
100
AcDbEntity
  8
0
 62
     0
440
 16777216
100
AcDbMText
 10
-75388.49966409031
 20
-74635.45154194614
 30
0.0
 40
30.0
 41
0.0
 46
0.0
 71
     5
 72
     1
  1
\A1;750
 11
0.0000000000000001
 21
1.0
 31
0.0
 73
     1
 44
1.0
  0
POINT
  5
303D3B8
330
303D3AF
100
AcDbEntity
  8
DEFPOINTS
 62
     0
440
 16777216
100
AcDbPoint
 10
-75521.87618529669
 20
-74260.45154194617
 30
0.0
  0
POINT
  5
303D3B9
330
303D3AF
100
AcDbEntity
  8
DEFPOINTS
 62
     0
440
 16777216
100
AcDbPoint
 10
-75521.87618529669
 20
-75010.45154194617
 30
0.0
  0
POINT
  5
303D3BA
330
303D3AF
100
AcDbEntity
  8
DEFPOINTS
 62
     0
440
 16777216
100
AcDbPoint
 10
-75363.49966409031
 20
-75010.45154194617
 30
0.0
  0
ENDBLK
  5
303D3B1
330
303D3AF
100
AcDbEntity
  8
0
100
AcDbBlockEnd
  0
BLOCK
  5
303D416
330
303D415
100
AcDbEntity
  8
0
100
AcDbBlockBegin
  2
_Dot
 70
     0
 10
0.0
 20
0.0
 30
0.0
  3
_Dot
  1

  0
LWPOLYLINE
  5
303D417
330
303D415
100
AcDbEntity
  8
0
  6
ByBlock
 62
     0
100
AcDbPolyline
 90
        2
 70
     1
 43
0.5
 10
-0.25
 20
0.0
 42
1.0
 10
0.25
 20
0.0
 42
1.0
  0
LINE
  5
303D418
330
303D415
100
AcDbEntity
  8
0
  6
ByBlock
 62
     0
370
    -2
100
AcDbLine
 10
-0.5
 20
0.0
 30
0.0
 11
-1.0
 21
0.0
 31
0.0
  0
ENDBLK
  5
303D419
330
303D415
100
AcDbEntity
  8
0
100
AcDbBlockEnd
  0
BLOCK
  5
303D41B
330
303D41A
100
AcDbEntity
  8
0
100
AcDbBlockBegin
  2
*D13
 70
     1
 10
0.0
 20
0.0
 30
0.0
  3
*D13
  1

  0
LINE
  5
303D41C
330
303D41A
100
AcDbEntity
  8
0
 62
     0
440
 16777216
370
    -2
100
AcDbLine
 10
836.6331635847018
 20
85.0
 30
0.0000000000000122
 11
974.078065262257
 21
84.99999999999996
 31
0.0000000000000122
  0
LINE
  5
303D41D
330
303D41A
100
AcDbEntity
  8
0
 62
     0
440
 16777216
370
    -2
100
AcDbLine
 10
836.6331635847018
 20
-780.9377033214132
 30
0.0000000000000122
 11
974.0780652622568
 21
-780.9377033214132
 31
0.0000000000000122
  0
LINE
  5
303D41E
330
303D41A
100
AcDbEntity
  8
0
 62
     0
440
 16777216
370
    -2
100
AcDbLine
 10
972.828065262257
 20
64.99999999999996
 30
0.0000000000000122
 11
972.8280652622569
 21
-760.9377033214132
 31
0.0000000000000122
  0
INSERT
  5
303D41F
330
303D41A
100
AcDbEntity
  8
0
 62
     0
440
 16777216
370
    -2
100
AcDbBlockReference
  2
_Dot
 10
972.828065262257
 20
84.99999999999996
 30
0.0000000000000122
 41
20.0
 42
20.0
 43
20.0
 50
90.0
  0
INSERT
  5
303D420
330
303D41A
100
AcDbEntity
  8
0
 62
     0
440
 16777216
370
    -2
100
AcDbBlockReference
  2
_Dot
 10
972.8280652622569
 20
-780.9377033214132
 30
0.0000000000000122
 41
20.0
 42
20.0
 43
20.0
 50
270.0
  0
MTEXT
  5
303D421
330
303D41A
100
AcDbEntity
  8
0
 62
     0
440
 16777216
370
     9
100
AcDbMText
 10
935.328065262257
 20
-347.9688516607065
 30
0.0000000000000122
 40
55.0
 41
0.0
 46
0.0
 71
     5
 72
     1
  1
L
  7
ARIAL
 11
0.0000000000000001
 21
1.0
 31
0.0
 73
     1
 44
1.0
  0
POINT
  5
303D422
330
303D41A
100
AcDbEntity
  8
DEFPOINTS
 62
     0
440
 16777216
100
AcDbPoint
 10
836.0081635847018
 20
85.0
 30
0.0000000000000795
  0
POINT
  5
303D423
330
303D41A
100
AcDbEntity
  8
DEFPOINTS
 62
     0
440
 16777216
100
AcDbPoint
 10
836.0081635847018
 20
-780.9377033214132
 30
0.0000000000000197
  0
POINT
  5
303D424
330
303D41A
100
AcDbEntity
  8
DEFPOINTS
 62
     0
440
 16777216
100
AcDbPoint
 10
972.8280652622569
 20
-780.9377033214132
 30
0.0000000000000122
  0
ENDBLK
  5
303D425
330
303D41A
100
AcDbEntity
  8
0
100
AcDbBlockEnd
  0
BLOCK
  5
303D435
330
303D434
100
AcDbEntity
  8
0
100
AcDbBlockBegin
  2
*D15
 70
     1
 10
0.0
 20
0.0
 30
0.0
  3
*D15
  1

  0
LINE
  5
303D47F
330
303D434
100
AcDbEntity
  8
0
 62
     0
440
 16777216
370
    -2
100
AcDbLine
 10
-74590.25858778344
 20
-73202.66688602262
 30
-0.0000000000000075
 11
-74484.51599028225
 21
-73202.66688602262
 31
-0.0000000000000075
  0
LINE
  5
303D480
330
303D434
100
AcDbEntity
  8
0
 62
     0
440
 16777216
370
    -2
100
AcDbLine
 10
-74621.96089195981
 20
-74031.31150154313
 30
-0.0000000000000075
 11
-74484.51599028225
 21
-74031.31150154313
 31
-0.0000000000000075
  0
LINE
  5
303D481
330
303D434
100
AcDbEntity
  8
0
 62
     0
440
 16777216
370
    -2
100
AcDbLine
 10
-74485.76599028225
 20
-73222.66688602262
 30
-0.0000000000000075
 11
-74485.76599028225
 21
-74011.31150154312
 31
-0.0000000000000075
  0
INSERT
  5
303D482
330
303D434
100
AcDbEntity
  8
0
 62
     0
440
 16777216
370
    -2
100
AcDbBlockReference
  2
_Dot
 10
-74485.76599028225
 20
-73202.66688602262
 30
-0.0000000000000075
 41
20.0
 42
20.0
 43
20.0
 50
90.0
  0
INSERT
  5
303D483
330
303D434
100
AcDbEntity
  8
0
 62
     0
440
 16777216
370
    -2
100
AcDbBlockReference
  2
_Dot
 10
-74485.76599028225
 20
-74031.31150154313
 30
-0.0000000000000075
 41
20.0
 42
20.0
 43
20.0
 50
270.0
  0
MTEXT
  5
303D484
330
303D434
100
AcDbEntity
  8
0
 62
     0
440
 16777216
370
     9
100
AcDbMText
 10
-74523.26599028223
 20
-73616.98919378288
 30
-0.0000000000000075
 40
55.0
 41
0.0
 46
0.0
 71
     5
 72
     1
  1
L
  7
ARIAL
 11
0.0000000000000001
 21
1.0
 31
0.0
 73
     1
 44
1.0
  0
POINT
  5
303D485
330
303D434
100
AcDbEntity
  8
DEFPOINTS
 62
     0
440
 16777216
100
AcDbPoint
 10
-74590.88358778344
 20
-73202.66688602262
 30
-0.000000000000015
  0
POINT
  5
303D486
330
303D434
100
AcDbEntity
  8
DEFPOINTS
 62
     0
440
 16777216
100
AcDbPoint
 10
-74622.58589195981
 20
-74031.31150154313
 30
0.0
  0
POINT
  5
303D487
330
303D434
100
AcDbEntity
  8
DEFPOINTS
 62
     0
440
 16777216
100
AcDbPoint
 10
-74485.76599028225
 20
-74031.31150154313
 30
-0.0000000000000075
  0
ENDBLK
  5
303D436
330
303D434
100
AcDbEntity
  8
0
100
AcDbBlockEnd
  0
BLOCK
  5
303D48A
330
303D489
100
AcDbEntity
  8
0
100
AcDbBlockBegin
  2
*D16
 70
     1
 10
0.0
 20
0.0
 30
0.0
  3
*D16
  1

  0
LINE
  5
303D48C
330
303D489
100
AcDbEntity
  8
0
 62
     0
440
 16777216
370
    -2
100
AcDbLine
 10
-74612.87618528462
 20
-73287.66688602262
 30
0.0
 11
-74612.87618528462
 21
-72789.63311149983
 31
0.0
  0
LINE
  5
303D48D
330
303D489
100
AcDbEntity
  8
0
 62
     0
440
 16777216
370
    -2
100
AcDbLine
 10
-75362.87618528462
 20
-73287.66688602263
 30
0.0
 11
-75362.87618528462
 21
-72789.63311149983
 31
0.0
  0
LINE
  5
303D48E
330
303D489
100
AcDbEntity
  8
0
 62
     0
440
 16777216
370
    -2
100
AcDbLine
 10
-74642.87618528462
 20
-72799.63311149983
 30
0.0
 11
-75332.87618528462
 21
-72799.63311149983
 31
0.0
  0
SOLID
  5
303D48F
330
303D489
100
AcDbEntity
  8
0
 62
     0
440
 16777216
100
AcDbTrace
 10
-74642.87618528462
 20
-72794.63311149983
 30
0.0
 11
-74642.87618528462
 21
-72804.63311149983
 31
0.0
 12
-74612.87618528462
 22
-72799.63311149983
 32
0.0
 13
-74612.87618528462
 23
-72799.63311149983
 33
0.0
  0
SOLID
  5
303D490
330
303D489
100
AcDbEntity
  8
0
 62
     0
440
 16777216
100
AcDbTrace
 10
-75332.87618528462
 20
-72794.63311149983
 30
0.0
 11
-75332.87618528462
 21
-72804.63311149983
 31
0.0
 12
-75362.87618528462
 22
-72799.63311149983
 32
0.0
 13
-75362.87618528462
 23
-72799.63311149983
 33
0.0
  0
MTEXT
  5
303D491
330
303D489
100
AcDbEntity
  8
0
 62
     0
440
 16777216
100
AcDbMText
 10
-74987.87618528462
 20
-72774.63311149983
 30
0.0
 40
30.0
 41
0.0
 46
0.0
 71
     5
 72
     1
  1
\A1;750
 73
     1
 44
1.0
  0
POINT
  5
303D492
330
303D489
100
AcDbEntity
  8
DEFPOINTS
 62
     0
440
 16777216
100
AcDbPoint
 10
-74612.87618528462
 20
-73287.66688602262
 30
0.0000000000000946
  0
POINT
  5
303D493
330
303D489
100
AcDbEntity
  8
DEFPOINTS
 62
     0
440
 16777216
100
AcDbPoint
 10
-75362.87618528462
 20
-73287.66688602263
 30
0.0
  0
POINT
  5
303D494
330
303D489
100
AcDbEntity
  8
DEFPOINTS
 62
     0
440
 16777216
100
AcDbPoint
 10
-75362.87618528462
 20
-72799.63311149983
 30
0.0
  0
ENDBLK
  5
303D48B
330
303D489
100
AcDbEntity
  8
0
100
AcDbBlockEnd
  0
BLOCK
  5
303D497
330
303D496
100
AcDbEntity
  8
0
100
AcDbBlockBegin
  2
*D17
 70
     1
 10
0.0
 20
0.0
 30
0.0
  3
*D17
  1

  0
LINE
  5
303D499
330
303D496
100
AcDbEntity
  8
0
 62
     0
440
 16777216
370
    -2
100
AcDbLine
 10
-75905.92697785531
 20
-72507.73075365252
 30
0.0
 11
-76348.40160394992
 21
-72507.73075365252
 31
0.0
  0
LINE
  5
303D49A
330
303D496
100
AcDbEntity
  8
0
 62
     0
440
 16777216
370
    -2
100
AcDbLine
 10
-75851.56170039839
 20
-73238.16688602262
 30
0.0
 11
-76348.40160394992
 21
-73238.16688602262
 31
0.0
  0
LINE
  5
303D49B
330
303D496
100
AcDbEntity
  8
0
 62
     0
440
 16777216
370
    -2
100
AcDbLine
 10
-76338.40160394992
 20
-72537.73075365252
 30
0.0
 11
-76338.40160394992
 21
-73208.16688602262
 31
0.0
  0
SOLID
  5
303D49C
330
303D496
100
AcDbEntity
  8
0
 62
     0
440
 16777216
100
AcDbTrace
 10
-76343.40160394993
 20
-72537.73075365252
 30
0.0
 11
-76333.40160394992
 21
-72537.73075365252
 31
0.0
 12
-76338.40160394992
 22
-72507.73075365252
 32
0.0
 13
-76338.40160394992
 23
-72507.73075365252
 33
0.0
  0
SOLID
  5
303D49D
330
303D496
100
AcDbEntity
  8
0
 62
     0
440
 16777216
100
AcDbTrace
 10
-76343.40160394993
 20
-73208.16688602262
 30
0.0
 11
-76333.40160394992
 21
-73208.16688602262
 31
0.0
 12
-76338.40160394992
 22
-73238.16688602262
 32
0.0
 13
-76338.40160394992
 23
-73238.16688602262
 33
0.0
  0
MTEXT
  5
303D49E
330
303D496
100
AcDbEntity
  8
0
 62
     0
440
 16777216
100
AcDbMText
 10
-76363.40160394991
 20
-72872.94881983759
 30
0.0
 40
30.0
 41
0.0
 46
0.0
 71
     5
 72
     1
  1
\A1;730
 11
0.0000000000000001
 21
1.0
 31
0.0
 73
     1
 44
1.0
  0
POINT
  5
303D49F
330
303D496
100
AcDbEntity
  8
DEFPOINTS
 62
     0
440
 16777216
100
AcDbPoint
 10
-75905.92697785531
 20
-72507.73075365252
 30
0.000000000000003
  0
POINT
  5
303D4A0
330
303D496
100
AcDbEntity
  8
DEFPOINTS
 62
     0
440
 16777216
100
AcDbPoint
 10
-75851.56170039839
 20
-73238.16688602262
 30
0.000000000000003
  0
POINT
  5
303D4A1
330
303D496
100
AcDbEntity
  8
DEFPOINTS
 62
     0
440
 16777216
100
AcDbPoint
 10
-76338.40160394992
 20
-73238.16688602262
 30
0.0
  0
ENDBLK
  5
303D498
330
303D496
100
AcDbEntity
  8
0
100
AcDbBlockEnd
  0
ENDSEC
  0
SECTION
  2
ENTITIES
  0
LINE
  5
3D11E
330
1A
100
AcDbEntity
  8
HEWI
100
AcDbLine
 10
-75287.37618528462
 20
-73219.16688602262
 30
0.0000000000000139
 11
-75287.37618528462
 21
-73235.66688602262
 31
0.0000000000000139
210
0.0
220
1.0
230
0.0
  0
LINE
  5
3D11F
330
1A
100
AcDbEntity
  8
HEWI
100
AcDbLine
 10
-75287.37618528462
 20
-73202.66688602262
 30
0.0000000000000139
 11
-75287.37618528462
 21
-73219.16688602262
 31
0.0000000000000139
210
0.0
220
1.0
230
0.0
  0
LINE
  5
3D120
330
1A
100
AcDbEntity
  8
HEWI
100
AcDbLine
 10
-75212.87618528464
 20
-73219.16688602262
 30
0.0000000000000276
 11
-75196.37618528464
 21
-73235.66688602262
 31
0.0000000000000306
210
0.0
220
1.0
230
0.0
  0
LINE
  5
3D121
330
1A
100
AcDbEntity
  8
HEWI
100
AcDbLine
 10
-75229.37618528462
 20
-73235.66688602262
 30
0.0000000000000245
 11
-75212.87618528464
 21
-73219.16688602262
 31
0.0000000000000276
210
0.0
220
1.0
230
0.0
  0
LINE
  5
3D122
330
1A
100
AcDbEntity
  8
HEWI
100
AcDbLine
 10
-75196.37618528464
 20
-73339.66688602262
 30
0.0000000000000306
 11
-75212.87618528464
 21
-73356.16688602264
 31
0.0000000000000276
210
0.0
220
1.0
230
0.0
  0
LINE
  5
3D123
330
1A
100
AcDbEntity
  8
HEWI
100
AcDbLine
 10
-75212.87618528464
 20
-73356.16688602264
 30
0.0000000000000276
 11
-75229.37618528462
 21
-73339.66688602262
 31
0.0000000000000245
210
0.0
220
1.0
230
0.0
  0
LINE
  5
3D124
330
1A
100
AcDbEntity
  8
HEWI
100
AcDbLine
 10
-75346.37618528464
 20
-73196.41688602262
 30
0.000000000000003
 11
-75321.87618528464
 21
-73196.41688602262
 31
0.0000000000000075
210
0.0
220
1.0
230
0.0
  0
LINE
  5
3D125
330
1A
100
AcDbEntity
  8
HEWI
100
AcDbLine
 10
-75321.87618528464
 20
-73241.91688602262
 30
0.0000000000000075
 11
-75346.37618528464
 21
-73241.91688602262
 31
0.000000000000003
210
0.0
220
1.0
230
0.0
  0
ARC
  5
3D126
330
1A
100
AcDbEntity
  8
HEWI
100
AcDbCircle
 10
-75321.87618528464
 20
-73219.16688602262
 30
0.0000000000000075
 40
22.74999999999999
100
AcDbArc
 50
270.0
 51
90.0
  0
LINE
  5
3D127
330
1A
100
AcDbEntity
  8
HEWI
100
AcDbLine
 10
-75362.87618528462
 20
-73414.16688602262
 30
0.0
 11
-75362.87618528462
 21
-73161.16688602264
 31
0.0
210
0.0
220
1.0
230
0.0
  0
LINE
  5
3D128
330
1A
100
AcDbEntity
  8
HEWI
100
AcDbLine
 10
-75362.87618528462
 20
-73159.66688602262
 30
0.0
 11
-75362.87618528462
 21
-73161.16688602264
 31
0.0
210
0.0
220
1.0
230
0.0
  0
LINE
  5
3D129
330
1A
100
AcDbEntity
  8
HEWI
100
AcDbLine
 10
-75362.87618528462
 20
-73414.16688602262
 30
0.0
 11
-75362.87618528462
 21
-73415.66688602262
 31
0.0
210
0.0
220
1.0
230
0.0
  0
LINE
  5
3D12A
330
1A
100
AcDbEntity
  8
HEWI
100
AcDbLine
 10
-75357.87618528464
 20
-73159.66688602262
 30
0.0000000000000009
 11
-75362.87618528462
 21
-73159.66688602262
 31
0.0
210
0.0
220
1.0
230
0.0
  0
ARC
  5
3D12B
330
1A
100
AcDbEntity
  8
HEWI
100
AcDbCircle
 10
-75357.87618528464
 20
-73171.16688602262
 30
0.0000000000000009
 40
11.5
100
AcDbArc
 50
0.0
 51
90.0
  0
LINE
  5
3D12C
330
1A
100
AcDbEntity
  8
HEWI
100
AcDbLine
 10
-75346.37618528464
 20
-73404.16688602262
 30
0.000000000000003
 11
-75346.37618528464
 21
-73171.16688602262
 31
0.000000000000003
210
0.0
220
1.0
230
0.0
  0
ARC
  5
3D12D
330
1A
100
AcDbEntity
  8
HEWI
100
AcDbCircle
 10
-75357.87618528464
 20
-73404.16688602262
 30
0.0000000000000009
 40
11.5
100
AcDbArc
 50
270.0
 51
0.0
  0
LINE
  5
3D12E
330
1A
100
AcDbEntity
  8
HEWI
100
AcDbLine
 10
-75362.87618528462
 20
-73415.66688602262
 30
0.0
 11
-75357.87618528464
 21
-73415.66688602262
 31
0.0000000000000009
210
0.0
220
1.0
230
0.0
  0
LINE
  5
3D12F
330
1A
100
AcDbEntity
  8
HEWI
100
AcDbLine
 10
-75287.37618528462
 20
-73202.66688602262
 30
0.0000000000000139
 11
-75287.37618528462
 21
-73235.66688602262
 31
0.0000000000000139
210
0.0
220
1.0
230
0.0
  0
LINE
  5
3D130
330
1A
100
AcDbEntity
  8
HEWI
100
AcDbLine
 10
-75306.21373017697
 20
-73235.66688602262
 30
0.0000000000000104
 11
-75287.37618528462
 21
-73235.66688602262
 31
0.0000000000000139
210
0.0
220
1.0
230
0.0
  0
LINE
  5
3D131
330
1A
100
AcDbEntity
  8
HEWI
100
AcDbLine
 10
-75306.21373017697
 20
-73202.66688602262
 30
0.0000000000000104
 11
-75287.37618528462
 21
-73202.66688602262
 31
0.0000000000000139
210
0.0
220
1.0
230
0.0
  0
LINE
  5
3D132
330
1A
100
AcDbEntity
  8
HEWI
100
AcDbLine
 10
-75229.37618528462
 20
-73235.66688602262
 30
0.0000000000000245
 11
-75229.37618528462
 21
-73339.66688602262
 31
0.0000000000000245
210
0.0
220
1.0
230
0.0
  0
LINE
  5
3D133
330
1A
100
AcDbEntity
  8
HEWI
100
AcDbLine
 10
-75196.37618528464
 20
-73235.66688602262
 30
0.0000000000000306
 11
-75196.37618528464
 21
-73339.66688602262
 31
0.0000000000000306
210
0.0
220
1.0
230
0.0
  0
LINE
  5
3D134
330
1A
100
AcDbEntity
  8
HEWI
100
AcDbLine
 10
-75229.37618528462
 20
-73339.66688602262
 30
0.0000000000000245
 11
-75346.37618528464
 21
-73339.66688602262
 31
0.000000000000003
210
0.0
220
1.0
230
0.0
  0
LINE
  5
3D135
330
1A
100
AcDbEntity
  8
HEWI
100
AcDbLine
 10
-74697.87618528462
 20
-73339.66688602262
 30
0.0000000000001222
 11
-75196.37618528464
 21
-73339.66688602262
 31
0.0000000000000306
210
0.0
220
1.0
230
0.0
  0
LINE
  5
3D136
330
1A
100
AcDbEntity
  8
HEWI
100
AcDbLine
 10
-74777.48199409897
 20
-73372.66688602261
 30
0.0000000000001075
 11
-75346.37618528464
 21
-73372.66688602261
 31
0.000000000000003
210
0.0
220
1.0
230
0.0
  0
LINE
  5
3D137
330
1A
100
AcDbEntity
  8
HEWI
100
AcDbLine
 10
-75196.37618528464
 20
-73235.66688602262
 30
0.0000000000000306
 11
-74697.87618528462
 21
-73235.66688602262
 31
0.0000000000001222
210
0.0
220
1.0
230
0.0
  0
LINE
  5
3D138
330
1A
100
AcDbEntity
  8
HEWI
100
AcDbLine
 10
-75287.37618528462
 20
-73235.66688602262
 30
0.0000000000000139
 11
-75229.37618528462
 21
-73235.66688602262
 31
0.0000000000000245
210
0.0
220
1.0
230
0.0
  0
LINE
  5
3D139
330
1A
100
AcDbEntity
  8
HEWI
100
AcDbLine
 10
-75287.37618528462
 20
-73202.66688602262
 30
0.0000000000000139
 11
-74697.87618528462
 21
-73202.66688602262
 31
0.0000000000001222
210
0.0
220
1.0
230
0.0
  0
ARC
  5
3D13A
330
1A
100
AcDbEntity
  8
HEWI
100
AcDbCircle
 10
-74697.87618528462
 20
-73287.66688602262
 30
0.0000000000000946
 40
52.0
100
AcDbArc
 50
270.0
 51
90.0
  0
ARC
  5
3D13B
330
1A
100
AcDbEntity
  8
HEWI
100
AcDbCircle
 10
-74697.87618528462
 20
-73287.66688602262
 30
0.0000000000000946
 40
85.0
100
AcDbArc
 50
270.0
 51
90.0
  0
ARC
  5
3D13C
330
1A
100
AcDbEntity
  8
HEWI
100
AcDbCircle
 10
-75521.87618529664
 20
-73219.16688602262
 30
0.0
 40
16.5
100
AcDbArc
 50
0.0
 51
180.0
  0
ARC
  5
3D13D
330
1A
100
AcDbEntity
  8
HEWI
100
AcDbCircle
 10
-75521.87618529664
 20
-73356.16688602264
 30
0.0
 40
16.5
100
AcDbArc
 50
180.0
 51
0.0
  0
LINE
  5
3D13E
330
1A
100
AcDbEntity
  8
HEWI
100
AcDbLine
 10
-75542.37618529664
 20
-73196.41688602262
 30
-0.0000000000000025
 11
-75558.87618529664
 21
-73196.41688602262
 31
-0.0000000000000045
210
0.0
220
1.0
230
0.0
  0
LINE
  5
3D13F
330
1A
100
AcDbEntity
  8
HEWI
100
AcDbLine
 10
-75542.37618529664
 20
-73241.91688602262
 30
-0.0000000000000025
 11
-75542.37618529664
 21
-73196.41688602262
 31
-0.0000000000000025
210
0.0
220
1.0
230
0.0
  0
LINE
  5
3D140
330
1A
100
AcDbEntity
  8
HEWI
100
AcDbLine
 10
-75542.37618529664
 20
-73241.91688602262
 30
-0.0000000000000025
 11
-75558.87618529664
 21
-73241.91688602262
 31
-0.0000000000000045
210
0.0
220
1.0
230
0.0
  0
LINE
  5
3D141
330
1A
100
AcDbEntity
  8
HEWI
100
AcDbLine
 10
-75558.87618529664
 20
-73196.41688602262
 30
-0.0000000000000045
 11
-75558.87618529664
 21
-73241.91688602262
 31
-0.0000000000000045
210
0.0
220
1.0
230
0.0
  0
LINE
  5
3D142
330
1A
100
AcDbEntity
  8
HEWI
100
AcDbLine
 10
-75560.87618529664
 20
-73171.16688602262
 30
-0.0000000000000048
 11
-75560.87618529664
 21
-73404.16688602262
 31
-0.0000000000000048
210
0.0
220
1.0
230
0.0
  0
LINE
  5
3D143
330
1A
100
AcDbEntity
  8
HEWI
100
AcDbLine
 10
-75560.87618529664
 20
-73161.16688602264
 30
-0.0000000000000048
 11
-75560.87618529664
 21
-73171.16688602262
 31
-0.0000000000000048
210
0.0
220
1.0
230
0.0
  0
LINE
  5
3D144
330
1A
100
AcDbEntity
  8
HEWI
100
AcDbLine
 10
-75560.87618529664
 20
-73404.16688602262
 30
-0.0000000000000048
 11
-75560.87618529664
 21
-73414.16688602262
 31
-0.0000000000000048
210
0.0
220
1.0
230
0.0
  0
ARC
  5
3D145
330
1A
100
AcDbEntity
  8
HEWI
100
AcDbCircle
 10
-75559.37618529664
 20
-73161.16688602264
 30
-0.0000000000000046
 40
1.5
100
AcDbArc
 50
90.0
 51
180.0
  0
ARC
  5
3D146
330
1A
100
AcDbEntity
  8
HEWI
100
AcDbCircle
 10
-75559.37618529664
 20
-73414.16688602262
 30
-0.0000000000000046
 40
1.5
100
AcDbArc
 50
180.0
 51
270.0
  0
LINE
  5
3D147
330
1A
100
AcDbEntity
  8
HEWI
100
AcDbLine
 10
-75484.37618529664
 20
-73159.66688602262
 30
0.0000000000000046
 11
-75559.37618529664
 21
-73159.66688602262
 31
-0.0000000000000046
210
0.0
220
1.0
230
0.0
  0
LINE
  5
3D148
330
1A
100
AcDbEntity
  8
HEWI
100
AcDbLine
 10
-75482.87618529664
 20
-73404.16688602262
 30
0.0000000000000048
 11
-75482.87618529664
 21
-73171.16688602262
 31
0.0000000000000048
210
0.0
220
1.0
230
0.0
  0
LINE
  5
3D149
330
1A
100
AcDbEntity
  8
HEWI
100
AcDbLine
 10
-75482.87618529664
 20
-73171.16688602262
 30
0.0000000000000048
 11
-75482.87618529664
 21
-73161.16688602264
 31
0.0000000000000048
210
0.0
220
1.0
230
0.0
  0
LINE
  5
3D14A
330
1A
100
AcDbEntity
  8
HEWI
100
AcDbLine
 10
-75482.87618529664
 20
-73414.16688602262
 30
0.0000000000000048
 11
-75482.87618529664
 21
-73404.16688602262
 31
0.0000000000000048
210
0.0
220
1.0
230
0.0
  0
ARC
  5
3D14B
330
1A
100
AcDbEntity
  8
HEWI
100
AcDbCircle
 10
-75484.37618529664
 20
-73161.16688602264
 30
0.0000000000000046
 40
1.5
100
AcDbArc
 50
0.0
 51
90.0
  0
ARC
  5
3D14C
330
1A
100
AcDbEntity
  8
HEWI
100
AcDbCircle
 10
-75484.37618529664
 20
-73414.16688602262
 30
0.0000000000000046
 40
1.5
100
AcDbArc
 50
270.0
 51
0.0
  0
LINE
  5
3D14D
330
1A
100
AcDbEntity
  8
HEWI
100
AcDbLine
 10
-75484.87618529664
 20
-73196.41688602262
 30
0.0000000000000045
 11
-75501.37618529664
 21
-73196.41688602262
 31
0.0000000000000025
210
0.0
220
1.0
230
0.0
  0
LINE
  5
3D14E
330
1A
100
AcDbEntity
  8
HEWI
100
AcDbLine
 10
-75484.87618529664
 20
-73241.91688602262
 30
0.0000000000000045
 11
-75484.87618529664
 21
-73196.41688602262
 31
0.0000000000000045
210
0.0
220
1.0
230
0.0
  0
LINE
  5
3D14F
330
1A
100
AcDbEntity
  8
HEWI
100
AcDbLine
 10
-75484.87618529664
 20
-73241.91688602262
 30
0.0000000000000045
 11
-75501.37618529664
 21
-73241.91688602262
 31
0.0000000000000025
210
0.0
220
1.0
230
0.0
  0
LINE
  5
3D150
330
1A
100
AcDbEntity
  8
HEWI
100
AcDbLine
 10
-75501.37618529664
 20
-73196.41688602262
 30
0.0000000000000025
 11
-75501.37618529664
 21
-73241.91688602262
 31
0.0000000000000025
210
0.0
220
1.0
230
0.0
  0
LINE
  5
3D151
330
1A
100
AcDbEntity
  8
HEWI
100
AcDbLine
 10
-75542.37618529664
 20
-73241.66688602264
 30
-0.0000000000000025
 11
-75538.37618529664
 21
-73241.66688602264
 31
-0.000000000000002
210
0.0
220
1.0
230
0.0
  0
LINE
  5
3D152
330
1A
100
AcDbEntity
  8
HEWI
100
AcDbLine
 10
-75505.37618529664
 20
-73241.66688602264
 30
0.000000000000002
 11
-75501.37618529664
 21
-73241.66688602264
 31
0.0000000000000025
210
0.0
220
1.0
230
0.0
  0
LINE
  5
3D153
330
1A
100
AcDbEntity
  8
HEWI
100
AcDbLine
 10
-75542.37618529664
 20
-73196.66688602262
 30
-0.0000000000000025
 11
-75501.37618529664
 21
-73196.66688602262
 31
0.0000000000000025
210
0.0
220
1.0
230
0.0
  0
LINE
  5
3D154
330
1A
100
AcDbEntity
  8
HEWI
100
AcDbLine
 10
-75505.37618529664
 20
-73356.16688602264
 30
0.000000000000002
 11
-75505.37618529664
 21
-73219.16688602262
 31
0.000000000000002
210
0.0
220
1.0
230
0.0
  0
LINE
  5
3D155
330
1A
100
AcDbEntity
  8
HEWI
100
AcDbLine
 10
-75538.37618529664
 20
-73219.16688602262
 30
-0.000000000000002
 11
-75538.37618529664
 21
-73356.16688602264
 31
-0.000000000000002
210
0.0
220
1.0
230
0.0
  0
LINE
  5
3D156
330
1A
100
AcDbEntity
  8
HEWI
100
AcDbLine
 10
-75505.37618529664
 20
-74335.95154194613
 30
0.0
 11
-75538.37618529664
 21
-74335.95154194613
 31
0.0
  0
LINE
  5
3D157
330
1A
100
AcDbEntity
  8
HEWI
100
AcDbLine
 10
-75542.37618529664
 20
-74301.45154194613
 30
0.0
 11
-75542.37618529664
 21
-74276.95154194614
 31
0.0
  0
LINE
  5
3D158
330
1A
100
AcDbEntity
  8
HEWI
100
AcDbLine
 10
-75558.87618529664
 20
-74276.95154194614
 30
0.0
 11
-75558.87618529664
 21
-74301.45154194613
 31
0.0
  0
LINE
  5
3D159
330
1A
100
AcDbEntity
  8
HEWI
100
AcDbLine
 10
-75542.37618529664
 20
-74324.20154194613
 30
0.0
 11
-75542.37618529664
 21
-74301.45154194613
 31
0.0
  0
LINE
  5
3D15A
330
1A
100
AcDbEntity
  8
HEWI
100
AcDbLine
 10
-75558.87618529664
 20
-74301.45154194613
 30
0.0
 11
-75558.87618529664
 21
-74324.20154194613
 31
0.0
  0
ARC
  5
3D15B
330
1A
100
AcDbEntity
  8
HEWI
100
AcDbCircle
 10
-75559.37618529664
 20
-74275.45154194612
 30
0.0
 40
1.5
100
AcDbArc
 50
180.0
 51
270.0
  0
LINE
  5
3D15C
330
1A
100
AcDbEntity
  8
HEWI
100
AcDbLine
 10
-75560.87618529664
 20
-74265.45154194614
 30
0.0
 11
-75560.87618529664
 21
-74275.45154194612
 31
0.0
  0
LINE
  5
3D15D
330
1A
100
AcDbEntity
  8
HEWI
100
AcDbLine
 10
-75559.37618529664
 20
-74260.45154194614
 30
0.0
 11
-75560.87618529664
 21
-74260.45154194614
 31
0.0
  0
LINE
  5
3D15E
330
1A
100
AcDbEntity
  8
HEWI
100
AcDbLine
 10
-75560.87618529664
 20
-74260.45154194614
 30
0.0
 11
-75560.87618529664
 21
-74265.45154194614
 31
0.0
  0
LINE
  5
3D15F
330
1A
100
AcDbEntity
  8
HEWI
100
AcDbLine
 10
-75484.37618529664
 20
-74260.45154194614
 30
0.0
 11
-75559.37618529664
 21
-74260.45154194614
 31
0.0
  0
LINE
  5
3D160
330
1A
100
AcDbEntity
  8
HEWI
100
AcDbLine
 10
-75484.37618529664
 20
-74276.95154194614
 30
0.0
 11
-75559.37618529664
 21
-74276.95154194614
 31
0.0
  0
LINE
  5
3D161
330
1A
100
AcDbEntity
  8
HEWI
100
AcDbLine
 10
-75482.87618529664
 20
-74275.45154194612
 30
0.0
 11
-75482.87618529664
 21
-74265.45154194614
 31
0.0
  0
ARC
  5
3D162
330
1A
100
AcDbEntity
  8
HEWI
100
AcDbCircle
 10
-75484.37618529664
 20
-74275.45154194612
 30
0.0
 40
1.5
100
AcDbArc
 50
270.0
 51
0.0
  0
LINE
  5
3D163
330
1A
100
AcDbEntity
  8
HEWI
100
AcDbLine
 10
-75482.87618529664
 20
-74260.45154194614
 30
0.0
 11
-75484.37618529664
 21
-74260.45154194614
 31
0.0
  0
LINE
  5
3D164
330
1A
100
AcDbEntity
  8
HEWI
100
AcDbLine
 10
-75482.87618529664
 20
-74265.45154194614
 30
0.0
 11
-75482.87618529664
 21
-74260.45154194614
 31
0.0
  0
LINE
  5
3D165
330
1A
100
AcDbEntity
  8
HEWI
100
AcDbLine
 10
-75484.87618529664
 20
-74301.45154194613
 30
0.0
 11
-75484.87618529664
 21
-74276.95154194614
 31
0.0
  0
LINE
  5
3D166
330
1A
100
AcDbEntity
  8
HEWI
100
AcDbLine
 10
-75501.37618529664
 20
-74276.95154194614
 30
0.0
 11
-75501.37618529664
 21
-74301.45154194613
 31
0.0
  0
LINE
  5
3D167
330
1A
100
AcDbEntity
  8
HEWI
100
AcDbLine
 10
-75484.87618529664
 20
-74324.20154194613
 30
0.0
 11
-75484.87618529664
 21
-74301.45154194613
 31
0.0
  0
LINE
  5
3D168
330
1A
100
AcDbEntity
  8
HEWI
100
AcDbLine
 10
-75501.37618529664
 20
-74301.45154194613
 30
0.0
 11
-75501.37618529664
 21
-74324.20154194613
 31
0.0
  0
LINE
  5
3D169
330
1A
100
AcDbEntity
  8
HEWI
100
AcDbLine
 10
-75505.37618529664
 20
-74335.95154194613
 30
0.0
 11
-75538.37618529664
 21
-74335.95154194613
 31
0.0
  0
SPLINE
  5
3D16A
330
1A
100
AcDbEntity
  8
HEWI
100
AcDbSpline
210
0.0
220
0.0
230
1.0
 70
     8
 71
     3
 72
    42
 73
    38
 74
     0
 42
0.000000001
 43
0.0000000001
 40
26.21588118668894
 40
26.21588118668894
 40
26.21588118668894
 40
26.21588118668894
 40
29.46229922291184
 40
29.46229922291184
 40
32.70871725913472
 40
32.70871725913472
 40
35.95513529535762
 40
35.95513529535762
 40
39.20155333158049
 40
39.20155333158049
 40
42.50910559202984
 40
42.50910559202984
 40
45.8166578524792
 40
45.8166578524792
 40
49.12421011292853
 40
49.12421011292853
 40
50.77798624315322
 40
50.77798624315322
 40
52.43176237337789
 40
52.43176237337789
 40
54.08553850360258
 40
54.08553850360258
 40
55.73931463382725
 40
55.73931463382725
 40
59.04686689427662
 40
59.04686689427662
 40
62.35441915472598
 40
62.35441915472598
 40
65.66197141517534
 40
65.66197141517534
 40
68.90838945139825
 40
68.90838945139825
 40
72.15480748762115
 40
72.15480748762115
 40
75.40122552384406
 40
75.40122552384406
 40
78.64764356006697
 40
78.64764356006697
 40
78.64764356006697
 40
78.64764356006697
 10
-75505.37618529664
 20
-74323.95154194614
 30
0.0
 10
-75505.37618529664
 20
-74323.95154194614
 30
0.0
 10
-75505.48435001751
 20
-74323.87183228973
 30
0.0
 10
-75505.92424600819
 20
-74323.55225510965
 30
0.0
 10
-75506.25578760158
 20
-74323.31256364371
 30
0.0
 10
-75507.11330387771
 20
-74322.70830833787
 30
0.0
 10
-75507.63999749781
 20
-74322.34340048941
 30
0.0
 10
-75508.83615402192
 20
-74321.54739042521
 30
0.0
 10
-75509.50566908825
 20
-74321.1166632759
 30
0.0
 10
-75510.9254209086
 20
-74320.25565530824
 30
0.0
 10
-75511.73143946032
 20
-74319.79142976389
 30
0.0
 10
-75513.48812170865
 20
-74318.88126448629
 30
0.0
 10
-75514.43872353678
 20
-74318.43572681115
 30
0.0
 10
-75516.4429704021
 20
-74317.65853539017
 30
0.0
 10
-75517.49865016201
 20
-74317.32739897384
 30
0.0
 10
-75519.12249253454
 20
-74316.98546708954
 30
0.0
 10
-75519.67051433058
 20
-74316.89710195704
 30
0.0
 10
-75520.77172861036
 20
-74316.7786474856
 30
0.0
 10
-75521.32492658656
 20
-74316.74860048691
 30
0.0
 10
-75522.42744400672
 20
-74316.74860048691
 30
0.0
 10
-75522.98064198293
 20
-74316.7786474856
 30
0.0
 10
-75524.08185626271
 20
-74316.89710195704
 30
0.0
 10
-75524.62987805872
 20
-74316.98546708954
 30
0.0
 10
-75526.25372043126
 20
-74317.32739897384
 30
0.0
 10
-75527.30940019117
 20
-74317.65853539017
 30
0.0
 10
-75529.31364705647
 20
-74318.43572681115
 30
0.0
 10
-75530.26424888463
 20
-74318.88126448629
 30
0.0
 10
-75532.02093113298
 20
-74319.79142976389
 30
0.0
 10
-75532.82694968467
 20
-74320.25565530824
 30
0.0
 10
-75534.24670150505
 20
-74321.1166632759
 30
0.0
 10
-75534.91621657138
 20
-74321.54739042521
 30
0.0
 10
-75536.11237309547
 20
-74322.34340048941
 30
0.0
 10
-75536.63906671554
 20
-74322.70830833787
 30
0.0
 10
-75537.4965829917
 20
-74323.31256364371
 30
0.0
 10
-75537.8281245851
 20
-74323.55225510965
 30
0.0
 10
-75538.26802057576
 20
-74323.87183228973
 30
0.0
 10
-75538.37618529664
 20
-74323.95154194614
 30
0.0
 10
-75538.37618529664
 20
-74323.95154194614
 30
0.0
  0
LINE
  5
3D16B
330
1A
100
AcDbEntity
  8
HEWI
100
AcDbLine
 10
-75505.37618529664
 20
-74323.95154194614
 30
0.0
 11
-75501.37618529664
 21
-74323.95154194614
 31
0.0
  0
LINE
  5
3D16C
330
1A
100
AcDbEntity
  8
HEWI
100
AcDbLine
 10
-75542.37618529664
 20
-74323.95154194614
 30
0.0
 11
-75538.37618529664
 21
-74323.95154194614
 31
0.0
  0
LINE
  5
3D16D
330
1A
100
AcDbEntity
  8
HEWI
100
AcDbLine
 10
-75542.37618529664
 20
-74278.95154194612
 30
0.0
 11
-75501.37618529664
 21
-74278.95154194612
 31
0.0
  0
LINE
  5
3D16E
330
1A
100
AcDbEntity
  8
HEWI
100
AcDbLine
 10
-75538.37618529664
 20
-74323.95154194614
 30
0.0
 11
-75538.37618529664
 21
-74335.95154194613
 31
0.0
  0
LINE
  5
3D16F
330
1A
100
AcDbEntity
  8
HEWI
100
AcDbLine
 10
-75505.37618529664
 20
-74323.95154194614
 30
0.0
 11
-75505.37618529664
 21
-74335.95154194613
 31
0.0
  0
LINE
  5
3D170
330
1A
100
AcDbEntity
  8
HEWI
100
AcDbLine
 10
-75484.87618529664
 20
-74324.20154194613
 30
0.0
 11
-75501.37618529664
 21
-74324.20154194613
 31
0.0
  0
LINE
  5
3D171
330
1A
100
AcDbEntity
  8
HEWI
100
AcDbLine
 10
-75542.37618529664
 20
-74324.20154194613
 30
0.0
 11
-75558.87618529664
 21
-74324.20154194613
 31
0.0
  0
LINE
  5
3D172
330
1A
100
AcDbEntity
  8
HEWI
100
AcDbLine
 10
-75505.37618529664
 20
-74278.95154194612
 30
0.0
 11
-75505.37618529664
 21
-74276.95154194614
 31
0.0
  0
LINE
  5
3D173
330
1A
100
AcDbEntity
  8
HEWI
100
AcDbLine
 10
-75538.37618529664
 20
-74278.95154194612
 30
0.0
 11
-75538.37618529664
 21
-74276.95154194614
 31
0.0
  0
LINE
  5
3D174
330
1A
100
AcDbEntity
  8
HEWI
100
AcDbLine
 10
-75538.37618529664
 20
-74335.95154194613
 30
0.0
 11
-75538.37618529664
 21
-74943.95154194614
 31
0.0
  0
LINE
  5
3D175
330
1A
100
AcDbEntity
  8
HEWI
100
AcDbLine
 10
-75505.37618529664
 20
-74335.95154194613
 30
0.0
 11
-75505.37618529664
 21
-74943.95154194614
 31
0.0
  0
LINE
  5
3D176
330
1A
100
AcDbEntity
  8
HEWI
100
AcDbLine
 10
-75505.37618529664
 20
-74993.95154194614
 30
0.0
 11
-75505.37618529664
 21
-74925.45154194614
 31
0.0
  0
LINE
  5
3D177
330
1A
100
AcDbEntity
  8
HEWI
100
AcDbLine
 10
-75538.37618529664
 20
-74925.45154194614
 30
0.0
 11
-75538.37618529664
 21
-74993.95154194614
 31
0.0
  0
ARC
  5
3D178
330
1A
100
AcDbEntity
  8
HEWI
100
AcDbCircle
 10
-75521.87618529664
 20
-74993.95154194614
 30
0.0
 40
16.5
100
AcDbArc
 50
180.0
 51
0.0
  0
ARC
  5
3D179
330
1A
100
AcDbEntity
  8
HEWI
100
AcDbCircle
 10
-75868.71591359234
 20
-73216.66690902262
 30
0.000000000000003
 40
20.828150666408
100
AcDbArc
 50
85.6229405816787
 51
274.3770594183213
  0
LINE
  5
3D17A
330
1A
100
AcDbEntity
  8
HEWI
100
AcDbLine
 10
-75867.1263133984
 20
-73237.43431202264
 30
0.000000000000003
 11
-75851.56170039839
 21
-73238.16688602262
 31
0.000000000000003
  0
LINE
  5
3D17B
330
1A
100
AcDbEntity
  8
HEWI
100
AcDbLine
 10
-75867.1263133984
 20
-73195.89950602265
 30
0.000000000000003
 11
-75851.56170039839
 21
-73195.16693202262
 31
0.000000000000003
  0
LINE
  5
3D17C
330
1A
100
AcDbEntity
  8
HEWI
100
AcDbLine
 10
-75849.06170039841
 20
-73415.66688602262
 30
0.000000000000003
 11
-75841.5617003984
 21
-73415.66688602262
 31
0.000000000000003
  0
LINE
  5
3D17D
330
1A
100
AcDbEntity
  8
HEWI
100
AcDbLine
 10
-75884.56165439839
 20
-72587.80626802254
 30
0.000000000000003
 11
-75884.56165439839
 21
-73086.52284702263
 31
0.000000000000003
  0
LINE
  5
3D17E
330
1A
100
AcDbEntity
  8
HEWI
100
AcDbLine
 10
-76021.56170039838
 20
-72971.55112402263
 30
0.000000000000003
 11
-76021.56170039838
 21
-73057.5228320226
 31
0.000000000000003
  0
LINE
  5
3D17F
330
1A
100
AcDbEntity
  8
HEWI
100
AcDbLine
 10
-75988.56166939836
 20
-73024.58585802264
 30
0.000000000000003
 11
-75988.56166939836
 21
-73086.52284702263
 31
0.000000000000003
  0
LINE
  5
3D180
330
1A
100
AcDbEntity
  8
HEWI
100
AcDbLine
 10
-75851.56170039842
 20
-72586.36545702262
 30
0.000000000000003
 11
-75851.56170039839
 21
-73195.16693202262
 31
0.000000000000003
  0
ARC
  5
3D181
330
1A
100
AcDbEntity
  8
HEWI
100
AcDbCircle
 10
-75936.56170039838
 20
-72587.0858260226
 30
0.000000000000003
 40
51.93695300000001
100
AcDbArc
 50
9.999967999445464
 51
170.000032000555
  0
ARC
  5
3D182
330
1A
100
AcDbEntity
  8
HEWI
100
AcDbCircle
 10
-75936.56166239839
 20
-72587.08585502261
 30
0.000000000000003
 40
85.06301200000004
100
AcDbArc
 50
9.999997999553562
 51
170.0000020004464
  0
LINE
  5
3D183
330
1A
100
AcDbEntity
  8
HEWI
100
AcDbLine
 10
-76021.56170039838
 20
-72586.36545702262
 30
0.000000000000003
 11
-76021.56170039838
 21
-72630.58585802263
 31
0.000000000000003
  0
LINE
  5
3D184
330
1A
100
AcDbEntity
  8
HEWI
100
AcDbLine
 10
-75988.56166939836
 20
-72587.80626802261
 30
0.000000000000003
 11
-75988.56166939836
 21
-72641.39214514261
 31
0.000000000000003
  0
LINE
  5
3D185
330
1A
100
AcDbEntity
  8
HEWI
100
AcDbLine
 10
-76020.33237539837
 20
-72572.31482002262
 30
0.000000000000003
 11
-76021.56170039838
 21
-72586.36545702262
 31
0.000000000000003
  0
LINE
  5
3D186
330
1A
100
AcDbEntity
  8
HEWI
100
AcDbLine
 10
-75987.70961839837
 20
-72578.06709802259
 30
0.000000000000003
 11
-75988.56166939836
 21
-72587.80626802261
 31
0.000000000000003
  0
LINE
  5
3D187
330
1A
100
AcDbEntity
  8
HEWI
100
AcDbLine
 10
-76021.56170039838
 20
-72608.58585802263
 30
0.000000000000003
 11
-75988.56166939836
 21
-72608.58585802263
 31
0.000000000000003
  0
LINE
  5
3D188
330
1A
100
AcDbEntity
  8
HEWI
100
AcDbLine
 10
-75885.41378139836
 20
-72578.06709802259
 30
0.000000000000003
 11
-75884.56165439839
 21
-72587.80626802261
 31
0.000000000000003
  0
LINE
  5
3D189
330
1A
100
AcDbEntity
  8
HEWI
100
AcDbLine
 10
-75852.79094839837
 20
-72572.31482002262
 30
0.000000000000003
 11
-75851.56170039839
 21
-72586.36545702262
 31
0.000000000000003
  0
LINE
  5
3D18A
330
1A
100
AcDbEntity
  8
HEWI
100
AcDbLine
 10
-75884.56165439839
 20
-72608.58585802263
 30
0.000000000000003
 11
-75851.56170039839
 21
-72608.58585802263
 31
0.000000000000003
  0
LINE
  5
3D18B
330
1A
100
AcDbEntity
  8
HEWI
100
AcDbLine
 10
-75988.56166939836
 20
-73086.52284702263
 30
0.000000000000003
 11
-75884.56165439839
 21
-73086.52284702263
 31
0.000000000000003
  0
LINE
  5
3D18C
330
1A
100
AcDbEntity
  8
HEWI
100
AcDbLine
 10
-75988.56166939836
 20
-73119.52285902263
 30
0.000000000000003
 11
-75884.56165439839
 21
-73119.52285902263
 31
0.000000000000003
  0
LINE
  5
3D18D
330
1A
100
AcDbEntity
  8
HEWI
100
AcDbLine
 10
-76021.56170039838
 20
-73057.5228320226
 30
0.000000000000003
 11
-76021.56170039838
 21
-73209.58585802261
 31
0.000000000000003
  0
LINE
  5
3D18E
330
1A
100
AcDbEntity
  8
HEWI
100
AcDbLine
 10
-76017.56170039838
 20
-73209.58585802261
 30
0.000000000000003
 11
-76017.56170039838
 21
-73218.02284302258
 31
0.000000000000003
  0
LINE
  5
3D18F
330
1A
100
AcDbEntity
  8
HEWI
100
AcDbLine
 10
-75988.56166939836
 20
-73119.52285902263
 30
0.000000000000003
 11
-75988.56166939836
 21
-73209.58585802261
 31
0.000000000000003
  0
LINE
  5
3D190
330
1A
100
AcDbEntity
  8
HEWI
100
AcDbLine
 10
-75992.56166939836
 20
-73209.58585802261
 30
0.000000000000003
 11
-75992.56166939836
 21
-73218.02284302258
 31
0.000000000000003
  0
LINE
  5
3D191
330
1A
100
AcDbEntity
  8
HEWI
100
AcDbLine
 10
-75989.12387939839
 20
-73087.0850760226
 30
0.000000000000003
 11
-75990.77228639837
 21
-73088.73344502263
 31
0.000000000000003
  0
LINE
  5
3D192
330
1A
100
AcDbEntity
  8
HEWI
100
AcDbLine
 10
-75976.56170039839
 20
-73086.52284702263
 30
0.000000000000003
 11
-75976.56170039839
 21
-73119.52285902263
 31
0.000000000000003
  0
LINE
  5
3D193
330
1A
100
AcDbEntity
  8
HEWI
100
AcDbLine
 10
-75896.56170039839
 20
-73086.52284702263
 30
0.000000000000003
 11
-75896.56170039839
 21
-73119.52285902263
 31
0.000000000000003
  0
LINE
  5
3D194
330
1A
100
AcDbEntity
  8
HEWI
100
AcDbLine
 10
-75988.56166939836
 20
-73086.52284702263
 30
0.000000000000003
 11
-75989.12387939839
 21
-73087.0850760226
 31
0.000000000000003
  0
LINE
  5
3D195
330
1A
100
AcDbEntity
  8
HEWI
100
AcDbLine
 10
-75990.77228639837
 20
-73117.31224102262
 30
0.000000000000003
 11
-75989.12387939839
 21
-73118.9606100226
 31
0.000000000000003
  0
LINE
  5
3D196
330
1A
100
AcDbEntity
  8
HEWI
100
AcDbLine
 10
-76005.06168439836
 20
-73103.02284302261
 30
0.000000000000003
 11
-75996.81171539836
 21
-73111.2728510226
 31
0.000000000000003
  0
LINE
  5
3D197
330
1A
100
AcDbEntity
  8
HEWI
100
AcDbLine
 10
-75990.77228639837
 20
-73088.73344502263
 30
0.000000000000003
 11
-75993.39443339837
 21
-73091.35559202262
 31
0.000000000000003
  0
LINE
  5
3D198
330
1A
100
AcDbEntity
  8
HEWI
100
AcDbLine
 10
-75996.81171539836
 20
-73094.77283602261
 30
0.000000000000003
 11
-76005.06168439836
 21
-73103.02284302261
 31
0.000000000000003
  0
LINE
  5
3D199
330
1A
100
AcDbEntity
  8
HEWI
100
AcDbLine
 10
-75993.39443339837
 20
-73091.35559202262
 30
0.000000000000003
 11
-75996.81171539836
 21
-73094.77283602261
 31
0.000000000000003
  0
LINE
  5
3D19A
330
1A
100
AcDbEntity
  8
HEWI
100
AcDbLine
 10
-75996.81171539836
 20
-73111.2728510226
 30
0.000000000000003
 11
-75993.39443339837
 21
-73114.69009502261
 31
0.000000000000003
  0
LINE
  5
3D19B
330
1A
100
AcDbEntity
  8
HEWI
100
AcDbLine
 10
-75993.39443339837
 20
-73114.69009502261
 30
0.000000000000003
 11
-75990.77228639837
 21
-73117.31224102262
 31
0.000000000000003
  0
LINE
  5
3D19C
330
1A
100
AcDbEntity
  8
HEWI
100
AcDbLine
 10
-75989.12387939839
 20
-73118.9606100226
 30
0.000000000000003
 11
-75988.56166939836
 21
-73119.52285902263
 31
0.000000000000003
  0
LINE
  5
3D19D
330
1A
100
AcDbEntity
  8
HEWI
100
AcDbLine
 10
-75884.56165439839
 20
-73119.52285902263
 30
0.000000000000003
 11
-75884.56165439839
 21
-73203.93631183571
 31
0.000000000000003
  0
LINE
  5
3D19E
330
1A
100
AcDbEntity
  8
HEWI
100
AcDbLine
 10
-75883.99944439836
 20
-73087.0850760226
 30
0.000000000000003
 11
-75879.72896739839
 21
-73091.35559202262
 31
0.000000000000003
  0
LINE
  5
3D19F
330
1A
100
AcDbEntity
  8
HEWI
100
AcDbLine
 10
-75884.56165439839
 20
-73086.52284702263
 30
0.000000000000003
 11
-75884.06513339837
 21
-73087.01938702262
 31
0.000000000000003
  0
LINE
  5
3D1A0
330
1A
100
AcDbEntity
  8
HEWI
100
AcDbLine
 10
-75872.33219239839
 20
-73107.29335902261
 30
0.000000000000003
 11
-75876.07883539837
 21
-73111.03996402263
 31
0.000000000000003
  0
LINE
  5
3D1A1
330
1A
100
AcDbEntity
  8
HEWI
100
AcDbLine
 10
-75868.06171539836
 20
-73103.02284302261
 30
0.000000000000003
 11
-75872.33219239839
 21
-73107.29335902261
 31
0.000000000000003
  0
LINE
  5
3D1A2
330
1A
100
AcDbEntity
  8
HEWI
100
AcDbLine
 10
-75879.72896739839
 20
-73091.35559202262
 30
0.000000000000003
 11
-75876.52271339837
 21
-73094.56180702261
 31
0.000000000000003
  0
LINE
  5
3D1A3
330
1A
100
AcDbEntity
  8
HEWI
100
AcDbLine
 10
-75872.45998539838
 20
-73098.6245740226
 30
0.000000000000003
 11
-75872.33219239839
 21
-73098.75232802261
 31
0.000000000000003
  0
LINE
  5
3D1A4
330
1A
100
AcDbEntity
  8
HEWI
100
AcDbLine
 10
-75876.52271339837
 20
-73094.56180702261
 30
0.000000000000003
 11
-75872.45998539838
 21
-73098.6245740226
 31
0.000000000000003
  0
LINE
  5
3D1A5
330
1A
100
AcDbEntity
  8
HEWI
100
AcDbLine
 10
-75872.33219239839
 20
-73098.75232802261
 30
0.000000000000003
 11
-75868.06171539836
 21
-73103.02284302261
 31
0.000000000000003
  0
LINE
  5
3D1A6
330
1A
100
AcDbEntity
  8
HEWI
100
AcDbLine
 10
-75876.07883539837
 20
-73111.03996402263
 30
0.000000000000003
 11
-75879.44500039837
 21
-73114.40616702259
 31
0.000000000000003
  0
LINE
  5
3D1A7
330
1A
100
AcDbEntity
  8
HEWI
100
AcDbLine
 10
-75879.72896739839
 20
-73114.69009502261
 30
0.000000000000003
 11
-75882.08271139838
 21
-73117.04391602262
 31
0.000000000000003
  0
LINE
  5
3D1A8
330
1A
100
AcDbEntity
  8
HEWI
100
AcDbLine
 10
-75882.35111339836
 20
-73117.31224102262
 30
0.000000000000003
 11
-75884.49421039838
 21
-73119.45541502263
 31
0.000000000000003
  0
LINE
  5
3D1A9
330
1A
100
AcDbEntity
  8
HEWI
100
AcDbLine
 10
-75879.44500039837
 20
-73114.40616702259
 30
0.000000000000003
 11
-75879.72896739839
 21
-73114.69009502261
 31
0.000000000000003
  0
LINE
  5
3D1AA
330
1A
100
AcDbEntity
  8
HEWI
100
AcDbLine
 10
-75882.08271139838
 20
-73117.04391602262
 30
0.000000000000003
 11
-75882.35111339836
 21
-73117.31224102262
 31
0.000000000000003
  0
LINE
  5
3D1AB
330
1A
100
AcDbEntity
  8
HEWI
100
AcDbLine
 10
-75868.06171539836
 20
-73152.58585802263
 30
0.000000000000003
 11
-75851.56170039839
 21
-73152.58585802263
 31
0.000000000000003
  0
LINE
  5
3D1AC
330
1A
100
AcDbEntity
  8
HEWI
100
AcDbLine
 10
-75868.06171539836
 20
-73152.58585802263
 30
0.000000000000003
 11
-75884.56165439839
 21
-73152.58585802263
 31
0.000000000000003
  0
LINE
  5
3D1AD
330
1A
100
AcDbEntity
  8
HEWI
100
AcDbLine
 10
-76005.06168439836
 20
-73209.58585802261
 30
0.000000000000003
 11
-75988.56168439835
 21
-73209.58585802261
 31
0.000000000000003
  0
LINE
  5
3D1AE
330
1A
100
AcDbEntity
  8
HEWI
100
AcDbLine
 10
-76005.06168439836
 20
-73209.58585802261
 30
0.000000000000003
 11
-76021.56168439836
 21
-73209.58585802261
 31
0.000000000000003
  0
HATCH
  5
3D1AF
330
1A
100
AcDbEntity
  8
HEWI
100
AcDbHatch
 10
0.0
 20
0.0
 30
0.000000000000003
210
0.0
220
0.0
230
1.0
  2
_U
 70
     0
 71
     0
 91
        1
 92
        1
 93
        4
 72
     1
 10
-76017.56170039838
 20
-73218.02284302258
 11
-75992.56166939836
 21
-73218.02284302258
 72
     1
 10
-75992.56166939836
 20
-73218.02284302258
 11
-75992.56166939836
 21
-73209.58585802259
 72
     1
 10
-75992.56166939836
 20
-73209.58585802261
 11
-76017.56170039838
 21
-73209.58585802261
 72
     1
 10
-76017.56170039838
 20
-73209.58585802261
 11
-76017.56170039838
 21
-73218.02284302258
 97
        0
 75
     0
 76
     0
 52
135.0
 41
2.6
 77
     0
 78
     1
 53
225.0
 43
-73827.19268093651
 44
-72307.60795455076
 45
-1.838477631085022
 46
1.838477631085024
 79
     0
 98
        1
 10
-76158.05968963273
 20
-72307.60795455076
1001
GENIUS_GENODEF_13
1002
{
1000
HIER
1070
     0
1002
}
1002
{
1000
MANEDIT
1070
     0
1002
}
1002
{
1000
NOSEL
1070
     0
1002
}
1002
{
1000
BEHIND
1070
     0
1002
}
1002
{
1000
OTHER
1070
     0
1002
}
1002
{
1000
REACTOR
1002
}
1001
GENIUS_GENOBJ-N-HTC_13
1002
{
1000
OWNER
1000
GEN
1002
}
1001
GENIUS_GENHATCH_13
1002
{
1000
DATA
1040
45.0
1042
13.0
1000
_U
1070
     0
1011
-75998.53863173398
1021
-73533.7511643232
1031
0.000000000000003
1002
}
1002
{
1000
UCS
1010
0.0
1020
0.0
1030
0.0
1010
1.0
1020
0.0
1030
0.0
1010
0.0
1020
1.0
1030
0.0
1002
}
  0
LINE
  5
3D1B0
330
1A
100
AcDbEntity
  8
HEWI
100
AcDbLine
 10
-75992.56166939836
 20
-73218.02284302258
 30
0.000000000000003
 11
-76017.56170039838
 21
-73218.02284302258
 31
0.000000000000003
  0
LINE
  5
3D1B1
330
1A
100
AcDbEntity
  8
HEWI
100
AcDbLine
 10
-76005.06168439836
 20
-72630.58585802263
 30
0.000000000000003
 11
-76075.06168439836
 21
-72630.58585802263
 31
0.000000000000003
1001
GENIUS_GENODEF_13
1002
{
1000
HIER
1070
     0
1002
}
1002
{
1000
MANEDIT
1070
     0
1002
}
1002
{
1000
NOSEL
1070
     0
1002
}
1002
{
1000
BEHIND
1070
     0
1002
}
1002
{
1000
OTHER
1070
     0
1002
}
1002
{
1000
REACTOR
1002
}
1001
GENIUS_GENOBJ-N-CEN_13
1002
{
1000
OWNER
1000
GEN
1002
}
1001
GENIUS_GENCEN_19
1002
{
1040
0.0
1002
}
  0
LINE
  5
3D1B2
330
1A
100
AcDbEntity
  8
HEWI
100
AcDbLine
 10
-76005.06168439836
 20
-72666.58585802264
 30
0.000000000000003
 11
-76075.06168439836
 21
-72666.58585802264
 31
0.000000000000003
1001
GENIUS_GENODEF_13
1002
{
1000
HIER
1070
     0
1002
}
1002
{
1000
MANEDIT
1070
     0
1002
}
1002
{
1000
NOSEL
1070
     0
1002
}
1002
{
1000
BEHIND
1070
     0
1002
}
1002
{
1000
OTHER
1070
     0
1002
}
1002
{
1000
REACTOR
1002
}
1001
GENIUS_GENOBJ-N-CEN_13
1002
{
1000
OWNER
1000
GEN
1002
}
1001
GENIUS_GENCEN_19
1002
{
1040
0.0
1002
}
  0
ARC
  5
3D1B3
330
1A
100
AcDbEntity
  8
HEWI
100
AcDbCircle
 10
-76005.06168439836
 20
-72648.58585802263
 30
0.000000000000003
 40
18.0
100
AcDbArc
 50
270.0
 51
90.0
  0
ARC
  5
3D1B4
330
1A
100
AcDbEntity
  8
HEWI
100
AcDbCircle
 10
-76075.06168439836
 20
-72648.58585802263
 30
0.000000000000003
 40
18.0
100
AcDbArc
 50
90.0
 51
270.0
  0
ARC
  5
3D1B5
330
1A
100
AcDbEntity
  8
HEWI
100
AcDbCircle
 10
-76075.06168439836
 20
-72648.58585802263
 30
0.000000000000003
 40
18.0
100
AcDbArc
 50
180.0
 51
270.0
  0
LINE
  5
3D1B6
330
1A
100
AcDbEntity
  8
HEWI
100
AcDbLine
 10
-76058.56168439836
 20
-72666.58585802264
 30
0.000000000000003
 11
-76058.56168439836
 21
-72678.58585802263
 31
0.000000000000003
  0
LINE
  5
3D1B7
330
1A
100
AcDbEntity
  8
HEWI
100
AcDbLine
 10
-76058.56168439836
 20
-72678.58585802263
 30
0.000000000000003
 11
-76091.56168439835
 21
-72678.58585802263
 31
0.000000000000003
  0
LINE
  5
3D1B8
330
1A
100
AcDbEntity
  8
HEWI
100
AcDbLine
 10
-76091.56168439835
 20
-72678.58585802263
 30
0.000000000000003
 11
-76091.56168439835
 21
-72655.7796053076
 31
0.000000000000003
  0
HATCH
  5
3D1B9
330
1A
100
AcDbEntity
  8
HEWI
100
AcDbHatch
 10
0.0
 20
0.0
 30
0.000000000000003
210
0.0
220
0.0
230
1.0
  2
SOLID
 70
     1
 71
     0
 91
        1
 92
        7
 72
     0
 73
     1
 93
        4
 10
-76075.06168439836
 20
-73291.58588852263
 10
-76075.06168439836
 20
-73287.58588852263
 10
-76062.56168439836
 20
-73287.58588852263
 10
-76062.56168439836
 20
-73291.58588852263
 97
        0
 75
     0
 76
     1
 47
0.0726074577041698
 98
        1
 10
-76066.18654383453
 20
-73289.88354107732
450
        0
451
        0
460
0.0
461
0.0
452
        0
462
0.0
453
        0
470

1001
ACAD
1010
0.0
1020
0.0
1030
0.0
  0
HATCH
  5
3D1BA
330
1A
100
AcDbEntity
  8
HEWI
100
AcDbHatch
 10
0.0
 20
0.0
 30
0.000000000000003
210
0.0
220
0.0
230
1.0
  2
SOLID
 70
     1
 71
     0
 91
        1
 92
        7
 72
     0
 73
     1
 93
        4
 10
-76087.56168439835
 20
-73291.58588852263
 10
-76087.56168439835
 20
-73287.58588852263
 10
-76075.06168439836
 20
-73287.58588852263
 10
-76075.06168439836
 20
-73291.58588852263
 97
        0
 75
     0
 76
     1
 47
0.0726074577041698
 98
        1
 10
-76078.97192354705
 20
-73290.10136377478
450
        0
451
        0
460
0.0
461
0.0
452
        0
462
0.0
453
        0
470

1001
ACAD
1010
0.0
1020
0.0
1030
0.0
  0
LINE
  5
3D1BB
330
1A
100
AcDbEntity
  8
HEWI
100
AcDbLine
 10
-76058.56168439836
 20
-73287.58588852263
 30
0.000000000000003
 11
-76091.56168439835
 21
-73287.58588852263
 31
0.000000000000003
  0
LINE
  5
3D1BC
330
1A
100
AcDbEntity
  8
HEWI
100
AcDbLine
 10
-76058.56168439836
 20
-73287.58588852263
 30
0.000000000000003
 11
-76058.56168439836
 21
-72678.58585802263
 31
0.000000000000003
  0
LINE
  5
3D1BD
330
1A
100
AcDbEntity
  8
HEWI
100
AcDbLine
 10
-76091.56168439835
 20
-72678.58585802263
 30
0.000000000000003
 11
-76091.56168439835
 21
-73287.58588852263
 31
0.000000000000003
  0
LINE
  5
3D1BE
330
1A
100
AcDbEntity
  8
HEWI
100
AcDbLine
 10
-76062.56168439836
 20
-73287.58588852263
 30
0.000000000000003
 11
-76062.56168439836
 21
-73291.58588852263
 31
0.000000000000003
  0
LINE
  5
3D1BF
330
1A
100
AcDbEntity
  8
HEWI
100
AcDbLine
 10
-76062.56168439836
 20
-73291.58588852263
 30
0.000000000000003
 11
-76087.56168439835
 21
-73291.58588852263
 31
0.000000000000003
  0
LINE
  5
3D1C0
330
1A
100
AcDbEntity
  8
HEWI
100
AcDbLine
 10
-76087.56168439835
 20
-73287.58588852263
 30
0.000000000000003
 11
-76087.56168439835
 21
-73291.58588852263
 31
0.000000000000003
  0
ARC
  5
3D1C1
330
1A
100
AcDbEntity
  8
HEWI
  6
IMPORT
 62
     7
100
AcDbCircle
 10
-75521.87618529664
 20
-73356.16325602264
 30
0.0
 40
16.5
100
AcDbArc
 50
180.000073000148
 51
359.9999269998518
  0
LINE
  5
3D1C2
330
1A
100
AcDbEntity
  8
HEWI
 48
0.1
100
AcDbLine
 10
-75560.87618529664
 20
-73418.66686302263
 30
0.0
 11
-75482.87618529664
 21
-73418.66686302263
 31
0.0
  0
ARC
  5
3D1C3
330
1A
100
AcDbEntity
  8
HEWI
 48
0.1
100
AcDbCircle
 10
-75521.87618429662
 20
-73426.16327752263
 30
0.0
 40
18.0
100
AcDbArc
 50
180.0
 51
0.0
  0
LINE
  5
3D1C4
330
1A
100
AcDbEntity
  8
HEWI
 48
0.1
100
AcDbLine
 10
-75538.37618429662
 20
-73433.35702480763
 30
0.0
 11
-75538.37618429662
 21
-73456.16327752263
 31
0.0
  0
LINE
  5
3D1C5
330
1A
100
AcDbEntity
  8
HEWI
 48
0.1
100
AcDbLine
 10
-75538.37618429662
 20
-73456.16327752263
 30
0.0
 11
-75505.37618429665
 21
-73456.16327752263
 31
0.0
  0
LINE
  5
3D1C6
330
1A
100
AcDbEntity
  8
HEWI
 48
0.1
100
AcDbLine
 10
-75505.37618429665
 20
-73456.16327752263
 30
0.0
 11
-75505.37618429665
 21
-73433.35702480763
 31
0.0
  0
HATCH
  5
3D1C7
330
1A
100
AcDbEntity
  8
HEWI
 62
   135
 48
0.1
100
AcDbHatch
 10
0.0
 20
0.0
 30
0.0
210
0.0
220
0.0
230
1.0
  2
SOLID
 70
     1
 71
     0
 91
        1
 92
        7
 72
     0
 73
     1
 93
        4
 10
-75521.87618429662
 20
-74031.31150154313
 10
-75521.87618429662
 20
-74027.31150154314
 10
-75534.37618429665
 20
-74027.31150154314
 10
-75534.37618429665
 20
-74031.31150154313
 97
        0
 75
     0
 76
     1
 47
0.0726074577041698
 98
        1
 10
-75530.75132486048
 20
-74029.60915409785
450
        0
451
        0
460
0.0
461
0.0
452
        0
462
0.0
453
        0
470

1001
ACAD
1010
0.0
1020
0.0
1030
0.0
  0
HATCH
  5
3D1C8
330
1A
100
AcDbEntity
  8
HEWI
 62
   135
 48
0.1
100
AcDbHatch
 10
0.0
 20
0.0
 30
0.0
210
0.0
220
0.0
230
1.0
  2
SOLID
 70
     1
 71
     0
 91
        1
 92
        7
 72
     0
 73
     1
 93
        4
 10
-75509.37618429665
 20
-74031.31150154313
 10
-75509.37618429665
 20
-74027.31150154314
 10
-75521.87618429662
 20
-74027.31150154314
 10
-75521.87618429662
 20
-74031.31150154313
 97
        0
 75
     0
 76
     1
 47
0.0726074577041698
 98
        1
 10
-75517.96594514796
 20
-74029.82697679528
450
        0
451
        0
460
0.0
461
0.0
452
        0
462
0.0
453
        0
470

1001
ACAD
1010
0.0
1020
0.0
1030
0.0
  0
LINE
  5
3D1C9
330
1A
100
AcDbEntity
  8
HEWI
 48
0.1
100
AcDbLine
 10
-75538.37618429662
 20
-74027.31150154314
 30
0.0
 11
-75505.37618429665
 21
-74027.31150154314
 31
0.0
  0
LINE
  5
3D1CA
330
1A
100
AcDbEntity
  8
HEWI
 48
0.1
100
AcDbLine
 10
-75538.37618429662
 20
-74027.31150154314
 30
0.0
 11
-75538.37618429662
 21
-73456.16327752263
 31
0.0
  0
LINE
  5
3D1CB
330
1A
100
AcDbEntity
  8
HEWI
 48
0.1
100
AcDbLine
 10
-75538.37618429662
 20
-73456.16327752263
 30
0.0
 11
-75505.37618429665
 21
-73456.16327752263
 31
0.0
  0
LINE
  5
3D1CC
330
1A
100
AcDbEntity
  8
HEWI
 48
0.1
100
AcDbLine
 10
-75505.37618429665
 20
-73456.16327752263
 30
0.0
 11
-75505.37618429665
 21
-74027.31150154314
 31
0.0
  0
LINE
  5
3D1CD
330
1A
100
AcDbEntity
  8
HEWI
 48
0.1
100
AcDbLine
 10
-75534.37618429665
 20
-74027.31150154314
 30
0.0
 11
-75534.37618429665
 21
-74031.31150154313
 31
0.0
  0
LINE
  5
3D1CE
330
1A
100
AcDbEntity
  8
HEWI
 48
0.1
100
AcDbLine
 10
-75534.37618429665
 20
-74031.31150154313
 30
0.0
 11
-75509.37618429665
 21
-74031.31150154313
 31
0.0
  0
LINE
  5
3D1CF
330
1A
100
AcDbEntity
  8
HEWI
 48
0.1
100
AcDbLine
 10
-75509.37618429665
 20
-74027.31150154314
 30
0.0
 11
-75509.37618429665
 21
-74031.31150154313
 31
0.0
  0
LINE
  5
3D1D0
330
1A
100
AcDbEntity
  8
HEWI
 48
0.1
100
AcDbLine
 10
-75494.87618529664
 20
-73338.17210978272
 30
0.0
 11
-75494.87618529664
 21
-73444.17210978273
 31
0.0
  0
LINE
  5
3D1D1
330
1A
100
AcDbEntity
  8
HEWI
 48
0.1
100
AcDbLine
 10
-75482.87618529664
 20
-73340.67210978273
 30
0.0
 11
-75482.87618529664
 21
-73441.67210978272
 31
0.0
  0
ARC
  5
3D1D2
330
1A
100
AcDbEntity
  8
HEWI
 48
0.1
100
AcDbCircle
 10
-75485.37618529664
 20
-73441.67210978272
 30
0.0
 40
2.5
100
AcDbArc
 50
270.0
 51
0.0
  0
ARC
  5
3D1D3
330
1A
100
AcDbEntity
  8
HEWI
 48
0.1
100
AcDbCircle
 10
-75485.37618529664
 20
-73340.67210978273
 30
0.0
 40
2.5
100
AcDbArc
 50
0.0
 51
90.0
  0
LINE
  5
3D1D4
330
1A
100
AcDbEntity
  8
HEWI
 48
0.1
100
AcDbLine
 10
-75494.87618529664
 20
-73338.17210978272
 30
0.0
 11
-75485.37618529664
 21
-73338.17210978272
 31
0.0
  0
LINE
  5
3D1D5
330
1A
100
AcDbEntity
  8
HEWI
 48
0.1
100
AcDbLine
 10
-75494.87618529664
 20
-73444.17210978273
 30
0.0
 11
-75485.37618529664
 21
-73444.17210978273
 31
0.0
  0
LINE
  5
3D1D6
330
1A
100
AcDbEntity
  8
HEWI
 48
0.1
100
AcDbLine
 10
-75560.87618429661
 20
-73340.66325602264
 30
0.0
 11
-75560.87618429661
 21
-73441.66325602264
 31
0.0
  0
ARC
  5
3D1D7
330
1A
100
AcDbEntity
  8
HEWI
 48
0.1
100
AcDbCircle
 10
-75558.37618429662
 20
-73441.66325602264
 30
0.0
 40
2.5
100
AcDbArc
 50
180.0
 51
270.0
  0
ARC
  5
3D1D8
330
1A
100
AcDbEntity
  8
HEWI
 48
0.1
100
AcDbCircle
 10
-75558.37618429662
 20
-73340.66325602264
 30
0.0
 40
2.5
100
AcDbArc
 50
90.0
 51
180.0
  0
LINE
  5
3D1D9
330
1A
100
AcDbEntity
  8
HEWI
 48
0.1
100
AcDbLine
 10
-75548.87618429662
 20
-73338.16325602264
 30
0.0
 11
-75548.87618429662
 21
-73444.16325602264
 31
0.0
  0
LINE
  5
3D1DA
330
1A
100
AcDbEntity
  8
HEWI
 48
0.1
100
AcDbLine
 10
-75558.37618429662
 20
-73338.16325602264
 30
0.0
 11
-75548.87618429662
 21
-73338.16325602264
 31
0.0
  0
LINE
  5
3D1DB
330
1A
100
AcDbEntity
  8
HEWI
 48
0.1
100
AcDbLine
 10
-75558.37618429662
 20
-73444.16325602264
 30
0.0
 11
-75548.87618429662
 21
-73444.16325602264
 31
0.0
  0
LINE
  5
3D1DC
330
1A
100
AcDbEntity
  8
HEWI
 48
0.1
100
AcDbLine
 10
-75521.87618429662
 20
-73426.16327752263
 30
0.0
 11
-75548.87618429662
 21
-73426.16325602264
 31
0.0
  0
LINE
  5
3D1DD
330
1A
100
AcDbEntity
  8
HEWI
 48
0.1
100
AcDbLine
 10
-75548.87618429662
 20
-73426.16325602264
 30
0.0
 11
-75521.87618429662
 21
-73426.16327752263
 31
0.0
  0
LINE
  5
3D1DE
330
1A
100
AcDbEntity
  8
HEWI
 48
0.1
100
AcDbLine
 10
-75521.87618429662
 20
-73426.16327752263
 30
0.0
 11
-75494.87618529664
 21
-73426.17210978272
 31
0.0
  0
LINE
  5
3D1DF
330
1A
100
AcDbEntity
  8
HEWI
 48
0.1
100
AcDbLine
 10
-75494.87618529664
 20
-73339.67210978272
 30
0.0
 11
-75505.37618529664
 21
-73339.67210978272
 31
0.0
  0
LINE
  5
3D1E0
330
1A
100
AcDbEntity
  8
HEWI
 48
0.1
100
AcDbLine
 10
-75494.87618529664
 20
-73372.67210978272
 30
0.0
 11
-75521.87618429662
 21
-73372.66325602264
 31
0.0
  0
LINE
  5
3D1E1
330
1A
100
AcDbEntity
  8
HEWI
 48
0.1
100
AcDbLine
 10
-75548.87618429662
 20
-73339.66325602264
 30
0.0
 11
-75538.37618529664
 21
-73339.66325602264
 31
0.0
  0
LINE
  5
3D1E2
330
1A
100
AcDbEntity
  8
HEWI
 48
0.1
100
AcDbLine
 10
-75548.87618429662
 20
-73372.66325602264
 30
0.0
 11
-75521.87618429661
 21
-73372.66325602264
 31
0.0
  0
ARC
  5
3D1E3
330
1A
100
AcDbEntity
  8
HEWI
 48
0.1
100
AcDbCircle
 10
-75521.87618429662
 20
-73426.16327752263
 30
0.0
 40
18.0
100
AcDbArc
 50
0.0
 51
180.0
  0
LINE
  5
3D1E4
330
1A
100
AcDbEntity
  8
HEWI
 48
0.1
100
AcDbLine
 10
-75548.87618429662
 20
-73426.16329902264
 30
0.0
 11
-75521.87618429662
 21
-73426.16327752263
 31
0.0
  0
LINE
  5
3D1E5
330
1A
100
AcDbEntity
  8
HEWI
 48
0.1
100
AcDbLine
 10
-75521.87618429662
 20
-73426.16327752263
 30
0.0
 11
-75494.87618529664
 21
-73426.15444526255
 31
0.0
  0
LINE
  5
3D1E6
330
1A
100
AcDbEntity
  8
HEWI
 48
0.1
100
AcDbLine
 10
-74741.481994099
 20
-73360.35365630807
 30
0.0000000000000946
 11
-74741.481994099
 21
-73430.35365630807
 31
0.0000000000000946
1001
GENIUS_GENODEF_13
1002
{
1000
HIER
1070
     0
1002
}
1002
{
1000
MANEDIT
1070
     0
1002
}
1002
{
1000
NOSEL
1070
     0
1002
}
1002
{
1000
BEHIND
1070
     0
1002
}
1002
{
1000
OTHER
1070
     0
1002
}
1002
{
1000
REACTOR
1002
}
1001
GENIUS_GENOBJ-N-CEN_13
1002
{
1000
OWNER
1000
GEN
1002
}
1001
GENIUS_GENCEN_19
1002
{
1040
0.0
1002
}
  0
LINE
  5
3D1E7
330
1A
100
AcDbEntity
  8
HEWI
 48
0.1
100
AcDbLine
 10
-74777.48199409897
 20
-73360.35365630807
 30
0.0000000000000946
 11
-74777.48199409897
 21
-73430.35365630807
 31
0.0000000000000946
1001
GENIUS_GENODEF_13
1002
{
1000
HIER
1070
     0
1002
}
1002
{
1000
MANEDIT
1070
     0
1002
}
1002
{
1000
NOSEL
1070
     0
1002
}
1002
{
1000
BEHIND
1070
     0
1002
}
1002
{
1000
OTHER
1070
     0
1002
}
1002
{
1000
REACTOR
1002
}
1001
GENIUS_GENOBJ-N-CEN_13
1002
{
1000
OWNER
1000
GEN
1002
}
1001
GENIUS_GENCEN_19
1002
{
1040
0.0
1002
}
  0
ARC
  5
3D1E8
330
1A
100
AcDbEntity
  8
HEWI
 48
0.1
100
AcDbCircle
 10
-74759.48199409899
 20
-73360.35365630807
 30
0.0000000000000946
 40
18.0
100
AcDbArc
 50
0.0
 51
180.0
  0
ARC
  5
3D1E9
330
1A
100
AcDbEntity
  8
HEWI
 48
0.1
100
AcDbCircle
 10
-74759.48199409899
 20
-73430.35365630807
 30
0.0000000000000946
 40
18.0
100
AcDbArc
 50
180.0
 51
0.0
  0
LINE
  5
3D1EA
330
1A
100
AcDbEntity
  8
HEWI
 48
0.1
100
AcDbLine
 10
-74775.981994099
 20
-73437.54740359302
 30
0.0000000000000946
 11
-74775.981994099
 21
-73460.35365630807
 31
0.0000000000000946
  0
LINE
  5
3D1EB
330
1A
100
AcDbEntity
  8
HEWI
 48
0.1
100
AcDbLine
 10
-74775.981994099
 20
-73460.35365630807
 30
0.0000000000000946
 11
-74742.98199409897
 21
-73460.35365630807
 31
0.0000000000000946
  0
LINE
  5
3D1EC
330
1A
100
AcDbEntity
  8
HEWI
 48
0.1
100
AcDbLine
 10
-74742.98199409897
 20
-73460.35365630807
 30
0.0000000000000946
 11
-74742.98199409897
 21
-73437.54740359302
 31
0.0000000000000946
  0
HATCH
  5
3D1ED
330
1A
100
AcDbEntity
  8
HEWI
100
AcDbHatch
 10
0.0
 20
0.0
 30
0.0
210
0.0
220
0.0
230
1.0
  2
SOLID
 70
     1
 71
     0
 91
        1
 92
        7
 72
     0
 73
     1
 93
        4
 10
-74759.48199409899
 20
-74031.31150154313
 10
-74759.48199409899
 20
-74027.31150154314
 10
-74771.981994099
 20
-74027.31150154314
 10
-74771.981994099
 20
-74031.31150154313
 97
        0
 75
     0
 76
     1
 47
0.0726074577041698
 98
        1
 10
-74768.35713466284
 20
-74029.60915409787
450
        0
451
        0
460
0.0
461
0.0
452
        0
462
0.0
453
        0
470

1001
ACAD
1010
0.0
1020
0.0
1030
0.0
  0
HATCH
  5
3D1EE
330
1A
100
AcDbEntity
  8
HEWI
100
AcDbHatch
 10
0.0
 20
0.0
 30
0.0
210
0.0
220
0.0
230
1.0
  2
SOLID
 70
     1
 71
     0
 91
        1
 92
        7
 72
     0
 73
     1
 93
        4
 10
-74746.98199409897
 20
-74031.31150154313
 10
-74746.98199409897
 20
-74027.31150154314
 10
-74759.48199409899
 20
-74027.31150154314
 10
-74759.48199409899
 20
-74031.31150154313
 97
        0
 75
     0
 76
     1
 47
0.0726074577041698
 98
        1
 10
-74755.57175495032
 20
-74029.82697679528
450
        0
451
        0
460
0.0
461
0.0
452
        0
462
0.0
453
        0
470

1001
ACAD
1010
0.0
1020
0.0
1030
0.0
  0
LINE
  5
3D1EF
330
1A
100
AcDbEntity
  8
HEWI
100
AcDbLine
 10
-74775.981994099
 20
-74027.31150154314
 30
0.0
 11
-74742.98199409897
 21
-74027.31150154314
 31
0.0
  0
LINE
  5
3D1F0
330
1A
100
AcDbEntity
  8
HEWI
100
AcDbLine
 10
-74775.981994099
 20
-74027.31150154314
 30
0.0000000000000946
 11
-74775.981994099
 21
-73460.35365630807
 31
0.0000000000000946
  0
LINE
  5
3D1F1
330
1A
100
AcDbEntity
  8
HEWI
 48
0.1
100
AcDbLine
 10
-74775.981994099
 20
-73460.35365630807
 30
0.0000000000000946
 11
-74742.98199409897
 21
-73460.35365630807
 31
0.0000000000000946
  0
LINE
  5
3D1F2
330
1A
100
AcDbEntity
  8
HEWI
100
AcDbLine
 10
-74742.98199409897
 20
-73460.35365630807
 30
0.0000000000000946
 11
-74742.98199409897
 21
-74027.31150154314
 31
0.0000000000000946
  0
LINE
  5
3D1F3
330
1A
100
AcDbEntity
  8
HEWI
100
AcDbLine
 10
-74771.981994099
 20
-74027.31150154314
 30
0.0
 11
-74771.981994099
 21
-74031.31150154313
 31
0.0
  0
LINE
  5
3D1F4
330
1A
100
AcDbEntity
  8
HEWI
100
AcDbLine
 10
-74771.981994099
 20
-74031.31150154313
 30
0.0
 11
-74746.98199409897
 21
-74031.31150154313
 31
0.0
  0
LINE
  5
3D1F5
330
1A
100
AcDbEntity
  8
HEWI
100
AcDbLine
 10
-74746.98199409897
 20
-74027.31150154314
 30
0.0
 11
-74746.98199409897
 21
-74031.31150154313
 31
0.0
  0
CIRCLE
  5
3D1F6
330
1A
100
AcDbEntity
  8
HEWI
100
AcDbCircle
 10
-74724.37766963912
 20
-73392.79570408269
 30
0.0000000000000946
 40
17.08854554217942
  0
LINE
  5
3D1F7
330
1A
100
AcDbEntity
  8
HEWI
100
AcDbLine
 10
-75835.06170039839
 20
-73414.16688602262
 30
0.0
 11
-75835.06170039839
 21
-73161.16688602264
 31
0.0
210
0.0
220
1.0
230
0.0
  0
LINE
  5
3D1F8
330
1A
100
AcDbEntity
  8
HEWI
100
AcDbLine
 10
-75835.06170039839
 20
-73159.66688602262
 30
0.0
 11
-75835.06170039839
 21
-73161.16688602264
 31
0.0
210
0.0
220
1.0
230
0.0
  0
LINE
  5
3D1F9
330
1A
100
AcDbEntity
  8
HEWI
100
AcDbLine
 10
-75835.06170039839
 20
-73414.16688602262
 30
0.0
 11
-75835.06170039839
 21
-73415.66688602262
 31
0.0
210
0.0
220
1.0
230
0.0
  0
LINE
  5
3D1FA
330
1A
100
AcDbEntity
  8
HEWI
100
AcDbLine
 10
-75840.06170039839
 20
-73159.66688602262
 30
0.0000000000000009
 11
-75835.06170039839
 21
-73159.66688602262
 31
0.0
210
0.0
220
1.0
230
0.0
  0
ARC
  5
3D1FB
330
1A
100
AcDbEntity
  8
HEWI
100
AcDbCircle
 10
-75840.06170039839
 20
-73171.16688602262
 30
0.0000000000000009
 40
11.5
100
AcDbArc
 50
90.0
 51
180.0
  0
LINE
  5
3D1FC
330
1A
100
AcDbEntity
  8
HEWI
100
AcDbLine
 10
-75851.56170039839
 20
-73404.16688602262
 30
0.000000000000003
 11
-75851.56170039839
 21
-73171.16688602262
 31
0.000000000000003
210
0.0
220
1.0
230
0.0
  0
ARC
  5
3D1FD
330
1A
100
AcDbEntity
  8
HEWI
100
AcDbCircle
 10
-75840.06170039839
 20
-73404.16688602262
 30
0.0000000000000009
 40
11.5
100
AcDbArc
 50
180.0
 51
270.0
  0
LINE
  5
3D1FE
330
1A
100
AcDbEntity
  8
HEWI
100
AcDbLine
 10
-75835.06170039839
 20
-73415.66688602262
 30
0.0
 11
-75840.06170039839
 21
-73415.66688602262
 31
0.0000000000000009
210
0.0
220
1.0
230
0.0
  0
LINE
  5
3D281
330
1A
100
AcDbEntity
  8
0
100
AcDbLine
 10
-74741.481994099
 20
-73372.66688602261
 30
0.0000000000000967
 11
-74697.87618528462
 21
-73372.66688602261
 31
0.0000000000000946
  0
LINE
  5
3D306
330
1A
100
AcDbEntity
  8
HEWI
100
AcDbLine
 10
-76021.56170039838
 20
-72666.58585802264
 30
0.000000000000003
 11
-76021.56170039838
 21
-72971.55112402263
 31
0.000000000000003
  0
LINE
  5
3D307
330
1A
100
AcDbEntity
  8
HEWI
100
AcDbLine
 10
-75988.56166939836
 20
-72655.77957090258
 30
0.000000000000003
 11
-75988.56166939836
 21
-73024.58585802264
 31
0.000000000000003
  0
MTEXT
  5
303D432
330
1A
100
AcDbEntity
  8
0
100
AcDbMText
 10
-74344.18602310464
 20
-73188.16025091448
 30
-0.0000000000001381
 40
40.0
 41
1658.764253440739
 46
0.0
 71
     1
 72
     5
  1
Bei Bestellung bitte Maß L angeben.\PPlease specify dimension L when ordering.\PÀ la commande, indiquer longueur L.\PBij bestelling lengte L aangeven.
  7
ARIAL
 73
     1
 44
1.0
1001
ACAD
1000
ACAD_MTEXT_COLUMN_INFO_BEGIN
1070
    75
1070
     2
1070
    79
1070
     0
1070
    76
1070
     1
1070
    78
1070
     0
1070
    48
1040
1658.764253440739
1070
    49
1040
1.0
1070
    50
1070
     1
1040
0.0
1000
ACAD_MTEXT_COLUMN_INFO_END
  0
DIMENSION
  5
303D433
330
1A
100
AcDbEntity
  8
0
370
     9
100
AcDbDimension
280
     0
  2
*D15
 10
-74485.76599028225
 20
-74031.31150154313
 30
-0.0000000000000075
 11
-74523.26599028223
 21
-73616.98919378288
 31
-0.0000000000000075
 70
    32
  1
L
 71
     5
 42
828.6446155205048
 73
     0
 74
     0
 75
     0
  3
ISO-25
100
AcDbAlignedDimension
 13
-74590.88358778344
 23
-73202.66688602262
 33
-0.000000000000015
 14
-74622.58589195981
 24
-74031.31150154313
 34
0.0
 50
90.0
100
AcDbRotatedDimension
1001
ACAD
1000
DSTYLE
1002
{
1070
    41
1040
20.0
1070
   140
1040
55.0
1070
   147
1040
10.0
1070
   173
1070
     1
1070
   340
1005
303D426
1070
   343
1005
303D415
1070
   344
1005
303D415
1002
}
  0
VIEWPORT
  5
22
330
17
100
AcDbEntity
 67
     1
  8
0
100
AcDbViewport
 10
102.801238835773
 20
158.0978495602885
 30
0.0
 40
506.5832670616006
 41
315.7152190709725
 68
     1
 69
     1
 12
102.801238835773
 22
158.0978495602885
 13
0.0
 23
0.0
 14
1.0
 24
1.0
 15
10.0
 25
10.0
 16
0.0
 26
0.0
 36
1.0
 17
0.0
 27
0.0
 37
0.0
 42
50.0
 43
0.0
 44
0.0
 45
315.7152190709725
 50
0.0
 51
0.0
 72
   100
 90
    32800
  1

281
     0
 71
     1
 74
     0
110
0.0
120
0.0
130
0.0
111
1.0
121
0.0
131
0.0
112
0.0
122
1.0
132
0.0
 79
     0
146
0.0
170
     0
 61
     5
348
39C24
292
     1
282
     1
141
0.0
142
0.0
 63
   250
421
  3355443
  0
ENDSEC
  0
SECTION
  2
OBJECTS
  0
DICTIONARY
  5
C
330
0
100
AcDbDictionary
281
     1
  3
ACAD_CIP_PREVIOUS_PRODUCT_INFO
350
303D355
  3
ACAD_COLOR
350
39BFD
  3
ACAD_DETAILVIEWSTYLE
350
303D33C
  3
ACAD_GROUP
350
D
  3
ACAD_LAYOUT
350
39BF3
  3
ACAD_MATERIAL
350
39BFC
  3
ACAD_MLEADERSTYLE
350
303D338
  3
ACAD_MLINESTYLE
350
E
  3
ACAD_PLOTSETTINGS
350
39BF4
  3
ACAD_PLOTSTYLENAME
350
39BF1
  3
ACAD_SCALELIST
350
303D326
  3
ACAD_SECTIONVIEWSTYLE
350
303D33A
  3
ACAD_TABLESTYLE
350
39C2F
  3
ACAD_VISUALSTYLE
350
39C1E
  3
ACDB_RECOMPOSE_DATA
350
303D4E8
  3
ACDBVARIABLEDICTIONARY
350
210D7
  3
AcDsDecomposeData
350
303D4EE
  0
DICTIONARY
  5
39C3D
330
2
100
AcDbDictionary
280
     1
281
     1
  3
ACAD_LAYERFILTERS
360
3A6E6
  3
ACAD_LAYERSTATES
360
39C3E
  3
ACLYDICTIONARY
360
3A6E5
  0
DICTIONARY
  5
303D356
330
F
100
AcDbDictionary
280
     1
281
     1
  3
ADSK_XREC_LAYER_RECONCILED
360
303D357
  0
DICTIONARY
  5
303D358
330
3CAA4
100
AcDbDictionary
280
     1
281
     1
  3
ADSK_XREC_LAYER_RECONCILED
360
303D359
  0
DICTIONARY
  5
303D35A
330
3CC2C
100
AcDbDictionary
280
     1
281
     1
  3
ADSK_XREC_LAYER_RECONCILED
360
303D35B
  0
DICTIONARY
  5
303D35C
330
3CC2D
100
AcDbDictionary
280
     1
281
     1
  3
ADSK_XREC_LAYER_RECONCILED
360
303D35D
  0
DICTIONARY
  5
303D35E
330
3CC2E
100
AcDbDictionary
280
     1
281
     1
  3
ADSK_XREC_LAYER_RECONCILED
360
303D35F
  0
DICTIONARY
  5
3B151
330
1A
100
AcDbDictionary
280
     1
281
     1
  3
ACAD_SORTENTS
360
3B152
  0
XRECORD
  5
303D355
102
{ACAD_REACTORS
330
C
102
}
330
C
100
AcDbXrecord
280
     1
300
ACDLT
300
2016
300
ACDLT_F_S
  0
DICTIONARY
  5
39BFD
102
{ACAD_REACTORS
330
C
102
}
330
C
100
AcDbDictionary
281
     1
  0
DICTIONARY
  5
303D33C
102
{ACAD_REACTORS
330
C
102
}
330
C
100
AcDbDictionary
281
     1
  3
Imperial24
350
303D33D
  0
DICTIONARY
  5
D
102
{ACAD_REACTORS
330
C
102
}
330
C
100
AcDbDictionary
281
     1
  0
DICTIONARY
  5
39BF3
102
{ACAD_REACTORS
330
C
102
}
330
C
100
AcDbDictionary
281
     1
  3
Layout1
350
39BF6
  3
Model
350
39BF5
  0
DICTIONARY
  5
39BFC
102
{ACAD_REACTORS
330
C
102
}
330
C
100
AcDbDictionary
281
     1
  3
ByBlock
350
39C1C
  3
ByLayer
350
39C1B
  3
Global
350
39C1D
  0
DICTIONARY
  5
303D338
102
{ACAD_REACTORS
330
C
102
}
330
C
100
AcDbDictionary
281
     1
  3
Standard
350
303D339
  0
DICTIONARY
  5
E
102
{ACAD_REACTORS
330
C
102
}
330
C
100
AcDbDictionary
281
     1
  3
STANDARD
350
13
  0
DICTIONARY
  5
39BF4
102
{ACAD_REACTORS
330
C
102
}
330
C
100
AcDbDictionary
281
     1
  0
ACDBDICTIONARYWDFLT
  5
39BF1
102
{ACAD_REACTORS
330
C
102
}
330
C
100
AcDbDictionary
281
     1
  3
Normal
350
39BF2
100
AcDbDictionaryWithDefault
340
39BF2
  0
DICTIONARY
  5
303D326
102
{ACAD_REACTORS
330
C
102
}
330
C
100
AcDbDictionary
281
     1
  3
A0
350
303D327
  3
A1
350
303D328
  3
A2
350
303D329
  3
A3
350
303D32A
  3
A4
350
303D32B
  3
A5
350
303D32C
  3
A6
350
303D32D
  3
A7
350
303D32E
  3
A8
350
303D32F
  3
A9
350
303D330
  3
B0
350
303D331
  3
B1
350
303D332
  3
B2
350
303D333
  3
B3
350
303D334
  3
B4
350
303D335
  3
B5
350
303D336
  3
B6
350
303D337
  0
DICTIONARY
  5
303D33A
102
{ACAD_REACTORS
330
C
102
}
330
C
100
AcDbDictionary
281
     1
  3
Imperial24
350
303D33B
  0
DICTIONARY
  5
39C2F
102
{ACAD_REACTORS
330
C
102
}
330
C
100
AcDbDictionary
281
     1
  3
Standard
350
39C30
  0
DICTIONARY
  5
39C1E
102
{ACAD_REACTORS
330
C
102
}
330
C
100
AcDbDictionary
281
     1
  3
2dWireframe
350
39C24
  3
3D Hidden
350
39C26
  3
3dWireframe
350
39C25
  3
Basic
350
39C23
  3
Brighten
350
39C2A
  3
ColorChange
350
39C2E
  3
Conceptual
350
39C27
  3
Dim
350
39C29
  3
EdgeColorOff
350
303D325
  3
Facepattern
350
39C2D
  3
Flat
350
39C1F
  3
FlatWithEdges
350
39C20
  3
Gouraud
350
39C21
  3
GouraudWithEdges
350
39C22
  3
Hidden
350
303D31D
  3
JitterOff
350
303D323
  3
Linepattern
350
39C2C
  3
OverhangOff
350
303D324
  3
Realistic
350
39C28
  3
Shaded
350
303D322
  3
Shaded with edges
350
303D321
  3
Shades of Gray
350
303D31E
  3
Sketchy
350
303D31F
  3
Thicken
350
39C2B
  3
Wireframe
350
303D31C
  3
X-Ray
350
303D320
  0
XRECORD
  5
303D4E8
102
{ACAD_REACTORS
330
C
102
}
330
C
100
AcDbXrecord
280
     1
 90
        1
330
39C30
330
303D432
  0
DICTIONARY
  5
210D7
102
{ACAD_REACTORS
330
C
102
}
330
C
100
AcDbDictionary
281
     1
  3
CANNOSCALE
350
303D363
  3
CMLEADERSTYLE
350
303D360
  3
CTABLESTYLE
350
39C39
  3
CVIEWDETAILSTYLE
350
303D361
  3
CVIEWSECTIONSTYLE
350
303D362
  3
DIMASSOC
350
3BD64
  3
INDEXCTL
350
3BD63
  3
LAYEREVAL
350
303D4A4
  3
LAYERNOTIFY
350
303D4A5
  3
LIGHTINGUNITS
350
303D4A3
  3
MSLTSCALE
350
303D4A2
  3
SORTENTS
350
210D8
  0
DICTIONARY
  5
303D4EE
102
{ACAD_REACTORS
330
C
102
}
330
C
100
AcDbDictionary
281
     1
  3
AcDsRecords
350
303D4F0
  3
AcDsSchemas
350
303D4EF
1001
ACAD
1070
     2
  0
DICTIONARY
  5
3A6E6
102
{ACAD_REACTORS
330
39C3D
102
}
330
39C3D
100
AcDbDictionary
281
     1
  0
DICTIONARY
  5
39C3E
102
{ACAD_REACTORS
330
39C3D
102
}
330
39C3D
100
AcDbDictionary
281
     1
  0
DICTIONARY
  5
3A6E5
102
{ACAD_REACTORS
330
39C3D
102
}
330
39C3D
100
AcDbDictionary
281
     1
1001
ACAD
1000
<All
  0
XRECORD
  5
303D357
102
{ACAD_REACTORS
330
303D356
102
}
330
303D356
100
AcDbXrecord
280
     1
290
     1
  0
XRECORD
  5
303D359
102
{ACAD_REACTORS
330
303D358
102
}
330
303D358
100
AcDbXrecord
280
     1
290
     1
  0
XRECORD
  5
303D35B
102
{ACAD_REACTORS
330
303D35A
102
}
330
303D35A
100
AcDbXrecord
280
     1
290
     1
  0
XRECORD
  5
303D35D
102
{ACAD_REACTORS
330
303D35C
102
}
330
303D35C
100
AcDbXrecord
280
     1
290
     1
  0
XRECORD
  5
303D35F
102
{ACAD_REACTORS
330
303D35E
102
}
330
303D35E
100
AcDbXrecord
280
     1
290
     1
  0
SORTENTSTABLE
  5
3B152
102
{ACAD_REACTORS
330
3B151
102
}
330
3B151
100
AcDbSortentsTable
330
1A
331
3D134
  5
3D134
331
3D16F
  5
3D16F
331
3D130
  5
3D130
331
3D12C
  5
3D12C
331
3D16B
  5
3D16B
331
3D1AC
  5
3D1AE
331
3D1E7
  5
3D1E9
331
3D128
  5
3D128
331
3D1A8
  5
3D1AA
331
3D1A4
  5
3D1A6
331
3D1E3
  5
3D1E5
331
3D1A0
  5
3D1A2
331
3D167
  5
3D167
331
3D124
  5
3D124
331
3D163
  5
3D163
331
3D15F
  5
3D15F
331
3D1DF
  5
3D1E1
331
3D120
  5
3D120
331
3D15B
  5
3D15B
331
3D19C
  5
3D19E
331
3D1DB
  5
3D1DD
331
3D1D7
  5
3D1D9
331
3D198
  5
3D19A
331
3D194
  5
3D196
331
3D1D3
  5
3D1D5
331
3D190
  5
3D192
331
3D1FB
  5
3D1FD
331
3D157
  5
3D157
331
3D153
  5
3D153
331
3D14F
  5
3D14F
331
3D1CF
  5
3D1D1
331
3D14B
  5
3D14B
331
3D18C
  5
3D18E
331
3D1CB
  5
3D1CD
331
3D1C7
  5
3D1C9
331
3D188
  5
3D18A
331
3D184
  5
3D185
331
3D1C3
  5
3D1C5
331
3D180
  5
3D180
331
3D1F7
  5
3D1F9
331
3D1F3
  5
3D1F5
331
3D1EF
  5
3D1F1
331
3D1EB
  5
3D1ED
331
3D147
  5
3D147
331
3D143
  5
3D143
331
3D1BF
  5
3D1C1
331
3D13F
  5
3D13F
331
3D13B
  5
3D13B
331
3D17C
  5
3D17C
331
3D1BB
  5
3D1BD
331
3D1B7
  5
3D1B9
331
3D178
  5
3D178
331
3D174
  5
3D174
331
3D1B3
  5
3D1B5
331
3D170
  5
3D170
331
3D137
  5
3D137
331
3D133
  5
3D133
331
3D16E
  5
3D16E
331
3D1AF
  5
3D1B1
331
3D12F
  5
3D12F
331
3D12B
  5
3D12B
331
3D16A
  5
3D16A
331
3D1AB
  5
3D1AD
331
3D1A7
  5
3D1A9
331
3D1E6
  5
3D1E8
331
3D1A3
  5
3D1A5
331
3D1E2
  5
3D1E4
331
3D127
  5
3D127
331
3D166
  5
3D166
331
3D123
  5
3D123
331
3D162
  5
3D162
331
3D15E
  5
3D15E
331
3D19F
  5
3D1A1
331
3D1DE
  5
3D1E0
331
3D11F
  5
3D11F
331
3D1DA
  5
3D1DC
331
3D15A
  5
3D15A
331
3D19B
  5
3D19D
331
3D1D6
  5
3D1D8
331
3D197
  5
3D199
331
3D193
  5
3D195
331
3D1D2
  5
3D1D4
331
3D1FE
  5
3D200
331
3D1FA
  5
3D1FC
331
3D307
  5
3D186
331
3D156
  5
3D156
331
3D152
  5
3D152
331
3D14E
  5
3D14E
331
3D18F
  5
3D191
331
3D1CE
  5
3D1D0
331
3D14A
  5
3D14A
331
3D18B
  5
3D18D
331
3D1CA
  5
3D1CC
331
3D1C6
  5
3D1C8
331
3D187
  5
3D189
331
3D183
  5
3D183
331
3D1C2
  5
3D1C4
331
3D1F6
  5
3D1F8
331
3D1F2
  5
3D1F4
331
3D1EE
  5
3D1F0
331
3D1EA
  5
3D1EC
331
3D146
  5
3D146
331
3D142
  5
3D142
331
3D13E
  5
3D13E
331
3D17F
  5
3D17F
331
3D1BE
  5
3D1C0
331
3D13A
  5
3D13A
331
3D17B
  5
3D17B
331
3D1BA
  5
3D1BC
331
3D1B6
  5
3D1B8
331
3D177
  5
3D177
331
3D173
  5
3D173
331
3D1B2
  5
3D1B4
331
3D136
  5
3D136
331
3D132
  5
3D132
331
3D16D
  5
3D16D
331
3D1AE
  5
3D1B0
331
3D12E
  5
3D12E
331
3D12A
  5
3D12A
331
3D169
  5
3D169
331
3D1AA
  5
3D1AC
331
3D1A6
  5
3D1A8
331
3D1E5
  5
3D1E7
331
3D1A2
  5
3D1A4
331
3D1E1
  5
3D1E3
331
3D126
  5
3D126
331
3D165
  5
3D165
331
3D122
  5
3D122
331
3D161
  5
3D161
331
3D15D
  5
3D15D
331
3D19E
  5
3D1A0
331
3D1DD
  5
3D1DF
331
3D11E
  5
3D11E
331
3D1D9
  5
3D1DB
331
3D159
  5
3D159
331
3D19A
  5
3D19C
331
3D196
  5
3D198
331
3D1D5
  5
3D1D7
331
3D192
  5
3D194
331
3D1D1
  5
3D1D3
331
3D1FD
  5
3D1FF
331
3D1F9
  5
3D1FB
331
3D306
  5
3D184
331
3D155
  5
3D155
331
3D151
  5
3D151
331
3D14D
  5
3D14D
331
3D18E
  5
3D190
331
3D1CD
  5
3D1CF
331
3D1C9
  5
3D1CB
331
3D149
  5
3D149
331
3D18A
  5
3D18C
331
3D1C5
  5
3D1C7
331
3D186
  5
3D188
331
3D182
  5
3D182
331
3D1C1
  5
3D1C3
331
3D1F5
  5
3D1F7
331
3D1F1
  5
3D1F3
331
3D1ED
  5
3D1EF
331
3D1E9
  5
3D1EB
331
3D145
  5
3D145
331
3D141
  5
3D141
331
3D13D
  5
3D13D
331
3D17E
  5
3D17E
331
3D1BD
  5
3D1BF
331
3D139
  5
3D139
331
3D17A
  5
3D17A
331
3D1B9
  5
3D1BB
331
3D1B5
  5
3D1B7
331
3D176
  5
3D176
331
3D172
  5
3D172
331
3D1B1
  5
3D1B3
331
3D135
  5
3D135
331
3D131
  5
3D131
331
3D12D
  5
3D12D
331
3D16C
  5
3D16C
331
3D1AD
  5
3D1AF
331
3D129
  5
3D129
331
3D168
  5
3D168
331
3D1A9
  5
3D1AB
331
3D1A5
  5
3D1A7
331
3D1E4
  5
3D1E6
331
3D1A1
  5
3D1A3
331
3D1E0
  5
3D1E2
331
3D125
  5
3D125
331
3D164
  5
3D164
331
3D160
  5
3D160
331
3D121
  5
3D121
331
3D15C
  5
3D15C
331
3D19D
  5
3D19F
331
3D1DC
  5
3D1DE
331
3D1D8
  5
3D1DA
331
3D158
  5
3D158
331
3D199
  5
3D19B
331
3D195
  5
3D197
331
3D1D4
  5
3D1D6
331
3D191
  5
3D193
331
3D1D0
  5
3D1D2
331
3D1FC
  5
3D1FE
331
3D1F8
  5
3D1FA
331
3D154
  5
3D154
331
3D150
  5
3D150
331
3D14C
  5
3D14C
331
3D18D
  5
3D18F
331
3D1CC
  5
3D1CE
331
3D1C8
  5
3D1CA
331
3D148
  5
3D148
331
3D189
  5
3D18B
331
3D281
  5
3D290
331
3D185
  5
3D187
331
3D1C4
  5
3D1C6
331
3D181
  5
3D181
331
3D1C0
  5
3D1C2
331
3D1F4
  5
3D1F6
331
3D1F0
  5
3D1F2
331
3D1EC
  5
3D1EE
331
3D1E8
  5
3D1EA
331
3D144
  5
3D144
331
3D140
  5
3D140
331
3D13C
  5
3D13C
331
3D17D
  5
3D17D
331
3D1BC
  5
3D1BE
331
3D1B8
  5
3D1BA
331
3D138
  5
3D138
331
3D179
  5
3D179
331
3D1B4
  5
3D1B6
331
3D175
  5
3D175
331
3D171
  5
3D171
331
3D1B0
  5
3D1B2
  0
ACDBDETAILVIEWSTYLE
  5
303D33D
102
{ACAD_XDICTIONARY
360
303D527
102
}
102
{ACAD_REACTORS
330
303D33C
102
}
330
303D33C
100
AcDbModelDocViewStyle
 70
     0
  3
Imperial24
290
     0
100
AcDbDetailViewStyle
 70
     0
 71
     0
 90
        3
 71
     1
340
10
 62
   256
 40
0.24
340
0
 62
   256
 40
0.24
300

 40
0.36
280
     3
 71
     2
340
16
 90
       25
 62
   256
 71
     3
340
10
 62
   256
 40
0.24
 90
        1
 40
0.75
 90
        1
300
%<\AcVar ViewType \f "%tc1">% %<\AcVar ViewDetailId>%\PVARIA %<\AcVar ViewScale \f "%sn">%
 71
     4
340
16
 90
       25
 62
   256
340
16
 90
       25
 62
   256
280
     0
  0
LAYOUT
  5
39BF6
102
{ACAD_XDICTIONARY
360
39C40
102
}
102
{ACAD_REACTORS
330
39BF3
102
}
330
39BF3
100
AcDbPlotSettings
  1

  2
\\druckserv1\AROABM2L
  4
A4
  6

 40
6.805083274841307
 41
5.069413185119628
 42
6.805084228515625
 43
5.027069091796875
 44
209.9733276367186
 45
296.9683227539062
 46
0.0
 47
0.0
 48
0.0
 49
0.0
140
0.0
141
0.0
142
1.0
143
0.9877294786496324
 70
   688
 72
     1
 73
     0
 74
     1
  7
ctb2004.ctb
 75
     0
147
1.012422957515799
 76
     1
 77
     2
 78
   300
148
-6.623554803105719
149
-1.328897370432399
100
AcDbLayout
  1
Layout1
 70
     1
 71
     1
 10
-0.0980265521206203
 20
-3.678311471965383
 11
207.2988188848241
 21
289.6460551372062
 12
0.0
 22
0.0
 32
0.0
 14
12.55000000000001
 24
41.32999999999998
 34
0.0
 15
195.5499999999999
 25
284.67
 35
0.0
146
0.0
 13
0.0
 23
0.0
 33
0.0
 16
1.0
 26
0.0
 36
0.0
 17
0.0
 27
1.0
 37
0.0
 76
     0
330
17
331
22
  0
LAYOUT
  5
39BF5
102
{ACAD_REACTORS
330
39BF3
102
}
330
39BF3
100
AcDbPlotSettings
  1

  2
\\PCDRUCK1\AROABM2L
  4

  6

 40
0.0
 41
0.0
 42
0.0
 43
0.0
 44
0.0
 45
0.0
 46
0.0
 47
0.0
 48
0.0
 49
0.0
140
0.0
141
0.0
142
1.0
143
1.0
 70
  1712
 72
     0
 73
     0
 74
     0
  7

 75
     0
147
1.0
 76
     0
 77
     2
 78
   300
148
0.0
149
0.0
100
AcDbLayout
  1
Model
 70
     1
 71
     0
 10
0.0
 20
0.0
 11
12.0
 21
9.0
 12
0.0
 22
0.0
 32
0.0
 14
0.0
 24
0.0
 34
0.0
 15
0.0
 25
0.0
 35
0.0
146
0.0
 13
0.0
 23
0.0
 33
0.0
 16
1.0
 26
0.0
 36
0.0
 17
0.0
 27
1.0
 37
0.0
 76
     0
330
1A
331
39C01
  0
MATERIAL
  5
39C1C
102
{ACAD_XDICTIONARY
360
3BDEF
102
}
102
{ACAD_REACTORS
330
39BFC
102
}
330
39BFC
100
AcDbMaterial
  1
ByBlock
  0
MATERIAL
  5
39C1B
102
{ACAD_XDICTIONARY
360
3BDED
102
}
102
{ACAD_REACTORS
330
39BFC
102
}
330
39BFC
100
AcDbMaterial
  1
ByLayer
  0
MATERIAL
  5
39C1D
102
{ACAD_XDICTIONARY
360
3BDF1
102
}
102
{ACAD_REACTORS
330
39BFC
102
}
330
39BFC
100
AcDbMaterial
  1
Global
  0
MLEADERSTYLE
  5
303D339
102
{ACAD_REACTORS
330
303D338
102
}
330
303D338
100
AcDbMLeaderStyle
179
     2
170
     2
171
     1
172
     0
 90
        2
 40
0.0
 41
0.0
173
     1
 91
-1056964608
340
14
 92
       -2
290
     1
 42
0.09
291
     1
 43
0.36
  3
Standard
 44
0.18
300

342
10
174
     1
178
     6
175
     1
176
     0
 93
-1056964608
 45
0.18
292
     0
297
     0
 46
0.18
 94
-1056964608
 47
1.0
 49
1.0
140
1.0
293
     1
141
0.0
294
     1
177
     0
142
1.0
295
     0
296
     0
143
0.125
271
     0
272
     9
273
     9
1001
ACAD_MLEADERVER
1070
     2
  0
MLINESTYLE
  5
13
102
{ACAD_REACTORS
330
E
102
}
330
E
100
AcDbMlineStyle
  2
STANDARD
 70
     0
  3

 62
     0
 51
90.0
 52
90.0
 71
     2
 49
0.5
 62
   256
  6
BYLAYER
 49
-0.5
 62
   256
  6
BYLAYER
  0
ACDBPLACEHOLDER
  5
39BF2
102
{ACAD_REACTORS
330
39BF1
102
}
330
39BF1
  0
SCALE
  5
303D327
102
{ACAD_REACTORS
330
303D326
102
}
330
303D326
100
AcDbScale
 70
     0
300
1:1
140
1.0
141
1.0
290
     1
  0
SCALE
  5
303D328
102
{ACAD_REACTORS
330
303D326
102
}
330
303D326
100
AcDbScale
 70
     0
300
1/128" = 1'-0"
140
0.0078125
141
12.0
290
     0
  0
SCALE
  5
303D329
102
{ACAD_REACTORS
330
303D326
102
}
330
303D326
100
AcDbScale
 70
     0
300
1/64" = 1'-0"
140
0.015625
141
12.0
290
     0
  0
SCALE
  5
303D32A
102
{ACAD_REACTORS
330
303D326
102
}
330
303D326
100
AcDbScale
 70
     0
300
1/32" = 1'-0"
140
0.03125
141
12.0
290
     0
  0
SCALE
  5
303D32B
102
{ACAD_REACTORS
330
303D326
102
}
330
303D326
100
AcDbScale
 70
     0
300
1/16" = 1'-0"
140
0.0625
141
12.0
290
     0
  0
SCALE
  5
303D32C
102
{ACAD_REACTORS
330
303D326
102
}
330
303D326
100
AcDbScale
 70
     0
300
3/32" = 1'-0"
140
0.09375
141
12.0
290
     0
  0
SCALE
  5
303D32D
102
{ACAD_REACTORS
330
303D326
102
}
330
303D326
100
AcDbScale
 70
     0
300
1/8" = 1'-0"
140
0.125
141
12.0
290
     0
  0
SCALE
  5
303D32E
102
{ACAD_REACTORS
330
303D326
102
}
330
303D326
100
AcDbScale
 70
     0
300
3/16" = 1'-0"
140
0.1875
141
12.0
290
     0
  0
SCALE
  5
303D32F
102
{ACAD_REACTORS
330
303D326
102
}
330
303D326
100
AcDbScale
 70
     0
300
1/4" = 1'-0"
140
0.25
141
12.0
290
     0
  0
SCALE
  5
303D330
102
{ACAD_REACTORS
330
303D326
102
}
330
303D326
100
AcDbScale
 70
     0
300
3/8" = 1'-0"
140
0.375
141
12.0
290
     0
  0
SCALE
  5
303D331
102
{ACAD_REACTORS
330
303D326
102
}
330
303D326
100
AcDbScale
 70
     0
300
1/2" = 1'-0"
140
0.5
141
12.0
290
     0
  0
SCALE
  5
303D332
102
{ACAD_REACTORS
330
303D326
102
}
330
303D326
100
AcDbScale
 70
     0
300
3/4" = 1'-0"
140
0.75
141
12.0
290
     0
  0
SCALE
  5
303D333
102
{ACAD_REACTORS
330
303D326
102
}
330
303D326
100
AcDbScale
 70
     0
300
1" = 1'-0"
140
1.0
141
12.0
290
     0
  0
SCALE
  5
303D334
102
{ACAD_REACTORS
330
303D326
102
}
330
303D326
100
AcDbScale
 70
     0
300
1-1/2" = 1'-0"
140
1.5
141
12.0
290
     0
  0
SCALE
  5
303D335
102
{ACAD_REACTORS
330
303D326
102
}
330
303D326
100
AcDbScale
 70
     0
300
3" = 1'-0"
140
3.0
141
12.0
290
     0
  0
SCALE
  5
303D336
102
{ACAD_REACTORS
330
303D326
102
}
330
303D326
100
AcDbScale
 70
     0
300
6" = 1'-0"
140
6.0
141
12.0
290
     0
  0
SCALE
  5
303D337
102
{ACAD_REACTORS
330
303D326
102
}
330
303D326
100
AcDbScale
 70
     0
300
1'-0" = 1'-0"
140
12.0
141
12.0
290
     0
  0
ACDBSECTIONVIEWSTYLE
  5
303D33B
102
{ACAD_XDICTIONARY
360
303D525
102
}
102
{ACAD_REACTORS
330
303D33A
102
}
330
303D33A
100
AcDbModelDocViewStyle
 70
     0
  3
Imperial24
290
     0
100
AcDbSectionViewStyle
 70
     0
 71
     0
 90
       78
 71
     1
340
10
 62
   256
 40
0.24
340
0
340
0
 62
   256
 40
0.24
300
I, O, Q, S, X, Z
 40
0.48
 90
        3
 40
0.18
 90
        1
 71
     2
340
16
 90
       25
 62
   256
340
16
 90
       50
 62
   256
 40
0.24
 40
0.0
 40
0.24
 71
     3
340
10
 62
   256
 40
0.24
 90
        1
 40
0.75
 90
        1
300
%<\AcVar ViewType \f "%tc1">% %<\AcVar ViewSectionStartId>%-%<\AcVar ViewSectionEndId>%\PVARIA %<\AcVar ViewScale \f "%sn">%
 71
     4
 62
   256
 62
   257
300
ANSI31
 40
1.0
 90
        0
290
     0
290
     0
 90
        6
 40
0.0
 40
1.570796326794896
 40
0.2617993877991494
 40
1.308996938995747
 40
-0.2617993877991494
 40
1.832595714594045
  0
TABLESTYLE
  5
39C30
102
{ACAD_XDICTIONARY
360
303D3BB
102
}
102
{ACAD_REACTORS
330
39C2F
102
}
330
39C2F
100
AcDbTableStyle
280
     0
  3
Standard
 70
     0
 71
     0
 40
0.06
 41
0.06
280
     0
281
     0
  7
STANDARD
140
0.18
170
     2
 62
     0
 63
     7
283
     0
 90
      512
 91
        0
  1

274
    -2
284
     1
 64
     0
275
    -2
285
     1
 65
     0
276
    -2
286
     1
 66
     0
277
    -2
287
     1
 67
     0
278
    -2
288
     1
 68
     0
279
    -2
289
     1
 69
     0
  7
STANDARD
140
0.25
170
     5
 62
     0
 63
     7
283
     0
 90
      512
 91
        0
  1

274
    -2
284
     1
 64
     0
275
    -2
285
     1
 65
     0
276
    -2
286
     1
 66
     0
277
    -2
287
     1
 67
     0
278
    -2
288
     1
 68
     0
279
    -2
289
     1
 69
     0
  7
STANDARD
140
0.18
170
     5
 62
     0
 63
     7
283
     0
 90
      512
 91
        0
  1

274
    -2
284
     1
 64
     0
275
    -2
285
     1
 65
     0
276
    -2
286
     1
 66
     0
277
    -2
287
     1
 67
     0
278
    -2
288
     1
 68
     0
279
    -2
289
     1
 69
     0
  0
VISUALSTYLE
  5
39C24
102
{ACAD_XDICTIONARY
360
303D4FB
102
}
102
{ACAD_REACTORS
330
39C1E
102
}
330
39C1E
100
AcDbVisualStyle
  2

 70
     4
177
     2
291
     0
 71
     0
176
     1
 72
     2
176
     1
 73
     0
176
     1
 90
        0
176
     1
 40
0.6
176
     1
 41
30.0
176
     1
 63
     7
176
     1
 74
     1
176
     1
 91
        4
176
     1
 64
     7
176
     1
 65
   257
176
     1
 75
     1
176
     1
175
     1
176
     1
 42
1.0
176
     1
 92
        0
176
     1
 66
   257
176
     1
 43
1.0
176
     1
 76
     1
176
     1
 77
     6
176
     1
 78
     2
176
     1
 67
     7
176
     1
 79
     5
176
     1
170
     0
176
     1
171
     0
176
     1
290
     0
176
     1
 93
        1
176
     1
 44
0.0
176
     1
173
     0
176
     1
1001
ACAD
1000
AcDbSavedByObjectVersion
1070
     0
  0
VISUALSTYLE
  5
39C26
102
{ACAD_XDICTIONARY
360
303D4FF
102
}
102
{ACAD_REACTORS
330
39C1E
102
}
330
39C1E
100
AcDbVisualStyle
  2

 70
     6
177
     2
291
     0
 71
     1
176
     1
 72
     2
176
     1
 73
     2
176
     1
 90
        0
176
     1
 40
0.6
176
     1
 41
30.0
176
     1
 63
     7
176
     1
 74
     2
176
     1
 91
        2
176
     1
 64
     7
176
     1
 65
   257
176
     1
 75
     2
176
     1
175
     1
176
     1
 42
40.0
176
     1
 92
        0
176
     1
 66
   257
176
     1
 43
1.0
176
     1
 76
     1
176
     1
 77
     6
176
     1
 78
     2
176
     1
 67
     7
176
     1
 79
     3
176
     1
170
     0
176
     1
171
     0
176
     1
290
     0
176
     1
 93
        1
176
     1
 44
0.0
176
     1
173
     0
176
     1
1001
ACAD
1000
AcDbSavedByObjectVersion
1070
     0
  0
VISUALSTYLE
  5
39C25
102
{ACAD_XDICTIONARY
360
303D4FD
102
}
102
{ACAD_REACTORS
330
39C1E
102
}
330
39C1E
100
AcDbVisualStyle
  2

 70
     5
177
     2
291
     0
 71
     0
176
     1
 72
     2
176
     1
 73
     0
176
     1
 90
        0
176
     1
 40
0.6
176
     1
 41
30.0
176
     1
 63
     7
176
     1
 74
     1
176
     1
 91
        4
176
     1
 64
     7
176
     1
 65
   257
176
     1
 75
     1
176
     1
175
     1
176
     1
 42
1.0
176
     1
 92
        0
176
     1
 66
   257
176
     1
 43
1.0
176
     1
 76
     1
176
     1
 77
     6
176
     1
 78
     2
176
     1
 67
     7
176
     1
 79
     5
176
     1
170
     0
176
     1
171
     0
176
     1
290
     0
176
     1
 93
        1
176
     1
 44
0.0
176
     1
173
     0
176
     1
1001
ACAD
1000
AcDbSavedByObjectVersion
1070
     0
  0
VISUALSTYLE
  5
39C23
102
{ACAD_XDICTIONARY
360
303D4F9
102
}
102
{ACAD_REACTORS
330
39C1E
102
}
330
39C1E
100
AcDbVisualStyle
  2

 70
     7
177
     2
291
     1
 71
     1
176
     1
 72
     0
176
     1
 73
     1
176
     1
 90
        0
176
     1
 40
0.6
176
     1
 41
30.0
176
     1
 63
     7
176
     1
 74
     0
176
     1
 91
        4
176
     1
 64
     7
176
     1
 65
   257
176
     1
 75
     1
176
     1
175
     1
176
     1
 42
1.0
176
     1
 92
        8
176
     1
 66
     7
176
     1
 43
1.0
176
     1
 76
     1
176
     1
 77
     6
176
     1
 78
     2
176
     1
 67
     7
176
     1
 79
     5
176
     1
170
     0
176
     1
171
     0
176
     1
290
     0
176
     1
 93
        1
176
     1
 44
0.0
176
     1
173
     0
176
     1
1001
ACAD
1000
AcDbSavedByObjectVersion
1070
     0
  0
VISUALSTYLE
  5
39C2A
102
{ACAD_XDICTIONARY
360
303D507
102
}
102
{ACAD_REACTORS
330
39C1E
102
}
330
39C1E
100
AcDbVisualStyle
  2

 70
    12
177
     2
291
     1
 71
     2
176
     1
 72
     2
176
     1
 73
     0
176
     1
 90
        0
176
     1
 40
0.6
176
     1
 41
30.0
176
     1
 63
     7
176
     1
 74
     1
176
     1
 91
        4
176
     1
 64
     7
176
     1
 65
   257
176
     1
 75
     1
176
     1
175
     1
176
     1
 42
1.0
176
     1
 92
        8
176
     1
 66
     7
176
     1
 43
1.0
176
     1
 76
     1
176
     1
 77
     6
176
     1
 78
     2
176
     1
 67
     7
176
     1
 79
     5
176
     1
170
     0
176
     1
171
     0
176
     1
290
     0
176
     1
 93
        1
176
     1
 44
50.0
176
     1
173
     0
176
     1
1001
ACAD
1000
AcDbSavedByObjectVersion
1070
     0
  0
VISUALSTYLE
  5
39C2E
102
{ACAD_XDICTIONARY
360
303D50F
102
}
102
{ACAD_REACTORS
330
39C1E
102
}
330
39C1E
100
AcDbVisualStyle
  2

 70
    16
177
     2
291
     1
 71
     2
176
     1
 72
     2
176
     1
 73
     3
176
     1
 90
        0
176
     1
 40
0.6
176
     1
 41
30.0
176
     1
 63
     8
176
     1
 74
     1
176
     1
 91
        4
176
     1
 64
     7
176
     1
 65
   257
176
     1
 75
     1
176
     1
175
     1
176
     1
 42
1.0
176
     1
 92
        8
176
     1
 66
     8
176
     1
 43
1.0
176
     1
 76
     1
176
     1
 77
     6
176
     1
 78
     2
176
     1
 67
     7
176
     1
 79
     5
176
     1
170
     0
176
     1
171
     0
176
     1
290
     0
176
     1
 93
        1
176
     1
 44
0.0
176
     1
173
     0
176
     1
1001
ACAD
1000
AcDbSavedByObjectVersion
1070
     0
  0
VISUALSTYLE
  5
39C27
102
{ACAD_XDICTIONARY
360
303D501
102
}
102
{ACAD_REACTORS
330
39C1E
102
}
330
39C1E
100
AcDbVisualStyle
  2

 70
     9
177
     2
291
     0
 71
     3
176
     1
 72
     2
176
     1
 73
     0
176
     1
 90
        0
176
     1
 40
0.6
176
     1
 41
30.0
176
     1
 63
     7
176
     1
 74
     2
176
     1
 91
        2
176
     1
 64
     7
176
     1
 65
   257
176
     1
 75
     1
176
     1
175
     1
176
     1
 42
40.0
176
     1
 92
        8
176
     1
 66
     7
176
     1
 43
1.0
176
     1
 76
     1
176
     1
 77
     6
176
     1
 78
     2
176
     1
 67
     7
176
     1
 79
     3
176
     1
170
     0
176
     1
171
     0
176
     1
290
     0
176
     1
 93
        1
176
     1
 44
0.0
176
     1
173
     0
176
     1
1001
ACAD
1000
AcDbSavedByObjectVersion
1070
     0
  0
VISUALSTYLE
  5
39C29
102
{ACAD_XDICTIONARY
360
303D505
102
}
102
{ACAD_REACTORS
330
39C1E
102
}
330
39C1E
100
AcDbVisualStyle
  2

 70
    11
177
     2
291
     1
 71
     2
176
     1
 72
     2
176
     1
 73
     0
176
     1
 90
        0
176
     1
 40
0.6
176
     1
 41
30.0
176
     1
 63
     7
176
     1
 74
     1
176
     1
 91
        4
176
     1
 64
     7
176
     1
 65
   257
176
     1
 75
     1
176
     1
175
     1
176
     1
 42
1.0
176
     1
 92
        8
176
     1
 66
     7
176
     1
 43
1.0
176
     1
 76
     1
176
     1
 77
     6
176
     1
 78
     2
176
     1
 67
     7
176
     1
 79
     5
176
     1
170
     0
176
     1
171
     0
176
     1
290
     0
176
     1
 93
        1
176
     1
 44
-50.0
176
     1
173
     0
176
     1
1001
ACAD
1000
AcDbSavedByObjectVersion
1070
     0
  0
VISUALSTYLE
  5
303D325
102
{ACAD_XDICTIONARY
360
303D523
102
}
102
{ACAD_REACTORS
330
39C1E
102
}
330
39C1E
100
AcDbVisualStyle
  2

 70
    22
177
     2
291
     1
 71
     2
176
     0
 72
     2
176
     0
 73
     0
176
     0
 90
        0
176
     0
 40
0.6
176
     0
 41
30.0
176
     0
 63
     7
421
 16777215
176
     0
 74
     1
176
     0
 91
        4
176
     0
 64
     7
176
     0
 65
   257
176
     0
 75
     1
176
     0
175
     1
176
     0
 42
1.0
176
     0
 92
        8
176
     2
 66
     7
176
     0
 43
1.0
176
     0
 76
     1
176
     0
 77
     6
176
     0
 78
     2
176
     0
 67
     7
176
     0
 79
     5
176
     0
170
     0
176
     0
171
     0
176
     0
290
     0
176
     0
 93
        1
176
     0
 44
0.0
176
     0
173
     0
176
     0
1001
ACAD
1000
AcDbSavedByObjectVersion
1070
     0
  0
VISUALSTYLE
  5
39C2D
102
{ACAD_XDICTIONARY
360
303D50D
102
}
102
{ACAD_REACTORS
330
39C1E
102
}
330
39C1E
100
AcDbVisualStyle
  2

 70
    15
177
     2
291
     1
 71
     2
176
     1
 72
     2
176
     1
 73
     0
176
     1
 90
        0
176
     1
 40
0.6
176
     1
 41
30.0
176
     1
 63
     7
176
     1
 74
     1
176
     1
 91
        4
176
     1
 64
     7
176
     1
 65
   257
176
     1
 75
     1
176
     1
175
     1
176
     1
 42
1.0
176
     1
 92
        8
176
     1
 66
     7
176
     1
 43
1.0
176
     1
 76
     1
176
     1
 77
     6
176
     1
 78
     2
176
     1
 67
     7
176
     1
 79
     5
176
     1
170
     0
176
     1
171
     0
176
     1
290
     0
176
     1
 93
        1
176
     1
 44
0.0
176
     1
173
     0
176
     1
1001
ACAD
1000
AcDbSavedByObjectVersion
1070
     0
  0
VISUALSTYLE
  5
39C1F
102
{ACAD_XDICTIONARY
360
303D4F1
102
}
102
{ACAD_REACTORS
330
39C1E
102
}
330
39C1E
100
AcDbVisualStyle
  2

 70
     0
177
     2
291
     1
 71
     2
176
     1
 72
     1
176
     1
 73
     1
176
     1
 90
        2
176
     1
 40
0.6
176
     1
 41
30.0
176
     1
 63
     7
176
     1
 74
     0
176
     1
 91
        4
176
     1
 64
     7
176
     1
 65
   257
176
     1
 75
     1
176
     1
175
     1
176
     1
 42
1.0
176
     1
 92
        8
176
     1
 66
     7
176
     1
 43
1.0
176
     1
 76
     1
176
     1
 77
     6
176
     1
 78
     2
176
     1
 67
     7
176
     1
 79
     5
176
     1
170
     0
176
     1
171
     0
176
     1
290
     0
176
     1
 93
       13
176
     1
 44
0.0
176
     1
173
     0
176
     1
1001
ACAD
1000
AcDbSavedByObjectVersion
1070
     0
  0
VISUALSTYLE
  5
39C20
102
{ACAD_XDICTIONARY
360
303D4F3
102
}
102
{ACAD_REACTORS
330
39C1E
102
}
330
39C1E
100
AcDbVisualStyle
  2

 70
     1
177
     2
291
     1
 71
     2
176
     1
 72
     1
176
     1
 73
     1
176
     1
 90
        2
176
     1
 40
0.6
176
     1
 41
30.0
176
     1
 63
     7
176
     1
 74
     1
176
     1
 91
        4
176
     1
 64
     7
176
     1
 65
   257
176
     1
 75
     1
176
     1
175
     1
176
     1
 42
1.0
176
     1
 92
        0
176
     1
 66
   257
176
     1
 43
1.0
176
     1
 76
     1
176
     1
 77
     6
176
     1
 78
     2
176
     1
 67
     7
176
     1
 79
     5
176
     1
170
     0
176
     1
171
     0
176
     1
290
     0
176
     1
 93
       13
176
     1
 44
0.0
176
     1
173
     0
176
     1
1001
ACAD
1000
AcDbSavedByObjectVersion
1070
     0
  0
VISUALSTYLE
  5
39C21
102
{ACAD_XDICTIONARY
360
303D4F5
102
}
102
{ACAD_REACTORS
330
39C1E
102
}
330
39C1E
100
AcDbVisualStyle
  2

 70
     2
177
     2
291
     1
 71
     2
176
     1
 72
     2
176
     1
 73
     1
176
     1
 90
        2
176
     1
 40
0.6
176
     1
 41
30.0
176
     1
 63
     7
176
     1
 74
     0
176
     1
 91
        4
176
     1
 64
     7
176
     1
 65
   257
176
     1
 75
     1
176
     1
175
     1
176
     1
 42
1.0
176
     1
 92
        0
176
     1
 66
     7
176
     1
 43
1.0
176
     1
 76
     1
176
     1
 77
     6
176
     1
 78
     2
176
     1
 67
     7
176
     1
 79
     5
176
     1
170
     0
176
     1
171
     0
176
     1
290
     0
176
     1
 93
       13
176
     1
 44
0.0
176
     1
173
     0
176
     1
1001
ACAD
1000
AcDbSavedByObjectVersion
1070
     0
  0
VISUALSTYLE
  5
39C22
102
{ACAD_XDICTIONARY
360
303D4F7
102
}
102
{ACAD_REACTORS
330
39C1E
102
}
330
39C1E
100
AcDbVisualStyle
  2

 70
     3
177
     2
291
     1
 71
     2
176
     1
 72
     2
176
     1
 73
     1
176
     1
 90
        2
176
     1
 40
0.6
176
     1
 41
30.0
176
     1
 63
     7
176
     1
 74
     1
176
     1
 91
        4
176
     1
 64
     7
176
     1
 65
   257
176
     1
 75
     1
176
     1
175
     1
176
     1
 42
1.0
176
     1
 92
        0
176
     1
 66
   257
176
     1
 43
1.0
176
     1
 76
     1
176
     1
 77
     6
176
     1
 78
     2
176
     1
 67
     7
176
     1
 79
     5
176
     1
170
     0
176
     1
171
     0
176
     1
290
     0
176
     1
 93
       13
176
     1
 44
0.0
176
     1
173
     0
176
     1
1001
ACAD
1000
AcDbSavedByObjectVersion
1070
     0
  0
VISUALSTYLE
  5
303D31D
102
{ACAD_XDICTIONARY
360
303D513
102
}
102
{ACAD_REACTORS
330
39C1E
102
}
330
39C1E
100
AcDbVisualStyle
  2

 70
     6
177
     2
291
     0
 71
     1
176
     1
 72
     2
176
     1
 73
     2
176
     1
 90
        0
176
     1
 40
0.6
176
     1
 41
30.0
176
     1
 63
     7
421
 16777215
176
     1
 74
     2
176
     1
 91
        2
176
     1
 64
     7
176
     1
 65
   257
176
     1
 75
     2
176
     1
175
     1
176
     1
 42
40.0
176
     1
 92
        0
176
     1
 66
   257
176
     1
 43
1.0
176
     1
 76
     1
176
     1
 77
     6
176
     1
 78
     2
176
     1
 67
     7
176
     1
 79
     3
176
     1
170
     0
176
     1
171
     0
176
     1
290
     0
176
     1
 93
        1
176
     1
 44
0.0
176
     1
173
     0
176
     1
1001
ACAD
1000
AcDbSavedByObjectVersion
1070
     0
  0
VISUALSTYLE
  5
303D323
102
{ACAD_XDICTIONARY
360
303D51F
102
}
102
{ACAD_REACTORS
330
39C1E
102
}
330
39C1E
100
AcDbVisualStyle
  2

 70
    20
177
     2
291
     1
 71
     2
176
     0
 72
     2
176
     0
 73
     0
176
     0
 90
        0
176
     0
 40
0.6
176
     0
 41
30.0
176
     0
 63
     7
421
 16777215
176
     0
 74
     1
176
     0
 91
        4
176
     0
 64
     7
176
     0
 65
   257
176
     0
 75
     1
176
     0
175
     1
176
     0
 42
1.0
176
     0
 92
       10
176
     2
 66
     7
176
     0
 43
1.0
176
     0
 76
     1
176
     0
 77
     6
176
     0
 78
     2
176
     0
 67
     7
176
     0
 79
     5
176
     0
170
     0
176
     0
171
     0
176
     0
290
     0
176
     0
 93
        1
176
     0
 44
0.0
176
     0
173
     0
176
     0
1001
ACAD
1000
AcDbSavedByObjectVersion
1070
     0
  0
VISUALSTYLE
  5
39C2C
102
{ACAD_XDICTIONARY
360
303D50B
102
}
102
{ACAD_REACTORS
330
39C1E
102
}
330
39C1E
100
AcDbVisualStyle
  2

 70
    14
177
     2
291
     1
 71
     2
176
     1
 72
     2
176
     1
 73
     0
176
     1
 90
        0
176
     1
 40
0.6
176
     1
 41
30.0
176
     1
 63
     7
176
     1
 74
     1
176
     1
 91
        4
176
     1
 64
     7
176
     1
 65
   257
176
     1
 75
     7
176
     1
175
     7
176
     1
 42
1.0
176
     1
 92
        8
176
     1
 66
     7
176
     1
 43
1.0
176
     1
 76
     1
176
     1
 77
     6
176
     1
 78
     2
176
     1
 67
     7
176
     1
 79
     5
176
     1
170
     0
176
     1
171
     0
176
     1
290
     0
176
     1
 93
        1
176
     1
 44
0.0
176
     1
173
     0
176
     1
1001
ACAD
1000
AcDbSavedByObjectVersion
1070
     0
  0
VISUALSTYLE
  5
303D324
102
{ACAD_XDICTIONARY
360
303D521
102
}
102
{ACAD_REACTORS
330
39C1E
102
}
330
39C1E
100
AcDbVisualStyle
  2

 70
    21
177
     2
291
     1
 71
     2
176
     0
 72
     2
176
     0
 73
     0
176
     0
 90
        0
176
     0
 40
0.6
176
     0
 41
30.0
176
     0
 63
     7
421
 16777215
176
     0
 74
     1
176
     0
 91
        4
176
     0
 64
     7
176
     0
 65
   257
176
     0
 75
     1
176
     0
175
     1
176
     0
 42
1.0
176
     0
 92
        9
176
     2
 66
     7
176
     0
 43
1.0
176
     0
 76
     1
176
     0
 77
     6
176
     0
 78
     2
176
     0
 67
     7
176
     0
 79
     5
176
     0
170
     0
176
     0
171
     0
176
     0
290
     0
176
     0
 93
        1
176
     0
 44
0.0
176
     0
173
     0
176
     0
1001
ACAD
1000
AcDbSavedByObjectVersion
1070
     0
  0
VISUALSTYLE
  5
39C28
102
{ACAD_XDICTIONARY
360
303D503
102
}
102
{ACAD_REACTORS
330
39C1E
102
}
330
39C1E
100
AcDbVisualStyle
  2

 70
     8
177
     2
291
     0
 71
     2
176
     1
 72
     2
176
     1
 73
     0
176
     1
 90
        0
176
     1
 40
0.6
176
     1
 41
30.0
176
     1
 63
     7
176
     1
 74
     1
176
     1
 91
        0
176
     1
 64
     7
176
     1
 65
   257
176
     1
 75
     1
176
     1
175
     1
176
     1
 42
1.0
176
     1
 92
        8
176
     1
 66
     8
176
     1
 43
1.0
176
     1
 76
     1
176
     1
 77
     6
176
     1
 78
     2
176
     1
 67
     7
176
     1
 79
     5
176
     1
170
     0
176
     1
171
     0
176
     1
290
     0
176
     1
 93
       13
176
     1
 44
0.0
176
     1
173
     0
176
     1
1001
ACAD
1000
AcDbSavedByObjectVersion
1070
     0
  0
VISUALSTYLE
  5
303D322
102
{ACAD_XDICTIONARY
360
303D51D
102
}
102
{ACAD_REACTORS
330
39C1E
102
}
330
39C1E
100
AcDbVisualStyle
  2

 70
    27
177
     2
291
     0
 71
     2
176
     1
 72
     2
176
     1
 73
     1
176
     1
 90
        2
176
     1
 40
0.6
176
     1
 41
30.0
176
     1
 63
     7
421
 16777215
176
     1
 74
     0
176
     1
 91
        4
176
     1
 64
     7
176
     1
 65
   257
176
     1
 75
     1
176
     1
175
     1
176
     1
 42
1.0
176
     1
 92
        8
176
     1
 66
   257
176
     1
 43
1.0
176
     1
 76
     1
176
     1
 77
     6
176
     1
 78
     2
176
     1
 67
     8
425
  7895160
176
     1
 79
     3
176
     1
170
     0
176
     1
171
     0
176
     1
290
     0
176
     1
 93
        5
176
     1
 44
0.0
176
     1
173
     0
176
     1
1001
ACAD
1000
AcDbSavedByObjectVersion
1070
     0
  0
VISUALSTYLE
  5
303D321
102
{ACAD_XDICTIONARY
360
303D51B
102
}
102
{ACAD_REACTORS
330
39C1E
102
}
330
39C1E
100
AcDbVisualStyle
  2

 70
    26
177
     2
291
     0
 71
     2
176
     1
 72
     2
176
     1
 73
     1
176
     1
 90
        2
176
     1
 40
0.6
176
     1
 41
30.0
176
     1
 63
     7
421
 16777215
176
     1
 74
     1
176
     1
 91
        2
176
     1
 64
     7
176
     1
 65
   257
176
     1
 75
     2
176
     1
175
     1
176
     1
 42
1.0
176
     1
 92
        8
176
     1
 66
   257
176
     1
 43
1.0
176
     1
 76
     1
176
     1
 77
     6
176
     1
 78
     2
176
     1
 67
     7
176
     1
 79
     3
176
     1
170
     0
176
     1
171
     0
176
     1
290
     0
176
     1
 93
        5
176
     1
 44
0.0
176
     1
173
     0
176
     1
1001
ACAD
1000
AcDbSavedByObjectVersion
1070
     0
  0
VISUALSTYLE
  5
303D31E
102
{ACAD_XDICTIONARY
360
303D515
102
}
102
{ACAD_REACTORS
330
39C1E
102
}
330
39C1E
100
AcDbVisualStyle
  2

 70
    23
177
     2
291
     0
 71
     2
176
     1
 72
     2
176
     1
 73
     3
176
     1
 90
        0
176
     1
 40
0.6
176
     1
 41
30.0
176
     1
 63
     7
421
 16777215
176
     1
 74
     2
176
     1
 91
        2
176
     1
 64
     7
176
     1
 65
     7
176
     1
 75
     1
176
     1
175
     1
176
     1
 42
40.0
176
     1
 92
        8
176
     1
 66
     7
176
     1
 43
1.0
176
     1
 76
     1
176
     1
 77
     6
176
     1
 78
     2
176
     1
 67
     7
176
     1
 79
     3
176
     1
170
     0
176
     1
171
     0
176
     1
290
     0
176
     1
 93
        1
176
     1
 44
0.0
176
     1
173
     0
176
     1
1001
ACAD
1000
AcDbSavedByObjectVersion
1070
     0
  0
VISUALSTYLE
  5
303D31F
102
{ACAD_XDICTIONARY
360
303D517
102
}
102
{ACAD_REACTORS
330
39C1E
102
}
330
39C1E
100
AcDbVisualStyle
  2

 70
    24
177
     2
291
     0
 71
     1
176
     1
 72
     2
176
     1
 73
     2
176
     1
 90
        0
176
     1
 40
0.6
176
     1
 41
30.0
176
     1
 63
     7
421
 16777215
176
     1
 74
     2
176
     1
 91
        2
176
     1
 64
     7
176
     1
 65
     7
176
     1
 75
     1
176
     1
175
     1
176
     1
 42
40.0
176
     1
 92
       11
176
     1
 66
     7
176
     1
 43
1.0
176
     1
 76
     1
176
     1
 77
     6
176
     1
 78
     2
176
     1
 67
     7
176
     1
 79
     6
176
     1
170
     0
176
     1
171
     0
176
     1
290
     0
176
     1
 93
        1
176
     1
 44
0.0
176
     1
173
     0
176
     1
1001
ACAD
1000
AcDbSavedByObjectVersion
1070
     0
  0
VISUALSTYLE
  5
39C2B
102
{ACAD_XDICTIONARY
360
303D509
102
}
102
{ACAD_REACTORS
330
39C1E
102
}
330
39C1E
100
AcDbVisualStyle
  2

 70
    13
177
     2
291
     1
 71
     2
176
     1
 72
     2
176
     1
 73
     0
176
     1
 90
        0
176
     1
 40
0.6
176
     1
 41
30.0
176
     1
 63
     7
176
     1
 74
     1
176
     1
 91
        4
176
     1
 64
     7
176
     1
 65
   257
176
     1
 75
     1
176
     1
175
     1
176
     1
 42
1.0
176
     1
 92
       12
176
     1
 66
     7
176
     1
 43
1.0
176
     1
 76
     1
176
     1
 77
     6
176
     1
 78
     2
176
     1
 67
     7
176
     1
 79
     5
176
     1
170
     0
176
     1
171
     0
176
     1
290
     0
176
     1
 93
        1
176
     1
 44
0.0
176
     1
173
     0
176
     1
1001
ACAD
1000
AcDbSavedByObjectVersion
1070
     0
  0
VISUALSTYLE
  5
303D31C
102
{ACAD_XDICTIONARY
360
303D511
102
}
102
{ACAD_REACTORS
330
39C1E
102
}
330
39C1E
100
AcDbVisualStyle
  2

 70
     5
177
     2
291
     0
 71
     0
176
     1
 72
     2
176
     1
 73
     0
176
     1
 90
        0
176
     1
 40
0.6
176
     1
 41
30.0
176
     1
 63
     7
421
 16777215
176
     1
 74
     1
176
     1
 91
        4
176
     1
 64
     7
176
     1
 65
   257
176
     1
 75
     1
176
     1
175
     1
176
     1
 42
1.0
176
     1
 92
        0
176
     1
 66
   257
176
     1
 43
1.0
176
     1
 76
     1
176
     1
 77
     6
176
     1
 78
     2
176
     1
 67
     7
176
     1
 79
     3
176
     1
170
     0
176
     1
171
     0
176
     1
290
     0
176
     1
 93
        1
176
     1
 44
0.0
176
     1
173
     0
176
     1
1001
ACAD
1000
AcDbSavedByObjectVersion
1070
     0
  0
VISUALSTYLE
  5
303D320
102
{ACAD_XDICTIONARY
360
303D519
102
}
102
{ACAD_REACTORS
330
39C1E
102
}
330
39C1E
100
AcDbVisualStyle
  2

 70
    25
177
     2
291
     0
 71
     2
176
     1
 72
     2
176
     1
 73
     1
176
     1
 90
        1
176
     1
 40
0.5
176
     1
 41
30.0
176
     1
 63
     7
421
 16777215
176
     1
 74
     1
176
     1
 91
        0
176
     1
 64
     7
176
     1
 65
   257
176
     1
 75
     1
176
     1
175
     1
176
     1
 42
1.0
176
     1
 92
        8
176
     1
 66
     7
176
     1
 43
1.0
176
     1
 76
     1
176
     1
 77
     6
176
     1
 78
     2
176
     1
 67
     7
176
     1
 79
     3
176
     1
170
     0
176
     1
171
     0
176
     1
290
     0
176
     1
 93
       13
176
     1
 44
0.0
176
     1
173
     0
176
     1
1001
ACAD
1000
AcDbSavedByObjectVersion
1070
     0
  0
DICTIONARYVAR
  5
303D363
102
{ACAD_REACTORS
330
210D7
102
}
330
210D7
100
DictionaryVariables
280
     0
  1
1:1
  0
DICTIONARYVAR
  5
303D360
102
{ACAD_REACTORS
330
210D7
102
}
330
210D7
100
DictionaryVariables
280
     0
  1
STANDARD
  0
DICTIONARYVAR
  5
39C39
102
{ACAD_REACTORS
330
210D7
102
}
330
210D7
100
DictionaryVariables
280
     0
  1
STANDARD
  0
DICTIONARYVAR
  5
303D361
102
{ACAD_REACTORS
330
210D7
102
}
330
210D7
100
DictionaryVariables
280
     0
  1
Imperial24
  0
DICTIONARYVAR
  5
303D362
102
{ACAD_REACTORS
330
210D7
102
}
330
210D7
100
DictionaryVariables
280
     0
  1
Imperial24
  0
DICTIONARYVAR
  5
3BD64
102
{ACAD_REACTORS
330
210D7
102
}
330
210D7
100
DictionaryVariables
280
     0
  1
1
  0
DICTIONARYVAR
  5
3BD63
102
{ACAD_REACTORS
330
210D7
102
}
330
210D7
100
DictionaryVariables
280
     0
  1
0
  0
DICTIONARYVAR
  5
303D4A4
102
{ACAD_REACTORS
330
210D7
102
}
330
210D7
100
DictionaryVariables
280
     0
  1
1
  0
DICTIONARYVAR
  5
303D4A5
102
{ACAD_REACTORS
330
210D7
102
}
330
210D7
100
DictionaryVariables
280
     0
  1
15
  0
DICTIONARYVAR
  5
303D4A3
102
{ACAD_REACTORS
330
210D7
102
}
330
210D7
100
DictionaryVariables
280
     0
  1
0
  0
DICTIONARYVAR
  5
303D4A2
102
{ACAD_REACTORS
330
210D7
102
}
330
210D7
100
DictionaryVariables
280
     0
  1
0
  0
DICTIONARYVAR
  5
210D8
102
{ACAD_REACTORS
330
210D7
102
}
330
210D7
100
DictionaryVariables
280
     0
  1
96
  0
DICTIONARY
  5
303D4F0
102
{ACAD_REACTORS
330
303D4EE
102
}
330
303D4EE
100
AcDbDictionary
281
     1
  0
DICTIONARY
  5
303D4EF
102
{ACAD_REACTORS
330
303D4EE
102
}
330
303D4EE
100
AcDbDictionary
281
     1
  3
8796087858448
350
303D4E9
  3
8796087858464
350
303D4EA
  3
8796087858480
350
303D4EB
  3
8796087858496
350
303D4EC
  3
8796087858512
350
303D4ED
  0
DICTIONARY
  5
303D527
330
303D33D
100
AcDbDictionary
280
     1
281
     1
  3
ACAD_XREC_ROUNDTRIP
360
303D528
  0
DICTIONARY
  5
39C40
330
39BF6
100
AcDbDictionary
280
     1
281
     1
  3
ADSK_XREC_LAYOUTTHUMBNAIL
360
39C41
  0
DICTIONARY
  5
3BDEF
330
39C1C
100
AcDbDictionary
280
     1
281
     1
  3
ACAD_XREC_ROUNDTRIP
360
3BDF0
  0
DICTIONARY
  5
3BDED
330
39C1B
100
AcDbDictionary
280
     1
281
     1
  3
ACAD_XREC_ROUNDTRIP
360
3BDEE
  0
DICTIONARY
  5
3BDF1
330
39C1D
100
AcDbDictionary
280
     1
281
     1
  3
ACAD_XREC_ROUNDTRIP
360
3BDF2
  0
DICTIONARY
  5
303D525
330
303D33B
100
AcDbDictionary
280
     1
281
     1
  3
ACAD_XREC_ROUNDTRIP
360
303D526
  0
DICTIONARY
  5
303D3BB
330
39C30
100
AcDbDictionary
280
     1
281
     1
  3
ACAD_ROUNDTRIP_2008_TABLESTYLE_CELLSTYLEMAP
360
303D4E7
  0
DICTIONARY
  5
303D4FB
330
39C24
100
AcDbDictionary
280
     1
281
     1
  3
ACAD_XREC_ROUNDTRIP
360
303D4FC
  0
DICTIONARY
  5
303D4FF
330
39C26
100
AcDbDictionary
280
     1
281
     1
  3
ACAD_XREC_ROUNDTRIP
360
303D500
  0
DICTIONARY
  5
303D4FD
330
39C25
100
AcDbDictionary
280
     1
281
     1
  3
ACAD_XREC_ROUNDTRIP
360
303D4FE
  0
DICTIONARY
  5
303D4F9
330
39C23
100
AcDbDictionary
280
     1
281
     1
  3
ACAD_XREC_ROUNDTRIP
360
303D4FA
  0
DICTIONARY
  5
303D507
330
39C2A
100
AcDbDictionary
280
     1
281
     1
  3
ACAD_XREC_ROUNDTRIP
360
303D508
  0
DICTIONARY
  5
303D50F
330
39C2E
100
AcDbDictionary
280
     1
281
     1
  3
ACAD_XREC_ROUNDTRIP
360
303D510
  0
DICTIONARY
  5
303D501
330
39C27
100
AcDbDictionary
280
     1
281
     1
  3
ACAD_XREC_ROUNDTRIP
360
303D502
  0
DICTIONARY
  5
303D505
330
39C29
100
AcDbDictionary
280
     1
281
     1
  3
ACAD_XREC_ROUNDTRIP
360
303D506
  0
DICTIONARY
  5
303D523
330
303D325
100
AcDbDictionary
280
     1
281
     1
  3
ACAD_XREC_ROUNDTRIP
360
303D524
  0
DICTIONARY
  5
303D50D
330
39C2D
100
AcDbDictionary
280
     1
281
     1
  3
ACAD_XREC_ROUNDTRIP
360
303D50E
  0
DICTIONARY
  5
303D4F1
330
39C1F
100
AcDbDictionary
280
     1
281
     1
  3
ACAD_XREC_ROUNDTRIP
360
303D4F2
  0
DICTIONARY
  5
303D4F3
330
39C20
100
AcDbDictionary
280
     1
281
     1
  3
ACAD_XREC_ROUNDTRIP
360
303D4F4
  0
DICTIONARY
  5
303D4F5
330
39C21
100
AcDbDictionary
280
     1
281
     1
  3
ACAD_XREC_ROUNDTRIP
360
303D4F6
  0
DICTIONARY
  5
303D4F7
330
39C22
100
AcDbDictionary
280
     1
281
     1
  3
ACAD_XREC_ROUNDTRIP
360
303D4F8
  0
DICTIONARY
  5
303D513
330
303D31D
100
AcDbDictionary
280
     1
281
     1
  3
ACAD_XREC_ROUNDTRIP
360
303D514
  0
DICTIONARY
  5
303D51F
330
303D323
100
AcDbDictionary
280
     1
281
     1
  3
ACAD_XREC_ROUNDTRIP
360
303D520
  0
DICTIONARY
  5
303D50B
330
39C2C
100
AcDbDictionary
280
     1
281
     1
  3
ACAD_XREC_ROUNDTRIP
360
303D50C
  0
DICTIONARY
  5
303D521
330
303D324
100
AcDbDictionary
280
     1
281
     1
  3
ACAD_XREC_ROUNDTRIP
360
303D522
  0
DICTIONARY
  5
303D503
330
39C28
100
AcDbDictionary
280
     1
281
     1
  3
ACAD_XREC_ROUNDTRIP
360
303D504
  0
DICTIONARY
  5
303D51D
330
303D322
100
AcDbDictionary
280
     1
281
     1
  3
ACAD_XREC_ROUNDTRIP
360
303D51E
  0
DICTIONARY
  5
303D51B
330
303D321
100
AcDbDictionary
280
     1
281
     1
  3
ACAD_XREC_ROUNDTRIP
360
303D51C
  0
DICTIONARY
  5
303D515
330
303D31E
100
AcDbDictionary
280
     1
281
     1
  3
ACAD_XREC_ROUNDTRIP
360
303D516
  0
DICTIONARY
  5
303D517
330
303D31F
100
AcDbDictionary
280
     1
281
     1
  3
ACAD_XREC_ROUNDTRIP
360
303D518
  0
DICTIONARY
  5
303D509
330
39C2B
100
AcDbDictionary
280
     1
281
     1
  3
ACAD_XREC_ROUNDTRIP
360
303D50A
  0
DICTIONARY
  5
303D511
330
303D31C
100
AcDbDictionary
280
     1
281
     1
  3
ACAD_XREC_ROUNDTRIP
360
303D512
  0
DICTIONARY
  5
303D519
330
303D320
100
AcDbDictionary
280
     1
281
     1
  3
ACAD_XREC_ROUNDTRIP
360
303D51A
  0
XRECORD
  5
303D4E9
102
{ACAD_REACTORS
330
303D4EF
102
}
330
303D4EF
100
AcDbXrecord
280
     1
  1
AcDb_Thumbnail_Schema
102
{ATTRRECORD
341
303D4EA
  2
AcDbDs::TreatedAsObjectData
280
     1
291
     1
102
ATTRRECORD}
102
{ATTRRECORD
341
303D4EB
  2
AcDbDs::Legacy
280
     1
291
     1
102
ATTRRECORD}
  2
AcDbDs::ID
280
    10
 91
        8
102
{ATTRRECORD
341
303D4EC
  2
AcDs:Indexable
280
     1
291
     1
102
ATTRRECORD}
102
{ATTRRECORD
341
303D4ED
  2
AcDbDs::HandleAttribute
280
     7
282
     1
102
ATTRRECORD}
  2
Thumbnail_Data
280
    15
 91
        0
  0
XRECORD
  5
303D4EA
102
{ACAD_REACTORS
330
303D4EF
102
}
330
303D4EF
100
AcDbXrecord
280
     1
  1
AcDbDs::TreatedAsObjectDataSchema
  2
AcDbDs::TreatedAsObjectData
280
     1
 91
        0
  0
XRECORD
  5
303D4EB
102
{ACAD_REACTORS
330
303D4EF
102
}
330
303D4EF
100
AcDbXrecord
280
     1
  1
AcDbDs::LegacySchema
  2
AcDbDs::Legacy
280
     1
 91
        0
  0
XRECORD
  5
303D4EC
102
{ACAD_REACTORS
330
303D4EF
102
}
330
303D4EF
100
AcDbXrecord
280
     1
  1
AcDbDs::IndexedPropertySchema
  2
AcDs:Indexable
280
     1
 91
        0
  0
XRECORD
  5
303D4ED
102
{ACAD_REACTORS
330
303D4EF
102
}
330
303D4EF
100
AcDbXrecord
280
     1
  1
AcDbDs::HandleAttributeSchema
  2
AcDbDs::HandleAttribute
280
     7
 91
        1
284
     1
  0
XRECORD
  5
303D528
102
{ACAD_REACTORS
330
303D527
102
}
330
303D527
100
AcDbXrecord
280
     1
102
DISPLAYNAME
  1
Imperial24
102
FLAGS
 90
        0
  0
XRECORD
  5
39C41
102
{ACAD_REACTORS
330
39C40
102
}
330
39C40
100
AcDbXrecord
280
     1
310
28000000620000008C0000000100080000000000B036000000000000000000000001000000000000FFFFFF0000000000FFFFFF000000000000000000000000000000000000000000000000000000000000000000330000006600000099000000CC000000FF00000000330000333300006633000099330000CC330000FF3300
310
0000660000336600006666000099660000CC660000FF66000000990000339900006699000099990000CC990000FF99000000CC000033CC000066CC000099CC0000CCCC0000FFCC000000FF000033FF000066FF000099FF0000CCFF0000FFFF000000003300330033006600330099003300CC003300FF003300003333003333
310
33006633330099333300CC333300FF33330000663300336633006666330099663300CC663300FF66330000993300339933006699330099993300CC993300FF99330000CC330033CC330066CC330099CC3300CCCC3300FFCC330000FF330033FF330066FF330099FF3300CCFF3300FFFF330000006600330066006600660099
310
006600CC006600FF00660000336600333366006633660099336600CC336600FF33660000666600336666006666660099666600CC666600FF66660000996600339966006699660099996600CC996600FF99660000CC660033CC660066CC660099CC6600CCCC6600FFCC660000FF660033FF660066FF660099FF6600CCFF6600
310
FFFF660000009900330099006600990099009900CC009900FF00990000339900333399006633990099339900CC339900FF33990000669900336699006666990099669900CC669900FF66990000999900339999006699990099999900CC999900FF99990000CC990033CC990066CC990099CC9900CCCC9900FFCC990000FF99
310
0033FF990066FF990099FF9900CCFF9900FFFF99000000CC003300CC006600CC009900CC00CC00CC00FF00CC000033CC003333CC006633CC009933CC00CC33CC00FF33CC000066CC003366CC006666CC009966CC00CC66CC00FF66CC000099CC003399CC006699CC009999CC00CC99CC00FF99CC0000CCCC0033CCCC0066CC
310
CC0099CCCC00CCCCCC00FFCCCC0000FFCC0033FFCC0066FFCC0099FFCC00CCFFCC00FFFFCC000000FF003300FF006600FF009900FF00CC00FF00FF00FF000033FF003333FF006633FF009933FF00CC33FF00FF33FF000066FF003366FF006666FF009966FF00CC66FF00FF66FF000099FF003399FF006699FF009999FF00CC
310
99FF00FF99FF0000CCFF0033CCFF0066CCFF0099CCFF00CCCCFF00FFCCFF0000FFFF0033FFFF0066FFFF0099FFFF00CCFFFF00FFFFFF00000000000D0D0D001A1A1A00282828003535350043434300505050005D5D5D006B6B6B00787878008686860093939300A1A1A100AEAEAE00BBBBBB00C9C9C900D6D6D600E4E4E400
310
F1F1F100FFFFFF0000000000000000000000000000000000000000000000000000000000000000000000000000000000E2E2E2E2E2E2E2E2E2E2E2E2E2E2E2E2E2E2E2E2E2E2E2E2E2E2E2E2E2E2E2E2E2E2E2E2E2E2E2E2E2E2E2E2E2E2E2E2E2E2E2E2E2E2E2E2E2E2E2E2E2E2E2E2E2E2E2E2E2E2E2E2E2E2E2E2E2E2E2
310
E2E2E2E2E2E2E2E2E2E2E2E2E2E2E2E2E2E2E2813EE2F5F5F5F5F5F5F5F5F5F5F5F5F5F5F5F5F5F5F5F5F5F5F5F5F5F5F5F5F5F5F5F5F5F5F5F5F5F5F5F5F5F5F5F5F5F5F5F5F5F5F5F5F5F5F5F5F5F5F5F5F5F5F5F5F5F5F5F5F5F5F5F5F5F5F5F5F5F5F5F5F5F5F5F5F5F5F5F5F5F5F5F5F5F5F5F5F5AC45E2F5F5F5F5F5
310
F5F5F5F5F5F5F5F5F5F5F5F5F5F5F5F5F5F5F5F5F5F5F5F5F5F5F5F5F5F5F5F5F5F5F5F5F5F5F5F5F5F5F5F5F5F5F5F5F5F5F5F5F5F5F5F5F5F5F5F5F5F5F5F5F5F5F5F5F5F5F5F5F5F5F5F5F5F5F5F5F5F5F5F5F5F5F5F5F5F5F5F5B33EE2F5F5E2E2E2E2E2E2E2E2F5F5F5F5F5F5F5F5E2E2E2E2E2E2E2E2E2E2E2E2E2E2
310
E2F5F5F5F5F5F5F5F5E2E2E2E2E2E2E2E2E2E2E2E2E2E2E2F5F5F5F5F5F5F5F5E2E2E2E2E2E2E2E2E2E2E2E2E2E2E2F5F5F5F5F5F5F5F5E2E2E2E2E2E2E2E2F5F5B645E2F5F5E2F5F5F5F5F5F5F5F5F5F5F5F5F5F5F5F5F5F5F5F5F5F5F5F5F5F5F5F5F5F5F5F5F5F5F5F5F5F5F5F5F5F5F5F5F5F5F5F5F5F5F5F5F5F5F5F5
310
F5F5F5F5F5F5F5F5F5F5F5F5F5F5F5F5F5F5F5F5F5F5F5F5F5F5F5F5F5F5F5F5F5F5F5E2F5F5053FE2F5F5E2F5F5F5F5F5F5F5F5F5F5F5F5F5F5F5F5F5F5F5F5F5F5F5F5F5F5F5F5F5F5F5F5F5F5F5F5F5F5F5F5F5F5F5F5F5F5F5F5F5F5F5F5F5F5F5F5F5F5F5F5F5F5F5F5F5F5F5F5F5F5F5F5F5F5F5F5F5F5F5F5F5F5F5
310
F5F5F5F5F5F5F5F5E2F5F5C745E2F5F5E2F5F5F5F5F5F5F5F5F5F5F5F5F5F5F5F5F5F5F5F5F5F5F5F5F5F5F5F5F5F5F5F5F5F5F5F5F5F5F5F5F5F5F5F5F5F5F5F5F5F5F5F5F5F5F5F5F5F5F5F5F5F5F5F5F5F5F5F5F5F5F5F5F5F5F5F5F5F5F5F5F5F5F5F5F5F5F5F5F5F5F5E2F5F5303FE2F5F5E2F5F5F5F5F5F5F5F5F5F5
310
F5F5F5F5F5F5F5F5F5F5F5F5F5F5F5F5F5F5F5F5F5F5F5F5F5F5F5F5F5F5F5F5F5F5F5F5F5F5F5F5F5F5F5F5F5F5F5F5F5F5F5F5F5F5F5F5F5F5F5F5F5F5F5F5F5F5F5F5F5F5F5F5F5F5F5F5F5F5F5F5F5E2F5F59745E2F5F5E2F5F5F5F5F5F5F5F5F5F5F5F5F5F5F5F5F5F5F5F5F5F5F5F5F5F5F5F5F5F5F5F5F5F5F5F5F5
310
F5F5F5F5F5F5F5F5F5F5F5F5F5F5F5F5F5F5F5F5F5F5F5F5F5F5F5F5F5F5F5F5F5F5F5F5F5F5F5F5F5F5F5F5F5F5F5F5F5F5F5F5F5F5E2F5F5043DE2F5F5E2F5F5F5F5F5F5F5F5F5F5F5F5F5F5F5F5F5F5F5F5F5F5F5F5F5F5F5F5F5F5F5F5F5F5F5F5F5F5F5F5F5F5F5F5F5F5F5F5F5F5F5F5F5F5F5F5F5F5F5F5F5F5F5F5
310
F5F5F5F5F5F5F5F5F5F5F5F5F5F5F5F5F5F5F5F5F5F5F5F5F5F5F5E2F5F57045E2F5F5E2F5F5F5F5F5F5F5F5F5F5F5F5F5F5F5F5F5F5F5F5F5F5F5F5F5F5F5F5F5F5F5F5F5F5F5F5F5F5F5F5F5F5F5F5F5F5F5F5F5F5F5F5F5F5F5F5F5F5F5F5F5F5F5F5F5F5F5F5F5F5F5F5F5F5F5F5F5F5F5F5F5F5F5F5F5F5F5F5F5F5F5
310
E2F5F5473DE2F5F5E2F5F5F5F5F5F5F5F5F5F5F5F5F5F5F5F5F5F5F5F5F5F5F5F5F5F5F5F5F5F5F5F5F5F5F5F5F5F5F5F5F5F5F5F5F5F5F5F5F5F5F5F5F5F5F5F5F5F5F5F5F5F5F5F5F5F5F5F5F5F5F5F5F5F5F5F5F5F5F5F5F5F5F5F5F5F5F5F5F5F5F5E2F5F54345E2F5F5F5F5F5F5F5F5F5F5F5F5F5F5F5F5F5F5F5F5F5
310
F5F5F5F5F5F5F5F5F5F5F5F5F5F5F5F5F5F5F5F5F5F5F5F5F5F5F5F5F5F5F5F5F5F5F5F5F5F5F5F5F5F5F5F5F5F5F5F5F5F5F5F5F5F5F5F5F5F5F5F5F5F5F5F5F5F5F5F5F5F5F5F5F5F5F5F57D3DE2F5F5F5F5F5F5F5F5F5F5F5F5F5F5F5F5F5F5F5F5F5F5F5F5F5F5F5F5F5F5F5F5F5F5F5F5F5F5F5F5F5F5F5F5F5F5F5F5
310
F5F5F5F5F5F5F5F5F5F5F5F5F5F5F5F5F5F5F5F5F5F5F5F5F5F5F5F5F5F5F5F5F5F5F5F5F5F5F5F5F5F5F5F5F5F5F5F5F57045E2F5F5F5F5F5F5F5F5F5F5F5F5F5F5F5F5F5F5F5F5F5F5F5F5F5F5F5F5F5F5F5F5F5F5F5F5F5F5F5F5F5F5F5F5F5F5F5F5F5F5F5F5F5F5F5F5F5F5F5F5F5F5F5F5F5F5F5F5F5F5F5F5F5F5F5
310
F5F5F5F5F5F5F5F5F5F5F5F5F5F5F5F5F5F5F5F5F5F5B33DE2F5F5F5F5F5F5F5F5F5F5F5F5F5F5F5F5F5F5F5F5F5F5F5F5F5F5F5F5F5F5F5F5F5F5F5F5F5F5F5F5F5F5F5F5F5F5F5F5F5F5F5F5F5F5F5F5F5F5F5F5F5F5F5F5F5F5F5F5F5F5F5F5F5F5F5F5F5F5F5F5F5F5F5F5F5F5F5F5F5F5F5F5F5F5F5F5F54345E2F5F5
310
F5F5F5F5F5F5F5F5F5F5F5F5F5F5F5F5F5F5F5F5F5F5F5F5F5F5F5F5F5F5F5F5F5F5F5F5F5F5F5F5F5F5F5F5F5F5F5F5F5F5F5F5F5F5F5F5F5F5F5F5F5F5F5F5F5F5F5F5F5F5F5F5F5F5F5F5F5F5F5F5F5F5F5F5F5F5F5F5F5F5F5F5F5F5F5EA3DE2F5F5F5F5F5F5F5F5F5F5F5F5F5F5F5F5F5F5F5F5F5F5F5F5F5F5F5F5F5
310
F5F5F5F5F5F5F5F5F5F5F5F5F5F5F5F5F5F5F5F5F5F5F5F5F5F5F5F5F5F5F5F5F5F5F5F5F5F5F5F5F5F5F5F5F5F5F5F5F5F5F5F5F5F5F5F5F5F5F5F5F5F5F5F5F5F5F5F54045E2F5F5F5F5F5F5F5F5F5F5F5F5F5F5F5F5F5F5F5F5F5F5F5F5F5F5F5F5F5F5F5F5F5F5F5F5F5F5F5F5F5F5F5F5F5F5F5F5F5F5F5F5F5F5F5F5
310
F5F5F5F5F5F5F5F5F5F5F5F5F5F5F5F5F5F5F5F5F5F5F5F5F5F5F5F5F5F5F5F5F5F5F5F5F5F5F5F5F5513EE2F5F5F5F5F5F5F5F5F5F5F5F5F5F5F5F5F5F5F5F5F5F5F5F5F5F5F5F5F5F5F5F5F5F5F5F5F5F5F5F5F5F5F5F5F5F5F5F5F5F5F5F5F5F5F5F5F5F5F5F5F5F5F5F5F5F5F5F5F5F5F5F5F5F5F5F5F5F5F5F5F5F5F5
310
F5F5F5F5F5F5F5F5F5F5F5F5F5F55445E2F5F5F5F5F5F5F5F5F5F5F5F5F5F5F5F5F5F5F5F5F5F5F5F5F5F5F5F5F5F5F5F5F5F5F5F5F5F5F5F5F5F5F5F5F5F5F5F5F5F5F5F5F5F5F5F5F5F5F5F5F5F5F5F5F5F5F5F5F5F5F5F5F5F5F5F5F5F5F5F5F5F5F5F5F5F5F5F5F5F5F5F5F5F5F5F5F5913EE2F5F5E2F5F5F5F5F5F5F5
310
F5F5F5F5F5F5F5F5F5F5F5F5F5F5F5F5F5F5F5F5F5F5F5F5F5F5F5F5F5F5F5F5F5F5F5F5F5F5F5F5F5F5F5F5F5F5F5F5F5F5F5F5F5F5F5F5F5F5F5F5F5F5F5F5F5F5F5F5F5F5F5F5F5F5F5F5F5F5F5F5F5F5F5F5E2F5F57345E2F5F5E2F5F5F5F5F5F5F5F5F5F5F5F5F5F5F5F5F5F5F5F5F5F5F5F5F5F5F5F5F5F5F5F5F5F5
310
F5F5F5F5F5F5F5F5F5F5F5F5F5F5F5F5F5F5F5F5F5F5F5F5F5F5F5F5F5F5F5F5F5F5F5F5F5F5F5F5F5F5F5F5F5F5F5F5F5F5F5F5F5F5F5F5F5E2F5F5C03EE2F5F5E2F5F5F5F5F5F5F5F5F5F5F5F5F5F5F5F5F5F5F5F5F5F5F5F5F5F5F5F5F5F5F5F5F5F5F5F5F5F5F5F5F5F5F5F5F5F5F5F5F5F5F5F5F5F5F5F5F5F5F5F5F5
310
F5F5F5F5F5F5F5F5F5F5F5F5F5F5F5F5F5F5F5F5F5F5F5F5F5F5F5F5F5F5E2F5F54045E2F5F5E2F5F5F5F5F5F5F5F5F5F5F5F5F5F5F5F5F5F5F5F5F5F5F5F5F5F5F5F5F5F5F5F5F5F5F5F5F5F5F5F5F5F5F5F5F5F5F5F5F5F5F5F5F5F5F5F5F5F5F5F5F5F5F5F5F5F5F5F5F5F5F5F5F5F5F5F5F5F5F5F5F5F5F5F5F5F5F5F5
310
F5F5F5E2F5F5243FE2F5F5E2F5F5F5F5F5F5F5F5F5F5F5F5F5F5F5F5F5F5F5F5F5F5F5F5F5F5F5F5F5F5F5F5F5F5F5F5F5F5F5F5F5F5F5F5F5F5F5F5F5F5F5F5F5F5F5F5F5F5F5F5F5F5F5F5F5F5F5F5F5F5F5F5F5F5F5F5F5F5F5F5F5F5F5F5F5F5F5F5F5F5F5E2F5F54345E2F5F5E2F5F5F5F5F5F5F5F5F5F5F5F5F5F5F5
310
F5F5F5F5F5F5F5F5F5F5F5F5F5F5F5F5F5F5F5F5F5F5F5F5F5F5F5F5F5F5F5F5F5F5F5F5F5F5F5F5F5F5F5F5F5F5F5F5F5F5F5F5F5F5F5F5F5F5F5F5F5F5F5F5F5F5F5F5F5F5F5F5F5F5F5F5E2F5F5443FE2F5F5E2F5F5F5F5F5F5F5F5F5F5F5F5F5F5F5F5F5F5F5F5F5F5F5F5F5F5F5F5F5F5F5F5F5F5F5F5F5F5F5F5F5F5
310
F5F5F5F5F5F5F5F5F5F5F5F5F5F5F5F5F5F5F5F5F5F5F5F5F5F5F5F5F5F5F5F5F5F5F5F5F5F5F5F5F5F5F5F5F5F5F5F5F5E2F5F55B45E2F5F5E2F5F5F5F5F5F5F5F5F5F5F5F5F5F5F5F5F5F5F5F5F5F5F5F5F5F5F5F5F5F5F5F5F5F5F5F5F5F5F5F5F5F5F5F5F5F5F5F5F5F5F5F5F5F5F5F5F5F5F5F5F5F5F5F5F5F5F5F5F5
310
F5F5F5F5F5F5F5F5F5F5F5F5F5F5F5F5F5F5F5F5F5F5E2F5F5483FE2F5F5E2F5F5F5F5F5F5F5F5F5F5F5F5F5F5F5F5F5F5F5F5F5F5F5F5F5F5F5F5F5F5F5F5F5F5F5F5F5F5F5F5F5F5F5F5F5F5F5F5F5F5F5F5F5F5F5F5F5F5F5F5F5F5F5F5F5F5F5F5F5F5F5F5F5F5F5F5F5F5F5F5F5F5F5F5F5F5F5F5F5F5F5E2F5F5EC44
310
E2F5F5E2F5F5F5F5F5F5F5F5F5F5F5F5F5F5F5F5F5F5F5F5F5F5F5F5F5F5F5F5F5F5F5F5F5F5F5F5F5F5F5F5F5F5F5F5F5F5F5F5F5F5F5F5F5F5F5F5F5F5F5F5F5F5F5F5F5F5F5F5F5F5F5F5F5F5F5F5F5F5F5F5F5F5F5F5F5F5F5F5F5F5F5E2F5F5583DE2F5F5E2F5F5F5F5F5F5F5F5F5F5F5F5F5F5F5F5F5F5F5F5F5F5F5
310
F5F5F5F5F5F5F5F5F5F5F5F5F5F5F5F5F5F5F5F5F5F5F5F5F5F5F5F5F5F5F5F5F5F5F5F5F5F5F5F5F5F5F5F5F5F5F5F5F5F5F5F5F5F5F5F5F5F5F5F5F5F5F5F5F5F5F5F5E2F5F50B45E2F5F5E2F5F5F5F5F5F5F5F5F5F5F5F5F5F5F5F5F5F5F5F5F5F5F5F5F5F5F5F5F5F5F5F5F5F5F5F5F5F5F5F5F5F5F5F5F5F5F5F5F5F5
310
F5F5F5F5F5F5F5F5F5F5F5F5F5F5F5F5F5F5F5F5F5F5F5F5F5F5F5F5F5F5F5F5F5F5F5F5F5F5F5F5F5E2F5F57C3DE2F5F5E2F5F5F5F5F5F5F5F5F5F5F5F5F5F5F5F5F5F5F5F5F5F5F5F5F5F5F5F5F5F5F5F5F5F5F5F5F5F5F5F5F5F5F5F5F5F5F5F5F5F5F5F5F5F5F5F5F5F5F5F5F5F5F5F5F5F5F5F5F5F5F5F5F5F5F5F5F5
310
F5F5F5F5F5F5F5F5F5F5F5F5F5F5E2F5F50E45E2F5F5E2F5F5F5F5F5F5F5F5F5F5F5F5F5F5F5F5F5F5F5F5F5F5F5F5F5F5F5F5F5F5F5F5F5F5F5F5F5F5F5F5F5F5F5F5F5F5F5F5F5F5F5F5F5F5F5F5F5F5F5F5F5F5F5F5F5F5F5F5F5F5F5F5F5F5F5F5F5F5F5F5F5F5F5F5F5F5F5F5F5F5F5E2F5F5A73DE2F5F5E2F5F5F5F5
310
F5F5F5F5F5F5F5F5F5F5F5F5F5F5F5F5F5F5F5F5F5F5F5F5F5F5F5F5F5F5F5F5F5F5F5F5F5F5F5F5F5F5F5F5F5F5F5F5F5F5F5F5F5F5F5F5F5F5F5F5F5F5F5F5F5F5F5F5F5F5F5F5F5F5F5F5F5F5F5F5F5F5F5F5F5F5F5E2F5F5EC44E2F5F5E2F5F5F5F5F5F5F5F5F5F5F5F5F5F5F5F5F5F5F5F5F5F5F5F5F5F5F5F5F5F5F5
310
F5F5F5F5F5F5F5F5F5F5F5F5F5F5F5F5F5F5F5F5F5F5F5F5F5F5F5F5F5F5F5F5F5F5F5F5F5F5F5F5F5F5F5F5F5F5F5F5F5F5F5F5F5F5F5F5F5F5F5F5E2F5F5D93DE2F5F5E2F5F5F5F5F5F5F5F5F5F5F5F5F5F5F5F5F5F5F5F5F5F5F5F5F5F5F5F5F5F5F5F5F5F5F5F5F5F5F5F5F5F5F5F5F5F5F5F5F5F5F5F5F5F5F5F5F5F5
310
F5F5F5F5F5F5F5F5F5F5F5F5F5F5F5F5F5F5F5F5F5F5F5F5F5F5F5F5F5F5F5F5F5E2F5F5F344E2F5F5F5F5F5F5F5F5F5F5F5F5F5F5F5F5F5F5F5F5F5F5F5F5F5F5F5F5F5F5F5F5F5F5F5F5F5F5F5F5F5F5F5F5F5F5F5F5F5F5F5F5F5F5F5F5F5F5F5F5F5F5F5F5F5F5F5F5F5F5F5F5F5F5F5F5F5F5F5F5F5F5F5F5F5F5F5F5
310
F5F5F5F5F5F5F5F5F5F73CE2F5F5F5F5F5F5F5F5F5F5F5F5F5F5F5F5F5F5F5F5F5F5F5F5F5F5F5F5F5F5F5F5F5F5F5F5F5F5F5F5F5F5F5F5F5F5F5F5F5F5F5F5F5F5F5F5F5F5F5F5F5F5F5F5F5F5F5F5F5F5F5F5F5F5F5F5F5F5F5F5F5F5F5F5F5F5F5F5F5F5F5F5F5F5F5F5F5B344E2F5F5F5F5F5F5F5F5F5F5F5F5F5F5F5
310
F5F5F5F5F5F5F5F5F5F5F5F5F5F5F5F5F5F5F5F5F5F5F5F5F5F5F5F5F5F5F5F5F5F5F5F5F5F5F5F5F5F5F5F5F5F5F5F5F5F5F5F5F5F5F5F5F5F5F5F5F5F5F5F5F5F5F5F5F5F5F5F5F5F5F5F5F5F5F5F5F5F56A3DE2F5F5F5F5F5F5F5F5F5F5F5F5F5F5F5F5F5F5F5F5F5F5F5F5F5F5F5F5F5F5F5F5F5F5F5F5F5F5F5F5F5F5
310
F5F5F5F5F5F5F5F5F5F5F5F5F5F5F5F5F5F5F5F5F5F5F5F5F5F5F5F5F5F5F5F5F5F5F5F5F5F5F5F5F5F5F5F5F5F5F5F5F5F5F5F5F5F5F5BA44E2F5F5F5F5F5F5F5F5F5F5F5F5F5F5F5F5F5F5F5F5F5F5F5F5F5F5F5F5F5F5F5F5F5F5F5F5F5F5F5F5F5F5F5F5F5F5F5F5F5F5F5F5F5F5F5F5F5F5F5F5F5F5F5F5F5F5F5F5F5
310
F5F5F5F5F5F5F5F5F5F5F5F5F5F5F5F5F5F5F5F5F5F5F5F5F5F5F5F59D3DE2F5F5F5F5F5F5F5F5F5F5F5F5F5F5F5F5F5F5F5F5F5F5F5F5F5F5F5F5F5F5F5F5F5F5F5F5F5F5F5F5F5F5F5F5F5F5F5F5F5F5F5F5F5F5F5F5F5F5F5F5F5F5F5F5F5F5F5F5F5F5F5F5F5F5F5F5F5F5F5F5F5F5F5F5F5F5F5F5F5F5F5F5F5F5F5F5
310
F5AB44E2F5F5F5F5F5F5F5F5F5F5F5F5F5F5F5F5F5F5F5F5F5F5F5F5F5F5F5F5F5F5F5F5F5F5F5F5F5F5F5F5F5F5F5F5F5F5F5F5F5F5F5F5F5F5F5F5F5F5F5F5F5F5F5F5F5F5F5F5F5F5F5F5F5F5F5F5F5F5F5F5F5F5F5F5F5F5F5F5F5F5F5F5F5F5F5F5F5EA3DE2F5F5F5F5F5F5F5F5F5F5F5F5F5F5F5F5F5F5F5F5F5F5F5
310
F5F5F5F5F5F5F5F5F5F5F5F5F5F5F5F5F5F5F5F5F5F5F5F5F5F5F5F5F5F5F5F5F5F5F5F5F5F5F5F5F5F5F5F5F5F5F5F5F5F5F5F5F5F5F5F5F5F5F5F5F5F5F5F5F5F5F5F5F5F5F5F5F5F5C844E2F5F5F5F5F5F5F5F5F5F5F5F5F5F5F5F5F5F5F5F5F5F5F5F5F5F5F5F5F5F5F5F5F5F5F5F5F5F5F5F5F5F5F5F5F5F5F5F5F5F5
310
F5F5F5F5F5F5F5F5F5F5F5F5F5F5F5F5F5F5F5F5F5F5F5F5F5F5F5F5F5F5F5F5F5F5F5F5F5F5F5F5F5F5F5F5F5F5F5F93CE2F5F5F5F5F5F5F5F5F5F5F5F5F5F5F5F5F5F5F5F5F5F5F5F5F5F5F5F5F5F5F5F5F5F5F5F5F5F5F5F5F5F5F5F5F5F5F5F5F5F5F5F5F5F5F5F5F5F5F5F5F5F5F5F5F5F5F5F5F5F5F5F5F5F5F5F5F5
310
F5F5F5F5F5F5F5F5F5F5F5F5F5F5F5F5F5F5F5F54444E2F5F5E2F5F5F5F5F5F5F5F5F5F5F5F5F5F5F5F5F5F5F5F5F5F5F5F5F5F5F5F5F5F5F5F5F5F5F5F5F5F5F5F5F5F5F5F5F5F5F5F5F5F5F5F5F5F5F5F5F5F5F5F5F5F5F5F5F5F5F5F5F5F5F5F5F5F5F5F5F5F5F5F5F5F5F5F5F5F5F5F5F5F5F5E2F5F5673DE2F5F5E2F5
310
F5F5F5F5F5F5F5F5F5F5F5F5F5F5F5F5F5F5F5F5F5F5F5F5F5F5F5F5F5F5F5F5F5F5F5F5F5F5F5F5F5F5F5F5F5F5F5F5F5F5F5F5F5F5F5F5F5F5F5F5F5F5F5F5F5F5F5F5F5F5F5F5F5F5F5F5F5F5F5F5F5F5F5F5F5F5F5F5F5F5E2F5F54B44E2F5F5E2F5F5F5F5F5F5F5F5F5F5F5F5F5F5F5F5F5F5F5F5F5F5F5F5F5F5F5F5
310
F5F5F5F5F5F5F5F5F5F5F5F5F5F5F5F5F5F5F5F5F5F5F5F5F5F5F5F5F5F5F5F5F5F5F5F5F5F5F5F5F5F5F5F5F5F5F5F5F5F5F5F5F5F5F5F5F5F5F5F5F5F5F5E2F5F58D3DE2F5F5E2F5F5F5F5F5F5F5F5F5F5F5F5F5F5F5F5F5F5F5F5F5F5F5F5F5F5F5F5F5F5F5F5F5F5F5F5F5F5F5F5F5F5F5F5F5F5F5F5F5F5F5F5F5F5F5
310
F5F5F5F5F5F5F5F5F5F5F5F5F5F5F5F5F5F5F5F5F5F5F5F5F5F5F5F5F5F5F5F5F5F5F5F5E2F5F54444E2F5F5E2F5F5F5F5F5F5F5F5F5F5F5F5F5F5F5F5F5F5F5F5F5F5F5F5F5F5F5F5F5F5F5F5F5F5F5F5F5F5F5F5F5F5F5F5F5F5F5F5F5F5F5F5F5F5F5F5F5F5F5F5F5F5F5F5F5F5F5F5F5F5F5F5F5F5F5F5F5F5F5F5F5F5
310
F5F5F5F5F5F5F5F5F5E2F5F5D23DE2F5F5E2F5F5F5F5F5F5F5F5F5F5F5F5F5F5F5F5F5F5F5F5F5F5F5F5F5F5F5F5F5F5F5F5F5F5F5F5F5F5F5F5F5F5F5F5F5F5F5F5F5F5F5F5F5F5F5F5F5F5F5F5F5F5F5F5F5F5F5F5F5F5F5F5F5F5F5F5F5F5F5F5F5F5F5F5F5F5F5F5F5F5F5E2F5F54444E2F5F5E2F5F5F5F5F5F5F5F5F5
310
F5F5F5F5F5F5F5F5F5F5F5F5F5F5F5F5F5F5F5F5F5F5F5F5F5F5F5F5F5F5F5F5F5F5F5F5F5F5F5F5F5F5F5F5F5F5F5F5F5F5F5F5F5F5F5F5F5F5F5F5F5F5F5F5F5F5F5F5F5F5F5F5F5F5F5F5F5F5F5F5F5F5E2F5F5F43DE2F5F5E2F5F5F5F5F5F5F5F5F5F5F5F5F5F5F5F5F5F5F5F5F5F5F5F5F5F5F5F5F5F5F5F5F5F5F5F5
310
F5F5F5F5F5F5F5F5F5F5F5F5F5F5F5F5F5F5F5F5F5F5F5F5F5F5F5F5F5F5F5F5F5F5F5F5F5F5F5F5F5F5F5F5F5F5F5F5F5F5F5F5F5F5F5E2F5F56344E2F5F5E2F5F5F5F5F5F5F5F5F5F5F5F5F5F5F5F5F5F5F5F5F5F5F5F5F5F5F5F5F5F5F5F5F5F5F5F5F5F5F5F5F5F5F5F5F5F5F5F5F5F5F5F5F5F5F5F5F5F5F5F5F5F5F5
310
F5F5F5F5F5F5F5F5F5F5F5F5F5F5F5F5F5F5F5F5F5F5F5F5F5F5F5F5E2F5F5163EE2F5F5E2F5F5F5F5F5F5F5F5F5F5F5F5F5F5F5F5F5F5F5F5F5F5F5F5F5F5F5F5F5F5F5F5F5F5F5F5F5F5F5F5F5F5F5F5F5F5F5F5F5F5F5F5F5F5F5F5F5F5F5F5F5F5F5F5F5F5F5F5F5F5F5F5F5F5F5F5F5F5F5F5F5F5F5F5F5F5F5F5F5F5
310
F5E2F5F54444E2F5F5E2F5F5F5F5F5F5F5F5F5F5F5F5F5F5F5F5F5F5F5F5F5F5F5F5F5F5F5F5F5F5F5F5F5F5F5F5F5F5F5F5F5F5F5F5F5F5F5F5F5F5F5F5F5F5F5F5F5F5F5F5F5F5F5F5F5F5F5F5F5F5F5F5F5F5F5F5F5F5F5F5F5F5F5F5F5F5F5F5F5F5F5E2F5F5F73CE2F5F5E2F5F5F5F5F5F5F5F5F5F5F5F5F5F5F5F5F5
310
F5F5F5F5F5F5F5F5F5F5F5F5F5F5F5F5F5F5F5F5F5F5F5F5F5F5F5F5F5F5F5F5F5F5F5F5F5F5F5F5F5F5F5F5F5F5F5F5F5F5F5F5F5F5F5F5F5F5F5F5F5F5F5F5F5F5F5F5F5F5F5F5F5F5E2F5F50F44E2F5F5E2F5F5F5F5F5F5F5F5F5F5F5F5F5F5F5F5F5F5F5F5F5F5F5F5F5F5F5F5F5F5F5F5F5F5F5F5F5F5F5F5F5F5F5F5
310
F5F5F5F5F5F5F5F5F5F5F5F5F5F5F5F5F5F5F5F5F5F5F5F5F5F5F5F5F5F5F5F5F5F5F5F5F5F5F5F5F5F5F5F5F5F5F5E2F5F5453DE2F5F5E2F5F5F5F5F5F5F5F5F5F5F5F5F5F5F5F5F5F5F5F5F5F5F5F5F5F5F5F5F5F5F5F5F5F5F5F5F5F5F5F5F5F5F5F5F5F5F5F5F5F5F5F5F5F5F5F5F5F5F5F5F5F5F5F5F5F5F5F5F5F5F5
310
F5F5F5F5F5F5F5F5F5F5F5F5F5F5F5F5F5F5F5F5E2F5F50344E2F5F5E2F5F5F5F5F5F5F5F5F5F5F5F5F5F5F5F5F5F5F5F5F5F5F5F5F5F5F5F5F5F5F5F5F5F5F5F5F5F5F5F5F5F5F5F5F5F5F5F5F5F5F5F5F5F5F5F5F5F5F5F5F5F5F5F5F5F5F5F5F5F5F5F5F5F5F5F5F5F5F5F5F5F5F5F5F5F5F5F5F5F5F5E2F5F5613DE2F5
310
F5E2F5F5F5F5F5F5F5F5F5F5F5F5F5F5F5F5F5F5F5F5F5F5F5F5F5F5F5F5F5F5F5F5F5F5F5F5F5F5F5F5F5F5F5F5F5F5F5F5F5F5F5F5F5F5F5F5F5F5F5F5F5F5F5F5F5F5F5F5F5F5F5F5F5F5F5F5F5F5F5F5F5F5F5F5F5F5F5F5F5F5F5E2F5F52044E2F5F5E2F5F5F5F5F5F5F5F5F5F5F5F5F5F5F5F5F5F5F5F5F5F5F5F5F5
310
F5F5F5F5F5F5F5F5F5F5F5F5F5F5F5F5F5F5F5F5F5F5F5F5F5F5F5F5F5F5F5F5F5F5F5F5F5F5F5F5F5F5F5F5F5F5F5F5F5F5F5F5F5F5F5F5F5F5F5F5F5F5F5F5F5F5E2F5F5873DE2F5F5F5F5F5F5F5F5F5F5F5F5F5F5F5F5F5F5F5F5F5F5F5F5F5F5F5F5F5F5F5F5F5F5F5F5F5F5F5F5F5F5F5F5F5F5F5F5F5F5F5F5F5F5F5
310
F5F5F5F5F5F5F5F5F5F5F5F5F5F5F5F5F5F5F5F5F5F5F5F5F5F5F5F5F5F5F5F5F5F5F5F5F5F5F5F5F5F50F44E2F5F5F5F5F5F5F5F5F5F5F5F5F5F5F5F5F5F5F5F5F5F5F5F5F5F5F5F5F5F5F5F5F5F5F5F5F5F5F5F5F5F5F5F5F5F5F5F5F5F5F5F5F5F5F5F5F5F5F5F5F5F5F5F5F5F5F5F5F5F5F5F5F5F5F5F5F5F5F5F5F5F5
310
F5F5F5F5F5F5F5F5F5F5F5F5F5F5F5B53DE2F5F5F5F5F5F5F5F5F5F5F5F5F5F5F5F5F5F5F5F5F5F5F5F5F5F5F5F5F5F5F5F5F5F5F5F5F5F5F5F5F5F5F5F5F5F5F5F5F5F5F5F5F5F5F5F5F5F5F5F5F5F5F5F5F5F5F5F5F5F5F5F5F5F5F5F5F5F5F5F5F5F5F5F5F5F5F5F5F5F5F5F5F5F5F5F5F50A44E2F5F5F5F5F5F5F5F5F5
310
F5F5F5F5F5F5F5F5F5F5F5F5F5F5F5F5F5F5F5F5F5F5F5F5F5F5F5F5F5F5F5F5F5F5F5F5F5F5F5F5F5F5F5F5F5F5F5F5F5F5F5F5F5F5F5F5F5F5F5F5F5F5F5F5F5F5F5F5F5F5F5F5F5F5F5F5F5F5F5F5F5F5F5F5F5F5F5F5C73DE2F5F5F5F5F5F5F5F5F5F5F5F5F5F5F5F5F5F5F5F5F5F5F5F5F5F5F5F5F5F5F5F5F5F5F5F5
310
F5F5F5F5F5F5F5F5F5F5F5F5F5F5F5F5F5F5F5F5F5F5F5F5F5F5F5F5F5F5F5F5F5F5F5F5F5F5F5F5F5F5F5F5F5F5F5F5F5F5F5F5F5F5F5F5F5F5F5F5F5F743E2F5F5F5F5F5F5F5F5F5F5F5F5F5F5F5F5F5F5F5F5F5F5F5F5F5F5F5F5F5F5F5F5F5F5F5F5F5F5F5F5F5F5F5F5F5F5F5F5F5F5F5F5F5F5F5F5F5F5F5F5F5F5F5
310
F5F5F5F5F5F5F5F5F5F5F5F5F5F5F5F5F5F5F5F5F5F5F5F5F5F5F5F5F5F5F5F5F5F5013EE2F5F5F5F5F5F5F5F5F5F5F5F5F5F5F5F5F5F5F5F5F5F5F5F5F5F5F5F5F5F5F5F5F5F5F5F5F5F5F5F5F5F5F5F5F5F5F5F5F5F5F5F5F5F5F5F5F5F5F5F5F5F5F5F5F5F5F5F5F5F5F5F5F5F5F5F5F5F5F5F5F5F5F5F5F5F5F5F5F5F5
310
F5F5F5F5F5F5F5F743E2F5F5F5F5F5F5F5F5F5F5F5F5F5F5F5F5F5F5F5F5F5F5F5F5F5F5F5F5F5F5F5F5F5F5F5F5F5F5F5F5F5F5F5F5F5F5F5F5F5F5F5F5F5F5F5F5F5F5F5F5F5F5F5F5F5F5F5F5F5F5F5F5F5F5F5F5F5F5F5F5F5F5F5F5F5F5F5F5F5F5F5F5F5F5F5F5F5243EE2F5F5F5F5F5F5F5F5F5F5F5F5F5F5F5F5F5
310
F5F5F5F5F5F5F5F5F5F5F5F5F5F5F5F5F5F5F5F5F5F5F5F5F5F5F5F5F5F5F5F5F5F5F5F5F5F5F5F5F5F5F5F5F5F5F5F5F5F5F5F5F5F5F5F5F5F5F5F5F5F5F5F5F5F5F5F5F5F5F5F5F5F5F5F5F5F5F5F50344E2F5F5E2F5F5F5F5F5F5F5F5F5F5F5F5F5F5F5F5F5F5F5F5F5F5F5F5F5F5F5F5F5F5F5F5F5F5F5F5F5F5F5F5F5
310
F5F5F5F5F5F5F5F5F5F5F5F5F5F5F5F5F5F5F5F5F5F5F5F5F5F5F5F5F5F5F5F5F5F5F5F5F5F5F5F5F5F5F5F5F5F5F5F5F5F5E2F5F5423DE2F5F5E2F5F5F5F5F5F5F5F5F5F5F5F5F5F5F5F5F5F5F5F5F5F5F5F5F5F5F5F5F5F5F5F5F5F5F5F5F5F5F5F5F5F5F5F5F5F5F5F5F5F5F5F5F5F5F5F5F5F5F5F5F5F5F5F5F5F5F5F5
310
F5F5F5F5F5F5F5F5F5F5F5F5F5F5F5F5F5F5F5F5F5F5F5E2F5F5A343E2F5F5E2F5F5F5F5F5F5F5F5F5F5F5F5F5F5F5F5F5F5F5F5F5F5F5F5F5F5F5F5F5F5F5F5F5F5F5F5F5F5F5F5F5F5F5F5F5F5F5F5F5F5F5F5F5F5F5F5F5F5F5F5F5F5F5F5F5F5F5F5F5F5F5F5F5F5F5F5F5F5F5F5F5F5F5F5F5F5F5F5F5F5F5E2F5F57B
310
3DE2F5F5E2F5F5F5F5F5F5F5F5F5F5F5F5F5F5F5F5F5F5F5F5F5F5F5F5F5F5F5F5F5F5F5F5F5F5F5F5F5F5F5F5F5F5F5F5F5F5F5F5F5F5F5F5F5F5F5F5F5F5F5F5F5F5F5F5F5F5F5F5F5F5F5F5F5F5F5F5F5F5F5F5F5F5F5F5F5F5F5F5F5F5F5E2F5F5AA43E2F5F5E2F5F5F5F5F5F5F5F5F5F5F5F5F5F5F5F5F5F5F5F5F5F5
310
F5F5F5F5F5F5F5F5F5F5F5F5F5F5F5F5F5F5F5F5F5F5F5F5F5F5F5F5F5F5F5F5F5F5F5F5F5F5F5F5F5F5F5F5F5F5F5F5F5F5F5F5F5F5F5F5F5F5F5F5F5F5F5F5F5F5F5F5F5E2F5F5A33DE2F5F5E2F5F5F5F5F5F5F5F5F5F5F5F5F5F5F5F5F5F5F5F5F5F5F5F5F5F5F5F5F5F5F5F5F5F5F5F5F5F5F5F5F5F5F5F5F5F5F5F5F5
310
F5F5F5F5F5F5F5F5F5F5F5F5F5F5F5F5F5F5F5F5F5F5F5F5F5F5F5F5F5F5F5F5F5F5F5F5F5F5F5F5F5F5E2F5F59C43E2F5F5E2F5F5F5F5F5F5F5F5F5F5F5F5F5F5F5F5F5F5F5F5F5F5F5F5F5F5F5F5F5F5F5F5F5F5F5F5F5F5F5F5F5F5F5F5F5F5F5F5F5F5F5F5F5F5F5F5F5F5F5F5F5F5F5F5F5F5F5F5F5F5F5F5F5F5F5F5
310
F5F5F5F5F5F5F5F5F5F5F5F5F5F5F5E2F5F5C73DE2F5F5E2F5F5F5F5F5F5F5F5F5F5F5F5F5F5F5F5F5F5F5F5F5F5F5F5F5F5F5F5F5F5F5F5F5F5F5F5F5F5F5F5F5F5F5F5F5F5F5F5F5F5F5F5F5F5F5F5F5F5F5F5F5F5F5F5F5F5F5F5F5F5F5F5F5F5F5F5F5F5F5F5F5F5F5F5F5F5F5F5F5F5F5E2F5F5CE43E2F5F5E2F5F5F5
310
F5F5F5F5F5F5F5F5F5F5F5F5F5F5F5F5F5F5F5F5F5F5F5F5F5F5F5F5F5F5F5F5F5F5F5F5F5F5F5F5F5F5F5F5F5F5F5F5F5F5F5F5F5F5F5F5F5F5F5F5F5F5F5F5F5F5F5F5F5F5F5F5F5F5F5F5F5F5F5F5F5F5F5F5F5F5F5F5E2F5F5163EE2F5F5E2F5F5F5F5F5F5F5F5F5F5F5F5F5F5F5F5F5F5F5F5F5F5F5F5F5F5F5F5F5F5
310
F5F5F5F5F5F5F5F5F5F5F5F5F5F5F5F5F5F5F5F5F5F5F5F5F5F5F5F5F5F5F5F5F5F5F5F5F5F5F5F5F5F5F5F5F5F5F5F5F5F5F5F5F5F5F5F5F5F5F5F5F5E2F5F5B143E2F5F5E2F5F5F5F5F5F5F5F5F5F5F5F5F5F5F5F5F5F5F5F5F5F5F5F5F5F5F5F5F5F5F5F5F5F5F5F5F5F5F5F5F5F5F5F5F5F5F5F5F5F5F5F5F5F5F5F5F5
310
F5F5F5F5F5F5F5F5F5F5F5F5F5F5F5F5F5F5F5F5F5F5F5F5F5F5F5F5F5F5F5F5F5F5E2F5F53D3EE2F5F5E2F5F5F5F5F5F5F5F5F5F5F5F5F5F5F5F5F5F5F5F5F5F5F5F5F5F5F5F5F5F5F5F5F5F5F5F5F5F5F5F5F5F5F5F5F5F5F5F5F5F5F5F5F5F5F5F5F5F5F5F5F5F5F5F5F5F5F5F5F5F5F5F5F5F5F5F5F5F5F5F5F5F5F5F5
310
F5F5F5F5F5F5F5E2F5F5B943E2F5F5E2F5F5F5F5F5F5F5F5F5F5F5F5F5F5F5F5F5F5F5F5F5F5F5F5F5F5F5F5F5F5F5F5F5F5F5F5F5F5F5F5F5F5F5F5F5F5F5F5F5F5F5F5F5F5F5F5F5F5F5F5F5F5F5F5F5F5F5F5F5F5F5F5F5F5F5F5F5F5F5F5F5F5F5F5F5F5F5F5F5F5F5E2F5F5753EE2F5F5E2F5F5F5F5F5F5F5F5F5F5F5
310
F5F5F5F5F5F5F5F5F5F5F5F5F5F5F5F5F5F5F5F5F5F5F5F5F5F5F5F5F5F5F5F5F5F5F5F5F5F5F5F5F5F5F5F5F5F5F5F5F5F5F5F5F5F5F5F5F5F5F5F5F5F5F5F5F5F5F5F5F5F5F5F5F5F5F5F5F5F5F5F5E2F5F5BD43E2F5F5E2F5F5F5F5F5F5F5F5F5F5F5F5F5F5F5F5F5F5F5F5F5F5F5F5F5F5F5F5F5F5F5F5F5F5F5F5F5F5
310
F5F5F5F5F5F5F5F5F5F5F5F5F5F5F5F5F5F5F5F5F5F5F5F5F5F5F5F5F5F5F5F5F5F5F5F5F5F5F5F5F5F5F5F5F5F5F5F5F5F5F5F5F5E2F5F5F93CE2F5F5E2F5F5F5F5F5F5F5F5F5F5F5F5F5F5F5F5F5F5F5F5F5F5F5F5F5F5F5F5F5F5F5F5F5F5F5F5F5F5F5F5F5F5F5F5F5F5F5F5F5F5F5F5F5F5F5F5F5F5F5F5F5F5F5F5F5
310
F5F5F5F5F5F5F5F5F5F5F5F5F5F5F5F5F5F5F5F5F5F5F5F5F5F5E2F5F54843E2F5F5E2F5F5F5F5F5F5F5F5F5F5F5F5F5F5F5F5F5F5F5F5F5F5F5F5F5F5F5F5F5F5F5F5F5F5F5F5F5F5F5F5F5F5F5F5F5F5F5F5F5F5F5F5F5F5F5F5F5F5F5F5F5F5F5F5F5F5F5F5F5F5F5F5F5F5F5F5F5F5F5F5F5F5F5F5F5F5F5F5F5F5F5E2
310
F5F5053DE2F5F5F5F5F5F5F5F5F5F5F5F5F5F5F5F5F5F5F5F5F5F5F5F5F5F5F5F5F5F5F5F5F5F5F5F5F5F5F5F5F5F5F5F5F5F5F5F5F5F5F5F5F5F5F5F5F5F5F5F5F5F5F5F5F5F5F5F5F5F5F5F5F5F5F5F5F5F5F5F5F5F5F5F5F5F5F5F5F5F5F5F5F5F5F5F5F56543E2F5F5F5F5F5F5F5F5F5F5F5F5F5F5F5F5F5F5F5F5F5F5
310
F5F5F5F5F5F5F5F5F5F5F5F5F5F5F5F5F5F5F5F5F5F5F5F5F5F5F5F5F5F5F5F5F5F5F5F5F5F5F5F5F5F5F5F5F5F5F5F5F5F5F5F5F5F5F5F5F5F5F5F5F5F5F5F5F5F5F5F5F5F5F5F5F5F5F55B3DE2F5F5F5F5F5F5F5F5F5F5F5F5F5F5F5F5F5F5F5F5F5F5F5F5F5F5F5F5F5F5F5F5F5F5F5F5F5F5F5F5F5F5F5F5F5F5F5F5F5
310
F5F5F5F5F5F5F5F5F5F5F5F5F5F5F5F5F5F5F5F5F5F5F5F5F5F5F5F5F5F5F5F5F5F5F5F5F5F5F5F5F5F5F5F5F5F5F5F56943E2F5F5F5F5F5F5F5F5F5F5F5F5F5F5F5F5F5F5F5F5F5F5F5F5F5F5F5F5F5F5F5F5F5F5F5F5F5F5F5F5F5F5F5F5F5F5F5F5F5F5F5F5F5F5F5F5F5F5F5F5F5F5F5F5F5F5F5F5F5F5F5F5F5F5F5F5
310
F5F5F5F5F5F5F5F5F5F5F5F5F5F5F5F5F5F5F5F5F5703DE2F5F5F5F5F5F5F5F5F5F5F5F5F5F5F5F5F5F5F5F5F5F5F5F5F5F5F5F5F5F5F5F5F5F5F5F5F5F5F5F5F5F5F5F5F5F5F5F5F5F5F5F5F5F5F5F5F5F5F5F5F5F5F5F5F5F5F5F5F5F5F5F5F5F5F5F5F5F5F5F5F5F5F5F5F5F5F5F5F5F5F5F5F5F5F5F5F54F43E2F5F5F5
310
F5F5F5F5F5F5F5F5F5F5F5F5F5F5F5F5F5F5F5F5F5F5F5F5F5F5F5F5F5F5F5F5F5F5F5F5F5F5F5F5F5F5F5F5F5F5F5F5F5F5F5F5F5F5F5F5F5F5F5F5F5F5F5F5F5F5F5F5F5F5F5F5F5F5F5F5F5F5F5F5F5F5F5F5F5F5F5F5F5F5F5F5F5F5A83DE2F5F5F5F5F5F5F5F5F5F5F5F5F5F5F5F5F5F5F5F5F5F5F5F5F5F5F5F5F5F5
310
F5F5F5F5F5F5F5F5F5F5F5F5F5F5F5F5F5F5F5F5F5F5F5F5F5F5F5F5F5F5F5F5F5F5F5F5F5F5F5F5F5F5F5F5F5F5F5F5F5F5F5F5F5F5F5F5F5F5F5F5F5F5F5F5F5F5F55B43E2F5F5F5F5F5F5F5F5F5F5F5F5F5F5F5F5F5F5F5F5F5F5F5F5F5F5F5F5F5F5F5F5F5F5F5F5F5F5F5F5F5F5F5F5F5F5F5F5F5F5F5F5F5F5F5F5F5
310
F5F5F5F5F5F5F5F5F5F5F5F5F5F5F5F5F5F5F5F5F5F5F5F5F5F5F5F5F5F5F5F5F5F5F5F5F5F5F5F5DD3DE2F5F5F5F5F5F5F5F5F5F5F5F5F5F5F5F5F5F5F5F5F5F5F5F5F5F5F5F5F5F5F5F5F5F5F5F5F5F5F5F5F5F5F5F5F5F5F5F5F5F5F5F5F5F5F5F5F5F5F5F5F5F5F5F5F5F5F5F5F5F5F5F5F5F5F5F5F5F5F5F5F5F5F5F5
310
F5F5F5F5F5F5F5F5F5F5F5F5F55B43E2F5F5F5F5F5F5F5F5F5F5F5F5F5F5F5F5F5F5F5F5F5F5F5F5F5F5F5F5F5F5F5F5F5F5F5F5F5F5F5F5F5F5F5F5F5F5F5F5F5F5F5F5F5F5F5F5F5F5F5F5F5F5F5F5F5F5F5F5F5F5F5F5F5F5F5F5F5F5F5F5F5F5F5F5F5F5F5F5F5F5F5F5F5F5F5F5F50F3EE2F5F5E2F5F5F5F5F5F5F5F5
310
F5F5F5F5F5F5F5F5F5F5F5F5F5F5F5F5F5F5F5F5F5F5F5F5F5F5F5F5F5F5F5F5F5F5F5F5F5F5F5F5F5F5F5F5F5F5F5F5F5F5F5F5F5F5F5F5F5F5F5F5F5F5F5F5F5F5F5F5F5F5F5F5F5F5F5F5F5F5F5F5F5F5F5E2F5F56243E2F5F5E2F5F5F5F5F5F5F5F5F5F5F5F5F5F5F5F5F5F5F5F5F5F5F5F5F5F5F5F5F5F5F5F5F5F5F5
310
F5F5F5F5F5F5F5F5F5F5F5F5F5F5F5F5F5F5F5F5F5F5F5F5F5F5F5F5F5F5F5F5F5F5F5F5F5F5F5F5F5F5F5F5F5F5F5F5F5F5F5F5F5F5F5F5E2F5F5323EE2F5F5E2F5F5F5F5F5F5F5F5F5F5F5F5F5F5F5F5F5F5F5F5F5F5F5F5F5F5F5F5F5F5F5F5F5F5F5F5F5F5F5F5F5F5F5F5F5F5F5F5F5F5F5F5F5F5F5F5F5F5F5F5F5F5
310
F5F5F5F5F5F5F5F5F5F5F5F5F5F5F5F5F5F5F5F5F5F5F5F5F5F5F5F5F5E2F5F51F43E2F5F5E2F5F5F5F5F5F5F5F5F5F5F5F5F5F5F5F5F5F5F5F5F5F5F5F5F5F5F5F5F5F5F5F5F5F5F5F5F5F5F5F5F5F5F5F5F5F5F5F5F5F5F5F5F5F5F5F5F5F5F5F5F5F5F5F5F5F5F5F5F5F5F5F5F5F5F5F5F5F5F5F5F5F5F5F5F5F5F5F5F5
310
F5F5E2F5F5F83CE2F5F5E2F5F5F5F5F5F5F5F5F5F5F5F5F5F5F5F5F5F5F5F5F5F5F5F5F5F5F5F5F5F5F5F5F5F5F5F5F5F5F5F5F5F5F5F5F5F5F5F5F5F5F5F5F5F5F5F5F5F5F5F5F5F5F5F5F5F5F5F5F5F5F5F5F5F5F5F5F5F5F5F5F5F5F5F5F5F5F5F5F5F5F5E2F5F50C43E2F5F5E2F5F5F5F5F5F5F5F5F5F5F5F5F5F5F5F5
310
F5F5F5F5F5F5F5F5F5F5F5F5F5F5F5F5F5F5F5F5F5F5F5F5F5F5F5F5F5F5F5F5F5F5F5F5F5F5F5F5F5F5F5F5F5F5F5F5F5F5F5F5F5F5F5F5F5F5F5F5F5F5F5F5F5F5F5F5F5F5F5F5F5F5F5E2F5F5603DE2F5F5E2F5F5F5F5F5F5F5F5F5F5F5F5F5F5F5F5F5F5F5F5F5F5F5F5F5F5F5F5F5F5F5F5F5F5F5F5F5F5F5F5F5F5F5
310
F5F5F5F5F5F5F5F5F5F5F5F5F5F5F5F5F5F5F5F5F5F5F5F5F5F5F5F5F5F5F5F5F5F5F5F5F5F5F5F5F5F5F5F5F5F5F5F5E2F5F50743E2F5F5E2F5F5F5F5F5F5F5F5F5F5F5F5F5F5F5F5F5F5F5F5F5F5F5F5F5F5F5F5F5F5F5F5F5F5F5F5F5F5F5F5F5F5F5F5F5F5F5F5F5F5F5F5F5F5F5F5F5F5F5F5F5F5F5F5F5F5F5F5F5F5
310
F5F5F5F5F5F5F5F5F5F5F5F5F5F5F5F5F5F5F5F5F5E2F5F5893DE2F5F5E2F5F5F5F5F5F5F5F5F5F5F5F5F5F5F5F5F5F5F5F5F5F5F5F5F5F5F5F5F5F5F5F5F5F5F5F5F5F5F5F5F5F5F5F5F5F5F5F5F5F5F5F5F5F5F5F5F5F5F5F5F5F5F5F5F5F5F5F5F5F5F5F5F5F5F5F5F5F5F5F5F5F5F5F5F5F5F5F5F5F5F5E2F5F50243E2
310
F5F5E2F5F5F5F5F5F5F5F5F5F5F5F5F5F5F5F5F5F5F5F5F5F5F5F5F5F5F5F5F5F5F5F5F5F5F5F5F5F5F5F5F5F5F5F5F5F5F5F5F5F5F5F5F5F5F5F5F5F5F5F5F5F5F5F5F5F5F5F5F5F5F5F5F5F5F5F5F5F5F5F5F5F5F5F5F5F5F5F5F5F5F5E2F5F5B23DE2F5F5E2F5F5F5F5F5F5F5F5F5F5F5F5F5F5F5F5F5F5F5F5F5F5F5F5
310
F5F5F5F5F5F5F5F5F5F5F5F5F5F5F5F5F5F5F5F5F5F5F5F5F5F5F5F5F5F5F5F5F5F5F5F5F5F5F5F5F5F5F5F5F5F5F5F5F5F5F5F5F5F5F5F5F5F5F5F5F5F5F5F5F5F5F5E2F5F50E43E2F5F5E2F5F5F5F5F5F5F5F5F5F5F5F5F5F5F5F5F5F5F5F5F5F5F5F5F5F5F5F5F5F5F5F5F5F5F5F5F5F5F5F5F5F5F5F5F5F5F5F5F5F5F5
310
F5F5F5F5F5F5F5F5F5F5F5F5F5F5F5F5F5F5F5F5F5F5F5F5F5F5F5F5F5F5F5F5F5F5F5F5F5F5F5F5E2F5F5DC3DE2F5F5E2F5F5F5F5F5F5F5F5F5F5F5F5F5F5F5F5F5F5F5F5F5F5F5F5F5F5F5F5F5F5F5F5F5F5F5F5F5F5F5F5F5F5F5F5F5F5F5F5F5F5F5F5F5F5F5F5F5F5F5F5F5F5F5F5F5F5F5F5F5F5F5F5F5F5F5F5F5F5
310
F5F5F5F5F5F5F5F5F5F5F5F5F5E2F5F50C43E2F5F5E2F5F5F5F5F5F5F5F5F5F5F5F5F5F5F5F5F5F5F5F5F5F5F5F5F5F5F5F5F5F5F5F5F5F5F5F5F5F5F5F5F5F5F5F5F5F5F5F5F5F5F5F5F5F5F5F5F5F5F5F5F5F5F5F5F5F5F5F5F5F5F5F5F5F5F5F5F5F5F5F5F5F5F5F5F5F5F5F5F5F5F5E2F5F5083EE2F5F5E2F5F5F5F5F5
310
F5F5F5F5F5F5F5F5F5F5F5F5F5F5F5F5F5F5F5F5F5F5F5F5F5F5F5F5F5F5F5F5F5F5F5F5F5F5F5F5F5F5F5F5F5F5F5F5F5F5F5F5F5F5F5F5F5F5F5F5F5F5F5F5F5F5F5F5F5F5F5F5F5F5F5F5F5F5F5F5F5F5F5F5F5F5E2F5F59F42E2F5F5E2F5F5F5F5F5F5F5F5F5F5F5F5F5F5F5F5F5F5F5F5F5F5F5F5F5F5F5F5F5F5F5F5
310
F5F5F5F5F5F5F5F5F5F5F5F5F5F5F5F5F5F5F5F5F5F5F5F5F5F5F5F5F5F5F5F5F5F5F5F5F5F5F5F5F5F5F5F5F5F5F5F5F5F5F5F5F5F5F5F5F5F5F5E2F5F51C3DE2F5F5E2F5F5F5F5F5F5F5F5F5F5F5F5F5F5F5F5F5F5F5F5F5F5F5F5F5F5F5F5F5F5F5F5F5F5F5F5F5F5F5F5F5F5F5F5F5F5F5F5F5F5F5F5F5F5F5F5F5F5F5
310
F5F5F5F5F5F5F5F5F5F5F5F5F5F5F5F5F5F5F5F5F5F5F5F5F5F5F5F5F5F5F5F5E2F5F5C442E2F5F5F5F5F5F5F5F5F5F5F5F5F5F5F5F5F5F5F5F5F5F5F5F5F5F5F5F5F5F5F5F5F5F5F5F5F5F5F5F5F5F5F5F5F5F5F5F5F5F5F5F5F5F5F5F5F5F5F5F5F5F5F5F5F5F5F5F5F5F5F5F5F5F5F5F5F5F5F5F5F5F5F5F5F5F5F5F5F5
310
F5F5F5F5F5F5F5F5573DE2F5F5F5F5F5F5F5F5F5F5F5F5F5F5F5F5F5F5F5F5F5F5F5F5F5F5F5F5F5F5F5F5F5F5F5F5F5F5F5F5F5F5F5F5F5F5F5F5F5F5F5F5F5F5F5F5F5F5F5F5F5F5F5F5F5F5F5F5F5F5F5F5F5F5F5F5F5F5F5F5F5F5F5F5F5F5F5F5F5F5F5F5F5F5F5F5F5A942E2F5F5F5F5F5F5F5F5F5F5F5F5F5F5F5F5
310
F5F5F5F5F5F5F5F5F5F5F5F5F5F5F5F5F5F5F5F5F5F5F5F5F5F5F5F5F5F5F5F5F5F5F5F5F5F5F5F5F5F5F5F5F5F5F5F5F5F5F5F5F5F5F5F5F5F5F5F5F5F5F5F5F5F5F5F5F5F5F5F5F5F5F5F5F5F5F5F5F58D3DE2F5F5F5F5F5F5F5F5F5F5F5F5F5F5F5F5F5F5F5F5F5F5F5F5F5F5F5F5F5F5F5F5F5F5F5F5F5F5F5F5F5F5F5
310
F5F5F5F5F5F5F5F5F5F5F5F5F5F5F5F5F5F5F5F5F5F5F5F5F5F5F5F5F5F5F5F5F5F5F5F5F5F5F5F5F5F5F5F5F5F5F5F5F5F5F5F5F5F5A942E2F5F5F5F5F5F5F5F5F5F5F5F5F5F5F5F5F5F5F5F5F5F5F5F5F5F5F5F5F5F5F5F5F5F5F5F5F5F5F5F5F5F5F5F5F5F5F5F5F5F5F5F5F5F5F5F5F5F5F5F5F5F5F5F5F5F5F5F5F5F5
310
F5F5F5F5F5F5F5F5F5F5F5F5F5F5F5F5F5F5F5F5F5F5F5F5F5F5F5B13DE2F5F5F5F5F5F5F5F5F5F5F5F5F5F5F5F5F5F5F5F5F5F5F5F5F5F5F5F5F5F5F5F5F5F5F5F5F5F5F5F5F5F5F5F5F5F5F5F5F5F5F5F5F5F5F5F5F5F5F5F5F5F5F5F5F5F5F5F5F5F5F5F5F5F5F5F5F5F5F5F5F5F5F5F5F5F5F5F5F5F5F5F5F5F5F5F5F5
310
A742E2F5F5F5F5F5F5F5F5F5F5F5F5F5F5F5F5F5F5F5F5F5F5F5F5F5F5F5F5F5F5F5F5F5F5F5F5F5F5F5F5F5F5F5F5F5F5F5F5F5F5F5F5F5F5F5F5F5F5F5F5F5F5F5F5F5F5F5F5F5F5F5F5F5F5F5F5F5F5F5F5F5F5F5F5F5F5F5F5F5F5F5F5F5F5F5F5F50000E2F5F5F5F5F5F5F5F5F5F5F5F5F5F5F5F5F5F5F5F5F5F5F5F5
310
F5F5F5F5F5F5F5F5F5F5F5F5F5F5F5F5F5F5F5F5F5F5F5F5F5F5F5F5F5F5F5F5F5F5F5F5F5F5F5F5F5F5F5F5F5F5F5F5F5F5F5F5F5F5F5F5F5F5F5F5F5F5F5F5F5F5F5F5F5F5F5F5F50000E2F5F5F5F5F5F5F5F5F5F5F5F5F5F5F5F5F5F5F5F5F5F5F5F5F5F5F5F5F5F5F5F5F5F5F5F5F5F5F5F5F5F5F5F5F5F5F5F5F5F5F5
310
F5F5F5F5F5F5F5F5F5F5F5F5F5F5F5F5F5F5F5F5F5F5F5F5F5F5F5F5F5F5F5F5F5F5F5F5F5F5F5F5F5F5F5F5F5F50000E2F5F5E2F5F5F5F5F5F5F5F5F5F5F5F5F5F5F5F5F5F5F5F5F5F5F5F5F5F5F5F5F5F5F5F5F5F5F5F5F5F5F5F5F5F5F5F5F5F5F5F5F5F5F5F5F5F5F5F5F5F5F5F5F5F5F5F5F5F5F5F5F5F5F5F5F5F5F5
310
F5F5F5F5F5F5F5F5F5F5F5F5F5F5F5F5E2F5F50000E2F5F5E2F5F5F5F5F5F5F5F5F5F5F5F5F5F5F5F5F5F5F5F5F5F5F5F5F5F5F5F5F5F5F5F5F5F5F5F5F5F5F5F5F5F5F5F5F5F5F5F5F5F5F5F5F5F5F5F5F5F5F5F5F5F5F5F5F5F5F5F5F5F5F5F5F5F5F5F5F5F5F5F5F5F5F5F5F5F5F5F5F5F5F5E2F5F50000E2F5F5E2F5F5
310
F5F5F5F5F5F5F5F5F5F5F5F5F5F5F5F5F5F5F5F5F5F5F5F5F5F5F5F5F5F5F5F5F5F5F5F5F5F5F5F5F5F5F5F5F5F5F5F5F5F5F5F5F5F5F5F5F5F5F5F5F5F5F5F5F5F5F5F5F5F5F5F5F5F5F5F5F5F5F5F5F5F5F5F5F5F5F5F5F5E2F5F50000E2F5F5E2F5F5F5F5F5F5F5F5F5F5F5F5F5F5F5F5F5F5F5F5F5F5F5F5F5F5F5F5F5
310
F5F5F5F5F5F5F5F5F5F5F5F5F5F5F5F5F5F5F5F5F5F5F5F5F5F5F5F5F5F5F5F5F5F5F5F5F5F5F5F5F5F5F5F5F5F5F5F5F5F5F5F5F5F5F5F5F5F5F5F5F5F5E2F5F50000E2F5F5E2F5F5F5F5F5F5F5F5F5F5F5F5F5F5F5F5F5F5F5F5F5F5F5F5F5F5F5F5F5F5F5F5F5F5F5F5F5F5F5F5F5F5F5F5F5F5F5F5F5F5F5F5F5F5F5F5
310
F5F5F5F5F5F5F5F5F5F5F5F5F5F5F5F5F5F5F5F5F5F5F5F5F5F5F5F5F5F5F5F5F5F5F5E2F5F50000E2F5F5E2F5F5F5F5F5F5F5F5F5F5F5F5F5F5F5F5F5F5F5F5F5F5F5F5F5F5F5F5F5F5F5F5F5F5F5F5F5F5F5F5F5F5F5F5F5F5F5F5F5F5F5F5F5F5F5F5F5F5F5F5F5F5F5F5F5F5F5F5F5F5F5F5F5F5F5F5F5F5F5F5F5F5F5
310
F5F5F5F5F5F5F5F5E2F5F50000E2F5F5E2F5F5F5F5F5F5F5F5F5F5F5F5F5F5F5F5F5F5F5F5F5F5F5F5F5F5F5F5F5F5F5F5F5F5F5F5F5F5F5F5F5F5F5F5F5F5F5F5F5F5F5F5F5F5F5F5F5F5F5F5F5F5F5F5F5F5F5F5F5F5F5F5F5F5F5F5F5F5F5F5F5F5F5F5F5F5F5F5F5F5F5E2F5F52801E2F5F5E2F5F5F5F5F5F5F5F5F5F5
310
F5F5F5F5F5F5F5F5F5F5F5F5F5F5F5F5F5F5F5F5F5F5F5F5F5F5F5F5F5F5F5F5F5F5F5F5F5F5F5F5F5F5F5F5F5F5F5F5F5F5F5F5F5F5F5F5F5F5F5F5F5F5F5F5F5F5F5F5F5F5F5F5F5F5F5F5F5F5F5F5F5E2F5F57FF5E2F5F5E2E2E2E2E2E2E2E2F5F5F5F5F5F5F5F5E2E2E2E2E2E2E2E2E2E2E2E2E2E2E2F5F5F5F5F5F5F5
310
F5E2E2E2E2E2E2E2E2E2E2E2E2E2E2E2F5F5F5F5F5F5F5F5E2E2E2E2E2E2E2E2E2E2E2E2E2E2E2F5F5F5F5F5F5F5F5E2E2E2E2E2E2E2E2F5F5F5F5E2F5F5F5F5F5F5F5F5F5F5F5F5F5F5F5F5F5F5F5F5F5F5F5F5F5F5F5F5F5F5F5F5F5F5F5F5F5F5F5F5F5F5F5F5F5F5F5F5F5F5F5F5F5F5F5F5F5F5F5F5F5F5F5F5F5F5F5
310
F5F5F5F5F5F5F5F5F5F5F5F5F5F5F5F5F5F5F5F5F5F5F5F5F5F5F5F5F5F5F5F5E2F5F5F5F5F5F5F5F5F5F5F5F5F5F5F5F5F5F5F5F5F5F5F5F5F5F5F5F5F5F5F5F5F5F5F5F5F5F5F5F5F5F5F5F5F5F5F5F5F5F5F5F5F5F5F5F5F5F5F5F5F5F5F5F5F5F5F5F5F5F5F5F5F5F5F5F5F5F5F5F5F5F5F5F5F5F5F5F5F5F5F5F5F5F5
310
F5F5F5F5F5E2E2E2E2E2E2E2E2E2E2E2E2E2E2E2E2E2E2E2E2E2E2E2E2E2E2E2E2E2E2E2E2E2E2E2E2E2E2E2E2E2E2E2E2E2E2E2E2E2E2E2E2E2E2E2E2E2E2E2E2E2E2E2E2E2E2E2E2E2E2E2E2E2E2E2E2E2E2E2E2E2E2E2E2E2E2E2E2E2E2E2E2E2E2E2E2E2E2BEBEEFEFEFEFEFEFEFEFEFEFEFEFEFEFEFEFEFEFEFEFEFEF
310
EFEFEFEFEFEFEFEFEFEFEFEFEFEFEFEFEFEFEFEFEFEFEFEFEFEFEFEFEFEFEFEFEFEFEFEFEFEFEFEFEFEFEFEFEFEFEFEFEFEFEFEFEFEFEFEFEFEFEFEFEFEFEFEFEFEFEFEFEFEFEFEFEFEFEFEFF5F5
  0
XRECORD
  5
3BDF0
102
{ACAD_REACTORS
330
3BDEF
102
}
330
3BDEF
100
AcDbXrecord
280
     1
102
MATERIAL
148
0.0
149
0.0
149
0.0
 93
        0
 94
      127
282
     0
 72
     1
 77
     1
171
     1
175
     1
179
     1
273
     0
  0
XRECORD
  5
3BDEE
102
{ACAD_REACTORS
330
3BDED
102
}
330
3BDED
100
AcDbXrecord
280
     1
102
MATERIAL
148
0.0
149
0.0
149
0.0
 93
        0
 94
      127
282
     0
 72
     1
 77
     1
171
     1
175
     1
179
     1
273
     0
  0
XRECORD
  5
3BDF2
102
{ACAD_REACTORS
330
3BDF1
102
}
330
3BDF1
100
AcDbXrecord
280
     1
102
MATERIAL
148
0.0
149
0.0
149
0.0
 93
        0
 94
      127
282
     0
 72
     1
 77
     1
171
     1
175
     1
179
     1
273
     0
  0
XRECORD
  5
303D526
102
{ACAD_REACTORS
330
303D525
102
}
330
303D525
100
AcDbXrecord
280
     1
102
DISPLAYNAME
  1
Imperial24
102
FLAGS
 90
        0
  0
CELLSTYLEMAP
  5
303D4E7
102
{ACAD_REACTORS
330
303D3BB
102
}
330
303D3BB
100
AcDbCellStyleMap
 90
        3
300
CELLSTYLE
  1
TABLEFORMAT_BEGIN
 90
        5
170
     1
 91
        0
 92
    32768
 62
   257
 93
        1
300
CONTENTFORMAT
  1
CONTENTFORMAT_BEGIN
 90
        0
 91
        0
 92
      512
 93
        0
300

 40
0.0
140
1.0
 94
        5
 62
     0
340
10
144
0.25
309
CONTENTFORMAT_END
171
     1
301
MARGIN
  1
CELLMARGIN_BEGIN
 40
0.06
 40
0.06
 40
0.06
 40
0.06
 40
0.18
 40
0.18
309
CELLMARGIN_END
 94
        6
 95
        1
302
GRIDFORMAT
  1
GRIDFORMAT_BEGIN
 90
        0
 91
        1
 62
     0
 92
       -2
340
0
 93
        0
 40
0.045
309
GRIDFORMAT_END
 95
        2
302
GRIDFORMAT
  1
GRIDFORMAT_BEGIN
 90
        0
 91
        1
 62
     0
 92
       -2
340
0
 93
        0
 40
0.045
309
GRIDFORMAT_END
 95
        4
302
GRIDFORMAT
  1
GRIDFORMAT_BEGIN
 90
        0
 91
        1
 62
     0
 92
       -2
340
0
 93
        0
 40
0.045
309
GRIDFORMAT_END
 95
        8
302
GRIDFORMAT
  1
GRIDFORMAT_BEGIN
 90
        0
 91
        1
 62
     0
 92
       -2
340
0
 93
        0
 40
0.045
309
GRIDFORMAT_END
 95
       16
302
GRIDFORMAT
  1
GRIDFORMAT_BEGIN
 90
        0
 91
        1
 62
     0
 92
       -2
340
0
 93
        0
 40
0.045
309
GRIDFORMAT_END
 95
       32
302
GRIDFORMAT
  1
GRIDFORMAT_BEGIN
 90
        0
 91
        1
 62
     0
 92
       -2
340
0
 93
        0
 40
0.045
309
GRIDFORMAT_END
309
TABLEFORMAT_END
  1
CELLSTYLE_BEGIN
 90
        1
 91
        1
300
_TITLE
309
CELLSTYLE_END
300
CELLSTYLE
  1
TABLEFORMAT_BEGIN
 90
        5
170
     1
 91
        0
 92
        0
 62
   257
 93
        1
300
CONTENTFORMAT
  1
CONTENTFORMAT_BEGIN
 90
        0
 91
        0
 92
      512
 93
        0
300

 40
0.0
140
1.0
 94
        5
 62
     0
340
10
144
0.18
309
CONTENTFORMAT_END
171
     1
301
MARGIN
  1
CELLMARGIN_BEGIN
 40
0.06
 40
0.06
 40
0.06
 40
0.06
 40
0.18
 40
0.18
309
CELLMARGIN_END
 94
        6
 95
        1
302
GRIDFORMAT
  1
GRIDFORMAT_BEGIN
 90
        0
 91
        1
 62
     0
 92
       -2
340
0
 93
        0
 40
0.045
309
GRIDFORMAT_END
 95
        2
302
GRIDFORMAT
  1
GRIDFORMAT_BEGIN
 90
        0
 91
        1
 62
     0
 92
       -2
340
0
 93
        0
 40
0.045
309
GRIDFORMAT_END
 95
        4
302
GRIDFORMAT
  1
GRIDFORMAT_BEGIN
 90
        0
 91
        1
 62
     0
 92
       -2
340
0
 93
        0
 40
0.045
309
GRIDFORMAT_END
 95
        8
302
GRIDFORMAT
  1
GRIDFORMAT_BEGIN
 90
        0
 91
        1
 62
     0
 92
       -2
340
0
 93
        0
 40
0.045
309
GRIDFORMAT_END
 95
       16
302
GRIDFORMAT
  1
GRIDFORMAT_BEGIN
 90
        0
 91
        1
 62
     0
 92
       -2
340
0
 93
        0
 40
0.045
309
GRIDFORMAT_END
 95
       32
302
GRIDFORMAT
  1
GRIDFORMAT_BEGIN
 90
        0
 91
        1
 62
     0
 92
       -2
340
0
 93
        0
 40
0.045
309
GRIDFORMAT_END
309
TABLEFORMAT_END
  1
CELLSTYLE_BEGIN
 90
        2
 91
        1
300
_HEADER
309
CELLSTYLE_END
300
CELLSTYLE
  1
TABLEFORMAT_BEGIN
 90
        5
170
     1
 91
        0
 92
        0
 62
   257
 93
        1
300
CONTENTFORMAT
  1
CONTENTFORMAT_BEGIN
 90
        0
 91
        0
 92
      512
 93
        0
300

 40
0.0
140
1.0
 94
        2
 62
     0
340
10
144
0.18
309
CONTENTFORMAT_END
171
     1
301
MARGIN
  1
CELLMARGIN_BEGIN
 40
0.06
 40
0.06
 40
0.06
 40
0.06
 40
0.18
 40
0.18
309
CELLMARGIN_END
 94
        6
 95
        1
302
GRIDFORMAT
  1
GRIDFORMAT_BEGIN
 90
        0
 91
        1
 62
     0
 92
       -2
340
0
 93
        0
 40
0.045
309
GRIDFORMAT_END
 95
        2
302
GRIDFORMAT
  1
GRIDFORMAT_BEGIN
 90
        0
 91
        1
 62
     0
 92
       -2
340
0
 93
        0
 40
0.045
309
GRIDFORMAT_END
 95
        4
302
GRIDFORMAT
  1
GRIDFORMAT_BEGIN
 90
        0
 91
        1
 62
     0
 92
       -2
340
0
 93
        0
 40
0.045
309
GRIDFORMAT_END
 95
        8
302
GRIDFORMAT
  1
GRIDFORMAT_BEGIN
 90
        0
 91
        1
 62
     0
 92
       -2
340
0
 93
        0
 40
0.045
309
GRIDFORMAT_END
 95
       16
302
GRIDFORMAT
  1
GRIDFORMAT_BEGIN
 90
        0
 91
        1
 62
     0
 92
       -2
340
0
 93
        0
 40
0.045
309
GRIDFORMAT_END
 95
       32
302
GRIDFORMAT
  1
GRIDFORMAT_BEGIN
 90
        0
 91
        1
 62
     0
 92
       -2
340
0
 93
        0
 40
0.045
309
GRIDFORMAT_END
309
TABLEFORMAT_END
  1
CELLSTYLE_BEGIN
 90
        3
 91
        2
300
_DATA
309
CELLSTYLE_END
  0
XRECORD
  5
303D4FC
102
{ACAD_REACTORS
330
303D4FB
102
}
330
303D4FB
100
AcDbXrecord
280
     1
102
RTVSPost2010Prop28
280
     1
102
RTVSPost2010PropOp28
 70
     1
102
RTVSPost2010Prop29
280
     1
102
RTVSPost2010PropOp29
 70
     1
102
RTVSPost2010Prop30
280
     0
102
RTVSPost2010PropOp30
 70
     1
102
RTVSPost2010Prop31
280
     0
102
RTVSPost2010PropOp31
 70
     1
102
RTVSPost2010Prop32
280
     0
102
RTVSPost2010PropOp32
 70
     1
102
RTVSPost2010Prop33
280
     0
102
RTVSPost2010PropOp33
 70
     1
102
RTVSPost2010Prop34
280
     0
102
RTVSPost2010PropOp34
 70
     1
102
RTVSPost2010Prop35
280
     0
102
RTVSPost2010PropOp35
 70
     1
102
RTVSPost2010Prop36
280
     0
102
RTVSPost2010PropOp36
 70
     1
102
RTVSPost2010Prop37
 90
       50
102
RTVSPost2010PropOp37
 70
     1
102
RTVSPost2010Prop38
140
0.0
102
RTVSPost2010PropOp38
 70
     1
102
RTVSPost2010Prop39
140
1.0
102
RTVSPost2010PropOp39
 70
     1
102
RTVSPost2010Prop40
 90
        0
102
RTVSPost2010PropOp40
 70
     1
102
RTVSPost2010Prop41ColorIndex
 90
       18
102
RTVSPost2010Prop41ColorRGB
 90
        0
102
RTVSPost2010PropOp41
 70
     1
102
RTVSPost2010Prop42
 90
       50
102
RTVSPost2010PropOp42
 70
     1
102
RTVSPost2010Prop43
 90
        3
102
RTVSPost2010PropOp43
 70
     1
102
RTVSPost2010Prop44ColorIndex
 90
        5
102
RTVSPost2010Prop44ColorRGB
 90
      255
102
RTVSPost2010PropOp44
 70
     1
102
RTVSPost2010Prop45
280
     0
102
RTVSPost2010PropOp45
 70
     1
102
RTVSPost2010Prop46
 90
       50
102
RTVSPost2010PropOp46
 70
     1
102
RTVSPost2010Prop47
 90
       50
102
RTVSPost2010PropOp47
 70
     1
102
RTVSPost2010Prop48
 90
       50
102
RTVSPost2010PropOp48
 70
     1
102
RTVSPost2010Prop49
280
     0
102
RTVSPost2010PropOp49
 70
     1
102
RTVSPost2010Prop50
 90
       50
102
RTVSPost2010PropOp50
 70
     1
102
RTVSPost2010Prop51ColorIndex
 90
      256
102
RTVSPost2010Prop51ColorRGB
 90
-16777216
102
RTVSPost2010PropOp51
 70
     0
102
RTVSPost2010Prop52
140
1.0
102
RTVSPost2010PropOp52
 70
     0
102
RTVSPost2010Prop53
 90
        2
102
RTVSPost2010PropOp53
 70
     1
102
RTVSPost2010Prop54
  1
strokes_ogs.tif
102
RTVSPost2010PropOp54
 70
     1
102
RTVSPost2010Prop55
280
     0
102
RTVSPost2010PropOp55
 70
     1
102
RTVSPost2010Prop56
140
1.0
102
RTVSPost2010PropOp56
 70
     1
102
RTVSPost2010Prop57
140
1.0
102
RTVSPost2010PropOp57
 70
     1
  0
XRECORD
  5
303D500
102
{ACAD_REACTORS
330
303D4FF
102
}
330
303D4FF
100
AcDbXrecord
280
     1
102
RTVSPost2010Prop28
280
     0
102
RTVSPost2010PropOp28
 70
     1
102
RTVSPost2010Prop29
280
     1
102
RTVSPost2010PropOp29
 70
     1
102
RTVSPost2010Prop30
280
     1
102
RTVSPost2010PropOp30
 70
     1
102
RTVSPost2010Prop31
280
     0
102
RTVSPost2010PropOp31
 70
     1
102
RTVSPost2010Prop32
280
     0
102
RTVSPost2010PropOp32
 70
     1
102
RTVSPost2010Prop33
280
     0
102
RTVSPost2010PropOp33
 70
     1
102
RTVSPost2010Prop34
280
     0
102
RTVSPost2010PropOp34
 70
     1
102
RTVSPost2010Prop35
280
     0
102
RTVSPost2010PropOp35
 70
     1
102
RTVSPost2010Prop36
280
     0
102
RTVSPost2010PropOp36
 70
     1
102
RTVSPost2010Prop37
 90
       50
102
RTVSPost2010PropOp37
 70
     1
102
RTVSPost2010Prop38
140
0.0
102
RTVSPost2010PropOp38
 70
     1
102
RTVSPost2010Prop39
140
1.0
102
RTVSPost2010PropOp39
 70
     1
102
RTVSPost2010Prop40
 90
        0
102
RTVSPost2010PropOp40
 70
     1
102
RTVSPost2010Prop41ColorIndex
 90
       18
102
RTVSPost2010Prop41ColorRGB
 90
        0
102
RTVSPost2010PropOp41
 70
     1
102
RTVSPost2010Prop42
 90
       50
102
RTVSPost2010PropOp42
 70
     1
102
RTVSPost2010Prop43
 90
        3
102
RTVSPost2010PropOp43
 70
     1
102
RTVSPost2010Prop44ColorIndex
 90
        5
102
RTVSPost2010Prop44ColorRGB
 90
      255
102
RTVSPost2010PropOp44
 70
     1
102
RTVSPost2010Prop45
280
     0
102
RTVSPost2010PropOp45
 70
     1
102
RTVSPost2010Prop46
 90
       50
102
RTVSPost2010PropOp46
 70
     1
102
RTVSPost2010Prop47
 90
       50
102
RTVSPost2010PropOp47
 70
     1
102
RTVSPost2010Prop48
 90
       50
102
RTVSPost2010PropOp48
 70
     1
102
RTVSPost2010Prop49
280
     0
102
RTVSPost2010PropOp49
 70
     1
102
RTVSPost2010Prop50
 90
       50
102
RTVSPost2010PropOp50
 70
     1
102
RTVSPost2010Prop51ColorIndex
 90
      256
102
RTVSPost2010Prop51ColorRGB
 90
-16777216
102
RTVSPost2010PropOp51
 70
     0
102
RTVSPost2010Prop52
140
1.0
102
RTVSPost2010PropOp52
 70
     0
102
RTVSPost2010Prop53
 90
        2
102
RTVSPost2010PropOp53
 70
     1
102
RTVSPost2010Prop54
  1
strokes_ogs.tif
102
RTVSPost2010PropOp54
 70
     1
102
RTVSPost2010Prop55
280
     0
102
RTVSPost2010PropOp55
 70
     1
102
RTVSPost2010Prop56
140
1.0
102
RTVSPost2010PropOp56
 70
     1
102
RTVSPost2010Prop57
140
1.0
102
RTVSPost2010PropOp57
 70
     1
  0
XRECORD
  5
303D4FE
102
{ACAD_REACTORS
330
303D4FD
102
}
330
303D4FD
100
AcDbXrecord
280
     1
102
RTVSPost2010Prop28
280
     0
102
RTVSPost2010PropOp28
 70
     1
102
RTVSPost2010Prop29
280
     1
102
RTVSPost2010PropOp29
 70
     1
102
RTVSPost2010Prop30
280
     1
102
RTVSPost2010PropOp30
 70
     1
102
RTVSPost2010Prop31
280
     0
102
RTVSPost2010PropOp31
 70
     1
102
RTVSPost2010Prop32
280
     0
102
RTVSPost2010PropOp32
 70
     1
102
RTVSPost2010Prop33
280
     0
102
RTVSPost2010PropOp33
 70
     1
102
RTVSPost2010Prop34
280
     0
102
RTVSPost2010PropOp34
 70
     1
102
RTVSPost2010Prop35
280
     0
102
RTVSPost2010PropOp35
 70
     1
102
RTVSPost2010Prop36
280
     0
102
RTVSPost2010PropOp36
 70
     1
102
RTVSPost2010Prop37
 90
       50
102
RTVSPost2010PropOp37
 70
     1
102
RTVSPost2010Prop38
140
0.0
102
RTVSPost2010PropOp38
 70
     1
102
RTVSPost2010Prop39
140
1.0
102
RTVSPost2010PropOp39
 70
     1
102
RTVSPost2010Prop40
 90
        0
102
RTVSPost2010PropOp40
 70
     1
102
RTVSPost2010Prop41ColorIndex
 90
       18
102
RTVSPost2010Prop41ColorRGB
 90
        0
102
RTVSPost2010PropOp41
 70
     1
102
RTVSPost2010Prop42
 90
       50
102
RTVSPost2010PropOp42
 70
     1
102
RTVSPost2010Prop43
 90
        3
102
RTVSPost2010PropOp43
 70
     1
102
RTVSPost2010Prop44ColorIndex
 90
        5
102
RTVSPost2010Prop44ColorRGB
 90
      255
102
RTVSPost2010PropOp44
 70
     1
102
RTVSPost2010Prop45
280
     0
102
RTVSPost2010PropOp45
 70
     1
102
RTVSPost2010Prop46
 90
       50
102
RTVSPost2010PropOp46
 70
     1
102
RTVSPost2010Prop47
 90
       50
102
RTVSPost2010PropOp47
 70
     1
102
RTVSPost2010Prop48
 90
       50
102
RTVSPost2010PropOp48
 70
     1
102
RTVSPost2010Prop49
280
     0
102
RTVSPost2010PropOp49
 70
     1
102
RTVSPost2010Prop50
 90
       50
102
RTVSPost2010PropOp50
 70
     1
102
RTVSPost2010Prop51ColorIndex
 90
      256
102
RTVSPost2010Prop51ColorRGB
 90
-16777216
102
RTVSPost2010PropOp51
 70
     0
102
RTVSPost2010Prop52
140
1.0
102
RTVSPost2010PropOp52
 70
     0
102
RTVSPost2010Prop53
 90
        2
102
RTVSPost2010PropOp53
 70
     1
102
RTVSPost2010Prop54
  1
strokes_ogs.tif
102
RTVSPost2010PropOp54
 70
     1
102
RTVSPost2010Prop55
280
     0
102
RTVSPost2010PropOp55
 70
     1
102
RTVSPost2010Prop56
140
1.0
102
RTVSPost2010PropOp56
 70
     1
102
RTVSPost2010Prop57
140
1.0
102
RTVSPost2010PropOp57
 70
     1
  0
XRECORD
  5
303D4FA
102
{ACAD_REACTORS
330
303D4F9
102
}
330
303D4F9
100
AcDbXrecord
280
     1
102
RTVSPost2010Prop28
280
     0
102
RTVSPost2010PropOp28
 70
     1
102
RTVSPost2010Prop29
280
     1
102
RTVSPost2010PropOp29
 70
     1
102
RTVSPost2010Prop30
280
     1
102
RTVSPost2010PropOp30
 70
     1
102
RTVSPost2010Prop31
280
     0
102
RTVSPost2010PropOp31
 70
     1
102
RTVSPost2010Prop32
280
     0
102
RTVSPost2010PropOp32
 70
     1
102
RTVSPost2010Prop33
280
     0
102
RTVSPost2010PropOp33
 70
     1
102
RTVSPost2010Prop34
280
     0
102
RTVSPost2010PropOp34
 70
     1
102
RTVSPost2010Prop35
280
     0
102
RTVSPost2010PropOp35
 70
     1
102
RTVSPost2010Prop36
280
     0
102
RTVSPost2010PropOp36
 70
     1
102
RTVSPost2010Prop37
 90
       50
102
RTVSPost2010PropOp37
 70
     1
102
RTVSPost2010Prop38
140
0.0
102
RTVSPost2010PropOp38
 70
     1
102
RTVSPost2010Prop39
140
1.0
102
RTVSPost2010PropOp39
 70
     1
102
RTVSPost2010Prop40
 90
        0
102
RTVSPost2010PropOp40
 70
     1
102
RTVSPost2010Prop41ColorIndex
 90
       18
102
RTVSPost2010Prop41ColorRGB
 90
        0
102
RTVSPost2010PropOp41
 70
     1
102
RTVSPost2010Prop42
 90
       50
102
RTVSPost2010PropOp42
 70
     1
102
RTVSPost2010Prop43
 90
        3
102
RTVSPost2010PropOp43
 70
     1
102
RTVSPost2010Prop44ColorIndex
 90
        5
102
RTVSPost2010Prop44ColorRGB
 90
      255
102
RTVSPost2010PropOp44
 70
     1
102
RTVSPost2010Prop45
280
     0
102
RTVSPost2010PropOp45
 70
     1
102
RTVSPost2010Prop46
 90
       50
102
RTVSPost2010PropOp46
 70
     1
102
RTVSPost2010Prop47
 90
       50
102
RTVSPost2010PropOp47
 70
     1
102
RTVSPost2010Prop48
 90
       50
102
RTVSPost2010PropOp48
 70
     1
102
RTVSPost2010Prop49
280
     0
102
RTVSPost2010PropOp49
 70
     1
102
RTVSPost2010Prop50
 90
       50
102
RTVSPost2010PropOp50
 70
     1
102
RTVSPost2010Prop51ColorIndex
 90
      256
102
RTVSPost2010Prop51ColorRGB
 90
-16777216
102
RTVSPost2010PropOp51
 70
     0
102
RTVSPost2010Prop52
140
1.0
102
RTVSPost2010PropOp52
 70
     0
102
RTVSPost2010Prop53
 90
        2
102
RTVSPost2010PropOp53
 70
     1
102
RTVSPost2010Prop54
  1
strokes_ogs.tif
102
RTVSPost2010PropOp54
 70
     1
102
RTVSPost2010Prop55
280
     0
102
RTVSPost2010PropOp55
 70
     1
102
RTVSPost2010Prop56
140
1.0
102
RTVSPost2010PropOp56
 70
     1
102
RTVSPost2010Prop57
140
1.0
102
RTVSPost2010PropOp57
 70
     1
  0
XRECORD
  5
303D508
102
{ACAD_REACTORS
330
303D507
102
}
330
303D507
100
AcDbXrecord
280
     1
102
RTVSPost2010Prop28
280
     0
102
RTVSPost2010PropOp28
 70
     1
102
RTVSPost2010Prop29
280
     1
102
RTVSPost2010PropOp29
 70
     1
102
RTVSPost2010Prop30
280
     1
102
RTVSPost2010PropOp30
 70
     1
102
RTVSPost2010Prop31
280
     0
102
RTVSPost2010PropOp31
 70
     1
102
RTVSPost2010Prop32
280
     0
102
RTVSPost2010PropOp32
 70
     1
102
RTVSPost2010Prop33
280
     0
102
RTVSPost2010PropOp33
 70
     1
102
RTVSPost2010Prop34
280
     0
102
RTVSPost2010PropOp34
 70
     1
102
RTVSPost2010Prop35
280
     0
102
RTVSPost2010PropOp35
 70
     1
102
RTVSPost2010Prop36
280
     0
102
RTVSPost2010PropOp36
 70
     1
102
RTVSPost2010Prop37
 90
       50
102
RTVSPost2010PropOp37
 70
     1
102
RTVSPost2010Prop38
140
0.0
102
RTVSPost2010PropOp38
 70
     1
102
RTVSPost2010Prop39
140
1.0
102
RTVSPost2010PropOp39
 70
     1
102
RTVSPost2010Prop40
 90
        0
102
RTVSPost2010PropOp40
 70
     1
102
RTVSPost2010Prop41ColorIndex
 90
       18
102
RTVSPost2010Prop41ColorRGB
 90
        0
102
RTVSPost2010PropOp41
 70
     1
102
RTVSPost2010Prop42
 90
       50
102
RTVSPost2010PropOp42
 70
     1
102
RTVSPost2010Prop43
 90
        3
102
RTVSPost2010PropOp43
 70
     1
102
RTVSPost2010Prop44ColorIndex
 90
        5
102
RTVSPost2010Prop44ColorRGB
 90
      255
102
RTVSPost2010PropOp44
 70
     1
102
RTVSPost2010Prop45
280
     0
102
RTVSPost2010PropOp45
 70
     1
102
RTVSPost2010Prop46
 90
       50
102
RTVSPost2010PropOp46
 70
     1
102
RTVSPost2010Prop47
 90
       50
102
RTVSPost2010PropOp47
 70
     1
102
RTVSPost2010Prop48
 90
       50
102
RTVSPost2010PropOp48
 70
     1
102
RTVSPost2010Prop49
280
     0
102
RTVSPost2010PropOp49
 70
     1
102
RTVSPost2010Prop50
 90
       50
102
RTVSPost2010PropOp50
 70
     1
102
RTVSPost2010Prop51ColorIndex
 90
      256
102
RTVSPost2010Prop51ColorRGB
 90
-16777216
102
RTVSPost2010PropOp51
 70
     0
102
RTVSPost2010Prop52
140
1.0
102
RTVSPost2010PropOp52
 70
     0
102
RTVSPost2010Prop53
 90
        2
102
RTVSPost2010PropOp53
 70
     1
102
RTVSPost2010Prop54
  1
strokes_ogs.tif
102
RTVSPost2010PropOp54
 70
     1
102
RTVSPost2010Prop55
280
     0
102
RTVSPost2010PropOp55
 70
     1
102
RTVSPost2010Prop56
140
1.0
102
RTVSPost2010PropOp56
 70
     1
102
RTVSPost2010Prop57
140
1.0
102
RTVSPost2010PropOp57
 70
     1
  0
XRECORD
  5
303D510
102
{ACAD_REACTORS
330
303D50F
102
}
330
303D50F
100
AcDbXrecord
280
     1
102
RTVSPost2010Prop28
280
     0
102
RTVSPost2010PropOp28
 70
     1
102
RTVSPost2010Prop29
280
     1
102
RTVSPost2010PropOp29
 70
     1
102
RTVSPost2010Prop30
280
     1
102
RTVSPost2010PropOp30
 70
     1
102
RTVSPost2010Prop31
280
     0
102
RTVSPost2010PropOp31
 70
     1
102
RTVSPost2010Prop32
280
     0
102
RTVSPost2010PropOp32
 70
     1
102
RTVSPost2010Prop33
280
     0
102
RTVSPost2010PropOp33
 70
     1
102
RTVSPost2010Prop34
280
     0
102
RTVSPost2010PropOp34
 70
     1
102
RTVSPost2010Prop35
280
     0
102
RTVSPost2010PropOp35
 70
     1
102
RTVSPost2010Prop36
280
     0
102
RTVSPost2010PropOp36
 70
     1
102
RTVSPost2010Prop37
 90
       50
102
RTVSPost2010PropOp37
 70
     1
102
RTVSPost2010Prop38
140
0.0
102
RTVSPost2010PropOp38
 70
     1
102
RTVSPost2010Prop39
140
1.0
102
RTVSPost2010PropOp39
 70
     1
102
RTVSPost2010Prop40
 90
        0
102
RTVSPost2010PropOp40
 70
     1
102
RTVSPost2010Prop41ColorIndex
 90
       18
102
RTVSPost2010Prop41ColorRGB
 90
        0
102
RTVSPost2010PropOp41
 70
     1
102
RTVSPost2010Prop42
 90
       50
102
RTVSPost2010PropOp42
 70
     1
102
RTVSPost2010Prop43
 90
        3
102
RTVSPost2010PropOp43
 70
     1
102
RTVSPost2010Prop44ColorIndex
 90
        5
102
RTVSPost2010Prop44ColorRGB
 90
      255
102
RTVSPost2010PropOp44
 70
     1
102
RTVSPost2010Prop45
280
     0
102
RTVSPost2010PropOp45
 70
     1
102
RTVSPost2010Prop46
 90
       50
102
RTVSPost2010PropOp46
 70
     1
102
RTVSPost2010Prop47
 90
       50
102
RTVSPost2010PropOp47
 70
     1
102
RTVSPost2010Prop48
 90
       50
102
RTVSPost2010PropOp48
 70
     1
102
RTVSPost2010Prop49
280
     0
102
RTVSPost2010PropOp49
 70
     1
102
RTVSPost2010Prop50
 90
       50
102
RTVSPost2010PropOp50
 70
     1
102
RTVSPost2010Prop51ColorIndex
 90
      256
102
RTVSPost2010Prop51ColorRGB
 90
-16777216
102
RTVSPost2010PropOp51
 70
     0
102
RTVSPost2010Prop52
140
1.0
102
RTVSPost2010PropOp52
 70
     0
102
RTVSPost2010Prop53
 90
        2
102
RTVSPost2010PropOp53
 70
     1
102
RTVSPost2010Prop54
  1
strokes_ogs.tif
102
RTVSPost2010PropOp54
 70
     1
102
RTVSPost2010Prop55
280
     0
102
RTVSPost2010PropOp55
 70
     1
102
RTVSPost2010Prop56
140
1.0
102
RTVSPost2010PropOp56
 70
     1
102
RTVSPost2010Prop57
140
1.0
102
RTVSPost2010PropOp57
 70
     1
  0
XRECORD
  5
303D502
102
{ACAD_REACTORS
330
303D501
102
}
330
303D501
100
AcDbXrecord
280
     1
102
RTVSPost2010Prop28
280
     0
102
RTVSPost2010PropOp28
 70
     1
102
RTVSPost2010Prop29
280
     1
102
RTVSPost2010PropOp29
 70
     1
102
RTVSPost2010Prop30
280
     1
102
RTVSPost2010PropOp30
 70
     1
102
RTVSPost2010Prop31
280
     0
102
RTVSPost2010PropOp31
 70
     1
102
RTVSPost2010Prop32
280
     0
102
RTVSPost2010PropOp32
 70
     1
102
RTVSPost2010Prop33
280
     0
102
RTVSPost2010PropOp33
 70
     1
102
RTVSPost2010Prop34
280
     0
102
RTVSPost2010PropOp34
 70
     1
102
RTVSPost2010Prop35
280
     0
102
RTVSPost2010PropOp35
 70
     1
102
RTVSPost2010Prop36
280
     0
102
RTVSPost2010PropOp36
 70
     1
102
RTVSPost2010Prop37
 90
       50
102
RTVSPost2010PropOp37
 70
     1
102
RTVSPost2010Prop38
140
0.0
102
RTVSPost2010PropOp38
 70
     1
102
RTVSPost2010Prop39
140
1.0
102
RTVSPost2010PropOp39
 70
     1
102
RTVSPost2010Prop40
 90
        0
102
RTVSPost2010PropOp40
 70
     1
102
RTVSPost2010Prop41ColorIndex
 90
       18
102
RTVSPost2010Prop41ColorRGB
 90
        0
102
RTVSPost2010PropOp41
 70
     1
102
RTVSPost2010Prop42
 90
       50
102
RTVSPost2010PropOp42
 70
     1
102
RTVSPost2010Prop43
 90
        3
102
RTVSPost2010PropOp43
 70
     1
102
RTVSPost2010Prop44ColorIndex
 90
        5
102
RTVSPost2010Prop44ColorRGB
 90
      255
102
RTVSPost2010PropOp44
 70
     1
102
RTVSPost2010Prop45
280
     0
102
RTVSPost2010PropOp45
 70
     1
102
RTVSPost2010Prop46
 90
       50
102
RTVSPost2010PropOp46
 70
     1
102
RTVSPost2010Prop47
 90
       50
102
RTVSPost2010PropOp47
 70
     1
102
RTVSPost2010Prop48
 90
       50
102
RTVSPost2010PropOp48
 70
     1
102
RTVSPost2010Prop49
280
     0
102
RTVSPost2010PropOp49
 70
     1
102
RTVSPost2010Prop50
 90
       50
102
RTVSPost2010PropOp50
 70
     1
102
RTVSPost2010Prop51ColorIndex
 90
      256
102
RTVSPost2010Prop51ColorRGB
 90
-16777216
102
RTVSPost2010PropOp51
 70
     0
102
RTVSPost2010Prop52
140
1.0
102
RTVSPost2010PropOp52
 70
     0
102
RTVSPost2010Prop53
 90
        2
102
RTVSPost2010PropOp53
 70
     1
102
RTVSPost2010Prop54
  1
strokes_ogs.tif
102
RTVSPost2010PropOp54
 70
     1
102
RTVSPost2010Prop55
280
     0
102
RTVSPost2010PropOp55
 70
     1
102
RTVSPost2010Prop56
140
1.0
102
RTVSPost2010PropOp56
 70
     1
102
RTVSPost2010Prop57
140
1.0
102
RTVSPost2010PropOp57
 70
     1
  0
XRECORD
  5
303D506
102
{ACAD_REACTORS
330
303D505
102
}
330
303D505
100
AcDbXrecord
280
     1
102
RTVSPost2010Prop28
280
     0
102
RTVSPost2010PropOp28
 70
     1
102
RTVSPost2010Prop29
280
     1
102
RTVSPost2010PropOp29
 70
     1
102
RTVSPost2010Prop30
280
     1
102
RTVSPost2010PropOp30
 70
     1
102
RTVSPost2010Prop31
280
     0
102
RTVSPost2010PropOp31
 70
     1
102
RTVSPost2010Prop32
280
     0
102
RTVSPost2010PropOp32
 70
     1
102
RTVSPost2010Prop33
280
     0
102
RTVSPost2010PropOp33
 70
     1
102
RTVSPost2010Prop34
280
     0
102
RTVSPost2010PropOp34
 70
     1
102
RTVSPost2010Prop35
280
     0
102
RTVSPost2010PropOp35
 70
     1
102
RTVSPost2010Prop36
280
     0
102
RTVSPost2010PropOp36
 70
     1
102
RTVSPost2010Prop37
 90
       50
102
RTVSPost2010PropOp37
 70
     1
102
RTVSPost2010Prop38
140
0.0
102
RTVSPost2010PropOp38
 70
     1
102
RTVSPost2010Prop39
140
1.0
102
RTVSPost2010PropOp39
 70
     1
102
RTVSPost2010Prop40
 90
        0
102
RTVSPost2010PropOp40
 70
     1
102
RTVSPost2010Prop41ColorIndex
 90
       18
102
RTVSPost2010Prop41ColorRGB
 90
        0
102
RTVSPost2010PropOp41
 70
     1
102
RTVSPost2010Prop42
 90
       50
102
RTVSPost2010PropOp42
 70
     1
102
RTVSPost2010Prop43
 90
        3
102
RTVSPost2010PropOp43
 70
     1
102
RTVSPost2010Prop44ColorIndex
 90
        5
102
RTVSPost2010Prop44ColorRGB
 90
      255
102
RTVSPost2010PropOp44
 70
     1
102
RTVSPost2010Prop45
280
     0
102
RTVSPost2010PropOp45
 70
     1
102
RTVSPost2010Prop46
 90
       50
102
RTVSPost2010PropOp46
 70
     1
102
RTVSPost2010Prop47
 90
       50
102
RTVSPost2010PropOp47
 70
     1
102
RTVSPost2010Prop48
 90
       50
102
RTVSPost2010PropOp48
 70
     1
102
RTVSPost2010Prop49
280
     0
102
RTVSPost2010PropOp49
 70
     1
102
RTVSPost2010Prop50
 90
       50
102
RTVSPost2010PropOp50
 70
     1
102
RTVSPost2010Prop51ColorIndex
 90
      256
102
RTVSPost2010Prop51ColorRGB
 90
-16777216
102
RTVSPost2010PropOp51
 70
     0
102
RTVSPost2010Prop52
140
1.0
102
RTVSPost2010PropOp52
 70
     0
102
RTVSPost2010Prop53
 90
        2
102
RTVSPost2010PropOp53
 70
     1
102
RTVSPost2010Prop54
  1
strokes_ogs.tif
102
RTVSPost2010PropOp54
 70
     1
102
RTVSPost2010Prop55
280
     0
102
RTVSPost2010PropOp55
 70
     1
102
RTVSPost2010Prop56
140
1.0
102
RTVSPost2010PropOp56
 70
     1
102
RTVSPost2010Prop57
140
1.0
102
RTVSPost2010PropOp57
 70
     1
  0
XRECORD
  5
303D524
102
{ACAD_REACTORS
330
303D523
102
}
330
303D523
100
AcDbXrecord
280
     1
102
RTVSPost2010Prop28
280
     0
102
RTVSPost2010PropOp28
 70
     1
102
RTVSPost2010Prop29
280
     1
102
RTVSPost2010PropOp29
 70
     1
102
RTVSPost2010Prop30
280
     1
102
RTVSPost2010PropOp30
 70
     1
102
RTVSPost2010Prop31
280
     0
102
RTVSPost2010PropOp31
 70
     1
102
RTVSPost2010Prop32
280
     0
102
RTVSPost2010PropOp32
 70
     1
102
RTVSPost2010Prop33
280
     0
102
RTVSPost2010PropOp33
 70
     1
102
RTVSPost2010Prop34
280
     0
102
RTVSPost2010PropOp34
 70
     1
102
RTVSPost2010Prop35
280
     0
102
RTVSPost2010PropOp35
 70
     1
102
RTVSPost2010Prop36
280
     0
102
RTVSPost2010PropOp36
 70
     1
102
RTVSPost2010Prop37
 90
       50
102
RTVSPost2010PropOp37
 70
     0
102
RTVSPost2010Prop38
140
0.0
102
RTVSPost2010PropOp38
 70
     0
102
RTVSPost2010Prop39
140
1.0
102
RTVSPost2010PropOp39
 70
     0
102
RTVSPost2010Prop40
 90
        0
102
RTVSPost2010PropOp40
 70
     0
102
RTVSPost2010Prop41ColorIndex
 90
       18
102
RTVSPost2010Prop41ColorRGB
 90
        0
102
RTVSPost2010PropOp41
 70
     0
102
RTVSPost2010Prop42
 90
       50
102
RTVSPost2010PropOp42
 70
     0
102
RTVSPost2010Prop43
 90
        3
102
RTVSPost2010PropOp43
 70
     0
102
RTVSPost2010Prop44ColorIndex
 90
        5
102
RTVSPost2010Prop44ColorRGB
 90
      255
102
RTVSPost2010PropOp44
 70
     0
102
RTVSPost2010Prop45
280
     0
102
RTVSPost2010PropOp45
 70
     1
102
RTVSPost2010Prop46
 90
       50
102
RTVSPost2010PropOp46
 70
     0
102
RTVSPost2010Prop47
 90
       50
102
RTVSPost2010PropOp47
 70
     0
102
RTVSPost2010Prop48
 90
       50
102
RTVSPost2010PropOp48
 70
     0
102
RTVSPost2010Prop49
280
     0
102
RTVSPost2010PropOp49
 70
     1
102
RTVSPost2010Prop50
 90
       50
102
RTVSPost2010PropOp50
 70
     0
102
RTVSPost2010Prop51ColorIndex
 90
      256
102
RTVSPost2010Prop51ColorRGB
 90
-16777216
102
RTVSPost2010PropOp51
 70
     0
102
RTVSPost2010Prop52
140
1.0
102
RTVSPost2010PropOp52
 70
     0
102
RTVSPost2010Prop53
 90
        2
102
RTVSPost2010PropOp53
 70
     0
102
RTVSPost2010Prop54
  1
strokes_ogs.tif
102
RTVSPost2010PropOp54
 70
     0
102
RTVSPost2010Prop55
280
     0
102
RTVSPost2010PropOp55
 70
     1
102
RTVSPost2010Prop56
140
1.0
102
RTVSPost2010PropOp56
 70
     0
102
RTVSPost2010Prop57
140
1.0
102
RTVSPost2010PropOp57
 70
     0
  0
XRECORD
  5
303D50E
102
{ACAD_REACTORS
330
303D50D
102
}
330
303D50D
100
AcDbXrecord
280
     1
102
RTVSPost2010Prop28
280
     0
102
RTVSPost2010PropOp28
 70
     1
102
RTVSPost2010Prop29
280
     1
102
RTVSPost2010PropOp29
 70
     1
102
RTVSPost2010Prop30
280
     1
102
RTVSPost2010PropOp30
 70
     1
102
RTVSPost2010Prop31
280
     0
102
RTVSPost2010PropOp31
 70
     1
102
RTVSPost2010Prop32
280
     0
102
RTVSPost2010PropOp32
 70
     1
102
RTVSPost2010Prop33
280
     0
102
RTVSPost2010PropOp33
 70
     1
102
RTVSPost2010Prop34
280
     0
102
RTVSPost2010PropOp34
 70
     1
102
RTVSPost2010Prop35
280
     0
102
RTVSPost2010PropOp35
 70
     1
102
RTVSPost2010Prop36
280
     0
102
RTVSPost2010PropOp36
 70
     1
102
RTVSPost2010Prop37
 90
       50
102
RTVSPost2010PropOp37
 70
     1
102
RTVSPost2010Prop38
140
0.0
102
RTVSPost2010PropOp38
 70
     1
102
RTVSPost2010Prop39
140
1.0
102
RTVSPost2010PropOp39
 70
     1
102
RTVSPost2010Prop40
 90
        0
102
RTVSPost2010PropOp40
 70
     1
102
RTVSPost2010Prop41ColorIndex
 90
       18
102
RTVSPost2010Prop41ColorRGB
 90
        0
102
RTVSPost2010PropOp41
 70
     1
102
RTVSPost2010Prop42
 90
       50
102
RTVSPost2010PropOp42
 70
     1
102
RTVSPost2010Prop43
 90
        3
102
RTVSPost2010PropOp43
 70
     1
102
RTVSPost2010Prop44ColorIndex
 90
        5
102
RTVSPost2010Prop44ColorRGB
 90
      255
102
RTVSPost2010PropOp44
 70
     1
102
RTVSPost2010Prop45
280
     0
102
RTVSPost2010PropOp45
 70
     1
102
RTVSPost2010Prop46
 90
       50
102
RTVSPost2010PropOp46
 70
     1
102
RTVSPost2010Prop47
 90
       50
102
RTVSPost2010PropOp47
 70
     1
102
RTVSPost2010Prop48
 90
       50
102
RTVSPost2010PropOp48
 70
     1
102
RTVSPost2010Prop49
280
     0
102
RTVSPost2010PropOp49
 70
     1
102
RTVSPost2010Prop50
 90
       50
102
RTVSPost2010PropOp50
 70
     1
102
RTVSPost2010Prop51ColorIndex
 90
      256
102
RTVSPost2010Prop51ColorRGB
 90
-16777216
102
RTVSPost2010PropOp51
 70
     0
102
RTVSPost2010Prop52
140
1.0
102
RTVSPost2010PropOp52
 70
     0
102
RTVSPost2010Prop53
 90
        2
102
RTVSPost2010PropOp53
 70
     1
102
RTVSPost2010Prop54
  1
strokes_ogs.tif
102
RTVSPost2010PropOp54
 70
     1
102
RTVSPost2010Prop55
280
     0
102
RTVSPost2010PropOp55
 70
     1
102
RTVSPost2010Prop56
140
1.0
102
RTVSPost2010PropOp56
 70
     1
102
RTVSPost2010Prop57
140
1.0
102
RTVSPost2010PropOp57
 70
     1
  0
XRECORD
  5
303D4F2
102
{ACAD_REACTORS
330
303D4F1
102
}
330
303D4F1
100
AcDbXrecord
280
     1
102
RTVSPost2010Prop28
280
     0
102
RTVSPost2010PropOp28
 70
     1
102
RTVSPost2010Prop29
280
     1
102
RTVSPost2010PropOp29
 70
     1
102
RTVSPost2010Prop30
280
     1
102
RTVSPost2010PropOp30
 70
     1
102
RTVSPost2010Prop31
280
     0
102
RTVSPost2010PropOp31
 70
     1
102
RTVSPost2010Prop32
280
     0
102
RTVSPost2010PropOp32
 70
     1
102
RTVSPost2010Prop33
280
     0
102
RTVSPost2010PropOp33
 70
     1
102
RTVSPost2010Prop34
280
     0
102
RTVSPost2010PropOp34
 70
     1
102
RTVSPost2010Prop35
280
     0
102
RTVSPost2010PropOp35
 70
     1
102
RTVSPost2010Prop36
280
     0
102
RTVSPost2010PropOp36
 70
     1
102
RTVSPost2010Prop37
 90
       50
102
RTVSPost2010PropOp37
 70
     1
102
RTVSPost2010Prop38
140
0.0
102
RTVSPost2010PropOp38
 70
     1
102
RTVSPost2010Prop39
140
1.0
102
RTVSPost2010PropOp39
 70
     1
102
RTVSPost2010Prop40
 90
        0
102
RTVSPost2010PropOp40
 70
     1
102
RTVSPost2010Prop41ColorIndex
 90
       18
102
RTVSPost2010Prop41ColorRGB
 90
        0
102
RTVSPost2010PropOp41
 70
     1
102
RTVSPost2010Prop42
 90
       50
102
RTVSPost2010PropOp42
 70
     1
102
RTVSPost2010Prop43
 90
        3
102
RTVSPost2010PropOp43
 70
     1
102
RTVSPost2010Prop44ColorIndex
 90
        5
102
RTVSPost2010Prop44ColorRGB
 90
      255
102
RTVSPost2010PropOp44
 70
     1
102
RTVSPost2010Prop45
280
     0
102
RTVSPost2010PropOp45
 70
     1
102
RTVSPost2010Prop46
 90
       50
102
RTVSPost2010PropOp46
 70
     1
102
RTVSPost2010Prop47
 90
       50
102
RTVSPost2010PropOp47
 70
     1
102
RTVSPost2010Prop48
 90
       50
102
RTVSPost2010PropOp48
 70
     1
102
RTVSPost2010Prop49
280
     0
102
RTVSPost2010PropOp49
 70
     1
102
RTVSPost2010Prop50
 90
       50
102
RTVSPost2010PropOp50
 70
     1
102
RTVSPost2010Prop51ColorIndex
 90
      256
102
RTVSPost2010Prop51ColorRGB
 90
-16777216
102
RTVSPost2010PropOp51
 70
     0
102
RTVSPost2010Prop52
140
1.0
102
RTVSPost2010PropOp52
 70
     0
102
RTVSPost2010Prop53
 90
        2
102
RTVSPost2010PropOp53
 70
     1
102
RTVSPost2010Prop54
  1
strokes_ogs.tif
102
RTVSPost2010PropOp54
 70
     1
102
RTVSPost2010Prop55
280
     0
102
RTVSPost2010PropOp55
 70
     1
102
RTVSPost2010Prop56
140
1.0
102
RTVSPost2010PropOp56
 70
     1
102
RTVSPost2010Prop57
140
1.0
102
RTVSPost2010PropOp57
 70
     1
  0
XRECORD
  5
303D4F4
102
{ACAD_REACTORS
330
303D4F3
102
}
330
303D4F3
100
AcDbXrecord
280
     1
102
RTVSPost2010Prop28
280
     0
102
RTVSPost2010PropOp28
 70
     1
102
RTVSPost2010Prop29
280
     1
102
RTVSPost2010PropOp29
 70
     1
102
RTVSPost2010Prop30
280
     1
102
RTVSPost2010PropOp30
 70
     1
102
RTVSPost2010Prop31
280
     0
102
RTVSPost2010PropOp31
 70
     1
102
RTVSPost2010Prop32
280
     0
102
RTVSPost2010PropOp32
 70
     1
102
RTVSPost2010Prop33
280
     0
102
RTVSPost2010PropOp33
 70
     1
102
RTVSPost2010Prop34
280
     0
102
RTVSPost2010PropOp34
 70
     1
102
RTVSPost2010Prop35
280
     0
102
RTVSPost2010PropOp35
 70
     1
102
RTVSPost2010Prop36
280
     0
102
RTVSPost2010PropOp36
 70
     1
102
RTVSPost2010Prop37
 90
       50
102
RTVSPost2010PropOp37
 70
     1
102
RTVSPost2010Prop38
140
0.0
102
RTVSPost2010PropOp38
 70
     1
102
RTVSPost2010Prop39
140
1.0
102
RTVSPost2010PropOp39
 70
     1
102
RTVSPost2010Prop40
 90
        0
102
RTVSPost2010PropOp40
 70
     1
102
RTVSPost2010Prop41ColorIndex
 90
       18
102
RTVSPost2010Prop41ColorRGB
 90
        0
102
RTVSPost2010PropOp41
 70
     1
102
RTVSPost2010Prop42
 90
       50
102
RTVSPost2010PropOp42
 70
     1
102
RTVSPost2010Prop43
 90
        3
102
RTVSPost2010PropOp43
 70
     1
102
RTVSPost2010Prop44ColorIndex
 90
        5
102
RTVSPost2010Prop44ColorRGB
 90
      255
102
RTVSPost2010PropOp44
 70
     1
102
RTVSPost2010Prop45
280
     0
102
RTVSPost2010PropOp45
 70
     1
102
RTVSPost2010Prop46
 90
       50
102
RTVSPost2010PropOp46
 70
     1
102
RTVSPost2010Prop47
 90
       50
102
RTVSPost2010PropOp47
 70
     1
102
RTVSPost2010Prop48
 90
       50
102
RTVSPost2010PropOp48
 70
     1
102
RTVSPost2010Prop49
280
     0
102
RTVSPost2010PropOp49
 70
     1
102
RTVSPost2010Prop50
 90
       50
102
RTVSPost2010PropOp50
 70
     1
102
RTVSPost2010Prop51ColorIndex
 90
      256
102
RTVSPost2010Prop51ColorRGB
 90
-16777216
102
RTVSPost2010PropOp51
 70
     0
102
RTVSPost2010Prop52
140
1.0
102
RTVSPost2010PropOp52
 70
     0
102
RTVSPost2010Prop53
 90
        2
102
RTVSPost2010PropOp53
 70
     1
102
RTVSPost2010Prop54
  1
strokes_ogs.tif
102
RTVSPost2010PropOp54
 70
     1
102
RTVSPost2010Prop55
280
     0
102
RTVSPost2010PropOp55
 70
     1
102
RTVSPost2010Prop56
140
1.0
102
RTVSPost2010PropOp56
 70
     1
102
RTVSPost2010Prop57
140
1.0
102
RTVSPost2010PropOp57
 70
     1
  0
XRECORD
  5
303D4F6
102
{ACAD_REACTORS
330
303D4F5
102
}
330
303D4F5
100
AcDbXrecord
280
     1
102
RTVSPost2010Prop28
280
     0
102
RTVSPost2010PropOp28
 70
     1
102
RTVSPost2010Prop29
280
     1
102
RTVSPost2010PropOp29
 70
     1
102
RTVSPost2010Prop30
280
     1
102
RTVSPost2010PropOp30
 70
     1
102
RTVSPost2010Prop31
280
     0
102
RTVSPost2010PropOp31
 70
     1
102
RTVSPost2010Prop32
280
     0
102
RTVSPost2010PropOp32
 70
     1
102
RTVSPost2010Prop33
280
     0
102
RTVSPost2010PropOp33
 70
     1
102
RTVSPost2010Prop34
280
     0
102
RTVSPost2010PropOp34
 70
     1
102
RTVSPost2010Prop35
280
     0
102
RTVSPost2010PropOp35
 70
     1
102
RTVSPost2010Prop36
280
     0
102
RTVSPost2010PropOp36
 70
     1
102
RTVSPost2010Prop37
 90
       50
102
RTVSPost2010PropOp37
 70
     1
102
RTVSPost2010Prop38
140
0.0
102
RTVSPost2010PropOp38
 70
     1
102
RTVSPost2010Prop39
140
1.0
102
RTVSPost2010PropOp39
 70
     1
102
RTVSPost2010Prop40
 90
        0
102
RTVSPost2010PropOp40
 70
     1
102
RTVSPost2010Prop41ColorIndex
 90
       18
102
RTVSPost2010Prop41ColorRGB
 90
        0
102
RTVSPost2010PropOp41
 70
     1
102
RTVSPost2010Prop42
 90
       50
102
RTVSPost2010PropOp42
 70
     1
102
RTVSPost2010Prop43
 90
        3
102
RTVSPost2010PropOp43
 70
     1
102
RTVSPost2010Prop44ColorIndex
 90
        5
102
RTVSPost2010Prop44ColorRGB
 90
      255
102
RTVSPost2010PropOp44
 70
     1
102
RTVSPost2010Prop45
280
     0
102
RTVSPost2010PropOp45
 70
     1
102
RTVSPost2010Prop46
 90
       50
102
RTVSPost2010PropOp46
 70
     1
102
RTVSPost2010Prop47
 90
       50
102
RTVSPost2010PropOp47
 70
     1
102
RTVSPost2010Prop48
 90
       50
102
RTVSPost2010PropOp48
 70
     1
102
RTVSPost2010Prop49
280
     0
102
RTVSPost2010PropOp49
 70
     1
102
RTVSPost2010Prop50
 90
       50
102
RTVSPost2010PropOp50
 70
     1
102
RTVSPost2010Prop51ColorIndex
 90
      256
102
RTVSPost2010Prop51ColorRGB
 90
-16777216
102
RTVSPost2010PropOp51
 70
     0
102
RTVSPost2010Prop52
140
1.0
102
RTVSPost2010PropOp52
 70
     0
102
RTVSPost2010Prop53
 90
        2
102
RTVSPost2010PropOp53
 70
     1
102
RTVSPost2010Prop54
  1
strokes_ogs.tif
102
RTVSPost2010PropOp54
 70
     1
102
RTVSPost2010Prop55
280
     0
102
RTVSPost2010PropOp55
 70
     1
102
RTVSPost2010Prop56
140
1.0
102
RTVSPost2010PropOp56
 70
     1
102
RTVSPost2010Prop57
140
1.0
102
RTVSPost2010PropOp57
 70
     1
  0
XRECORD
  5
303D4F8
102
{ACAD_REACTORS
330
303D4F7
102
}
330
303D4F7
100
AcDbXrecord
280
     1
102
RTVSPost2010Prop28
280
     0
102
RTVSPost2010PropOp28
 70
     1
102
RTVSPost2010Prop29
280
     1
102
RTVSPost2010PropOp29
 70
     1
102
RTVSPost2010Prop30
280
     1
102
RTVSPost2010PropOp30
 70
     1
102
RTVSPost2010Prop31
280
     0
102
RTVSPost2010PropOp31
 70
     1
102
RTVSPost2010Prop32
280
     0
102
RTVSPost2010PropOp32
 70
     1
102
RTVSPost2010Prop33
280
     0
102
RTVSPost2010PropOp33
 70
     1
102
RTVSPost2010Prop34
280
     0
102
RTVSPost2010PropOp34
 70
     1
102
RTVSPost2010Prop35
280
     0
102
RTVSPost2010PropOp35
 70
     1
102
RTVSPost2010Prop36
280
     0
102
RTVSPost2010PropOp36
 70
     1
102
RTVSPost2010Prop37
 90
       50
102
RTVSPost2010PropOp37
 70
     1
102
RTVSPost2010Prop38
140
0.0
102
RTVSPost2010PropOp38
 70
     1
102
RTVSPost2010Prop39
140
1.0
102
RTVSPost2010PropOp39
 70
     1
102
RTVSPost2010Prop40
 90
        0
102
RTVSPost2010PropOp40
 70
     1
102
RTVSPost2010Prop41ColorIndex
 90
       18
102
RTVSPost2010Prop41ColorRGB
 90
        0
102
RTVSPost2010PropOp41
 70
     1
102
RTVSPost2010Prop42
 90
       50
102
RTVSPost2010PropOp42
 70
     1
102
RTVSPost2010Prop43
 90
        3
102
RTVSPost2010PropOp43
 70
     1
102
RTVSPost2010Prop44ColorIndex
 90
        5
102
RTVSPost2010Prop44ColorRGB
 90
      255
102
RTVSPost2010PropOp44
 70
     1
102
RTVSPost2010Prop45
280
     0
102
RTVSPost2010PropOp45
 70
     1
102
RTVSPost2010Prop46
 90
       50
102
RTVSPost2010PropOp46
 70
     1
102
RTVSPost2010Prop47
 90
       50
102
RTVSPost2010PropOp47
 70
     1
102
RTVSPost2010Prop48
 90
       50
102
RTVSPost2010PropOp48
 70
     1
102
RTVSPost2010Prop49
280
     0
102
RTVSPost2010PropOp49
 70
     1
102
RTVSPost2010Prop50
 90
       50
102
RTVSPost2010PropOp50
 70
     1
102
RTVSPost2010Prop51ColorIndex
 90
      256
102
RTVSPost2010Prop51ColorRGB
 90
-16777216
102
RTVSPost2010PropOp51
 70
     0
102
RTVSPost2010Prop52
140
1.0
102
RTVSPost2010PropOp52
 70
     0
102
RTVSPost2010Prop53
 90
        2
102
RTVSPost2010PropOp53
 70
     1
102
RTVSPost2010Prop54
  1
strokes_ogs.tif
102
RTVSPost2010PropOp54
 70
     1
102
RTVSPost2010Prop55
280
     0
102
RTVSPost2010PropOp55
 70
     1
102
RTVSPost2010Prop56
140
1.0
102
RTVSPost2010PropOp56
 70
     1
102
RTVSPost2010Prop57
140
1.0
102
RTVSPost2010PropOp57
 70
     1
  0
XRECORD
  5
303D514
102
{ACAD_REACTORS
330
303D513
102
}
330
303D513
100
AcDbXrecord
280
     1
102
RTVSPost2010Prop28
280
     0
102
RTVSPost2010PropOp28
 70
     1
102
RTVSPost2010Prop29
280
     1
102
RTVSPost2010PropOp29
 70
     1
102
RTVSPost2010Prop30
280
     1
102
RTVSPost2010PropOp30
 70
     1
102
RTVSPost2010Prop31
280
     0
102
RTVSPost2010PropOp31
 70
     1
102
RTVSPost2010Prop32
280
     0
102
RTVSPost2010PropOp32
 70
     1
102
RTVSPost2010Prop33
280
     0
102
RTVSPost2010PropOp33
 70
     1
102
RTVSPost2010Prop34
280
     0
102
RTVSPost2010PropOp34
 70
     1
102
RTVSPost2010Prop35
280
     0
102
RTVSPost2010PropOp35
 70
     1
102
RTVSPost2010Prop36
280
     0
102
RTVSPost2010PropOp36
 70
     1
102
RTVSPost2010Prop37
 90
       50
102
RTVSPost2010PropOp37
 70
     1
102
RTVSPost2010Prop38
140
0.0
102
RTVSPost2010PropOp38
 70
     1
102
RTVSPost2010Prop39
140
1.0
102
RTVSPost2010PropOp39
 70
     1
102
RTVSPost2010Prop40
 90
        0
102
RTVSPost2010PropOp40
 70
     1
102
RTVSPost2010Prop41ColorIndex
 90
       18
102
RTVSPost2010Prop41ColorRGB
 90
        0
102
RTVSPost2010PropOp41
 70
     1
102
RTVSPost2010Prop42
 90
       50
102
RTVSPost2010PropOp42
 70
     1
102
RTVSPost2010Prop43
 90
        3
102
RTVSPost2010PropOp43
 70
     1
102
RTVSPost2010Prop44ColorIndex
 90
        5
102
RTVSPost2010Prop44ColorRGB
 90
      255
102
RTVSPost2010PropOp44
 70
     1
102
RTVSPost2010Prop45
280
     0
102
RTVSPost2010PropOp45
 70
     1
102
RTVSPost2010Prop46
 90
       50
102
RTVSPost2010PropOp46
 70
     1
102
RTVSPost2010Prop47
 90
       50
102
RTVSPost2010PropOp47
 70
     1
102
RTVSPost2010Prop48
 90
       50
102
RTVSPost2010PropOp48
 70
     1
102
RTVSPost2010Prop49
280
     0
102
RTVSPost2010PropOp49
 70
     1
102
RTVSPost2010Prop50
 90
       50
102
RTVSPost2010PropOp50
 70
     1
102
RTVSPost2010Prop51ColorIndex
 90
      256
102
RTVSPost2010Prop51ColorRGB
 90
-16777216
102
RTVSPost2010PropOp51
 70
     0
102
RTVSPost2010Prop52
140
1.0
102
RTVSPost2010PropOp52
 70
     0
102
RTVSPost2010Prop53
 90
        2
102
RTVSPost2010PropOp53
 70
     1
102
RTVSPost2010Prop54
  1
strokes_ogs.tif
102
RTVSPost2010PropOp54
 70
     1
102
RTVSPost2010Prop55
280
     0
102
RTVSPost2010PropOp55
 70
     1
102
RTVSPost2010Prop56
140
1.0
102
RTVSPost2010PropOp56
 70
     1
102
RTVSPost2010Prop57
140
1.0
102
RTVSPost2010PropOp57
 70
     1
  0
XRECORD
  5
303D520
102
{ACAD_REACTORS
330
303D51F
102
}
330
303D51F
100
AcDbXrecord
280
     1
102
RTVSPost2010Prop28
280
     0
102
RTVSPost2010PropOp28
 70
     1
102
RTVSPost2010Prop29
280
     1
102
RTVSPost2010PropOp29
 70
     1
102
RTVSPost2010Prop30
280
     1
102
RTVSPost2010PropOp30
 70
     1
102
RTVSPost2010Prop31
280
     0
102
RTVSPost2010PropOp31
 70
     1
102
RTVSPost2010Prop32
280
     0
102
RTVSPost2010PropOp32
 70
     1
102
RTVSPost2010Prop33
280
     0
102
RTVSPost2010PropOp33
 70
     1
102
RTVSPost2010Prop34
280
     0
102
RTVSPost2010PropOp34
 70
     1
102
RTVSPost2010Prop35
280
     0
102
RTVSPost2010PropOp35
 70
     1
102
RTVSPost2010Prop36
280
     0
102
RTVSPost2010PropOp36
 70
     1
102
RTVSPost2010Prop37
 90
       50
102
RTVSPost2010PropOp37
 70
     0
102
RTVSPost2010Prop38
140
0.0
102
RTVSPost2010PropOp38
 70
     0
102
RTVSPost2010Prop39
140
1.0
102
RTVSPost2010PropOp39
 70
     0
102
RTVSPost2010Prop40
 90
        0
102
RTVSPost2010PropOp40
 70
     0
102
RTVSPost2010Prop41ColorIndex
 90
       18
102
RTVSPost2010Prop41ColorRGB
 90
        0
102
RTVSPost2010PropOp41
 70
     0
102
RTVSPost2010Prop42
 90
       50
102
RTVSPost2010PropOp42
 70
     0
102
RTVSPost2010Prop43
 90
        3
102
RTVSPost2010PropOp43
 70
     0
102
RTVSPost2010Prop44ColorIndex
 90
        5
102
RTVSPost2010Prop44ColorRGB
 90
      255
102
RTVSPost2010PropOp44
 70
     0
102
RTVSPost2010Prop45
280
     0
102
RTVSPost2010PropOp45
 70
     1
102
RTVSPost2010Prop46
 90
       50
102
RTVSPost2010PropOp46
 70
     0
102
RTVSPost2010Prop47
 90
       50
102
RTVSPost2010PropOp47
 70
     0
102
RTVSPost2010Prop48
 90
       50
102
RTVSPost2010PropOp48
 70
     0
102
RTVSPost2010Prop49
280
     0
102
RTVSPost2010PropOp49
 70
     1
102
RTVSPost2010Prop50
 90
       50
102
RTVSPost2010PropOp50
 70
     0
102
RTVSPost2010Prop51ColorIndex
 90
      256
102
RTVSPost2010Prop51ColorRGB
 90
-16777216
102
RTVSPost2010PropOp51
 70
     0
102
RTVSPost2010Prop52
140
1.0
102
RTVSPost2010PropOp52
 70
     0
102
RTVSPost2010Prop53
 90
        2
102
RTVSPost2010PropOp53
 70
     0
102
RTVSPost2010Prop54
  1
strokes_ogs.tif
102
RTVSPost2010PropOp54
 70
     0
102
RTVSPost2010Prop55
280
     0
102
RTVSPost2010PropOp55
 70
     1
102
RTVSPost2010Prop56
140
1.0
102
RTVSPost2010PropOp56
 70
     0
102
RTVSPost2010Prop57
140
1.0
102
RTVSPost2010PropOp57
 70
     0
  0
XRECORD
  5
303D50C
102
{ACAD_REACTORS
330
303D50B
102
}
330
303D50B
100
AcDbXrecord
280
     1
102
RTVSPost2010Prop28
280
     0
102
RTVSPost2010PropOp28
 70
     1
102
RTVSPost2010Prop29
280
     1
102
RTVSPost2010PropOp29
 70
     1
102
RTVSPost2010Prop30
280
     1
102
RTVSPost2010PropOp30
 70
     1
102
RTVSPost2010Prop31
280
     0
102
RTVSPost2010PropOp31
 70
     1
102
RTVSPost2010Prop32
280
     0
102
RTVSPost2010PropOp32
 70
     1
102
RTVSPost2010Prop33
280
     0
102
RTVSPost2010PropOp33
 70
     1
102
RTVSPost2010Prop34
280
     0
102
RTVSPost2010PropOp34
 70
     1
102
RTVSPost2010Prop35
280
     0
102
RTVSPost2010PropOp35
 70
     1
102
RTVSPost2010Prop36
280
     0
102
RTVSPost2010PropOp36
 70
     1
102
RTVSPost2010Prop37
 90
       50
102
RTVSPost2010PropOp37
 70
     1
102
RTVSPost2010Prop38
140
0.0
102
RTVSPost2010PropOp38
 70
     1
102
RTVSPost2010Prop39
140
1.0
102
RTVSPost2010PropOp39
 70
     1
102
RTVSPost2010Prop40
 90
        0
102
RTVSPost2010PropOp40
 70
     1
102
RTVSPost2010Prop41ColorIndex
 90
       18
102
RTVSPost2010Prop41ColorRGB
 90
        0
102
RTVSPost2010PropOp41
 70
     1
102
RTVSPost2010Prop42
 90
       50
102
RTVSPost2010PropOp42
 70
     1
102
RTVSPost2010Prop43
 90
        3
102
RTVSPost2010PropOp43
 70
     1
102
RTVSPost2010Prop44ColorIndex
 90
        5
102
RTVSPost2010Prop44ColorRGB
 90
      255
102
RTVSPost2010PropOp44
 70
     1
102
RTVSPost2010Prop45
280
     0
102
RTVSPost2010PropOp45
 70
     1
102
RTVSPost2010Prop46
 90
       50
102
RTVSPost2010PropOp46
 70
     1
102
RTVSPost2010Prop47
 90
       50
102
RTVSPost2010PropOp47
 70
     1
102
RTVSPost2010Prop48
 90
       50
102
RTVSPost2010PropOp48
 70
     1
102
RTVSPost2010Prop49
280
     0
102
RTVSPost2010PropOp49
 70
     1
102
RTVSPost2010Prop50
 90
       50
102
RTVSPost2010PropOp50
 70
     1
102
RTVSPost2010Prop51ColorIndex
 90
      256
102
RTVSPost2010Prop51ColorRGB
 90
-16777216
102
RTVSPost2010PropOp51
 70
     0
102
RTVSPost2010Prop52
140
1.0
102
RTVSPost2010PropOp52
 70
     0
102
RTVSPost2010Prop53
 90
        2
102
RTVSPost2010PropOp53
 70
     1
102
RTVSPost2010Prop54
  1
strokes_ogs.tif
102
RTVSPost2010PropOp54
 70
     1
102
RTVSPost2010Prop55
280
     0
102
RTVSPost2010PropOp55
 70
     1
102
RTVSPost2010Prop56
140
1.0
102
RTVSPost2010PropOp56
 70
     1
102
RTVSPost2010Prop57
140
1.0
102
RTVSPost2010PropOp57
 70
     1
  0
XRECORD
  5
303D522
102
{ACAD_REACTORS
330
303D521
102
}
330
303D521
100
AcDbXrecord
280
     1
102
RTVSPost2010Prop28
280
     0
102
RTVSPost2010PropOp28
 70
     1
102
RTVSPost2010Prop29
280
     1
102
RTVSPost2010PropOp29
 70
     1
102
RTVSPost2010Prop30
280
     1
102
RTVSPost2010PropOp30
 70
     1
102
RTVSPost2010Prop31
280
     0
102
RTVSPost2010PropOp31
 70
     1
102
RTVSPost2010Prop32
280
     0
102
RTVSPost2010PropOp32
 70
     1
102
RTVSPost2010Prop33
280
     0
102
RTVSPost2010PropOp33
 70
     1
102
RTVSPost2010Prop34
280
     0
102
RTVSPost2010PropOp34
 70
     1
102
RTVSPost2010Prop35
280
     0
102
RTVSPost2010PropOp35
 70
     1
102
RTVSPost2010Prop36
280
     0
102
RTVSPost2010PropOp36
 70
     1
102
RTVSPost2010Prop37
 90
       50
102
RTVSPost2010PropOp37
 70
     0
102
RTVSPost2010Prop38
140
0.0
102
RTVSPost2010PropOp38
 70
     0
102
RTVSPost2010Prop39
140
1.0
102
RTVSPost2010PropOp39
 70
     0
102
RTVSPost2010Prop40
 90
        0
102
RTVSPost2010PropOp40
 70
     0
102
RTVSPost2010Prop41ColorIndex
 90
       18
102
RTVSPost2010Prop41ColorRGB
 90
        0
102
RTVSPost2010PropOp41
 70
     0
102
RTVSPost2010Prop42
 90
       50
102
RTVSPost2010PropOp42
 70
     0
102
RTVSPost2010Prop43
 90
        3
102
RTVSPost2010PropOp43
 70
     0
102
RTVSPost2010Prop44ColorIndex
 90
        5
102
RTVSPost2010Prop44ColorRGB
 90
      255
102
RTVSPost2010PropOp44
 70
     0
102
RTVSPost2010Prop45
280
     0
102
RTVSPost2010PropOp45
 70
     1
102
RTVSPost2010Prop46
 90
       50
102
RTVSPost2010PropOp46
 70
     0
102
RTVSPost2010Prop47
 90
       50
102
RTVSPost2010PropOp47
 70
     0
102
RTVSPost2010Prop48
 90
       50
102
RTVSPost2010PropOp48
 70
     0
102
RTVSPost2010Prop49
280
     0
102
RTVSPost2010PropOp49
 70
     1
102
RTVSPost2010Prop50
 90
       50
102
RTVSPost2010PropOp50
 70
     0
102
RTVSPost2010Prop51ColorIndex
 90
      256
102
RTVSPost2010Prop51ColorRGB
 90
-16777216
102
RTVSPost2010PropOp51
 70
     0
102
RTVSPost2010Prop52
140
1.0
102
RTVSPost2010PropOp52
 70
     0
102
RTVSPost2010Prop53
 90
        2
102
RTVSPost2010PropOp53
 70
     0
102
RTVSPost2010Prop54
  1
strokes_ogs.tif
102
RTVSPost2010PropOp54
 70
     0
102
RTVSPost2010Prop55
280
     0
102
RTVSPost2010PropOp55
 70
     1
102
RTVSPost2010Prop56
140
1.0
102
RTVSPost2010PropOp56
 70
     0
102
RTVSPost2010Prop57
140
1.0
102
RTVSPost2010PropOp57
 70
     0
  0
XRECORD
  5
303D504
102
{ACAD_REACTORS
330
303D503
102
}
330
303D503
100
AcDbXrecord
280
     1
102
RTVSPost2010Prop28
280
     0
102
RTVSPost2010PropOp28
 70
     1
102
RTVSPost2010Prop29
280
     1
102
RTVSPost2010PropOp29
 70
     1
102
RTVSPost2010Prop30
280
     1
102
RTVSPost2010PropOp30
 70
     1
102
RTVSPost2010Prop31
280
     0
102
RTVSPost2010PropOp31
 70
     1
102
RTVSPost2010Prop32
280
     0
102
RTVSPost2010PropOp32
 70
     1
102
RTVSPost2010Prop33
280
     0
102
RTVSPost2010PropOp33
 70
     1
102
RTVSPost2010Prop34
280
     0
102
RTVSPost2010PropOp34
 70
     1
102
RTVSPost2010Prop35
280
     0
102
RTVSPost2010PropOp35
 70
     1
102
RTVSPost2010Prop36
280
     0
102
RTVSPost2010PropOp36
 70
     1
102
RTVSPost2010Prop37
 90
       50
102
RTVSPost2010PropOp37
 70
     1
102
RTVSPost2010Prop38
140
0.0
102
RTVSPost2010PropOp38
 70
     1
102
RTVSPost2010Prop39
140
1.0
102
RTVSPost2010PropOp39
 70
     1
102
RTVSPost2010Prop40
 90
        0
102
RTVSPost2010PropOp40
 70
     1
102
RTVSPost2010Prop41ColorIndex
 90
       18
102
RTVSPost2010Prop41ColorRGB
 90
        0
102
RTVSPost2010PropOp41
 70
     1
102
RTVSPost2010Prop42
 90
       50
102
RTVSPost2010PropOp42
 70
     1
102
RTVSPost2010Prop43
 90
        3
102
RTVSPost2010PropOp43
 70
     1
102
RTVSPost2010Prop44ColorIndex
 90
        5
102
RTVSPost2010Prop44ColorRGB
 90
      255
102
RTVSPost2010PropOp44
 70
     1
102
RTVSPost2010Prop45
280
     0
102
RTVSPost2010PropOp45
 70
     1
102
RTVSPost2010Prop46
 90
       50
102
RTVSPost2010PropOp46
 70
     1
102
RTVSPost2010Prop47
 90
       50
102
RTVSPost2010PropOp47
 70
     1
102
RTVSPost2010Prop48
 90
       50
102
RTVSPost2010PropOp48
 70
     1
102
RTVSPost2010Prop49
280
     0
102
RTVSPost2010PropOp49
 70
     1
102
RTVSPost2010Prop50
 90
       50
102
RTVSPost2010PropOp50
 70
     1
102
RTVSPost2010Prop51ColorIndex
 90
      256
102
RTVSPost2010Prop51ColorRGB
 90
-16777216
102
RTVSPost2010PropOp51
 70
     0
102
RTVSPost2010Prop52
140
1.0
102
RTVSPost2010PropOp52
 70
     0
102
RTVSPost2010Prop53
 90
        2
102
RTVSPost2010PropOp53
 70
     1
102
RTVSPost2010Prop54
  1
strokes_ogs.tif
102
RTVSPost2010PropOp54
 70
     1
102
RTVSPost2010Prop55
280
     0
102
RTVSPost2010PropOp55
 70
     1
102
RTVSPost2010Prop56
140
1.0
102
RTVSPost2010PropOp56
 70
     1
102
RTVSPost2010Prop57
140
1.0
102
RTVSPost2010PropOp57
 70
     1
  0
XRECORD
  5
303D51E
102
{ACAD_REACTORS
330
303D51D
102
}
330
303D51D
100
AcDbXrecord
280
     1
102
RTVSPost2010Prop28
280
     0
102
RTVSPost2010PropOp28
 70
     1
102
RTVSPost2010Prop29
280
     1
102
RTVSPost2010PropOp29
 70
     1
102
RTVSPost2010Prop30
280
     1
102
RTVSPost2010PropOp30
 70
     1
102
RTVSPost2010Prop31
280
     0
102
RTVSPost2010PropOp31
 70
     1
102
RTVSPost2010Prop32
280
     0
102
RTVSPost2010PropOp32
 70
     1
102
RTVSPost2010Prop33
280
     0
102
RTVSPost2010PropOp33
 70
     1
102
RTVSPost2010Prop34
280
     0
102
RTVSPost2010PropOp34
 70
     1
102
RTVSPost2010Prop35
280
     0
102
RTVSPost2010PropOp35
 70
     1
102
RTVSPost2010Prop36
280
     0
102
RTVSPost2010PropOp36
 70
     1
102
RTVSPost2010Prop37
 90
       50
102
RTVSPost2010PropOp37
 70
     1
102
RTVSPost2010Prop38
140
0.0
102
RTVSPost2010PropOp38
 70
     1
102
RTVSPost2010Prop39
140
1.0
102
RTVSPost2010PropOp39
 70
     1
102
RTVSPost2010Prop40
 90
        0
102
RTVSPost2010PropOp40
 70
     1
102
RTVSPost2010Prop41ColorIndex
 90
       18
102
RTVSPost2010Prop41ColorRGB
 90
        0
102
RTVSPost2010PropOp41
 70
     1
102
RTVSPost2010Prop42
 90
       50
102
RTVSPost2010PropOp42
 70
     1
102
RTVSPost2010Prop43
 90
        3
102
RTVSPost2010PropOp43
 70
     1
102
RTVSPost2010Prop44ColorIndex
 90
        5
102
RTVSPost2010Prop44ColorRGB
 90
      255
102
RTVSPost2010PropOp44
 70
     1
102
RTVSPost2010Prop45
280
     0
102
RTVSPost2010PropOp45
 70
     1
102
RTVSPost2010Prop46
 90
       50
102
RTVSPost2010PropOp46
 70
     1
102
RTVSPost2010Prop47
 90
       50
102
RTVSPost2010PropOp47
 70
     1
102
RTVSPost2010Prop48
 90
       50
102
RTVSPost2010PropOp48
 70
     1
102
RTVSPost2010Prop49
280
     0
102
RTVSPost2010PropOp49
 70
     1
102
RTVSPost2010Prop50
 90
       50
102
RTVSPost2010PropOp50
 70
     1
102
RTVSPost2010Prop51ColorIndex
 90
      256
102
RTVSPost2010Prop51ColorRGB
 90
-16777216
102
RTVSPost2010PropOp51
 70
     0
102
RTVSPost2010Prop52
140
1.0
102
RTVSPost2010PropOp52
 70
     0
102
RTVSPost2010Prop53
 90
        2
102
RTVSPost2010PropOp53
 70
     1
102
RTVSPost2010Prop54
  1
strokes_ogs.tif
102
RTVSPost2010PropOp54
 70
     1
102
RTVSPost2010Prop55
280
     0
102
RTVSPost2010PropOp55
 70
     1
102
RTVSPost2010Prop56
140
1.0
102
RTVSPost2010PropOp56
 70
     1
102
RTVSPost2010Prop57
140
1.0
102
RTVSPost2010PropOp57
 70
     1
  0
XRECORD
  5
303D51C
102
{ACAD_REACTORS
330
303D51B
102
}
330
303D51B
100
AcDbXrecord
280
     1
102
RTVSPost2010Prop28
280
     0
102
RTVSPost2010PropOp28
 70
     1
102
RTVSPost2010Prop29
280
     1
102
RTVSPost2010PropOp29
 70
     1
102
RTVSPost2010Prop30
280
     1
102
RTVSPost2010PropOp30
 70
     1
102
RTVSPost2010Prop31
280
     0
102
RTVSPost2010PropOp31
 70
     1
102
RTVSPost2010Prop32
280
     0
102
RTVSPost2010PropOp32
 70
     1
102
RTVSPost2010Prop33
280
     0
102
RTVSPost2010PropOp33
 70
     1
102
RTVSPost2010Prop34
280
     0
102
RTVSPost2010PropOp34
 70
     1
102
RTVSPost2010Prop35
280
     0
102
RTVSPost2010PropOp35
 70
     1
102
RTVSPost2010Prop36
280
     0
102
RTVSPost2010PropOp36
 70
     1
102
RTVSPost2010Prop37
 90
       50
102
RTVSPost2010PropOp37
 70
     1
102
RTVSPost2010Prop38
140
0.0
102
RTVSPost2010PropOp38
 70
     1
102
RTVSPost2010Prop39
140
1.0
102
RTVSPost2010PropOp39
 70
     1
102
RTVSPost2010Prop40
 90
        0
102
RTVSPost2010PropOp40
 70
     1
102
RTVSPost2010Prop41ColorIndex
 90
       18
102
RTVSPost2010Prop41ColorRGB
 90
        0
102
RTVSPost2010PropOp41
 70
     1
102
RTVSPost2010Prop42
 90
       50
102
RTVSPost2010PropOp42
 70
     1
102
RTVSPost2010Prop43
 90
        3
102
RTVSPost2010PropOp43
 70
     1
102
RTVSPost2010Prop44ColorIndex
 90
        5
102
RTVSPost2010Prop44ColorRGB
 90
      255
102
RTVSPost2010PropOp44
 70
     1
102
RTVSPost2010Prop45
280
     0
102
RTVSPost2010PropOp45
 70
     1
102
RTVSPost2010Prop46
 90
       50
102
RTVSPost2010PropOp46
 70
     1
102
RTVSPost2010Prop47
 90
       50
102
RTVSPost2010PropOp47
 70
     1
102
RTVSPost2010Prop48
 90
       50
102
RTVSPost2010PropOp48
 70
     1
102
RTVSPost2010Prop49
280
     0
102
RTVSPost2010PropOp49
 70
     1
102
RTVSPost2010Prop50
 90
       50
102
RTVSPost2010PropOp50
 70
     1
102
RTVSPost2010Prop51ColorIndex
 90
      256
102
RTVSPost2010Prop51ColorRGB
 90
-16777216
102
RTVSPost2010PropOp51
 70
     0
102
RTVSPost2010Prop52
140
1.0
102
RTVSPost2010PropOp52
 70
     0
102
RTVSPost2010Prop53
 90
        2
102
RTVSPost2010PropOp53
 70
     1
102
RTVSPost2010Prop54
  1
strokes_ogs.tif
102
RTVSPost2010PropOp54
 70
     1
102
RTVSPost2010Prop55
280
     0
102
RTVSPost2010PropOp55
 70
     1
102
RTVSPost2010Prop56
140
1.0
102
RTVSPost2010PropOp56
 70
     1
102
RTVSPost2010Prop57
140
1.0
102
RTVSPost2010PropOp57
 70
     1
  0
XRECORD
  5
303D516
102
{ACAD_REACTORS
330
303D515
102
}
330
303D515
100
AcDbXrecord
280
     1
102
RTVSPost2010Prop28
280
     0
102
RTVSPost2010PropOp28
 70
     1
102
RTVSPost2010Prop29
280
     1
102
RTVSPost2010PropOp29
 70
     1
102
RTVSPost2010Prop30
280
     1
102
RTVSPost2010PropOp30
 70
     1
102
RTVSPost2010Prop31
280
     0
102
RTVSPost2010PropOp31
 70
     1
102
RTVSPost2010Prop32
280
     0
102
RTVSPost2010PropOp32
 70
     1
102
RTVSPost2010Prop33
280
     0
102
RTVSPost2010PropOp33
 70
     1
102
RTVSPost2010Prop34
280
     0
102
RTVSPost2010PropOp34
 70
     1
102
RTVSPost2010Prop35
280
     0
102
RTVSPost2010PropOp35
 70
     1
102
RTVSPost2010Prop36
280
     0
102
RTVSPost2010PropOp36
 70
     1
102
RTVSPost2010Prop37
 90
       50
102
RTVSPost2010PropOp37
 70
     1
102
RTVSPost2010Prop38
140
0.0
102
RTVSPost2010PropOp38
 70
     1
102
RTVSPost2010Prop39
140
1.0
102
RTVSPost2010PropOp39
 70
     1
102
RTVSPost2010Prop40
 90
        0
102
RTVSPost2010PropOp40
 70
     1
102
RTVSPost2010Prop41ColorIndex
 90
       18
102
RTVSPost2010Prop41ColorRGB
 90
        0
102
RTVSPost2010PropOp41
 70
     1
102
RTVSPost2010Prop42
 90
       50
102
RTVSPost2010PropOp42
 70
     1
102
RTVSPost2010Prop43
 90
        3
102
RTVSPost2010PropOp43
 70
     1
102
RTVSPost2010Prop44ColorIndex
 90
        5
102
RTVSPost2010Prop44ColorRGB
 90
      255
102
RTVSPost2010PropOp44
 70
     1
102
RTVSPost2010Prop45
280
     0
102
RTVSPost2010PropOp45
 70
     1
102
RTVSPost2010Prop46
 90
       50
102
RTVSPost2010PropOp46
 70
     1
102
RTVSPost2010Prop47
 90
       50
102
RTVSPost2010PropOp47
 70
     1
102
RTVSPost2010Prop48
 90
       50
102
RTVSPost2010PropOp48
 70
     1
102
RTVSPost2010Prop49
280
     0
102
RTVSPost2010PropOp49
 70
     1
102
RTVSPost2010Prop50
 90
       50
102
RTVSPost2010PropOp50
 70
     1
102
RTVSPost2010Prop51ColorIndex
 90
      256
102
RTVSPost2010Prop51ColorRGB
 90
-16777216
102
RTVSPost2010PropOp51
 70
     0
102
RTVSPost2010Prop52
140
1.0
102
RTVSPost2010PropOp52
 70
     0
102
RTVSPost2010Prop53
 90
        2
102
RTVSPost2010PropOp53
 70
     1
102
RTVSPost2010Prop54
  1
strokes_ogs.tif
102
RTVSPost2010PropOp54
 70
     1
102
RTVSPost2010Prop55
280
     0
102
RTVSPost2010PropOp55
 70
     1
102
RTVSPost2010Prop56
140
1.0
102
RTVSPost2010PropOp56
 70
     1
102
RTVSPost2010Prop57
140
1.0
102
RTVSPost2010PropOp57
 70
     1
  0
XRECORD
  5
303D518
102
{ACAD_REACTORS
330
303D517
102
}
330
303D517
100
AcDbXrecord
280
     1
102
RTVSPost2010Prop28
280
     0
102
RTVSPost2010PropOp28
 70
     1
102
RTVSPost2010Prop29
280
     1
102
RTVSPost2010PropOp29
 70
     1
102
RTVSPost2010Prop30
280
     1
102
RTVSPost2010PropOp30
 70
     1
102
RTVSPost2010Prop31
280
     0
102
RTVSPost2010PropOp31
 70
     1
102
RTVSPost2010Prop32
280
     0
102
RTVSPost2010PropOp32
 70
     1
102
RTVSPost2010Prop33
280
     0
102
RTVSPost2010PropOp33
 70
     1
102
RTVSPost2010Prop34
280
     0
102
RTVSPost2010PropOp34
 70
     1
102
RTVSPost2010Prop35
280
     0
102
RTVSPost2010PropOp35
 70
     1
102
RTVSPost2010Prop36
280
     0
102
RTVSPost2010PropOp36
 70
     1
102
RTVSPost2010Prop37
 90
       50
102
RTVSPost2010PropOp37
 70
     1
102
RTVSPost2010Prop38
140
0.0
102
RTVSPost2010PropOp38
 70
     1
102
RTVSPost2010Prop39
140
1.0
102
RTVSPost2010PropOp39
 70
     1
102
RTVSPost2010Prop40
 90
        0
102
RTVSPost2010PropOp40
 70
     1
102
RTVSPost2010Prop41ColorIndex
 90
       18
102
RTVSPost2010Prop41ColorRGB
 90
        0
102
RTVSPost2010PropOp41
 70
     1
102
RTVSPost2010Prop42
 90
       50
102
RTVSPost2010PropOp42
 70
     1
102
RTVSPost2010Prop43
 90
        3
102
RTVSPost2010PropOp43
 70
     1
102
RTVSPost2010Prop44ColorIndex
 90
        5
102
RTVSPost2010Prop44ColorRGB
 90
      255
102
RTVSPost2010PropOp44
 70
     1
102
RTVSPost2010Prop45
280
     0
102
RTVSPost2010PropOp45
 70
     1
102
RTVSPost2010Prop46
 90
       50
102
RTVSPost2010PropOp46
 70
     1
102
RTVSPost2010Prop47
 90
       50
102
RTVSPost2010PropOp47
 70
     1
102
RTVSPost2010Prop48
 90
       50
102
RTVSPost2010PropOp48
 70
     1
102
RTVSPost2010Prop49
280
     0
102
RTVSPost2010PropOp49
 70
     1
102
RTVSPost2010Prop50
 90
       50
102
RTVSPost2010PropOp50
 70
     1
102
RTVSPost2010Prop51ColorIndex
 90
      256
102
RTVSPost2010Prop51ColorRGB
 90
-16777216
102
RTVSPost2010PropOp51
 70
     0
102
RTVSPost2010Prop52
140
1.0
102
RTVSPost2010PropOp52
 70
     0
102
RTVSPost2010Prop53
 90
        2
102
RTVSPost2010PropOp53
 70
     1
102
RTVSPost2010Prop54
  1
strokes_ogs.tif
102
RTVSPost2010PropOp54
 70
     1
102
RTVSPost2010Prop55
280
     0
102
RTVSPost2010PropOp55
 70
     1
102
RTVSPost2010Prop56
140
1.0
102
RTVSPost2010PropOp56
 70
     1
102
RTVSPost2010Prop57
140
1.0
102
RTVSPost2010PropOp57
 70
     1
  0
XRECORD
  5
303D50A
102
{ACAD_REACTORS
330
303D509
102
}
330
303D509
100
AcDbXrecord
280
     1
102
RTVSPost2010Prop28
280
     0
102
RTVSPost2010PropOp28
 70
     1
102
RTVSPost2010Prop29
280
     1
102
RTVSPost2010PropOp29
 70
     1
102
RTVSPost2010Prop30
280
     1
102
RTVSPost2010PropOp30
 70
     1
102
RTVSPost2010Prop31
280
     0
102
RTVSPost2010PropOp31
 70
     1
102
RTVSPost2010Prop32
280
     0
102
RTVSPost2010PropOp32
 70
     1
102
RTVSPost2010Prop33
280
     0
102
RTVSPost2010PropOp33
 70
     1
102
RTVSPost2010Prop34
280
     0
102
RTVSPost2010PropOp34
 70
     1
102
RTVSPost2010Prop35
280
     0
102
RTVSPost2010PropOp35
 70
     1
102
RTVSPost2010Prop36
280
     0
102
RTVSPost2010PropOp36
 70
     1
102
RTVSPost2010Prop37
 90
       50
102
RTVSPost2010PropOp37
 70
     1
102
RTVSPost2010Prop38
140
0.0
102
RTVSPost2010PropOp38
 70
     1
102
RTVSPost2010Prop39
140
1.0
102
RTVSPost2010PropOp39
 70
     1
102
RTVSPost2010Prop40
 90
        0
102
RTVSPost2010PropOp40
 70
     1
102
RTVSPost2010Prop41ColorIndex
 90
       18
102
RTVSPost2010Prop41ColorRGB
 90
        0
102
RTVSPost2010PropOp41
 70
     1
102
RTVSPost2010Prop42
 90
       50
102
RTVSPost2010PropOp42
 70
     1
102
RTVSPost2010Prop43
 90
        3
102
RTVSPost2010PropOp43
 70
     1
102
RTVSPost2010Prop44ColorIndex
 90
        5
102
RTVSPost2010Prop44ColorRGB
 90
      255
102
RTVSPost2010PropOp44
 70
     1
102
RTVSPost2010Prop45
280
     0
102
RTVSPost2010PropOp45
 70
     1
102
RTVSPost2010Prop46
 90
       50
102
RTVSPost2010PropOp46
 70
     1
102
RTVSPost2010Prop47
 90
       50
102
RTVSPost2010PropOp47
 70
     1
102
RTVSPost2010Prop48
 90
       50
102
RTVSPost2010PropOp48
 70
     1
102
RTVSPost2010Prop49
280
     0
102
RTVSPost2010PropOp49
 70
     1
102
RTVSPost2010Prop50
 90
       50
102
RTVSPost2010PropOp50
 70
     1
102
RTVSPost2010Prop51ColorIndex
 90
      256
102
RTVSPost2010Prop51ColorRGB
 90
-16777216
102
RTVSPost2010PropOp51
 70
     0
102
RTVSPost2010Prop52
140
1.0
102
RTVSPost2010PropOp52
 70
     0
102
RTVSPost2010Prop53
 90
        2
102
RTVSPost2010PropOp53
 70
     1
102
RTVSPost2010Prop54
  1
strokes_ogs.tif
102
RTVSPost2010PropOp54
 70
     1
102
RTVSPost2010Prop55
280
     0
102
RTVSPost2010PropOp55
 70
     1
102
RTVSPost2010Prop56
140
1.0
102
RTVSPost2010PropOp56
 70
     1
102
RTVSPost2010Prop57
140
1.0
102
RTVSPost2010PropOp57
 70
     1
  0
XRECORD
  5
303D512
102
{ACAD_REACTORS
330
303D511
102
}
330
303D511
100
AcDbXrecord
280
     1
102
RTVSPost2010Prop28
280
     0
102
RTVSPost2010PropOp28
 70
     1
102
RTVSPost2010Prop29
280
     1
102
RTVSPost2010PropOp29
 70
     1
102
RTVSPost2010Prop30
280
     1
102
RTVSPost2010PropOp30
 70
     1
102
RTVSPost2010Prop31
280
     0
102
RTVSPost2010PropOp31
 70
     1
102
RTVSPost2010Prop32
280
     0
102
RTVSPost2010PropOp32
 70
     1
102
RTVSPost2010Prop33
280
     0
102
RTVSPost2010PropOp33
 70
     1
102
RTVSPost2010Prop34
280
     0
102
RTVSPost2010PropOp34
 70
     1
102
RTVSPost2010Prop35
280
     0
102
RTVSPost2010PropOp35
 70
     1
102
RTVSPost2010Prop36
280
     0
102
RTVSPost2010PropOp36
 70
     1
102
RTVSPost2010Prop37
 90
       50
102
RTVSPost2010PropOp37
 70
     1
102
RTVSPost2010Prop38
140
0.0
102
RTVSPost2010PropOp38
 70
     1
102
RTVSPost2010Prop39
140
1.0
102
RTVSPost2010PropOp39
 70
     1
102
RTVSPost2010Prop40
 90
        0
102
RTVSPost2010PropOp40
 70
     1
102
RTVSPost2010Prop41ColorIndex
 90
       18
102
RTVSPost2010Prop41ColorRGB
 90
        0
102
RTVSPost2010PropOp41
 70
     1
102
RTVSPost2010Prop42
 90
       50
102
RTVSPost2010PropOp42
 70
     1
102
RTVSPost2010Prop43
 90
        3
102
RTVSPost2010PropOp43
 70
     1
102
RTVSPost2010Prop44ColorIndex
 90
        5
102
RTVSPost2010Prop44ColorRGB
 90
      255
102
RTVSPost2010PropOp44
 70
     1
102
RTVSPost2010Prop45
280
     0
102
RTVSPost2010PropOp45
 70
     1
102
RTVSPost2010Prop46
 90
       50
102
RTVSPost2010PropOp46
 70
     1
102
RTVSPost2010Prop47
 90
       50
102
RTVSPost2010PropOp47
 70
     1
102
RTVSPost2010Prop48
 90
       50
102
RTVSPost2010PropOp48
 70
     1
102
RTVSPost2010Prop49
280
     0
102
RTVSPost2010PropOp49
 70
     1
102
RTVSPost2010Prop50
 90
       50
102
RTVSPost2010PropOp50
 70
     1
102
RTVSPost2010Prop51ColorIndex
 90
      256
102
RTVSPost2010Prop51ColorRGB
 90
-16777216
102
RTVSPost2010PropOp51
 70
     0
102
RTVSPost2010Prop52
140
1.0
102
RTVSPost2010PropOp52
 70
     0
102
RTVSPost2010Prop53
 90
        2
102
RTVSPost2010PropOp53
 70
     1
102
RTVSPost2010Prop54
  1
strokes_ogs.tif
102
RTVSPost2010PropOp54
 70
     1
102
RTVSPost2010Prop55
280
     0
102
RTVSPost2010PropOp55
 70
     1
102
RTVSPost2010Prop56
140
1.0
102
RTVSPost2010PropOp56
 70
     1
102
RTVSPost2010Prop57
140
1.0
102
RTVSPost2010PropOp57
 70
     1
  0
XRECORD
  5
303D51A
102
{ACAD_REACTORS
330
303D519
102
}
330
303D519
100
AcDbXrecord
280
     1
102
RTVSPost2010Prop28
280
     0
102
RTVSPost2010PropOp28
 70
     1
102
RTVSPost2010Prop29
280
     1
102
RTVSPost2010PropOp29
 70
     1
102
RTVSPost2010Prop30
280
     1
102
RTVSPost2010PropOp30
 70
     1
102
RTVSPost2010Prop31
280
     0
102
RTVSPost2010PropOp31
 70
     1
102
RTVSPost2010Prop32
280
     0
102
RTVSPost2010PropOp32
 70
     1
102
RTVSPost2010Prop33
280
     0
102
RTVSPost2010PropOp33
 70
     1
102
RTVSPost2010Prop34
280
     0
102
RTVSPost2010PropOp34
 70
     1
102
RTVSPost2010Prop35
280
     0
102
RTVSPost2010PropOp35
 70
     1
102
RTVSPost2010Prop36
280
     0
102
RTVSPost2010PropOp36
 70
     1
102
RTVSPost2010Prop37
 90
       50
102
RTVSPost2010PropOp37
 70
     1
102
RTVSPost2010Prop38
140
0.0
102
RTVSPost2010PropOp38
 70
     1
102
RTVSPost2010Prop39
140
1.0
102
RTVSPost2010PropOp39
 70
     1
102
RTVSPost2010Prop40
 90
        0
102
RTVSPost2010PropOp40
 70
     1
102
RTVSPost2010Prop41ColorIndex
 90
       18
102
RTVSPost2010Prop41ColorRGB
 90
        0
102
RTVSPost2010PropOp41
 70
     1
102
RTVSPost2010Prop42
 90
       50
102
RTVSPost2010PropOp42
 70
     1
102
RTVSPost2010Prop43
 90
        3
102
RTVSPost2010PropOp43
 70
     1
102
RTVSPost2010Prop44ColorIndex
 90
        5
102
RTVSPost2010Prop44ColorRGB
 90
      255
102
RTVSPost2010PropOp44
 70
     1
102
RTVSPost2010Prop45
280
     0
102
RTVSPost2010PropOp45
 70
     1
102
RTVSPost2010Prop46
 90
       50
102
RTVSPost2010PropOp46
 70
     1
102
RTVSPost2010Prop47
 90
       50
102
RTVSPost2010PropOp47
 70
     1
102
RTVSPost2010Prop48
 90
       50
102
RTVSPost2010PropOp48
 70
     1
102
RTVSPost2010Prop49
280
     0
102
RTVSPost2010PropOp49
 70
     1
102
RTVSPost2010Prop50
 90
       50
102
RTVSPost2010PropOp50
 70
     1
102
RTVSPost2010Prop51ColorIndex
 90
      256
102
RTVSPost2010Prop51ColorRGB
 90
-16777216
102
RTVSPost2010PropOp51
 70
     0
102
RTVSPost2010Prop52
140
1.0
102
RTVSPost2010PropOp52
 70
     0
102
RTVSPost2010Prop53
 90
        2
102
RTVSPost2010PropOp53
 70
     1
102
RTVSPost2010Prop54
  1
strokes_ogs.tif
102
RTVSPost2010PropOp54
 70
     1
102
RTVSPost2010Prop55
280
     0
102
RTVSPost2010PropOp55
 70
     1
102
RTVSPost2010Prop56
140
1.0
102
RTVSPost2010PropOp56
 70
     1
102
RTVSPost2010Prop57
140
1.0
102
RTVSPost2010PropOp57
 70
     1
  0
ENDSEC
  0
EOF
