  0
SECTION
  2
HEADER
  9
$ACADVER
  1
AC1015
  9
$ACADMAINTVER
 70
    20
  9
$DWGCODEPAGE
  3
ANSI_1252
  9
$INSBASE
 10
0.0
 20
0.0
 30
0.0
  9
$EXTMIN
 10
242.5974849562253
 20
24.42667437738644
 30
-0.0000000000000171
  9
$EXTMAX
 10
2652.519657671981
 20
2112.135450621504
 30
0.0000000000001653
  9
$LIMMIN
 10
0.0
 20
0.0
  9
$LIMMAX
 10
12.0
 20
9.0
  9
$ORTHOMODE
 70
     0
  9
$REGENMODE
 70
     1
  9
$FILLMODE
 70
     1
  9
$QTEXTMODE
 70
     0
  9
$MIRRTEXT
 70
     1
  9
$LTSCALE
 40
1.0
  9
$ATTMODE
 70
     1
  9
$TEXTSIZE
 40
0.2
  9
$TRACEWID
 40
0.05
  9
$TEXTSTYLE
  7
STANDARD
  9
$CLAYER
  8
0
  9
$CELTYPE
  6
BYLAYER
  9
$CECOLOR
 62
   256
  9
$CELTSCALE
 40
1.0
  9
$DISPSILH
 70
     0
  9
$DIMSCALE
 40
1.0
  9
$DIMASZ
 40
0.18
  9
$DIMEXO
 40
0.0625
  9
$DIMDLI
 40
0.38
  9
$DIMRND
 40
0.0
  9
$DIMDLE
 40
0.0
  9
$DIMEXE
 40
0.18
  9
$DIMTP
 40
0.0
  9
$DIMTM
 40
0.0
  9
$DIMTXT
 40
0.18
  9
$DIMCEN
 40
0.09
  9
$DIMTSZ
 40
0.0
  9
$DIMTOL
 70
     0
  9
$DIMLIM
 70
     0
  9
$DIMTIH
 70
     1
  9
$DIMTOH
 70
     1
  9
$DIMSE1
 70
     0
  9
$DIMSE2
 70
     0
  9
$DIMTAD
 70
     0
  9
$DIMZIN
 70
     0
  9
$DIMBLK
  1

  9
$DIMASO
 70
     1
  9
$DIMSHO
 70
     1
  9
$DIMPOST
  1

  9
$DIMAPOST
  1

  9
$DIMALT
 70
     0
  9
$DIMALTD
 70
     2
  9
$DIMALTF
 40
25.4
  9
$DIMLFAC
 40
1.0
  9
$DIMTOFL
 70
     0
  9
$DIMTVP
 40
0.0
  9
$DIMTIX
 70
     0
  9
$DIMSOXD
 70
     0
  9
$DIMSAH
 70
     0
  9
$DIMBLK1
  1

  9
$DIMBLK2
  1

  9
$DIMSTYLE
  2
STANDARD
  9
$DIMCLRD
 70
     0
  9
$DIMCLRE
 70
     0
  9
$DIMCLRT
 70
     0
  9
$DIMTFAC
 40
1.0
  9
$DIMGAP
 40
0.09
  9
$DIMJUST
 70
     0
  9
$DIMSD1
 70
     0
  9
$DIMSD2
 70
     0
  9
$DIMTOLJ
 70
     1
  9
$DIMTZIN
 70
     0
  9
$DIMALTZ
 70
     0
  9
$DIMALTTZ
 70
     0
  9
$DIMUPT
 70
     0
  9
$DIMDEC
 70
     4
  9
$DIMTDEC
 70
     4
  9
$DIMALTU
 70
     2
  9
$DIMALTTD
 70
     2
  9
$DIMTXSTY
  7
STANDARD
  9
$DIMAUNIT
 70
     0
  9
$DIMADEC
 70
     0
  9
$DIMALTRND
 40
0.0
  9
$DIMAZIN
 70
     0
  9
$DIMDSEP
 70
    46
  9
$DIMATFIT
 70
     3
  9
$DIMFRAC
 70
     0
  9
$DIMLDRBLK
  1

  9
$DIMLUNIT
 70
     2
  9
$DIMLWD
 70
    -2
  9
$DIMLWE
 70
    -2
  9
$DIMTMOVE
 70
     0
  9
$LUNITS
 70
     2
  9
$LUPREC
 70
     4
  9
$SKETCHINC
 40
0.1
  9
$FILLETRAD
 40
0.5
  9
$AUNITS
 70
     0
  9
$AUPREC
 70
     0
  9
$MENU
  1
.
  9
$ELEVATION
 40
0.0
  9
$PELEVATION
 40
0.0
  9
$THICKNESS
 40
0.0
  9
$LIMCHECK
 70
     0
  9
$CHAMFERA
 40
0.5
  9
$CHAMFERB
 40
0.5
  9
$CHAMFERC
 40
1.0
  9
$CHAMFERD
 40
0.0
  9
$SKPOLY
 70
     0
  9
$TDCREATE
 40
2451762.433120949
  9
$TDUCREATE
 40
2451762.391454282
  9
$TDUPDATE
 40
2456694.549135764
  9
$TDUUPDATE
 40
2456694.507469097
  9
$TDINDWG
 40
0.0138852083
  9
$TDUSRTIMER
 40
0.0138848495
  9
$USRTIMER
 70
     1
  9
$ANGBASE
 50
0.0
  9
$ANGDIR
 70
     0
  9
$PDMODE
 70
     0
  9
$PDSIZE
 40
0.0
  9
$PLINEWID
 40
0.0
  9
$SPLFRAME
 70
     0
  9
$SPLINETYPE
 70
     6
  9
$SPLINESEGS
 70
     8
  9
$HANDSEED
  5
6CE
  9
$SURFTAB1
 70
     6
  9
$SURFTAB2
 70
     6
  9
$SURFTYPE
 70
     6
  9
$SURFU
 70
     6
  9
$SURFV
 70
     6
  9
$UCSBASE
  2

  9
$UCSNAME
  2

  9
$UCSORG
 10
0.0
 20
0.0
 30
0.0
  9
$UCSXDIR
 10
1.0
 20
0.0
 30
0.0
  9
$UCSYDIR
 10
0.0
 20
1.0
 30
0.0
  9
$UCSORTHOREF
  2

  9
$UCSORTHOVIEW
 70
     0
  9
$UCSORGTOP
 10
0.0
 20
0.0
 30
0.0
  9
$UCSORGBOTTOM
 10
0.0
 20
0.0
 30
0.0
  9
$UCSORGLEFT
 10
0.0
 20
0.0
 30
0.0
  9
$UCSORGRIGHT
 10
0.0
 20
0.0
 30
0.0
  9
$UCSORGFRONT
 10
0.0
 20
0.0
 30
0.0
  9
$UCSORGBACK
 10
0.0
 20
0.0
 30
0.0
  9
$PUCSBASE
  2

  9
$PUCSNAME
  2

  9
$PUCSORG
 10
0.0
 20
0.0
 30
0.0
  9
$PUCSXDIR
 10
1.0
 20
0.0
 30
0.0
  9
$PUCSYDIR
 10
0.0
 20
1.0
 30
0.0
  9
$PUCSORTHOREF
  2

  9
$PUCSORTHOVIEW
 70
     0
  9
$PUCSORGTOP
 10
0.0
 20
0.0
 30
0.0
  9
$PUCSORGBOTTOM
 10
0.0
 20
0.0
 30
0.0
  9
$PUCSORGLEFT
 10
0.0
 20
0.0
 30
0.0
  9
$PUCSORGRIGHT
 10
0.0
 20
0.0
 30
0.0
  9
$PUCSORGFRONT
 10
0.0
 20
0.0
 30
0.0
  9
$PUCSORGBACK
 10
0.0
 20
0.0
 30
0.0
  9
$USERI1
 70
     0
  9
$USERI2
 70
     0
  9
$USERI3
 70
     0
  9
$USERI4
 70
     0
  9
$USERI5
 70
     0
  9
$USERR1
 40
0.0
  9
$USERR2
 40
0.0
  9
$USERR3
 40
0.0
  9
$USERR4
 40
0.0
  9
$USERR5
 40
0.0
  9
$WORLDVIEW
 70
     1
  9
$SHADEDGE
 70
     3
  9
$SHADEDIF
 70
    70
  9
$TILEMODE
 70
     1
  9
$MAXACTVP
 70
    64
  9
$PINSBASE
 10
0.0
 20
0.0
 30
0.0
  9
$PLIMCHECK
 70
     0
  9
$PEXTMIN
 10
1.000000000000000E+20
 20
1.000000000000000E+20
 30
1.000000000000000E+20
  9
$PEXTMAX
 10
-1.000000000000000E+20
 20
-1.000000000000000E+20
 30
-1.000000000000000E+20
  9
$PLIMMIN
 10
0.0
 20
0.0
  9
$PLIMMAX
 10
12.0
 20
9.0
  9
$UNITMODE
 70
     0
  9
$VISRETAIN
 70
     1
  9
$PLINEGEN
 70
     0
  9
$PSLTSCALE
 70
     1
  9
$TREEDEPTH
 70
  3020
  9
$CMLSTYLE
  2
STANDARD
  9
$CMLJUST
 70
     0
  9
$CMLSCALE
 40
1.0
  9
$PROXYGRAPHICS
 70
     1
  9
$MEASUREMENT
 70
     0
  9
$CELWEIGHT
370
    -1
  9
$ENDCAPS
280
     0
  9
$JOINSTYLE
280
     0
  9
$LWDISPLAY
290
     0
  9
$INSUNITS
 70
     0
  9
$HYPERLINKBASE
  1

  9
$STYLESHEET
  1

  9
$XEDIT
290
     1
  9
$CEPSNTYPE
380
     0
  9
$PSTYLEMODE
290
     1
  9
$FINGERPRINTGUID
  2
{CE83990A-0C7C-45FE-AA62-E0CD2B25BDE2}
  9
$VERSIONGUID
  2
{D44E0B25-4496-45BD-9DB7-0833962AFD4A}
  9
$EXTNAMES
290
     1
  9
$PSVPSCALE
 40
0.0
  9
$OLESTARTUP
290
     0
  0
ENDSEC
  0
SECTION
  2
CLASSES
  0
CLASS
  1
ACDBDICTIONARYWDFLT
  2
AcDbDictionaryWithDefault
  3
ObjectDBX Classes
 90
        0
280
     0
281
     0
  0
CLASS
  1
ACDBPLACEHOLDER
  2
AcDbPlaceHolder
  3
ObjectDBX Classes
 90
        0
280
     0
281
     0
  0
CLASS
  1
LAYOUT
  2
AcDbLayout
  3
ObjectDBX Classes
 90
        0
280
     0
281
     0
  0
CLASS
  1
MATERIAL
  2
AcDbMaterial
  3
ObjectDBX Classes
 90
     1153
280
     0
281
     0
  0
CLASS
  1
VISUALSTYLE
  2
AcDbVisualStyle
  3
ObjectDBX Classes
 90
     4095
280
     0
281
     0
  0
CLASS
  1
TABLESTYLE
  2
AcDbTableStyle
  3
ObjectDBX Classes
 90
     4095
280
     0
281
     0
  0
CLASS
  1
DICTIONARYVAR
  2
AcDbDictionaryVar
  3
ObjectDBX Classes
 90
        0
280
     0
281
     0
  0
CLASS
  1
SORTENTSTABLE
  2
AcDbSortentsTable
  3
ObjectDBX Classes
 90
        0
280
     0
281
     0
  0
CLASS
  1
SCALE
  2
AcDbScale
  3
ObjectDBX Classes
 90
     1153
280
     0
281
     0
  0
CLASS
  1
MLEADERSTYLE
  2
AcDbMLeaderStyle
  3
ACDB_MLEADERSTYLE_CLASS
 90
     4095
280
     0
281
     0
  0
CLASS
  1
ACDBSECTIONVIEWSTYLE
  2
AcDbSectionViewStyle
  3
ObjectDBX Classes
 90
     1025
280
     0
281
     0
  0
CLASS
  1
ACDBDETAILVIEWSTYLE
  2
AcDbDetailViewStyle
  3
ObjectDBX Classes
 90
     1025
280
     0
281
     0
  0
CLASS
  1
CELLSTYLEMAP
  2
AcDbCellStyleMap
  3
ObjectDBX Classes
 90
     1152
280
     0
281
     0
  0
ENDSEC
  0
SECTION
  2
TABLES
  0
TABLE
  2
VPORT
  5
8
330
0
100
AcDbSymbolTable
 70
     1
  0
VPORT
  5
4DD
330
8
100
AcDbSymbolTableRecord
100
AcDbViewportTableRecord
  2
*ACTIVE
 70
     0
 10
0.0
 20
0.0
 11
1.0
 21
1.0
 12
1027.629653372364
 22
228.7730098177462
 13
0.0
 23
0.0
 14
0.5
 24
0.5
 15
0.5
 25
0.5
 16
0.0
 26
0.0
 36
1.0
 17
0.0
 27
0.0
 37
0.0
 40
7364.70985328987
 41
1.550724637681159
 42
50.0
 43
0.0
 44
0.0
 50
0.0
 51
0.0
 71
     0
 72
 10000
 73
     1
 74
     3
 75
     0
 76
     0
 77
     0
 78
     0
281
     0
 65
     1
110
0.0
120
0.0
130
0.0
111
1.0
121
0.0
131
0.0
112
0.0
122
1.0
132
0.0
 79
     0
146
0.0
1001
ACAD_NAV_VCDISPLAY
1070
     3
  0
ENDTAB
  0
TABLE
  2
LTYPE
  5
5
330
0
100
AcDbSymbolTable
 70
     2
  0
LTYPE
  5
14
330
5
100
AcDbSymbolTableRecord
100
AcDbLinetypeTableRecord
  2
BYBLOCK
 70
     0
  3

 72
    65
 73
     0
 40
0.0
  0
LTYPE
  5
15
330
5
100
AcDbSymbolTableRecord
100
AcDbLinetypeTableRecord
  2
BYLAYER
 70
     0
  3

 72
    65
 73
     0
 40
0.0
  0
LTYPE
  5
16
330
5
100
AcDbSymbolTableRecord
100
AcDbLinetypeTableRecord
  2
CONTINUOUS
 70
     0
  3
Solid line
 72
    65
 73
     0
 40
0.0
  0
LTYPE
  5
66E
330
5
100
AcDbSymbolTableRecord
100
AcDbLinetypeTableRecord
  2
PHANTOM2
 70
     0
  3
___ _ _ ___ _ _ ___ _ _ ___ _ _
 72
    65
 73
     6
 40
1.25
 49
0.625
 74
     0
 49
-0.125
 74
     0
 49
0.125
 74
     0
 49
-0.125
 74
     0
 49
0.125
 74
     0
 49
-0.125
 74
     0
  0
ENDTAB
  0
TABLE
  2
LAYER
  5
2
102
{ACAD_XDICTIONARY
360
534
102
}
330
0
100
AcDbSymbolTable
 70
     4
  0
LAYER
  5
10
102
{ACAD_XDICTIONARY
360
678
102
}
330
2
100
AcDbSymbolTableRecord
100
AcDbLayerTableRecord
  2
0
 70
     0
 62
     7
  6
CONTINUOUS
370
    -3
390
2A4
  0
LAYER
  5
73
102
{ACAD_XDICTIONARY
360
67A
102
}
330
2
100
AcDbSymbolTableRecord
100
AcDbLayerTableRecord
  2
PV-139
 70
     2
 62
     7
  6
CONTINUOUS
370
    -3
390
2A4
  0
LAYER
  5
532
102
{ACAD_XDICTIONARY
360
67C
102
}
330
2
100
AcDbSymbolTableRecord
100
AcDbLayerTableRecord
  2
HEWI
 70
     0
 62
     7
  6
CONTINUOUS
370
    -3
390
2A4
  0
LAYER
  5
57D
330
2
100
AcDbSymbolTableRecord
100
AcDbLayerTableRecord
  2
Defpoints
 70
     0
 62
     7
  6
CONTINUOUS
290
     0
370
    -3
390
2A4
  0
ENDTAB
  0
TABLE
  2
STYLE
  5
3
330
0
100
AcDbSymbolTable
 70
     3
  0
STYLE
  5
11
330
3
100
AcDbSymbolTableRecord
100
AcDbTextStyleTableRecord
  2
STANDARD
 70
     0
 40
0.0
 41
1.0
 50
0.0
 71
     0
 42
0.2
  3
txt
  4

  0
STYLE
  5
61A
330
3
100
AcDbSymbolTableRecord
100
AcDbTextStyleTableRecord
  2
HEWI
 70
     0
 40
0.0
 41
1.0
 50
0.0
 71
     0
 42
40.0
  3
ARIAL.TTF
  4

1001
ACAD
1000
Arial
1071
       34
  0
STYLE
  5
61B
330
3
100
AcDbSymbolTableRecord
100
AcDbTextStyleTableRecord
  2
ARIAL
 70
     0
 40
0.0
 41
1.0
 50
0.0
 71
     0
 42
0.18
  3
ARIAL.TTF
  4

1001
ACAD
1000
Arial
1071
       34
  0
ENDTAB
  0
TABLE
  2
VIEW
  5
6
330
0
100
AcDbSymbolTable
 70
     0
  0
ENDTAB
  0
TABLE
  2
UCS
  5
7
330
0
100
AcDbSymbolTable
 70
     0
  0
ENDTAB
  0
TABLE
  2
APPID
  5
9
330
0
100
AcDbSymbolTable
 70
     5
  0
APPID
  5
12
330
9
100
AcDbSymbolTableRecord
100
AcDbRegAppTableRecord
  2
ACAD
 70
     0
  0
APPID
  5
526
330
9
100
AcDbSymbolTableRecord
100
AcDbRegAppTableRecord
  2
ACAD_EXEMPT_FROM_CAD_STANDARDS
 70
     0
  0
APPID
  5
533
330
9
100
AcDbSymbolTableRecord
100
AcDbRegAppTableRecord
  2
ACAD_PSEXT
 70
     0
  0
APPID
  5
687
330
9
100
AcDbSymbolTableRecord
100
AcDbRegAppTableRecord
  2
ACAD_NAV_VCDISPLAY
 70
     0
  0
APPID
  5
6CB
330
9
100
AcDbSymbolTableRecord
100
AcDbRegAppTableRecord
  2
ACAD_MLEADERVER
 70
     0
  0
ENDTAB
  0
TABLE
  2
DIMSTYLE
  5
A
330
0
100
AcDbSymbolTable
 70
     2
100
AcDbDimStyleTable
 71
     2
340
61C
340
27
  0
DIMSTYLE
105
27
330
A
100
AcDbSymbolTableRecord
100
AcDbDimStyleTableRecord
  2
STANDARD
 70
     0
340
11
  0
DIMSTYLE
105
61C
102
{ACAD_REACTORS
330
57C
102
}
330
A
100
AcDbSymbolTableRecord
100
AcDbDimStyleTableRecord
  2
ISO-25
 70
     0
 41
2.5
 42
0.625
 43
3.75
 44
1.25
 73
     0
 74
     0
 77
     1
 78
     8
140
2.5
141
2.5
143
0.03937007874016
147
0.625
171
     3
172
     1
271
     2
272
     2
274
     3
278
    44
283
     0
284
     8
340
11
  0
ENDTAB
  0
TABLE
  2
BLOCK_RECORD
  5
1
330
0
100
AcDbSymbolTable
 70
    13
  0
BLOCK_RECORD
  5
1F
102
{ACAD_XDICTIONARY
360
29D
102
}
330
1
100
AcDbSymbolTableRecord
100
AcDbBlockTableRecord
  2
*MODEL_SPACE
340
51B
  0
BLOCK_RECORD
  5
1B
102
{ACAD_XDICTIONARY
360
29B
102
}
330
1
100
AcDbSymbolTableRecord
100
AcDbBlockTableRecord
  2
*PAPER_SPACE
340
51C
  0
BLOCK_RECORD
  5
48
330
1
100
AcDbSymbolTableRecord
100
AcDbBlockTableRecord
  2
*U0
340
0
102
{BLKREFS
331
75
102
}
  0
BLOCK_RECORD
  5
74
330
1
100
AcDbSymbolTableRecord
100
AcDbBlockTableRecord
  2
FRONT
340
0
  0
BLOCK_RECORD
  5
79
330
1
100
AcDbSymbolTableRecord
100
AcDbBlockTableRecord
  2
*U2
340
0
102
{BLKREFS
331
137
102
}
  0
BLOCK_RECORD
  5
136
330
1
100
AcDbSymbolTableRecord
100
AcDbBlockTableRecord
  2
LEFT
340
0
  0
BLOCK_RECORD
  5
13B
330
1
100
AcDbSymbolTableRecord
100
AcDbBlockTableRecord
  2
*U4
340
0
102
{BLKREFS
331
20F
102
}
  0
BLOCK_RECORD
  5
20E
330
1
100
AcDbSymbolTableRecord
100
AcDbBlockTableRecord
  2
RIGHT
340
0
  0
BLOCK_RECORD
  5
213
330
1
100
AcDbSymbolTableRecord
100
AcDbBlockTableRecord
  2
*U6
340
0
102
{BLKREFS
331
296
102
}
  0
BLOCK_RECORD
  5
295
330
1
100
AcDbSymbolTableRecord
100
AcDbBlockTableRecord
  2
TOP
340
0
  0
BLOCK_RECORD
  5
57E
330
1
100
AcDbSymbolTableRecord
100
AcDbBlockTableRecord
  2
*D8
340
0
  0
BLOCK_RECORD
  5
609
330
1
100
AcDbSymbolTableRecord
100
AcDbBlockTableRecord
  2
_Dot
340
0
102
{BLKREFS
331
648
331
649
102
}
  0
ENDTAB
  0
ENDSEC
  0
SECTION
  2
BLOCKS
  0
BLOCK
  5
20
330
1F
100
AcDbEntity
  8
0
100
AcDbBlockBegin
  2
*MODEL_SPACE
 70
     0
 10
0.0
 20
0.0
 30
0.0
  3
*MODEL_SPACE
  1

  0
ENDBLK
  5
21
330
1F
100
AcDbEntity
  8
0
100
AcDbBlockEnd
  0
BLOCK
  5
1C
330
1B
100
AcDbEntity
 67
     1
  8
0
100
AcDbBlockBegin
  2
*PAPER_SPACE
 70
     0
 10
0.0
 20
0.0
 30
0.0
  3
*PAPER_SPACE
  1

  0
ENDBLK
  5
1D
330
1B
100
AcDbEntity
 67
     1
  8
0
100
AcDbBlockEnd
  0
BLOCK
  5
70
330
48
100
AcDbEntity
  8
0
100
AcDbBlockBegin
  2
*U0
 70
     1
 10
0.0
 20
0.0
 30
0.0
  3
*U0
  1
*ANON
  0
ARC
  5
49
330
48
100
AcDbEntity
  8
PV-139
100
AcDbCircle
 10
0.0
 20
16.5
 30
0.0
 40
17.25
210
0.0
220
-1.0
230
0.0
100
AcDbArc
 50
0.0
 51
196.9574262941729
  0
ARC
  5
4A
330
48
100
AcDbEntity
  8
PV-139
100
AcDbCircle
 10
0.0
 20
16.5
 30
0.0
 40
17.25
210
0.0
220
-1.0
230
0.0
100
AcDbArc
 50
343.0425737058285
 51
0.0000000000008024
  0
ARC
  5
4B
330
48
100
AcDbEntity
  8
PV-139
100
AcDbCircle
 10
0.0
 20
-55.5
 30
0.0
 40
16.5
210
0.0
220
-1.0
230
0.0
100
AcDbArc
 50
179.9999999999978
 51
0.0
  0
ARC
  5
4C
330
48
100
AcDbEntity
  8
PV-139
100
AcDbCircle
 10
0.0
 20
16.5
 30
0.0
 40
16.5
210
0.0
220
-1.0
230
0.0
100
AcDbArc
 50
0.0
 51
180.0000000000011
  0
LINE
  5
4D
330
48
100
AcDbEntity
  8
PV-139
100
AcDbLine
 10
-39.0
 20
0.0
 30
64.5
 11
-39.0
 21
0.0
 31
-168.5
  0
LINE
  5
4E
330
48
100
AcDbEntity
  8
PV-139
100
AcDbLine
 10
-39.0
 20
0.0
 30
74.5
 11
-39.0
 21
0.0
 31
64.5
  0
LINE
  5
4F
330
48
100
AcDbEntity
  8
PV-139
100
AcDbLine
 10
-39.0
 20
0.0
 30
-168.5
 11
-39.0
 21
0.0
 31
-178.5
  0
ARC
  5
50
330
48
100
AcDbEntity
  8
PV-139
100
AcDbCircle
 10
-37.5
 20
74.5
 30
0.0
 40
1.5
210
0.0
220
-1.0
230
0.0
100
AcDbArc
 50
90.0
 51
180.0
  0
ARC
  5
51
330
48
100
AcDbEntity
  8
PV-139
100
AcDbCircle
 10
-37.5
 20
-178.5
 30
0.0
 40
1.5
210
0.0
220
-1.0
230
0.0
100
AcDbArc
 50
180.0
 51
270.0
  0
LINE
  5
52
330
48
100
AcDbEntity
  8
PV-139
100
AcDbLine
 10
37.5
 20
0.0
 30
76.0
 11
-37.5
 21
0.0
 31
76.0
  0
LINE
  5
53
330
48
100
AcDbEntity
  8
PV-139
100
AcDbLine
 10
37.5
 20
0.0
 30
-180.0
 11
0.5
 21
0.0
 31
-180.0
  0
LINE
  5
54
330
48
100
AcDbEntity
  8
PV-139
100
AcDbLine
 10
-0.5
 20
0.0
 30
-180.0
 11
-37.5
 21
0.0
 31
-180.0
  0
LINE
  5
55
330
48
100
AcDbEntity
  8
PV-139
100
AcDbLine
 10
39.0
 20
0.0
 30
-168.5
 11
39.0
 21
0.0
 31
64.5
  0
LINE
  5
56
330
48
100
AcDbEntity
  8
PV-139
100
AcDbLine
 10
39.0
 20
0.0
 30
64.5
 11
39.0
 21
0.0
 31
74.5
  0
LINE
  5
57
330
48
100
AcDbEntity
  8
PV-139
100
AcDbLine
 10
39.0
 20
0.0
 30
-178.5
 11
39.0
 21
0.0
 31
-168.5
  0
ARC
  5
58
330
48
100
AcDbEntity
  8
PV-139
100
AcDbCircle
 10
37.5
 20
74.5
 30
0.0
 40
1.5
210
0.0
220
-1.0
230
0.0
100
AcDbArc
 50
0.0
 51
90.0
  0
ARC
  5
59
330
48
100
AcDbEntity
  8
PV-139
100
AcDbCircle
 10
37.5
 20
-178.5
 30
0.0
 40
1.5
210
0.0
220
-1.0
230
0.0
100
AcDbArc
 50
270.0
 51
0.0
  0
LINE
  5
5A
330
48
100
AcDbEntity
  8
PV-139
100
AcDbLine
 10
37.0
 20
0.0
 30
39.25
 11
20.5
 21
0.0
 31
39.25
  0
LINE
  5
5B
330
48
100
AcDbEntity
  8
PV-139
100
AcDbLine
 10
37.0
 20
0.0
 30
-6.25
 11
37.0
 21
0.0
 31
39.25
  0
LINE
  5
5C
330
48
100
AcDbEntity
  8
PV-139
100
AcDbLine
 10
37.0
 20
0.0
 30
-6.25
 11
20.5
 21
0.0
 31
-6.25
  0
LINE
  5
5D
330
48
100
AcDbEntity
  8
PV-139
100
AcDbLine
 10
20.5
 20
0.0
 30
39.25
 11
20.5
 21
0.0
 31
-6.25
  0
LINE
  5
5E
330
48
100
AcDbEntity
  8
PV-139
100
AcDbLine
 10
-20.5
 20
0.0
 30
39.25
 11
-37.0
 21
0.0
 31
39.25
  0
LINE
  5
5F
330
48
100
AcDbEntity
  8
PV-139
100
AcDbLine
 10
-20.5
 20
0.0
 30
-6.25
 11
-20.5
 21
0.0
 31
39.25
  0
LINE
  5
60
330
48
100
AcDbEntity
  8
PV-139
100
AcDbLine
 10
-20.5
 20
0.0
 30
-6.25
 11
-37.0
 21
0.0
 31
-6.25
  0
LINE
  5
61
330
48
100
AcDbEntity
  8
PV-139
100
AcDbLine
 10
-37.0
 20
0.0
 30
39.25
 11
-37.0
 21
0.0
 31
-6.25
  0
LINE
  5
62
330
48
100
AcDbEntity
  8
PV-139
100
AcDbLine
 10
-0.5
 20
0.0
 30
-72.0
 11
-0.5
 21
0.0
 31
-922.0
  0
LINE
  5
63
330
48
100
AcDbEntity
  8
PV-139
100
AcDbLine
 10
0.5
 20
0.0
 30
-922.0
 11
-0.5
 21
0.0
 31
-922.0
  0
LINE
  5
64
330
48
100
AcDbEntity
  8
PV-139
100
AcDbLine
 10
-0.5
 20
0.0
 30
-72.0
 11
0.5
 21
0.0
 31
-72.0
  0
LINE
  5
65
330
48
100
AcDbEntity
  8
PV-139
100
AcDbLine
 10
0.5
 20
0.0
 30
-72.0
 11
0.5
 21
0.0
 31
-922.0
  0
ARC
  5
66
330
48
100
AcDbEntity
  8
PV-139
100
AcDbCircle
 10
0.0
 20
-55.5
 30
0.0
 40
17.5
210
0.0
220
-1.0
230
0.0
100
AcDbArc
 50
271.6372450777778
 51
19.46295094631524
  0
ARC
  5
67
330
48
100
AcDbEntity
  8
PV-139
100
AcDbCircle
 10
0.0
 20
-55.5
 30
0.0
 40
17.5
210
0.0
220
-1.0
230
0.0
100
AcDbArc
 50
160.5370490536847
 51
268.362754922223
  0
LINE
  5
68
330
48
100
AcDbEntity
  8
PV-139
100
AcDbLine
 10
-20.5
 20
0.0
 30
-6.0
 11
-16.50000000000002
 21
0.0
 31
-6.0
  0
LINE
  5
69
330
48
100
AcDbEntity
  8
PV-139
100
AcDbLine
 10
16.49999999999997
 20
0.0
 30
-6.0
 11
20.5
 21
0.0
 31
-6.0
  0
LINE
  5
6A
330
48
100
AcDbEntity
  8
PV-139
100
AcDbLine
 10
-20.5
 20
0.0
 30
39.0
 11
20.5
 21
0.0
 31
39.0
  0
ARC
  5
6B
330
48
100
AcDbEntity
  8
PV-139
100
AcDbCircle
 10
0.0
 20
-55.5
 30
0.0
 40
18.8
210
0.0
220
-1.0
230
0.0
100
AcDbArc
 50
271.5240036224102
 51
28.63868468869798
  0
ARC
  5
6C
330
48
100
AcDbEntity
  8
PV-139
100
AcDbCircle
 10
0.0
 20
-55.5
 30
0.0
 40
18.8
210
0.0
220
-1.0
230
0.0
100
AcDbArc
 50
151.3613153113019
 51
268.4759963775896
  0
LINE
  5
6D
330
48
100
AcDbEntity
  8
PV-139
100
AcDbLine
 10
-16.5
 20
0.0
 30
16.5
 11
-16.5
 21
0.0
 31
-55.5
  0
LINE
  5
6E
330
48
100
AcDbEntity
  8
PV-139
100
AcDbLine
 10
16.5
 20
0.0
 30
-55.5
 11
16.5
 21
0.0
 31
16.5
  0
ARC
  5
6F
330
48
100
AcDbEntity
  8
PV-139
100
AcDbCircle
 10
0.0
 20
16.5
 30
0.0
 40
18.8
210
0.0
220
-1.0
230
0.0
100
AcDbArc
 50
331.361315311302
 51
208.6386846886979
  0
ENDBLK
  5
71
330
48
100
AcDbEntity
  8
0
100
AcDbBlockEnd
  0
BLOCK
  5
76
330
74
100
AcDbEntity
  8
0
100
AcDbBlockBegin
  2
FRONT
 70
     0
 10
0.0
 20
0.0
 30
0.0
  3
FRONT
  1

  0
INSERT
  5
75
330
74
100
AcDbEntity
  8
PV-139
100
AcDbBlockReference
  2
*U0
 10
0.0
 20
0.0
 30
0.0
 50
180.0
210
0.0
220
1.0
230
0.0
  0
ENDBLK
  5
77
330
74
100
AcDbEntity
  8
0
100
AcDbBlockEnd
  0
BLOCK
  5
134
330
79
100
AcDbEntity
  8
0
100
AcDbBlockBegin
  2
*U2
 70
     1
 10
0.0
 20
0.0
 30
0.0
  3
*U2
  1
*ANON
  0
LINE
  5
7A
330
79
100
AcDbEntity
  8
PV-139
100
AcDbLine
 10
0.0
 20
-636.7319440807308
 30
31.69999999999999
 11
0.0
 21
-636.7319440807308
 31
1.299999999999995
  0
LINE
  5
7B
330
79
100
AcDbEntity
  8
PV-139
100
AcDbLine
 10
0.0
 20
-638.168055919269
 30
31.69999999999999
 11
0.0
 21
-638.168055919269
 31
1.299999999999995
  0
LINE
  5
7C
330
79
100
AcDbEntity
  8
PV-139
100
AcDbLine
 10
0.0
 20
-641.6319440807309
 30
31.69999999999999
 11
0.0
 21
-641.6319440807309
 31
1.299999999999995
  0
LINE
  5
7D
330
79
100
AcDbEntity
  8
PV-139
100
AcDbLine
 10
0.0
 20
-643.068055919269
 30
31.69999999999999
 11
0.0
 21
-643.068055919269
 31
1.299999999999995
  0
LINE
  5
7E
330
79
100
AcDbEntity
  8
PV-139
100
AcDbLine
 10
0.0
 20
-645.9826482362472
 30
33.75
 11
0.0
 21
-645.9826482362472
 31
-0.75
  0
LINE
  5
7F
330
79
100
AcDbEntity
  8
PV-139
100
AcDbLine
 10
0.0
 20
-633.268055919269
 30
31.69999999999999
 11
0.0
 21
-633.268055919269
 31
1.299999999999995
  0
LINE
  5
80
330
79
100
AcDbEntity
  8
PV-139
100
AcDbLine
 10
0.0
 20
-631.8319440807307
 30
31.69999999999999
 11
0.0
 21
-631.8319440807307
 31
1.299999999999995
  0
LINE
  5
81
330
79
100
AcDbEntity
  8
PV-139
100
AcDbLine
 10
0.0
 20
-628.3680559192688
 30
31.69999999999999
 11
0.0
 21
-628.3680559192688
 31
1.299999999999995
  0
LINE
  5
82
330
79
100
AcDbEntity
  8
PV-139
100
AcDbLine
 10
0.0
 20
-626.931944080731
 30
31.69999999999999
 11
0.0
 21
-626.931944080731
 31
1.299999999999995
  0
LINE
  5
83
330
79
100
AcDbEntity
  8
PV-139
100
AcDbLine
 10
0.0
 20
-624.0173517637527
 30
33.75
 11
0.0
 21
-624.0173517637527
 31
-0.75
  0
LINE
  5
84
330
79
100
AcDbEntity
  8
PV-139
100
AcDbLine
 10
0.0
 20
-566.5
 30
0.0
 11
0.0
 21
-583.0
 31
16.49999999999997
  0
LINE
  5
85
330
79
100
AcDbEntity
  8
PV-139
100
AcDbLine
 10
0.0
 20
-583.0
 30
16.50000000000001
 11
0.0
 21
-599.5
 31
0.0
  0
LINE
  5
86
330
79
100
AcDbEntity
  8
PV-139
100
AcDbLine
 10
0.0
 20
-583.0
 30
-55.49999999999998
 11
0.0
 21
-566.5
 31
-39.0
  0
LINE
  5
87
330
79
100
AcDbEntity
  8
PV-139
100
AcDbLine
 10
0.0
 20
-599.5
 30
-39.0
 11
0.0
 21
-582.9999999999996
 31
-55.50000000000025
  0
LINE
  5
88
330
79
100
AcDbEntity
  8
PV-139
100
AcDbLine
 10
0.0
 20
-148.4999999999998
 30
0.0
 11
0.0
 21
-165.0
 31
16.50000000000005
  0
LINE
  5
89
330
79
100
AcDbEntity
  8
PV-139
100
AcDbLine
 10
0.0
 20
-165.0
 30
16.49999999999994
 11
0.0
 21
-181.4999999999998
 31
0.0
  0
LINE
  5
8A
330
79
100
AcDbEntity
  8
PV-139
100
AcDbLine
 10
0.0
 20
-165.0
 30
-55.50000000000006
 11
0.0
 21
-148.4999999999998
 31
-39.0
  0
LINE
  5
8B
330
79
100
AcDbEntity
  8
PV-139
100
AcDbLine
 10
0.0
 20
-181.4999999999998
 30
-39.0
 11
0.0
 21
-164.9999999999998
 31
-55.50000000000017
  0
LINE
  5
8C
330
79
100
AcDbEntity
  8
PV-139
100
AcDbLine
 10
0.0
 20
-75.49999999999997
 30
33.0
 11
0.0
 21
-75.49999999999997
 31
0.0
  0
LINE
  5
8D
330
79
100
AcDbEntity
  8
PV-139
100
AcDbLine
 10
0.0
 20
-636.7319440807308
 30
-40.3
 11
0.0
 21
-636.7319440807308
 31
-70.7
  0
LINE
  5
8E
330
79
100
AcDbEntity
  8
PV-139
100
AcDbLine
 10
0.0
 20
-638.168055919269
 30
-40.3
 11
0.0
 21
-638.168055919269
 31
-70.7
  0
LINE
  5
8F
330
79
100
AcDbEntity
  8
PV-139
100
AcDbLine
 10
0.0
 20
-641.6319440807309
 30
-40.3
 11
0.0
 21
-641.6319440807309
 31
-70.7
  0
LINE
  5
90
330
79
100
AcDbEntity
  8
PV-139
100
AcDbLine
 10
0.0
 20
-643.068055919269
 30
-40.3
 11
0.0
 21
-643.068055919269
 31
-70.7
  0
LINE
  5
91
330
79
100
AcDbEntity
  8
PV-139
100
AcDbLine
 10
0.0
 20
-645.9826482362472
 30
-38.25
 11
0.0
 21
-645.9826482362472
 31
-72.74275210052039
  0
LINE
  5
92
330
79
100
AcDbEntity
  8
PV-139
100
AcDbLine
 10
0.0
 20
-633.268055919269
 30
-40.3
 11
0.0
 21
-633.268055919269
 31
-70.7
  0
LINE
  5
93
330
79
100
AcDbEntity
  8
PV-139
100
AcDbLine
 10
0.0
 20
-631.8319440807307
 30
-40.3
 11
0.0
 21
-631.8319440807307
 31
-70.7
  0
LINE
  5
94
330
79
100
AcDbEntity
  8
PV-139
100
AcDbLine
 10
0.0
 20
-628.3680559192688
 30
-40.3
 11
0.0
 21
-628.3680559192688
 31
-70.7
  0
LINE
  5
95
330
79
100
AcDbEntity
  8
PV-139
100
AcDbLine
 10
0.0
 20
-626.931944080731
 30
-40.3
 11
0.0
 21
-626.931944080731
 31
-70.7
  0
LINE
  5
96
330
79
100
AcDbEntity
  8
PV-139
100
AcDbLine
 10
0.0
 20
-624.0173517637527
 30
-38.25
 11
0.0
 21
-624.0173517637527
 31
-72.74275210052039
  0
LINE
  5
97
330
79
100
AcDbEntity
  8
PV-139
100
AcDbLine
 10
0.0
 20
0.0
 30
-178.5
 11
0.0
 21
0.0
 31
74.5
  0
LINE
  5
98
330
79
100
AcDbEntity
  8
PV-139
100
AcDbLine
 10
0.0
 20
0.0
 30
76.0
 11
0.0
 21
0.0
 31
74.5
  0
LINE
  5
99
330
79
100
AcDbEntity
  8
PV-139
100
AcDbLine
 10
0.0
 20
0.0
 30
-178.5
 11
0.0
 21
0.0
 31
-180.0
  0
LINE
  5
9A
330
79
100
AcDbEntity
  8
PV-139
100
AcDbLine
 10
0.0
 20
-4.999999999999999
 30
76.0
 11
0.0
 21
0.0
 31
76.0
  0
ARC
  5
9B
330
79
100
AcDbEntity
  8
PV-139
100
AcDbCircle
 10
5.0
 20
64.5
 30
0.0
 40
11.5
210
-1.0
220
0.0
230
0.0
100
AcDbArc
 50
0.0
 51
90.00000000000005
  0
LINE
  5
9C
330
79
100
AcDbEntity
  8
PV-139
100
AcDbLine
 10
0.0
 20
-16.5
 30
-168.5
 11
0.0
 21
-16.5
 31
64.5
  0
ARC
  5
9D
330
79
100
AcDbEntity
  8
PV-139
100
AcDbCircle
 10
5.0
 20
-168.5
 30
0.0
 40
11.5
210
-1.0
220
0.0
230
0.0
100
AcDbArc
 50
270.0
 51
0.0
  0
LINE
  5
9E
330
79
100
AcDbEntity
  8
PV-139
100
AcDbLine
 10
0.0
 20
0.0
 30
-180.0
 11
0.0
 21
-5.0
 31
-180.0
  0
LINE
  5
9F
330
79
100
AcDbEntity
  8
PV-139
100
AcDbLine
 10
0.0
 20
-16.5
 30
39.25
 11
0.0
 21
-41.0
 31
39.25
  0
LINE
  5
A0
330
79
100
AcDbEntity
  8
PV-139
100
AcDbLine
 10
0.0
 20
-41.0
 30
-6.25
 11
0.0
 21
-16.5
 31
-6.25
  0
ARC
  5
A1
330
79
100
AcDbEntity
  8
PV-139
100
AcDbCircle
 10
41.0
 20
16.5
 30
0.0
 40
22.74999999999999
210
-1.0
220
0.0
230
0.0
100
AcDbArc
 50
269.9999999999997
 51
90.00000000000019
  0
LINE
  5
A2
330
79
100
AcDbEntity
  8
PV-139
100
AcDbLine
 10
0.0
 20
-75.5
 30
33.0
 11
0.0
 21
-75.5
 31
0.0
  0
LINE
  5
A3
330
79
100
AcDbEntity
  8
PV-139
100
AcDbLine
 10
0.0
 20
-40.0
 30
-72.9928556845359
 11
0.0
 21
-40.0
 31
-38.0
  0
LINE
  5
A4
330
79
100
AcDbEntity
  8
PV-139
100
AcDbLine
 10
0.0
 20
-80.0
 30
-38.0
 11
0.0
 21
-80.0
 31
-72.9928556845359
  0
LINE
  5
A5
330
79
100
AcDbEntity
  8
PV-139
100
AcDbLine
 10
0.0
 20
-200.0
 30
-72.9928556845359
 11
0.0
 21
-200.0
 31
-38.0
  0
LINE
  5
A6
330
79
100
AcDbEntity
  8
PV-139
100
AcDbLine
 10
0.0
 20
-240.0
 30
-38.0
 11
0.0
 21
-240.0
 31
-72.9928556845359
  0
LINE
  5
A7
330
79
100
AcDbEntity
  8
PV-139
100
AcDbLine
 10
0.0
 20
-20.0
 30
-72.0
 11
0.0
 21
-20.0
 31
-922.0
  0
LINE
  5
A8
330
79
100
AcDbEntity
  8
PV-139
100
AcDbLine
 10
0.0
 20
-40.0
 30
-72.9928556845359
 11
0.0
 21
-80.0
 31
-72.9928556845359
  0
LINE
  5
A9
330
79
100
AcDbEntity
  8
PV-139
100
AcDbLine
 10
0.0
 20
-200.0
 30
-72.9928556845359
 11
0.0
 21
-240.0
 31
-72.9928556845359
  0
LINE
  5
AA
330
79
100
AcDbEntity
  8
PV-139
100
AcDbLine
 10
0.0
 20
-900.0
 30
-72.0
 11
0.0
 21
-900.0
 31
-922.0
  0
LINE
  5
AB
330
79
100
AcDbEntity
  8
PV-139
100
AcDbLine
 10
0.0
 20
-900.0
 30
-922.0
 11
0.0
 21
-20.0
 31
-922.0
  0
LINE
  5
AC
330
79
100
AcDbEntity
  8
PV-139
100
AcDbLine
 10
0.0
 20
-20.0
 30
-72.0
 11
0.0
 21
-40.0
 31
-72.0
  0
LINE
  5
AD
330
79
100
AcDbEntity
  8
PV-139
100
AcDbLine
 10
0.0
 20
-80.0
 30
-72.0
 11
0.0
 21
-200.0
 31
-72.0
  0
LINE
  5
AE
330
79
100
AcDbEntity
  8
PV-139
100
AcDbLine
 10
0.0
 20
-240.0
 30
-72.0
 11
0.0
 21
-360.0
 31
-72.0
  0
LINE
  5
AF
330
79
100
AcDbEntity
  8
PV-139
100
AcDbLine
 10
0.0
 20
-400.0
 30
-72.0
 11
0.0
 21
-520.0
 31
-72.0
  0
LINE
  5
B0
330
79
100
AcDbEntity
  8
PV-139
100
AcDbLine
 10
0.0
 20
-400.0
 30
-38.0
 11
0.0
 21
-400.0
 31
-72.9928556845359
  0
LINE
  5
B1
330
79
100
AcDbEntity
  8
PV-139
100
AcDbLine
 10
0.0
 20
-400.0
 30
-72.9928556845359
 11
0.0
 21
-360.0
 31
-72.9928556845359
  0
LINE
  5
B2
330
79
100
AcDbEntity
  8
PV-139
100
AcDbLine
 10
0.0
 20
-360.0
 30
-72.9928556845359
 11
0.0
 21
-360.0
 31
-38.0
  0
LINE
  5
B3
330
79
100
AcDbEntity
  8
PV-139
100
AcDbLine
 10
0.0
 20
-560.0
 30
-72.0
 11
0.0
 21
-615.7220985497035
 31
-72.0
  0
LINE
  5
B4
330
79
100
AcDbEntity
  8
PV-139
100
AcDbLine
 10
0.0
 20
-626.5815806782365
 30
-72.0
 11
0.0
 21
-628.7184193217631
 31
-72.0
  0
LINE
  5
B5
330
79
100
AcDbEntity
  8
PV-139
100
AcDbLine
 10
0.0
 20
-631.4815806782372
 30
-72.0
 11
0.0
 21
-633.6184193217626
 31
-72.0
  0
LINE
  5
B6
330
79
100
AcDbEntity
  8
PV-139
100
AcDbLine
 10
0.0
 20
-636.3815806782374
 30
-72.0
 11
0.0
 21
-638.518419321763
 31
-72.0
  0
LINE
  5
B7
330
79
100
AcDbEntity
  8
PV-139
100
AcDbLine
 10
0.0
 20
-641.2815806782376
 30
-72.0
 11
0.0
 21
-643.4184193217618
 31
-72.0
  0
LINE
  5
B8
330
79
100
AcDbEntity
  8
PV-139
100
AcDbLine
 10
0.0
 20
-654.2779014502961
 30
-72.0
 11
0.0
 21
-680.0
 31
-72.0
  0
LINE
  5
B9
330
79
100
AcDbEntity
  8
PV-139
100
AcDbLine
 10
0.0
 20
-560.0
 30
-38.0
 11
0.0
 21
-560.0
 31
-72.9928556845359
  0
LINE
  5
BA
330
79
100
AcDbEntity
  8
PV-139
100
AcDbLine
 10
0.0
 20
-560.0
 30
-72.9928556845359
 11
0.0
 21
-520.0
 31
-72.9928556845359
  0
LINE
  5
BB
330
79
100
AcDbEntity
  8
PV-139
100
AcDbLine
 10
0.0
 20
-520.0
 30
-72.9928556845359
 11
0.0
 21
-520.0
 31
-38.0
  0
LINE
  5
BC
330
79
100
AcDbEntity
  8
PV-139
100
AcDbLine
 10
0.0
 20
-720.0
 30
-72.0
 11
0.0
 21
-840.0
 31
-72.0
  0
LINE
  5
BD
330
79
100
AcDbEntity
  8
PV-139
100
AcDbLine
 10
0.0
 20
-720.0
 30
-38.0
 11
0.0
 21
-720.0
 31
-72.9928556845359
  0
LINE
  5
BE
330
79
100
AcDbEntity
  8
PV-139
100
AcDbLine
 10
0.0
 20
-720.0
 30
-72.9928556845359
 11
0.0
 21
-680.0
 31
-72.9928556845359
  0
LINE
  5
BF
330
79
100
AcDbEntity
  8
PV-139
100
AcDbLine
 10
0.0
 20
-680.0
 30
-72.9928556845359
 11
0.0
 21
-680.0
 31
-38.0
  0
LINE
  5
C0
330
79
100
AcDbEntity
  8
PV-139
100
AcDbLine
 10
0.0
 20
-880.0
 30
-72.0
 11
0.0
 21
-900.0
 31
-72.0
  0
LINE
  5
C1
330
79
100
AcDbEntity
  8
PV-139
100
AcDbLine
 10
0.0
 20
-880.0
 30
-38.0
 11
0.0
 21
-880.0
 31
-72.9928556845359
  0
LINE
  5
C2
330
79
100
AcDbEntity
  8
PV-139
100
AcDbLine
 10
0.0
 20
-880.0
 30
-72.9928556845359
 11
0.0
 21
-840.0
 31
-72.9928556845359
  0
LINE
  5
C3
330
79
100
AcDbEntity
  8
PV-139
100
AcDbLine
 10
0.0
 20
-840.0
 30
-72.9928556845359
 11
0.0
 21
-840.0
 31
-38.0
  0
LINE
  5
C4
330
79
100
AcDbEntity
  8
PV-139
100
AcDbLine
 10
0.0
 20
-840.0
 30
-38.0
 11
0.0
 21
-880.0
 31
-38.0
  0
LINE
  5
C5
330
79
100
AcDbEntity
  8
PV-139
100
AcDbLine
 10
0.0
 20
-680.0
 30
-38.0
 11
0.0
 21
-720.0
 31
-38.0
  0
LINE
  5
C6
330
79
100
AcDbEntity
  8
PV-139
100
AcDbLine
 10
0.0
 20
-520.0
 30
-38.0
 11
0.0
 21
-560.0
 31
-38.0
  0
LINE
  5
C7
330
79
100
AcDbEntity
  8
PV-139
100
AcDbLine
 10
0.0
 20
-360.0
 30
-38.0
 11
0.0
 21
-400.0
 31
-38.0
  0
LINE
  5
C8
330
79
100
AcDbEntity
  8
PV-139
100
AcDbLine
 10
0.0
 20
-200.0
 30
-38.0
 11
0.0
 21
-240.0
 31
-38.0
  0
LINE
  5
C9
330
79
100
AcDbEntity
  8
PV-139
100
AcDbLine
 10
0.0
 20
-40.0
 30
-38.0
 11
0.0
 21
-80.0
 31
-38.0
  0
LINE
  5
CA
330
79
100
AcDbEntity
  8
PV-139
100
AcDbLine
 10
0.0
 20
-56.66245510767708
 30
0.0
 11
0.0
 21
-75.5
 31
0.0
  0
LINE
  5
CB
330
79
100
AcDbEntity
  8
PV-139
100
AcDbLine
 10
0.0
 20
-56.66245510767708
 30
33.0
 11
0.0
 21
-75.5
 31
33.0
  0
LINE
  5
CC
330
79
100
AcDbEntity
  8
PV-139
100
AcDbLine
 10
0.0
 20
-624.0173517637527
 30
-38.24999999999997
 11
0.0
 21
-624.2340741737108
 31
-37.44118095489746
  0
LINE
  5
CD
330
79
100
AcDbEntity
  8
PV-139
100
AcDbLine
 10
0.0
 20
-626.931944080731
 30
-40.29999999999999
 11
0.0
 21
-626.1659258262891
 31
-37.44118095489743
  0
LINE
  5
CE
330
79
100
AcDbEntity
  8
PV-139
100
AcDbLine
 10
0.0
 20
-626.931944080731
 30
-70.70000000000002
 11
0.0
 21
-626.5836101305706
 31
-72.00000000000001
  0
LINE
  5
CF
330
79
100
AcDbEntity
  8
PV-139
100
AcDbLine
 10
0.0
 20
-626.931944080731
 30
-70.7
 11
0.0
 21
-628.3680559192688
 31
-70.7
  0
LINE
  5
D0
330
79
100
AcDbEntity
  8
PV-139
100
AcDbLine
 10
0.0
 20
-626.931944080731
 30
-40.3
 11
0.0
 21
-628.3680559192688
 31
-40.3
  0
LINE
  5
D1
330
79
100
AcDbEntity
  8
PV-139
100
AcDbLine
 10
0.0
 20
-628.3680559192688
 30
-70.69999999999997
 11
0.0
 21
-628.7163898694292
 31
-72.00000000000001
  0
LINE
  5
D2
330
79
100
AcDbEntity
  8
PV-139
100
AcDbLine
 10
0.0
 20
-628.3680559192688
 30
-40.30000000000002
 11
0.0
 21
-629.1340741737108
 31
-37.44118095489748
  0
LINE
  5
D3
330
79
100
AcDbEntity
  8
PV-139
100
AcDbLine
 10
0.0
 20
-631.8319440807307
 30
-40.29999999999999
 11
0.0
 21
-631.0659258262891
 31
-37.44118095489744
  0
LINE
  5
D4
330
79
100
AcDbEntity
  8
PV-139
100
AcDbLine
 10
0.0
 20
-631.8319440807307
 30
-70.70000000000002
 11
0.0
 21
-631.4836101305703
 31
-71.99999999999997
  0
LINE
  5
D5
330
79
100
AcDbEntity
  8
PV-139
100
AcDbLine
 10
0.0
 20
-631.8319440807311
 30
-70.7
 11
0.0
 21
-633.268055919269
 31
-70.7
  0
LINE
  5
D6
330
79
100
AcDbEntity
  8
PV-139
100
AcDbLine
 10
0.0
 20
-631.8319440807311
 30
-40.3
 11
0.0
 21
-633.268055919269
 31
-40.3
  0
LINE
  5
D7
330
79
100
AcDbEntity
  8
PV-139
100
AcDbLine
 10
0.0
 20
-633.268055919269
 30
-70.70000000000002
 11
0.0
 21
-633.6163898694294
 31
-71.99999999999999
  0
LINE
  5
D8
330
79
100
AcDbEntity
  8
PV-139
100
AcDbLine
 10
0.0
 20
-633.268055919269
 30
-40.29999999999999
 11
0.0
 21
-634.0340741737109
 31
-37.44118095489748
  0
LINE
  5
D9
330
79
100
AcDbEntity
  8
PV-139
100
AcDbLine
 10
0.0
 20
-617.4999999999998
 30
-38.25
 11
0.0
 21
-624.0173517637529
 31
-38.25
  0
LINE
  5
DA
330
79
100
AcDbEntity
  8
PV-139
100
AcDbLine
 10
0.0
 20
-645.9826482362472
 30
-38.24999999999997
 11
0.0
 21
-645.7659258262889
 31
-37.44118095489746
  0
LINE
  5
DB
330
79
100
AcDbEntity
  8
PV-139
100
AcDbLine
 10
0.0
 20
-643.068055919269
 30
-70.70000000000002
 11
0.0
 21
-643.4163898694293
 31
-71.99999999999993
  0
LINE
  5
DC
330
79
100
AcDbEntity
  8
PV-139
100
AcDbLine
 10
0.0
 20
-643.068055919269
 30
-40.29999999999999
 11
0.0
 21
-643.8340741737107
 31
-37.44118095489743
  0
LINE
  5
DD
330
79
100
AcDbEntity
  8
PV-139
100
AcDbLine
 10
0.0
 20
-641.6319440807309
 30
-70.7
 11
0.0
 21
-643.068055919269
 31
-70.7
  0
LINE
  5
DE
330
79
100
AcDbEntity
  8
PV-139
100
AcDbLine
 10
0.0
 20
-641.6319440807309
 30
-40.3
 11
0.0
 21
-643.068055919269
 31
-40.3
  0
LINE
  5
DF
330
79
100
AcDbEntity
  8
PV-139
100
AcDbLine
 10
0.0
 20
-641.6319440807309
 30
-40.30000000000002
 11
0.0
 21
-640.8659258262892
 31
-37.44118095489748
  0
LINE
  5
E0
330
79
100
AcDbEntity
  8
PV-139
100
AcDbLine
 10
0.0
 20
-641.6319440807309
 30
-70.69999999999997
 11
0.0
 21
-641.2836101305705
 31
-72.00000000000001
  0
LINE
  5
E1
330
79
100
AcDbEntity
  8
PV-139
100
AcDbLine
 10
0.0
 20
-638.168055919269
 30
-70.70000000000002
 11
0.0
 21
-638.5163898694294
 31
-72.00000000000001
  0
LINE
  5
E2
330
79
100
AcDbEntity
  8
PV-139
100
AcDbLine
 10
0.0
 20
-638.168055919269
 30
-40.29999999999999
 11
0.0
 21
-638.9340741737107
 31
-37.44118095489744
  0
LINE
  5
E3
330
79
100
AcDbEntity
  8
PV-139
100
AcDbLine
 10
0.0
 20
-636.7319440807308
 30
-70.7
 11
0.0
 21
-638.1680559192687
 31
-70.7
  0
LINE
  5
E4
330
79
100
AcDbEntity
  8
PV-139
100
AcDbLine
 10
0.0
 20
-636.7319440807308
 30
-40.3
 11
0.0
 21
-638.1680559192687
 31
-40.3
  0
LINE
  5
E5
330
79
100
AcDbEntity
  8
PV-139
100
AcDbLine
 10
0.0
 20
-636.7319440807308
 30
-40.29999999999999
 11
0.0
 21
-635.9659258262889
 31
-37.44118095489748
  0
LINE
  5
E6
330
79
100
AcDbEntity
  8
PV-139
100
AcDbLine
 10
0.0
 20
-636.7319440807308
 30
-70.70000000000002
 11
0.0
 21
-636.3836101305706
 31
-71.99999999999999
  0
LINE
  5
E7
330
79
100
AcDbEntity
  8
PV-139
100
AcDbLine
 10
0.0
 20
-645.9826482362471
 30
-38.25
 11
0.0
 21
-652.5
 31
-38.25
  0
LINE
  5
E8
330
79
100
AcDbEntity
  8
PV-139
100
AcDbLine
 10
0.0
 20
-181.4999999999998
 30
-39.0
 11
0.0
 21
-181.4999999999998
 31
0.0
  0
LINE
  5
E9
330
79
100
AcDbEntity
  8
PV-139
100
AcDbLine
 10
0.0
 20
-148.4999999999998
 30
-39.0
 11
0.0
 21
-148.4999999999998
 31
0.0
  0
LINE
  5
EA
330
79
100
AcDbEntity
  8
PV-139
100
AcDbLine
 10
0.0
 20
-599.5
 30
-39.0
 11
0.0
 21
-599.5
 31
0.0
  0
LINE
  5
EB
330
79
100
AcDbEntity
  8
PV-139
100
AcDbLine
 10
0.0
 20
-566.5
 30
-39.0
 11
0.0
 21
-566.5
 31
0.0
  0
LINE
  5
EC
330
79
100
AcDbEntity
  8
PV-139
100
AcDbLine
 10
0.0
 20
-599.5
 30
0.0
 11
0.0
 21
-617.4999999999998
 31
0.0
  0
LINE
  5
ED
330
79
100
AcDbEntity
  8
PV-139
100
AcDbLine
 10
0.0
 20
-181.4999999999998
 30
0.0
 11
0.0
 21
-566.5
 31
0.0
  0
LINE
  5
EE
330
79
100
AcDbEntity
  8
PV-139
100
AcDbLine
 10
0.0
 20
-75.49999999999997
 30
0.0
 11
0.0
 21
-148.4999999999998
 31
0.0
  0
LINE
  5
EF
330
79
100
AcDbEntity
  8
PV-139
100
AcDbLine
 10
0.0
 20
-75.49999999999997
 30
33.0
 11
0.0
 21
-617.4999999999998
 31
33.0
  0
LINE
  5
F0
330
79
100
AcDbEntity
  8
PV-139
100
AcDbLine
 10
0.0
 20
-148.5
 30
-39.0
 11
0.0
 21
-80.0
 31
-39.0
  0
LINE
  5
F1
330
79
100
AcDbEntity
  8
PV-139
100
AcDbLine
 10
0.0
 20
-40.0
 30
-39.0
 11
0.0
 21
-16.5
 31
-39.0
  0
LINE
  5
F2
330
79
100
AcDbEntity
  8
PV-139
100
AcDbLine
 10
0.0
 20
-566.5
 30
-39.0
 11
0.0
 21
-560.0
 31
-39.0
  0
LINE
  5
F3
330
79
100
AcDbEntity
  8
PV-139
100
AcDbLine
 10
0.0
 20
-520.0
 30
-39.0
 11
0.0
 21
-400.0
 31
-39.0
  0
LINE
  5
F4
330
79
100
AcDbEntity
  8
PV-139
100
AcDbLine
 10
0.0
 20
-360.0
 30
-39.0
 11
0.0
 21
-240.0
 31
-39.0
  0
LINE
  5
F5
330
79
100
AcDbEntity
  8
PV-139
100
AcDbLine
 10
0.0
 20
-200.0
 30
-39.0
 11
0.0
 21
-181.4999999999998
 31
-39.0
  0
LINE
  5
F6
330
79
100
AcDbEntity
  8
PV-139
100
AcDbLine
 10
0.0
 20
-617.4999999999998
 30
-39.0
 11
0.0
 21
-599.5
 31
-39.0
  0
LINE
  5
F7
330
79
100
AcDbEntity
  8
PV-139
100
AcDbLine
 10
0.0
 20
-20.0
 30
-72.0
 11
0.0
 21
-16.5
 31
-72.0
  0
LINE
  5
F8
330
79
100
AcDbEntity
  8
PV-139
100
AcDbLine
 10
0.0
 20
-887.5
 30
-39.0
 11
0.0
 21
-880.0
 31
-39.0
  0
LINE
  5
F9
330
79
100
AcDbEntity
  8
PV-139
100
AcDbLine
 10
0.0
 20
-840.0
 30
-39.0
 11
0.0
 21
-720.0
 31
-39.0
  0
LINE
  5
FA
330
79
100
AcDbEntity
  8
PV-139
100
AcDbLine
 10
0.0
 20
-680.0
 30
-39.0
 11
0.0
 21
-652.5
 31
-39.0
  0
LINE
  5
FB
330
79
100
AcDbEntity
  8
PV-139
100
AcDbLine
 10
0.0
 20
-652.5
 30
0.0
 11
0.0
 21
-887.5
 31
0.0
  0
LINE
  5
FC
330
79
100
AcDbEntity
  8
PV-139
100
AcDbLine
 10
0.0
 20
-652.5
 30
33.0
 11
0.0
 21
-887.5
 31
33.0
  0
LINE
  5
FD
330
79
100
AcDbEntity
  8
PV-139
100
AcDbLine
 10
0.0
 20
-624.0173517637527
 30
-0.7500000000000116
 11
0.0
 21
-624.2340741737108
 31
-1.558819045102539
  0
LINE
  5
FE
330
79
100
AcDbEntity
  8
PV-139
100
AcDbLine
 10
0.0
 20
-624.0173517637527
 30
33.75
 11
0.0
 21
-624.2340741737108
 31
34.55881904510254
  0
LINE
  5
FF
330
79
100
AcDbEntity
  8
PV-139
100
AcDbLine
 10
0.0
 20
-626.931944080731
 30
31.70000000000001
 11
0.0
 21
-626.1659258262891
 31
34.55881904510256
  0
LINE
  5
100
330
79
100
AcDbEntity
  8
PV-139
100
AcDbLine
 10
0.0
 20
-626.931944080731
 30
1.299999999999985
 11
0.0
 21
-626.1659258262891
 31
-1.55881904510257
  0
LINE
  5
101
330
79
100
AcDbEntity
  8
PV-139
100
AcDbLine
 10
0.0
 20
-626.931944080731
 30
1.299999999999995
 11
0.0
 21
-628.3680559192688
 31
1.299999999999995
  0
LINE
  5
102
330
79
100
AcDbEntity
  8
PV-139
100
AcDbLine
 10
0.0
 20
-626.931944080731
 30
31.69999999999999
 11
0.0
 21
-628.3680559192688
 31
31.69999999999999
  0
LINE
  5
103
330
79
100
AcDbEntity
  8
PV-139
100
AcDbLine
 10
0.0
 20
-628.3680559192688
 30
1.300000000000018
 11
0.0
 21
-629.1340741737108
 31
-1.558819045102516
  0
LINE
  5
104
330
79
100
AcDbEntity
  8
PV-139
100
AcDbLine
 10
0.0
 20
-628.3680559192688
 30
31.69999999999998
 11
0.0
 21
-629.1340741737108
 31
34.55881904510251
  0
LINE
  5
105
330
79
100
AcDbEntity
  8
PV-139
100
AcDbLine
 10
0.0
 20
-631.8319440807307
 30
31.70000000000001
 11
0.0
 21
-631.0659258262891
 31
34.55881904510254
  0
LINE
  5
106
330
79
100
AcDbEntity
  8
PV-139
100
AcDbLine
 10
0.0
 20
-631.8319440807307
 30
1.299999999999985
 11
0.0
 21
-631.0659258262891
 31
-1.558819045102542
  0
LINE
  5
107
330
79
100
AcDbEntity
  8
PV-139
100
AcDbLine
 10
0.0
 20
-631.8319440807311
 30
1.299999999999995
 11
0.0
 21
-633.268055919269
 31
1.299999999999995
  0
LINE
  5
108
330
79
100
AcDbEntity
  8
PV-139
100
AcDbLine
 10
0.0
 20
-631.8319440807311
 30
31.69999999999999
 11
0.0
 21
-633.268055919269
 31
31.69999999999999
  0
LINE
  5
109
330
79
100
AcDbEntity
  8
PV-139
100
AcDbLine
 10
0.0
 20
-633.268055919269
 30
1.299999999999988
 11
0.0
 21
-634.0340741737109
 31
-1.558819045102515
  0
LINE
  5
10A
330
79
100
AcDbEntity
  8
PV-139
100
AcDbLine
 10
0.0
 20
-633.268055919269
 30
31.70000000000001
 11
0.0
 21
-634.0340741737109
 31
34.55881904510251
  0
LINE
  5
10B
330
79
100
AcDbEntity
  8
PV-139
100
AcDbLine
 10
0.0
 20
-617.4999999999998
 30
-0.75
 11
0.0
 21
-624.0173517637529
 31
-0.75
  0
LINE
  5
10C
330
79
100
AcDbEntity
  8
PV-139
100
AcDbLine
 10
0.0
 20
-617.4999999999998
 30
33.75
 11
0.0
 21
-624.0173517637529
 31
33.75
  0
LINE
  5
10D
330
79
100
AcDbEntity
  8
PV-139
100
AcDbLine
 10
0.0
 20
-645.9826482362472
 30
33.75
 11
0.0
 21
-645.7659258262889
 31
34.55881904510254
  0
LINE
  5
10E
330
79
100
AcDbEntity
  8
PV-139
100
AcDbLine
 10
0.0
 20
-645.9826482362472
 30
-0.7500000000000116
 11
0.0
 21
-645.7659258262889
 31
-1.558819045102539
  0
LINE
  5
10F
330
79
100
AcDbEntity
  8
PV-139
100
AcDbLine
 10
0.0
 20
-643.068055919269
 30
1.299999999999985
 11
0.0
 21
-643.8340741737107
 31
-1.55881904510257
  0
LINE
  5
110
330
79
100
AcDbEntity
  8
PV-139
100
AcDbLine
 10
0.0
 20
-643.068055919269
 30
31.70000000000001
 11
0.0
 21
-643.8340741737107
 31
34.55881904510256
  0
LINE
  5
111
330
79
100
AcDbEntity
  8
PV-139
100
AcDbLine
 10
0.0
 20
-641.6319440807309
 30
1.299999999999995
 11
0.0
 21
-643.068055919269
 31
1.299999999999995
  0
LINE
  5
112
330
79
100
AcDbEntity
  8
PV-139
100
AcDbLine
 10
0.0
 20
-641.6319440807309
 30
31.69999999999999
 11
0.0
 21
-643.068055919269
 31
31.69999999999999
  0
LINE
  5
113
330
79
100
AcDbEntity
  8
PV-139
100
AcDbLine
 10
0.0
 20
-641.6319440807309
 30
31.69999999999998
 11
0.0
 21
-640.8659258262892
 31
34.55881904510251
  0
LINE
  5
114
330
79
100
AcDbEntity
  8
PV-139
100
AcDbLine
 10
0.0
 20
-641.6319440807309
 30
1.300000000000018
 11
0.0
 21
-640.8659258262892
 31
-1.558819045102516
  0
LINE
  5
115
330
79
100
AcDbEntity
  8
PV-139
100
AcDbLine
 10
0.0
 20
-638.168055919269
 30
1.299999999999985
 11
0.0
 21
-638.9340741737107
 31
-1.558819045102542
  0
LINE
  5
116
330
79
100
AcDbEntity
  8
PV-139
100
AcDbLine
 10
0.0
 20
-638.168055919269
 30
31.70000000000001
 11
0.0
 21
-638.9340741737107
 31
34.55881904510254
  0
LINE
  5
117
330
79
100
AcDbEntity
  8
PV-139
100
AcDbLine
 10
0.0
 20
-636.7319440807308
 30
1.299999999999995
 11
0.0
 21
-638.1680559192687
 31
1.299999999999995
  0
LINE
  5
118
330
79
100
AcDbEntity
  8
PV-139
100
AcDbLine
 10
0.0
 20
-636.7319440807308
 30
31.69999999999999
 11
0.0
 21
-638.1680559192687
 31
31.69999999999999
  0
LINE
  5
119
330
79
100
AcDbEntity
  8
PV-139
100
AcDbLine
 10
0.0
 20
-636.7319440807308
 30
31.70000000000001
 11
0.0
 21
-635.9659258262889
 31
34.55881904510251
  0
LINE
  5
11A
330
79
100
AcDbEntity
  8
PV-139
100
AcDbLine
 10
0.0
 20
-636.7319440807308
 30
1.299999999999988
 11
0.0
 21
-635.9659258262889
 31
-1.558819045102515
  0
LINE
  5
11B
330
79
100
AcDbEntity
  8
PV-139
100
AcDbLine
 10
0.0
 20
-645.9826482362471
 30
-0.75
 11
0.0
 21
-652.5
 31
-0.75
  0
LINE
  5
11C
330
79
100
AcDbEntity
  8
PV-139
100
AcDbLine
 10
0.0
 20
-645.9826482362471
 30
33.75
 11
0.0
 21
-652.5
 31
33.75
  0
ARC
  5
11D
330
79
100
AcDbEntity
  8
PV-139
100
AcDbCircle
 10
625.2
 20
-37.69999999999999
 30
0.0
 40
0.9999999999999992
210
-1.0
220
0.0
230
0.0
100
AcDbArc
 50
14.99999999999876
 51
165.0000000000011
  0
ARC
  5
11E
330
79
100
AcDbEntity
  8
PV-139
100
AcDbCircle
 10
630.1
 20
-37.69999999999999
 30
0.0
 40
1.0
210
-1.0
220
0.0
230
0.0
100
AcDbArc
 50
15.00000000000033
 51
165.0000000000011
  0
ARC
  5
11F
330
79
100
AcDbEntity
  8
PV-139
100
AcDbCircle
 10
617.4999999999998
 20
-40.75
 30
0.0
 40
2.5
210
-1.0
220
0.0
230
0.0
100
AcDbArc
 50
90.00000000000019
 51
135.5729959991945
  0
ARC
  5
120
330
79
100
AcDbEntity
  8
PV-139
100
AcDbCircle
 10
644.7999999999998
 20
-37.69999999999999
 30
0.0
 40
0.9999999999999992
210
-1.0
220
0.0
230
0.0
100
AcDbArc
 50
14.99999999999873
 51
165.0000000000011
  0
ARC
  5
121
330
79
100
AcDbEntity
  8
PV-139
100
AcDbCircle
 10
639.9
 20
-37.69999999999999
 30
0.0
 40
1.0
210
-1.0
220
0.0
230
0.0
100
AcDbArc
 50
14.99999999999873
 51
164.9999999999996
  0
ARC
  5
122
330
79
100
AcDbEntity
  8
PV-139
100
AcDbCircle
 10
635.0
 20
-37.69999999999999
 30
0.0
 40
1.0
210
-1.0
220
0.0
230
0.0
100
AcDbArc
 50
14.99999999999873
 51
165.0000000000011
  0
ARC
  5
123
330
79
100
AcDbEntity
  8
PV-139
100
AcDbCircle
 10
652.5
 20
-40.75
 30
0.0
 40
2.5
210
-1.0
220
0.0
230
0.0
100
AcDbArc
 50
44.42700400080538
 51
89.99999999999982
  0
ARC
  5
124
330
79
100
AcDbEntity
  8
PV-139
100
AcDbCircle
 10
887.5
 20
-19.5
 30
0.0
 40
52.5
210
-1.0
220
0.0
230
0.0
100
AcDbArc
 50
269.999999999998
 51
90.0
  0
ARC
  5
125
330
79
100
AcDbEntity
  8
PV-139
100
AcDbCircle
 10
887.5
 20
-19.5
 30
0.0
 40
19.5
210
-1.0
220
0.0
230
0.0
100
AcDbArc
 50
269.9999999999981
 51
90.0
  0
ARC
  5
126
330
79
100
AcDbEntity
  8
PV-139
100
AcDbCircle
 10
625.2
 20
34.29999999999999
 30
0.0
 40
0.9999999999999992
210
-1.0
220
0.0
230
0.0
100
AcDbArc
 50
14.99999999999876
 51
165.0000000000011
  0
ARC
  5
127
330
79
100
AcDbEntity
  8
PV-139
100
AcDbCircle
 10
625.2
 20
-1.300000000000004
 30
0.0
 40
0.9999999999999992
210
-1.0
220
0.0
230
0.0
100
AcDbArc
 50
194.9999999999988
 51
345.000000000001
  0
ARC
  5
128
330
79
100
AcDbEntity
  8
PV-139
100
AcDbCircle
 10
630.1
 20
34.29999999999999
 30
0.0
 40
1.0
210
-1.0
220
0.0
230
0.0
100
AcDbArc
 50
15.00000000000033
 51
165.0000000000011
  0
ARC
  5
129
330
79
100
AcDbEntity
  8
PV-139
100
AcDbCircle
 10
630.1
 20
-1.300000000000004
 30
0.0
 40
1.0
210
-1.0
220
0.0
230
0.0
100
AcDbArc
 50
194.9999999999988
 51
344.9999999999996
  0
ARC
  5
12A
330
79
100
AcDbEntity
  8
PV-139
100
AcDbCircle
 10
617.4999999999998
 20
31.25
 30
0.0
 40
2.5
210
-1.0
220
0.0
230
0.0
100
AcDbArc
 50
90.00000000000019
 51
135.5729959991945
  0
ARC
  5
12B
330
79
100
AcDbEntity
  8
PV-139
100
AcDbCircle
 10
617.4999999999998
 20
1.75
 30
0.0
 40
2.5
210
-1.0
220
0.0
230
0.0
100
AcDbArc
 50
224.4270040008053
 51
269.9999999999997
  0
ARC
  5
12C
330
79
100
AcDbEntity
  8
PV-139
100
AcDbCircle
 10
644.7999999999998
 20
-1.300000000000004
 30
0.0
 40
0.9999999999999992
210
-1.0
220
0.0
230
0.0
100
AcDbArc
 50
194.9999999999988
 51
345.0000000000012
  0
ARC
  5
12D
330
79
100
AcDbEntity
  8
PV-139
100
AcDbCircle
 10
644.7999999999998
 20
34.29999999999999
 30
0.0
 40
0.9999999999999992
210
-1.0
220
0.0
230
0.0
100
AcDbArc
 50
14.99999999999873
 51
165.0000000000011
  0
ARC
  5
12E
330
79
100
AcDbEntity
  8
PV-139
100
AcDbCircle
 10
639.9
 20
-1.300000000000004
 30
0.0
 40
1.0
210
-1.0
220
0.0
230
0.0
100
AcDbArc
 50
195.0000000000003
 51
345.000000000001
  0
ARC
  5
12F
330
79
100
AcDbEntity
  8
PV-139
100
AcDbCircle
 10
639.9
 20
34.29999999999999
 30
0.0
 40
1.0
210
-1.0
220
0.0
230
0.0
100
AcDbArc
 50
14.99999999999873
 51
164.9999999999996
  0
ARC
  5
130
330
79
100
AcDbEntity
  8
PV-139
100
AcDbCircle
 10
635.0
 20
-1.300000000000004
 30
0.0
 40
1.0
210
-1.0
220
0.0
230
0.0
100
AcDbArc
 50
194.9999999999988
 51
345.000000000001
  0
ARC
  5
131
330
79
100
AcDbEntity
  8
PV-139
100
AcDbCircle
 10
635.0
 20
34.29999999999999
 30
0.0
 40
1.0
210
-1.0
220
0.0
230
0.0
100
AcDbArc
 50
14.99999999999873
 51
165.0000000000011
  0
ARC
  5
132
330
79
100
AcDbEntity
  8
PV-139
100
AcDbCircle
 10
652.5
 20
1.75
 30
0.0
 40
2.5
210
-1.0
220
0.0
230
0.0
100
AcDbArc
 50
270.0000000000002
 51
315.5729959991945
  0
ARC
  5
133
330
79
100
AcDbEntity
  8
PV-139
100
AcDbCircle
 10
652.5
 20
31.25
 30
0.0
 40
2.5
210
-1.0
220
0.0
230
0.0
100
AcDbArc
 50
44.42700400080538
 51
89.99999999999982
  0
ENDBLK
  5
135
330
79
100
AcDbEntity
  8
0
100
AcDbBlockEnd
  0
BLOCK
  5
138
330
136
100
AcDbEntity
  8
0
100
AcDbBlockBegin
  2
LEFT
 70
     0
 10
0.0
 20
0.0
 30
0.0
  3
LEFT
  1

  0
INSERT
  5
137
330
136
100
AcDbEntity
  8
PV-139
100
AcDbBlockReference
  2
*U2
 10
0.0
 20
0.0
 30
0.0
 50
270.0
210
0.0
220
1.0
230
0.0
  0
ENDBLK
  5
139
330
136
100
AcDbEntity
  8
0
100
AcDbBlockEnd
  0
BLOCK
  5
20C
330
13B
100
AcDbEntity
  8
0
100
AcDbBlockBegin
  2
*U4
 70
     1
 10
0.0
 20
0.0
 30
0.0
  3
*U4
  1
*ANON
  0
LINE
  5
13C
330
13B
100
AcDbEntity
  8
PV-139
100
AcDbLine
 10
0.0
 20
-636.7319440807308
 30
16.5
 11
0.0
 21
-636.7319440807308
 31
31.69999999999999
  0
LINE
  5
13D
330
13B
100
AcDbEntity
  8
PV-139
100
AcDbLine
 10
0.0
 20
-636.7319440807308
 30
1.299999999999995
 11
0.0
 21
-636.7319440807308
 31
16.50000000000021
  0
LINE
  5
13E
330
13B
100
AcDbEntity
  8
PV-139
100
AcDbLine
 10
0.0
 20
-638.168055919269
 30
16.5
 11
0.0
 21
-638.168055919269
 31
31.69999999999999
  0
LINE
  5
13F
330
13B
100
AcDbEntity
  8
PV-139
100
AcDbLine
 10
0.0
 20
-638.168055919269
 30
1.299999999999995
 11
0.0
 21
-638.168055919269
 31
16.50000000000021
  0
LINE
  5
140
330
13B
100
AcDbEntity
  8
PV-139
100
AcDbLine
 10
0.0
 20
-641.6319440807309
 30
16.5
 11
0.0
 21
-641.6319440807309
 31
31.69999999999999
  0
LINE
  5
141
330
13B
100
AcDbEntity
  8
PV-139
100
AcDbLine
 10
0.0
 20
-641.6319440807309
 30
1.299999999999995
 11
0.0
 21
-641.6319440807309
 31
16.50000000000021
  0
LINE
  5
142
330
13B
100
AcDbEntity
  8
PV-139
100
AcDbLine
 10
0.0
 20
-643.068055919269
 30
16.5
 11
0.0
 21
-643.068055919269
 31
31.69999999999999
  0
LINE
  5
143
330
13B
100
AcDbEntity
  8
PV-139
100
AcDbLine
 10
0.0
 20
-643.068055919269
 30
1.299999999999995
 11
0.0
 21
-643.068055919269
 31
16.50000000000021
  0
LINE
  5
144
330
13B
100
AcDbEntity
  8
PV-139
100
AcDbLine
 10
0.0
 20
-645.9826482362472
 30
16.5
 11
0.0
 21
-645.9826482362472
 31
33.75
  0
LINE
  5
145
330
13B
100
AcDbEntity
  8
PV-139
100
AcDbLine
 10
0.0
 20
-645.9826482362472
 30
-0.75
 11
0.0
 21
-645.9826482362472
 31
16.50000000000024
  0
LINE
  5
146
330
13B
100
AcDbEntity
  8
PV-139
100
AcDbLine
 10
0.0
 20
-633.268055919269
 30
16.5
 11
0.0
 21
-633.268055919269
 31
31.69999999999999
  0
LINE
  5
147
330
13B
100
AcDbEntity
  8
PV-139
100
AcDbLine
 10
0.0
 20
-633.268055919269
 30
1.299999999999995
 11
0.0
 21
-633.268055919269
 31
16.50000000000021
  0
LINE
  5
148
330
13B
100
AcDbEntity
  8
PV-139
100
AcDbLine
 10
0.0
 20
-631.8319440807307
 30
16.5
 11
0.0
 21
-631.8319440807307
 31
31.69999999999999
  0
LINE
  5
149
330
13B
100
AcDbEntity
  8
PV-139
100
AcDbLine
 10
0.0
 20
-631.8319440807307
 30
1.299999999999995
 11
0.0
 21
-631.8319440807307
 31
16.50000000000021
  0
LINE
  5
14A
330
13B
100
AcDbEntity
  8
PV-139
100
AcDbLine
 10
0.0
 20
-628.3680559192688
 30
16.5
 11
0.0
 21
-628.3680559192688
 31
31.69999999999999
  0
LINE
  5
14B
330
13B
100
AcDbEntity
  8
PV-139
100
AcDbLine
 10
0.0
 20
-628.3680559192688
 30
1.299999999999995
 11
0.0
 21
-628.3680559192688
 31
16.50000000000021
  0
LINE
  5
14C
330
13B
100
AcDbEntity
  8
PV-139
100
AcDbLine
 10
0.0
 20
-626.931944080731
 30
16.5
 11
0.0
 21
-626.931944080731
 31
31.69999999999999
  0
LINE
  5
14D
330
13B
100
AcDbEntity
  8
PV-139
100
AcDbLine
 10
0.0
 20
-626.931944080731
 30
1.299999999999995
 11
0.0
 21
-626.931944080731
 31
16.50000000000021
  0
LINE
  5
14E
330
13B
100
AcDbEntity
  8
PV-139
100
AcDbLine
 10
0.0
 20
-624.0173517637527
 30
16.5
 11
0.0
 21
-624.0173517637527
 31
33.75
  0
LINE
  5
14F
330
13B
100
AcDbEntity
  8
PV-139
100
AcDbLine
 10
0.0
 20
-624.0173517637527
 30
-0.75
 11
0.0
 21
-624.0173517637527
 31
16.50000000000024
  0
LINE
  5
150
330
13B
100
AcDbEntity
  8
PV-139
100
AcDbLine
 10
0.0
 20
-583.0
 30
16.49999999999997
 11
0.0
 21
-566.5
 31
0.0
  0
LINE
  5
151
330
13B
100
AcDbEntity
  8
PV-139
100
AcDbLine
 10
0.0
 20
-599.5
 30
0.0
 11
0.0
 21
-582.9999999999996
 31
16.50000000000024
  0
LINE
  5
152
330
13B
100
AcDbEntity
  8
PV-139
100
AcDbLine
 10
0.0
 20
-566.5
 30
-39.0
 11
0.0
 21
-583.0
 31
-55.49999999999998
  0
LINE
  5
153
330
13B
100
AcDbEntity
  8
PV-139
100
AcDbLine
 10
0.0
 20
-583.0
 30
-55.5
 11
0.0
 21
-599.5
 31
-39.0
  0
LINE
  5
154
330
13B
100
AcDbEntity
  8
PV-139
100
AcDbLine
 10
0.0
 20
-165.0
 30
16.50000000000005
 11
0.0
 21
-148.4999999999998
 31
0.0
  0
LINE
  5
155
330
13B
100
AcDbEntity
  8
PV-139
100
AcDbLine
 10
0.0
 20
-181.4999999999998
 30
0.0
 11
0.0
 21
-164.9999999999998
 31
16.50000000000017
  0
LINE
  5
156
330
13B
100
AcDbEntity
  8
PV-139
100
AcDbLine
 10
0.0
 20
-148.4999999999998
 30
-39.0
 11
0.0
 21
-165.0
 31
-55.50000000000006
  0
LINE
  5
157
330
13B
100
AcDbEntity
  8
PV-139
100
AcDbLine
 10
0.0
 20
-165.0
 30
-55.49999999999993
 11
0.0
 21
-181.4999999999998
 31
-39.0
  0
LINE
  5
158
330
13B
100
AcDbEntity
  8
PV-139
100
AcDbLine
 10
0.0
 20
-75.49999999999997
 30
16.5
 11
0.0
 21
-75.49999999999997
 31
33.0
  0
LINE
  5
159
330
13B
100
AcDbEntity
  8
PV-139
100
AcDbLine
 10
0.0
 20
-75.49999999999997
 30
0.0
 11
0.0
 21
-75.49999999999997
 31
16.50000000000023
  0
LINE
  5
15A
330
13B
100
AcDbEntity
  8
PV-139
100
AcDbLine
 10
0.0
 20
-636.7319440807308
 30
-55.5
 11
0.0
 21
-636.7319440807308
 31
-40.3
  0
LINE
  5
15B
330
13B
100
AcDbEntity
  8
PV-139
100
AcDbLine
 10
0.0
 20
-636.7319440807308
 30
-70.7
 11
0.0
 21
-636.7319440807308
 31
-55.49999999999979
  0
LINE
  5
15C
330
13B
100
AcDbEntity
  8
PV-139
100
AcDbLine
 10
0.0
 20
-638.168055919269
 30
-55.5
 11
0.0
 21
-638.168055919269
 31
-40.3
  0
LINE
  5
15D
330
13B
100
AcDbEntity
  8
PV-139
100
AcDbLine
 10
0.0
 20
-638.168055919269
 30
-70.7
 11
0.0
 21
-638.168055919269
 31
-55.49999999999979
  0
LINE
  5
15E
330
13B
100
AcDbEntity
  8
PV-139
100
AcDbLine
 10
0.0
 20
-641.6319440807309
 30
-55.5
 11
0.0
 21
-641.6319440807309
 31
-40.3
  0
LINE
  5
15F
330
13B
100
AcDbEntity
  8
PV-139
100
AcDbLine
 10
0.0
 20
-641.6319440807309
 30
-70.7
 11
0.0
 21
-641.6319440807309
 31
-55.49999999999979
  0
LINE
  5
160
330
13B
100
AcDbEntity
  8
PV-139
100
AcDbLine
 10
0.0
 20
-643.068055919269
 30
-55.5
 11
0.0
 21
-643.068055919269
 31
-40.3
  0
LINE
  5
161
330
13B
100
AcDbEntity
  8
PV-139
100
AcDbLine
 10
0.0
 20
-643.068055919269
 30
-70.7
 11
0.0
 21
-643.068055919269
 31
-55.49999999999979
  0
LINE
  5
162
330
13B
100
AcDbEntity
  8
PV-139
100
AcDbLine
 10
0.0
 20
-645.9826482362472
 30
-55.5
 11
0.0
 21
-645.9826482362472
 31
-38.25
  0
LINE
  5
163
330
13B
100
AcDbEntity
  8
PV-139
100
AcDbLine
 10
0.0
 20
-645.9826482362472
 30
-72.74275210052038
 11
0.0
 21
-645.9826482362472
 31
-55.49999999999975
  0
LINE
  5
164
330
13B
100
AcDbEntity
  8
PV-139
100
AcDbLine
 10
0.0
 20
-633.268055919269
 30
-55.5
 11
0.0
 21
-633.268055919269
 31
-40.3
  0
LINE
  5
165
330
13B
100
AcDbEntity
  8
PV-139
100
AcDbLine
 10
0.0
 20
-633.268055919269
 30
-70.7
 11
0.0
 21
-633.268055919269
 31
-55.49999999999979
  0
LINE
  5
166
330
13B
100
AcDbEntity
  8
PV-139
100
AcDbLine
 10
0.0
 20
-631.8319440807307
 30
-55.5
 11
0.0
 21
-631.8319440807307
 31
-40.3
  0
LINE
  5
167
330
13B
100
AcDbEntity
  8
PV-139
100
AcDbLine
 10
0.0
 20
-631.8319440807307
 30
-70.7
 11
0.0
 21
-631.8319440807307
 31
-55.49999999999979
  0
LINE
  5
168
330
13B
100
AcDbEntity
  8
PV-139
100
AcDbLine
 10
0.0
 20
-628.3680559192688
 30
-55.5
 11
0.0
 21
-628.3680559192688
 31
-40.3
  0
LINE
  5
169
330
13B
100
AcDbEntity
  8
PV-139
100
AcDbLine
 10
0.0
 20
-628.3680559192688
 30
-70.7
 11
0.0
 21
-628.3680559192688
 31
-55.49999999999979
  0
LINE
  5
16A
330
13B
100
AcDbEntity
  8
PV-139
100
AcDbLine
 10
0.0
 20
-626.931944080731
 30
-55.5
 11
0.0
 21
-626.931944080731
 31
-40.3
  0
LINE
  5
16B
330
13B
100
AcDbEntity
  8
PV-139
100
AcDbLine
 10
0.0
 20
-626.931944080731
 30
-70.7
 11
0.0
 21
-626.931944080731
 31
-55.49999999999979
  0
LINE
  5
16C
330
13B
100
AcDbEntity
  8
PV-139
100
AcDbLine
 10
0.0
 20
-624.0173517637527
 30
-55.5
 11
0.0
 21
-624.0173517637527
 31
-38.25
  0
LINE
  5
16D
330
13B
100
AcDbEntity
  8
PV-139
100
AcDbLine
 10
0.0
 20
-624.0173517637527
 30
-72.74275210052038
 11
0.0
 21
-624.0173517637527
 31
-55.49999999999975
  0
LINE
  5
16E
330
13B
100
AcDbEntity
  8
PV-139
100
AcDbLine
 10
0.0
 20
0.0
 30
-178.5
 11
0.0
 21
0.0
 31
74.5
  0
LINE
  5
16F
330
13B
100
AcDbEntity
  8
PV-139
100
AcDbLine
 10
0.0
 20
-16.5
 30
64.5
 11
0.0
 21
-16.5
 31
-168.5
  0
ARC
  5
170
330
13B
100
AcDbEntity
  8
PV-139
100
AcDbCircle
 10
-5.0
 20
64.5
 30
0.0
 40
11.5
210
1.0
220
0.0
230
0.0
100
AcDbArc
 50
89.99999999999998
 51
180.0
  0
ARC
  5
171
330
13B
100
AcDbEntity
  8
PV-139
100
AcDbCircle
 10
-5.0
 20
-168.5
 30
0.0
 40
11.5
210
1.0
220
0.0
230
0.0
100
AcDbArc
 50
180.0
 51
270.0
  0
LINE
  5
172
330
13B
100
AcDbEntity
  8
PV-139
100
AcDbLine
 10
0.0
 20
0.0
 30
74.5
 11
0.0
 21
0.0
 31
76.0
  0
LINE
  5
173
330
13B
100
AcDbEntity
  8
PV-139
100
AcDbLine
 10
0.0
 20
0.0
 30
76.0
 11
0.0
 21
-4.999999999999999
 31
76.0
  0
LINE
  5
174
330
13B
100
AcDbEntity
  8
PV-139
100
AcDbLine
 10
0.0
 20
0.0
 30
-180.0
 11
0.0
 21
0.0
 31
-178.5
  0
LINE
  5
175
330
13B
100
AcDbEntity
  8
PV-139
100
AcDbLine
 10
0.0
 20
-5.0
 30
-180.0
 11
0.0
 21
0.0
 31
-180.0
  0
LINE
  5
176
330
13B
100
AcDbEntity
  8
PV-139
100
AcDbLine
 10
0.0
 20
-41.0
 30
39.25
 11
0.0
 21
-16.5
 31
39.25
  0
LINE
  5
177
330
13B
100
AcDbEntity
  8
PV-139
100
AcDbLine
 10
0.0
 20
-16.5
 30
-6.25
 11
0.0
 21
-41.0
 31
-6.25
  0
ARC
  5
178
330
13B
100
AcDbEntity
  8
PV-139
100
AcDbCircle
 10
-41.0
 20
16.5
 30
0.0
 40
22.74999999999999
210
1.0
220
0.0
230
0.0
100
AcDbArc
 50
89.99999999999982
 51
270.0000000000002
  0
LINE
  5
179
330
13B
100
AcDbEntity
  8
PV-139
100
AcDbLine
 10
0.0
 20
-75.5
 30
16.5
 11
0.0
 21
-75.5
 31
33.0
  0
LINE
  5
17A
330
13B
100
AcDbEntity
  8
PV-139
100
AcDbLine
 10
0.0
 20
-75.5
 30
0.0
 11
0.0
 21
-75.5
 31
16.50000000000023
  0
LINE
  5
17B
330
13B
100
AcDbEntity
  8
PV-139
100
AcDbLine
 10
0.0
 20
-40.0
 30
-38.0
 11
0.0
 21
-40.0
 31
-72.9928556845359
  0
LINE
  5
17C
330
13B
100
AcDbEntity
  8
PV-139
100
AcDbLine
 10
0.0
 20
-80.0
 30
-72.9928556845359
 11
0.0
 21
-80.0
 31
-38.0
  0
LINE
  5
17D
330
13B
100
AcDbEntity
  8
PV-139
100
AcDbLine
 10
0.0
 20
-200.0
 30
-38.0
 11
0.0
 21
-200.0
 31
-72.9928556845359
  0
LINE
  5
17E
330
13B
100
AcDbEntity
  8
PV-139
100
AcDbLine
 10
0.0
 20
-240.0
 30
-72.9928556845359
 11
0.0
 21
-240.0
 31
-38.0
  0
LINE
  5
17F
330
13B
100
AcDbEntity
  8
PV-139
100
AcDbLine
 10
0.0
 20
-400.0
 30
-72.9928556845359
 11
0.0
 21
-400.0
 31
-38.0
  0
LINE
  5
180
330
13B
100
AcDbEntity
  8
PV-139
100
AcDbLine
 10
0.0
 20
-360.0
 30
-38.0
 11
0.0
 21
-360.0
 31
-72.9928556845359
  0
LINE
  5
181
330
13B
100
AcDbEntity
  8
PV-139
100
AcDbLine
 10
0.0
 20
-560.0
 30
-72.9928556845359
 11
0.0
 21
-560.0
 31
-38.0
  0
LINE
  5
182
330
13B
100
AcDbEntity
  8
PV-139
100
AcDbLine
 10
0.0
 20
-520.0
 30
-38.0
 11
0.0
 21
-520.0
 31
-72.9928556845359
  0
LINE
  5
183
330
13B
100
AcDbEntity
  8
PV-139
100
AcDbLine
 10
0.0
 20
-720.0
 30
-72.9928556845359
 11
0.0
 21
-720.0
 31
-38.0
  0
LINE
  5
184
330
13B
100
AcDbEntity
  8
PV-139
100
AcDbLine
 10
0.0
 20
-680.0
 30
-38.0
 11
0.0
 21
-680.0
 31
-72.9928556845359
  0
LINE
  5
185
330
13B
100
AcDbEntity
  8
PV-139
100
AcDbLine
 10
0.0
 20
-840.0
 30
-72.0
 11
0.0
 21
-720.0
 31
-72.0
  0
LINE
  5
186
330
13B
100
AcDbEntity
  8
PV-139
100
AcDbLine
 10
0.0
 20
-680.0
 30
-72.9928556845359
 11
0.0
 21
-720.0
 31
-72.9928556845359
  0
LINE
  5
187
330
13B
100
AcDbEntity
  8
PV-139
100
AcDbLine
 10
0.0
 20
-680.0
 30
-72.0
 11
0.0
 21
-654.2779014502961
 31
-72.0
  0
LINE
  5
188
330
13B
100
AcDbEntity
  8
PV-139
100
AcDbLine
 10
0.0
 20
-643.4184193217618
 30
-72.0
 11
0.0
 21
-641.2815806782376
 31
-72.0
  0
LINE
  5
189
330
13B
100
AcDbEntity
  8
PV-139
100
AcDbLine
 10
0.0
 20
-638.518419321763
 30
-72.0
 11
0.0
 21
-636.3815806782374
 31
-72.0
  0
LINE
  5
18A
330
13B
100
AcDbEntity
  8
PV-139
100
AcDbLine
 10
0.0
 20
-633.6184193217626
 30
-72.0
 11
0.0
 21
-631.4815806782372
 31
-72.0
  0
LINE
  5
18B
330
13B
100
AcDbEntity
  8
PV-139
100
AcDbLine
 10
0.0
 20
-628.7184193217631
 30
-72.0
 11
0.0
 21
-626.5815806782365
 31
-72.0
  0
LINE
  5
18C
330
13B
100
AcDbEntity
  8
PV-139
100
AcDbLine
 10
0.0
 20
-615.7220985497035
 30
-72.0
 11
0.0
 21
-560.0
 31
-72.0
  0
LINE
  5
18D
330
13B
100
AcDbEntity
  8
PV-139
100
AcDbLine
 10
0.0
 20
-520.0
 30
-72.9928556845359
 11
0.0
 21
-560.0
 31
-72.9928556845359
  0
LINE
  5
18E
330
13B
100
AcDbEntity
  8
PV-139
100
AcDbLine
 10
0.0
 20
-520.0
 30
-72.0
 11
0.0
 21
-400.0
 31
-72.0
  0
LINE
  5
18F
330
13B
100
AcDbEntity
  8
PV-139
100
AcDbLine
 10
0.0
 20
-360.0
 30
-72.9928556845359
 11
0.0
 21
-400.0
 31
-72.9928556845359
  0
LINE
  5
190
330
13B
100
AcDbEntity
  8
PV-139
100
AcDbLine
 10
0.0
 20
-360.0
 30
-72.0
 11
0.0
 21
-240.0
 31
-72.0
  0
LINE
  5
191
330
13B
100
AcDbEntity
  8
PV-139
100
AcDbLine
 10
0.0
 20
-240.0
 30
-72.9928556845359
 11
0.0
 21
-200.0
 31
-72.9928556845359
  0
LINE
  5
192
330
13B
100
AcDbEntity
  8
PV-139
100
AcDbLine
 10
0.0
 20
-200.0
 30
-72.0
 11
0.0
 21
-80.0
 31
-72.0
  0
LINE
  5
193
330
13B
100
AcDbEntity
  8
PV-139
100
AcDbLine
 10
0.0
 20
-80.0
 30
-72.9928556845359
 11
0.0
 21
-40.0
 31
-72.9928556845359
  0
LINE
  5
194
330
13B
100
AcDbEntity
  8
PV-139
100
AcDbLine
 10
0.0
 20
-40.0
 30
-72.0
 11
0.0
 21
-20.0
 31
-72.0
  0
LINE
  5
195
330
13B
100
AcDbEntity
  8
PV-139
100
AcDbLine
 10
0.0
 20
-20.0
 30
-72.0
 11
0.0
 21
-20.0
 31
-922.0
  0
LINE
  5
196
330
13B
100
AcDbEntity
  8
PV-139
100
AcDbLine
 10
0.0
 20
-20.0
 30
-922.0
 11
0.0
 21
-900.0
 31
-922.0
  0
LINE
  5
197
330
13B
100
AcDbEntity
  8
PV-139
100
AcDbLine
 10
0.0
 20
-900.0
 30
-72.0
 11
0.0
 21
-900.0
 31
-922.0
  0
LINE
  5
198
330
13B
100
AcDbEntity
  8
PV-139
100
AcDbLine
 10
0.0
 20
-900.0
 30
-72.0
 11
0.0
 21
-880.0
 31
-72.0
  0
LINE
  5
199
330
13B
100
AcDbEntity
  8
PV-139
100
AcDbLine
 10
0.0
 20
-880.0
 30
-72.9928556845359
 11
0.0
 21
-880.0
 31
-38.0
  0
LINE
  5
19A
330
13B
100
AcDbEntity
  8
PV-139
100
AcDbLine
 10
0.0
 20
-840.0
 30
-72.9928556845359
 11
0.0
 21
-880.0
 31
-72.9928556845359
  0
LINE
  5
19B
330
13B
100
AcDbEntity
  8
PV-139
100
AcDbLine
 10
0.0
 20
-840.0
 30
-38.0
 11
0.0
 21
-840.0
 31
-72.9928556845359
  0
LINE
  5
19C
330
13B
100
AcDbEntity
  8
PV-139
100
AcDbLine
 10
0.0
 20
-840.0
 30
-38.0
 11
0.0
 21
-880.0
 31
-38.0
  0
LINE
  5
19D
330
13B
100
AcDbEntity
  8
PV-139
100
AcDbLine
 10
0.0
 20
-680.0
 30
-38.0
 11
0.0
 21
-720.0
 31
-38.0
  0
LINE
  5
19E
330
13B
100
AcDbEntity
  8
PV-139
100
AcDbLine
 10
0.0
 20
-520.0
 30
-38.0
 11
0.0
 21
-560.0
 31
-38.0
  0
LINE
  5
19F
330
13B
100
AcDbEntity
  8
PV-139
100
AcDbLine
 10
0.0
 20
-360.0
 30
-38.0
 11
0.0
 21
-400.0
 31
-38.0
  0
LINE
  5
1A0
330
13B
100
AcDbEntity
  8
PV-139
100
AcDbLine
 10
0.0
 20
-200.0
 30
-38.0
 11
0.0
 21
-240.0
 31
-38.0
  0
LINE
  5
1A1
330
13B
100
AcDbEntity
  8
PV-139
100
AcDbLine
 10
0.0
 20
-40.0
 30
-38.0
 11
0.0
 21
-80.0
 31
-38.0
  0
LINE
  5
1A2
330
13B
100
AcDbEntity
  8
PV-139
100
AcDbLine
 10
0.0
 20
-56.66245510767708
 30
33.0
 11
0.0
 21
-75.5
 31
33.0
  0
LINE
  5
1A3
330
13B
100
AcDbEntity
  8
PV-139
100
AcDbLine
 10
0.0
 20
-56.66245510767708
 30
0.0
 11
0.0
 21
-75.5
 31
0.0
  0
LINE
  5
1A4
330
13B
100
AcDbEntity
  8
PV-139
100
AcDbLine
 10
0.0
 20
-624.0173517637527
 30
-38.24999999999997
 11
0.0
 21
-624.2340741737108
 31
-37.44118095489746
  0
LINE
  5
1A5
330
13B
100
AcDbEntity
  8
PV-139
100
AcDbLine
 10
0.0
 20
-626.931944080731
 30
-70.70000000000002
 11
0.0
 21
-626.5836101305706
 31
-72.00000000000001
  0
LINE
  5
1A6
330
13B
100
AcDbEntity
  8
PV-139
100
AcDbLine
 10
0.0
 20
-626.931944080731
 30
-40.29999999999999
 11
0.0
 21
-626.1659258262891
 31
-37.44118095489743
  0
LINE
  5
1A7
330
13B
100
AcDbEntity
  8
PV-139
100
AcDbLine
 10
0.0
 20
-626.931944080731
 30
-40.3
 11
0.0
 21
-628.3680559192688
 31
-40.3
  0
LINE
  5
1A8
330
13B
100
AcDbEntity
  8
PV-139
100
AcDbLine
 10
0.0
 20
-626.931944080731
 30
-70.7
 11
0.0
 21
-628.3680559192688
 31
-70.7
  0
LINE
  5
1A9
330
13B
100
AcDbEntity
  8
PV-139
100
AcDbLine
 10
0.0
 20
-628.3680559192688
 30
-40.30000000000002
 11
0.0
 21
-629.1340741737108
 31
-37.44118095489748
  0
LINE
  5
1AA
330
13B
100
AcDbEntity
  8
PV-139
100
AcDbLine
 10
0.0
 20
-628.3680559192688
 30
-70.69999999999997
 11
0.0
 21
-628.7163898694292
 31
-72.00000000000001
  0
LINE
  5
1AB
330
13B
100
AcDbEntity
  8
PV-139
100
AcDbLine
 10
0.0
 20
-631.8319440807307
 30
-70.70000000000002
 11
0.0
 21
-631.4836101305703
 31
-71.99999999999997
  0
LINE
  5
1AC
330
13B
100
AcDbEntity
  8
PV-139
100
AcDbLine
 10
0.0
 20
-631.8319440807307
 30
-40.29999999999999
 11
0.0
 21
-631.0659258262891
 31
-37.44118095489744
  0
LINE
  5
1AD
330
13B
100
AcDbEntity
  8
PV-139
100
AcDbLine
 10
0.0
 20
-631.8319440807311
 30
-40.3
 11
0.0
 21
-633.268055919269
 31
-40.3
  0
LINE
  5
1AE
330
13B
100
AcDbEntity
  8
PV-139
100
AcDbLine
 10
0.0
 20
-631.8319440807311
 30
-70.7
 11
0.0
 21
-633.268055919269
 31
-70.7
  0
LINE
  5
1AF
330
13B
100
AcDbEntity
  8
PV-139
100
AcDbLine
 10
0.0
 20
-633.268055919269
 30
-40.29999999999999
 11
0.0
 21
-634.0340741737109
 31
-37.44118095489748
  0
LINE
  5
1B0
330
13B
100
AcDbEntity
  8
PV-139
100
AcDbLine
 10
0.0
 20
-633.268055919269
 30
-70.70000000000002
 11
0.0
 21
-633.6163898694294
 31
-71.99999999999999
  0
LINE
  5
1B1
330
13B
100
AcDbEntity
  8
PV-139
100
AcDbLine
 10
0.0
 20
-617.4999999999998
 30
-38.25
 11
0.0
 21
-624.0173517637529
 31
-38.25
  0
LINE
  5
1B2
330
13B
100
AcDbEntity
  8
PV-139
100
AcDbLine
 10
0.0
 20
-645.9826482362472
 30
-38.24999999999997
 11
0.0
 21
-645.7659258262889
 31
-37.44118095489746
  0
LINE
  5
1B3
330
13B
100
AcDbEntity
  8
PV-139
100
AcDbLine
 10
0.0
 20
-643.068055919269
 30
-40.29999999999999
 11
0.0
 21
-643.8340741737107
 31
-37.44118095489743
  0
LINE
  5
1B4
330
13B
100
AcDbEntity
  8
PV-139
100
AcDbLine
 10
0.0
 20
-643.068055919269
 30
-70.70000000000002
 11
0.0
 21
-643.4163898694293
 31
-71.99999999999993
  0
LINE
  5
1B5
330
13B
100
AcDbEntity
  8
PV-139
100
AcDbLine
 10
0.0
 20
-641.6319440807309
 30
-40.3
 11
0.0
 21
-643.068055919269
 31
-40.3
  0
LINE
  5
1B6
330
13B
100
AcDbEntity
  8
PV-139
100
AcDbLine
 10
0.0
 20
-641.6319440807309
 30
-70.7
 11
0.0
 21
-643.068055919269
 31
-70.7
  0
LINE
  5
1B7
330
13B
100
AcDbEntity
  8
PV-139
100
AcDbLine
 10
0.0
 20
-641.6319440807309
 30
-70.69999999999997
 11
0.0
 21
-641.2836101305705
 31
-72.00000000000001
  0
LINE
  5
1B8
330
13B
100
AcDbEntity
  8
PV-139
100
AcDbLine
 10
0.0
 20
-641.6319440807309
 30
-40.30000000000002
 11
0.0
 21
-640.8659258262892
 31
-37.44118095489748
  0
LINE
  5
1B9
330
13B
100
AcDbEntity
  8
PV-139
100
AcDbLine
 10
0.0
 20
-638.168055919269
 30
-40.29999999999999
 11
0.0
 21
-638.9340741737107
 31
-37.44118095489744
  0
LINE
  5
1BA
330
13B
100
AcDbEntity
  8
PV-139
100
AcDbLine
 10
0.0
 20
-638.168055919269
 30
-70.70000000000002
 11
0.0
 21
-638.5163898694294
 31
-72.00000000000001
  0
LINE
  5
1BB
330
13B
100
AcDbEntity
  8
PV-139
100
AcDbLine
 10
0.0
 20
-636.7319440807308
 30
-40.3
 11
0.0
 21
-638.1680559192687
 31
-40.3
  0
LINE
  5
1BC
330
13B
100
AcDbEntity
  8
PV-139
100
AcDbLine
 10
0.0
 20
-636.7319440807308
 30
-70.7
 11
0.0
 21
-638.1680559192687
 31
-70.7
  0
LINE
  5
1BD
330
13B
100
AcDbEntity
  8
PV-139
100
AcDbLine
 10
0.0
 20
-636.7319440807308
 30
-70.70000000000002
 11
0.0
 21
-636.3836101305706
 31
-71.99999999999999
  0
LINE
  5
1BE
330
13B
100
AcDbEntity
  8
PV-139
100
AcDbLine
 10
0.0
 20
-636.7319440807308
 30
-40.29999999999999
 11
0.0
 21
-635.9659258262889
 31
-37.44118095489748
  0
LINE
  5
1BF
330
13B
100
AcDbEntity
  8
PV-139
100
AcDbLine
 10
0.0
 20
-645.9826482362471
 30
-38.25
 11
0.0
 21
-652.5
 31
-38.25
  0
LINE
  5
1C0
330
13B
100
AcDbEntity
  8
PV-139
100
AcDbLine
 10
0.0
 20
-148.4999999999998
 30
-39.0
 11
0.0
 21
-148.4999999999998
 31
0.0
  0
LINE
  5
1C1
330
13B
100
AcDbEntity
  8
PV-139
100
AcDbLine
 10
0.0
 20
-181.4999999999998
 30
-39.0
 11
0.0
 21
-181.4999999999998
 31
0.0
  0
LINE
  5
1C2
330
13B
100
AcDbEntity
  8
PV-139
100
AcDbLine
 10
0.0
 20
-566.5
 30
-39.0
 11
0.0
 21
-566.5
 31
0.0
  0
LINE
  5
1C3
330
13B
100
AcDbEntity
  8
PV-139
100
AcDbLine
 10
0.0
 20
-599.5
 30
-39.0
 11
0.0
 21
-599.5
 31
0.0
  0
LINE
  5
1C4
330
13B
100
AcDbEntity
  8
PV-139
100
AcDbLine
 10
0.0
 20
-75.49999999999997
 30
33.0
 11
0.0
 21
-617.4999999999998
 31
33.0
  0
LINE
  5
1C5
330
13B
100
AcDbEntity
  8
PV-139
100
AcDbLine
 10
0.0
 20
-599.5
 30
0.0
 11
0.0
 21
-617.4999999999998
 31
0.0
  0
LINE
  5
1C6
330
13B
100
AcDbEntity
  8
PV-139
100
AcDbLine
 10
0.0
 20
-181.4999999999998
 30
0.0
 11
0.0
 21
-566.5
 31
0.0
  0
LINE
  5
1C7
330
13B
100
AcDbEntity
  8
PV-139
100
AcDbLine
 10
0.0
 20
-75.49999999999997
 30
0.0
 11
0.0
 21
-148.4999999999998
 31
0.0
  0
LINE
  5
1C8
330
13B
100
AcDbEntity
  8
PV-139
100
AcDbLine
 10
0.0
 20
-20.0
 30
-72.0
 11
0.0
 21
-16.5
 31
-72.0
  0
LINE
  5
1C9
330
13B
100
AcDbEntity
  8
PV-139
100
AcDbLine
 10
0.0
 20
-148.5
 30
-39.0
 11
0.0
 21
-80.0
 31
-39.0
  0
LINE
  5
1CA
330
13B
100
AcDbEntity
  8
PV-139
100
AcDbLine
 10
0.0
 20
-40.0
 30
-39.0
 11
0.0
 21
-16.5
 31
-39.0
  0
LINE
  5
1CB
330
13B
100
AcDbEntity
  8
PV-139
100
AcDbLine
 10
0.0
 20
-566.5
 30
-39.0
 11
0.0
 21
-560.0
 31
-39.0
  0
LINE
  5
1CC
330
13B
100
AcDbEntity
  8
PV-139
100
AcDbLine
 10
0.0
 20
-520.0
 30
-39.0
 11
0.0
 21
-400.0
 31
-39.0
  0
LINE
  5
1CD
330
13B
100
AcDbEntity
  8
PV-139
100
AcDbLine
 10
0.0
 20
-360.0
 30
-39.0
 11
0.0
 21
-240.0
 31
-39.0
  0
LINE
  5
1CE
330
13B
100
AcDbEntity
  8
PV-139
100
AcDbLine
 10
0.0
 20
-200.0
 30
-39.0
 11
0.0
 21
-181.4999999999998
 31
-39.0
  0
LINE
  5
1CF
330
13B
100
AcDbEntity
  8
PV-139
100
AcDbLine
 10
0.0
 20
-617.4999999999998
 30
-39.0
 11
0.0
 21
-599.5
 31
-39.0
  0
LINE
  5
1D0
330
13B
100
AcDbEntity
  8
PV-139
100
AcDbLine
 10
0.0
 20
-887.5
 30
-39.0
 11
0.0
 21
-880.0
 31
-39.0
  0
LINE
  5
1D1
330
13B
100
AcDbEntity
  8
PV-139
100
AcDbLine
 10
0.0
 20
-840.0
 30
-39.0
 11
0.0
 21
-720.0
 31
-39.0
  0
LINE
  5
1D2
330
13B
100
AcDbEntity
  8
PV-139
100
AcDbLine
 10
0.0
 20
-680.0
 30
-39.0
 11
0.0
 21
-652.5
 31
-39.0
  0
LINE
  5
1D3
330
13B
100
AcDbEntity
  8
PV-139
100
AcDbLine
 10
0.0
 20
-652.5
 30
33.0
 11
0.0
 21
-887.5
 31
33.0
  0
LINE
  5
1D4
330
13B
100
AcDbEntity
  8
PV-139
100
AcDbLine
 10
0.0
 20
-652.5
 30
0.0
 11
0.0
 21
-887.5
 31
0.0
  0
LINE
  5
1D5
330
13B
100
AcDbEntity
  8
PV-139
100
AcDbLine
 10
0.0
 20
-624.0173517637527
 30
33.75
 11
0.0
 21
-624.2340741737108
 31
34.55881904510254
  0
LINE
  5
1D6
330
13B
100
AcDbEntity
  8
PV-139
100
AcDbLine
 10
0.0
 20
-624.0173517637527
 30
-0.7500000000000116
 11
0.0
 21
-624.2340741737108
 31
-1.558819045102539
  0
LINE
  5
1D7
330
13B
100
AcDbEntity
  8
PV-139
100
AcDbLine
 10
0.0
 20
-626.931944080731
 30
1.299999999999985
 11
0.0
 21
-626.1659258262891
 31
-1.55881904510257
  0
LINE
  5
1D8
330
13B
100
AcDbEntity
  8
PV-139
100
AcDbLine
 10
0.0
 20
-626.931944080731
 30
31.70000000000001
 11
0.0
 21
-626.1659258262891
 31
34.55881904510256
  0
LINE
  5
1D9
330
13B
100
AcDbEntity
  8
PV-139
100
AcDbLine
 10
0.0
 20
-626.931944080731
 30
31.69999999999999
 11
0.0
 21
-628.3680559192688
 31
31.69999999999999
  0
LINE
  5
1DA
330
13B
100
AcDbEntity
  8
PV-139
100
AcDbLine
 10
0.0
 20
-626.931944080731
 30
1.299999999999995
 11
0.0
 21
-628.3680559192688
 31
1.299999999999995
  0
LINE
  5
1DB
330
13B
100
AcDbEntity
  8
PV-139
100
AcDbLine
 10
0.0
 20
-628.3680559192688
 30
31.69999999999998
 11
0.0
 21
-629.1340741737108
 31
34.55881904510251
  0
LINE
  5
1DC
330
13B
100
AcDbEntity
  8
PV-139
100
AcDbLine
 10
0.0
 20
-628.3680559192688
 30
1.300000000000018
 11
0.0
 21
-629.1340741737108
 31
-1.558819045102516
  0
LINE
  5
1DD
330
13B
100
AcDbEntity
  8
PV-139
100
AcDbLine
 10
0.0
 20
-631.8319440807307
 30
1.299999999999985
 11
0.0
 21
-631.0659258262891
 31
-1.558819045102542
  0
LINE
  5
1DE
330
13B
100
AcDbEntity
  8
PV-139
100
AcDbLine
 10
0.0
 20
-631.8319440807307
 30
31.70000000000001
 11
0.0
 21
-631.0659258262891
 31
34.55881904510254
  0
LINE
  5
1DF
330
13B
100
AcDbEntity
  8
PV-139
100
AcDbLine
 10
0.0
 20
-631.8319440807311
 30
31.69999999999999
 11
0.0
 21
-633.268055919269
 31
31.69999999999999
  0
LINE
  5
1E0
330
13B
100
AcDbEntity
  8
PV-139
100
AcDbLine
 10
0.0
 20
-631.8319440807311
 30
1.299999999999995
 11
0.0
 21
-633.268055919269
 31
1.299999999999995
  0
LINE
  5
1E1
330
13B
100
AcDbEntity
  8
PV-139
100
AcDbLine
 10
0.0
 20
-633.268055919269
 30
31.70000000000001
 11
0.0
 21
-634.0340741737109
 31
34.55881904510251
  0
LINE
  5
1E2
330
13B
100
AcDbEntity
  8
PV-139
100
AcDbLine
 10
0.0
 20
-633.268055919269
 30
1.299999999999988
 11
0.0
 21
-634.0340741737109
 31
-1.558819045102515
  0
LINE
  5
1E3
330
13B
100
AcDbEntity
  8
PV-139
100
AcDbLine
 10
0.0
 20
-617.4999999999998
 30
33.75
 11
0.0
 21
-624.0173517637529
 31
33.75
  0
LINE
  5
1E4
330
13B
100
AcDbEntity
  8
PV-139
100
AcDbLine
 10
0.0
 20
-617.4999999999998
 30
-0.75
 11
0.0
 21
-624.0173517637529
 31
-0.75
  0
LINE
  5
1E5
330
13B
100
AcDbEntity
  8
PV-139
100
AcDbLine
 10
0.0
 20
-645.9826482362472
 30
-0.7500000000000116
 11
0.0
 21
-645.7659258262889
 31
-1.558819045102539
  0
LINE
  5
1E6
330
13B
100
AcDbEntity
  8
PV-139
100
AcDbLine
 10
0.0
 20
-645.9826482362472
 30
33.75
 11
0.0
 21
-645.7659258262889
 31
34.55881904510254
  0
LINE
  5
1E7
330
13B
100
AcDbEntity
  8
PV-139
100
AcDbLine
 10
0.0
 20
-643.068055919269
 30
31.70000000000001
 11
0.0
 21
-643.8340741737107
 31
34.55881904510256
  0
LINE
  5
1E8
330
13B
100
AcDbEntity
  8
PV-139
100
AcDbLine
 10
0.0
 20
-643.068055919269
 30
1.299999999999985
 11
0.0
 21
-643.8340741737107
 31
-1.55881904510257
  0
LINE
  5
1E9
330
13B
100
AcDbEntity
  8
PV-139
100
AcDbLine
 10
0.0
 20
-641.6319440807309
 30
31.69999999999999
 11
0.0
 21
-643.068055919269
 31
31.69999999999999
  0
LINE
  5
1EA
330
13B
100
AcDbEntity
  8
PV-139
100
AcDbLine
 10
0.0
 20
-641.6319440807309
 30
1.299999999999995
 11
0.0
 21
-643.068055919269
 31
1.299999999999995
  0
LINE
  5
1EB
330
13B
100
AcDbEntity
  8
PV-139
100
AcDbLine
 10
0.0
 20
-641.6319440807309
 30
1.300000000000018
 11
0.0
 21
-640.8659258262892
 31
-1.558819045102516
  0
LINE
  5
1EC
330
13B
100
AcDbEntity
  8
PV-139
100
AcDbLine
 10
0.0
 20
-641.6319440807309
 30
31.69999999999998
 11
0.0
 21
-640.8659258262892
 31
34.55881904510251
  0
LINE
  5
1ED
330
13B
100
AcDbEntity
  8
PV-139
100
AcDbLine
 10
0.0
 20
-638.168055919269
 30
31.70000000000001
 11
0.0
 21
-638.9340741737107
 31
34.55881904510254
  0
LINE
  5
1EE
330
13B
100
AcDbEntity
  8
PV-139
100
AcDbLine
 10
0.0
 20
-638.168055919269
 30
1.299999999999985
 11
0.0
 21
-638.9340741737107
 31
-1.558819045102542
  0
LINE
  5
1EF
330
13B
100
AcDbEntity
  8
PV-139
100
AcDbLine
 10
0.0
 20
-636.7319440807308
 30
31.69999999999999
 11
0.0
 21
-638.1680559192687
 31
31.69999999999999
  0
LINE
  5
1F0
330
13B
100
AcDbEntity
  8
PV-139
100
AcDbLine
 10
0.0
 20
-636.7319440807308
 30
1.299999999999995
 11
0.0
 21
-638.1680559192687
 31
1.299999999999995
  0
LINE
  5
1F1
330
13B
100
AcDbEntity
  8
PV-139
100
AcDbLine
 10
0.0
 20
-636.7319440807308
 30
1.299999999999988
 11
0.0
 21
-635.9659258262889
 31
-1.558819045102515
  0
LINE
  5
1F2
330
13B
100
AcDbEntity
  8
PV-139
100
AcDbLine
 10
0.0
 20
-636.7319440807308
 30
31.70000000000001
 11
0.0
 21
-635.9659258262889
 31
34.55881904510251
  0
LINE
  5
1F3
330
13B
100
AcDbEntity
  8
PV-139
100
AcDbLine
 10
0.0
 20
-645.9826482362471
 30
33.75
 11
0.0
 21
-652.5
 31
33.75
  0
LINE
  5
1F4
330
13B
100
AcDbEntity
  8
PV-139
100
AcDbLine
 10
0.0
 20
-645.9826482362471
 30
-0.75
 11
0.0
 21
-652.5
 31
-0.75
  0
ARC
  5
1F5
330
13B
100
AcDbEntity
  8
PV-139
100
AcDbCircle
 10
-625.2
 20
-37.69999999999999
 30
0.0
 40
0.9999999999999992
210
1.0
220
0.0
230
0.0
100
AcDbArc
 50
14.99999999999873
 51
165.0000000000011
  0
ARC
  5
1F6
330
13B
100
AcDbEntity
  8
PV-139
100
AcDbCircle
 10
-630.1
 20
-37.69999999999999
 30
0.0
 40
1.0
210
1.0
220
0.0
230
0.0
100
AcDbArc
 50
14.99999999999873
 51
164.9999999999996
  0
ARC
  5
1F7
330
13B
100
AcDbEntity
  8
PV-139
100
AcDbCircle
 10
-617.4999999999998
 20
-40.75
 30
0.0
 40
2.5
210
1.0
220
0.0
230
0.0
100
AcDbArc
 50
44.42700400080538
 51
89.99999999999982
  0
ARC
  5
1F8
330
13B
100
AcDbEntity
  8
PV-139
100
AcDbCircle
 10
-644.7999999999998
 20
-37.69999999999999
 30
0.0
 40
0.9999999999999992
210
1.0
220
0.0
230
0.0
100
AcDbArc
 50
14.99999999999876
 51
165.0000000000011
  0
ARC
  5
1F9
330
13B
100
AcDbEntity
  8
PV-139
100
AcDbCircle
 10
-639.9
 20
-37.69999999999999
 30
0.0
 40
1.0
210
1.0
220
0.0
230
0.0
100
AcDbArc
 50
15.00000000000033
 51
165.0000000000011
  0
ARC
  5
1FA
330
13B
100
AcDbEntity
  8
PV-139
100
AcDbCircle
 10
-635.0
 20
-37.69999999999999
 30
0.0
 40
1.0
210
1.0
220
0.0
230
0.0
100
AcDbArc
 50
14.99999999999876
 51
165.0000000000011
  0
ARC
  5
1FB
330
13B
100
AcDbEntity
  8
PV-139
100
AcDbCircle
 10
-652.5
 20
-40.75
 30
0.0
 40
2.5
210
1.0
220
0.0
230
0.0
100
AcDbArc
 50
90.00000000000019
 51
135.5729959991945
  0
ARC
  5
1FC
330
13B
100
AcDbEntity
  8
PV-139
100
AcDbCircle
 10
-887.5
 20
-19.5
 30
0.0
 40
19.5
210
1.0
220
0.0
230
0.0
100
AcDbArc
 50
90.0
 51
270.0000000000009
  0
ARC
  5
1FD
330
13B
100
AcDbEntity
  8
PV-139
100
AcDbCircle
 10
-887.5
 20
-19.5
 30
0.0
 40
52.5
210
1.0
220
0.0
230
0.0
100
AcDbArc
 50
90.0
 51
270.0000000000009
  0
ARC
  5
1FE
330
13B
100
AcDbEntity
  8
PV-139
100
AcDbCircle
 10
-625.2
 20
-1.300000000000004
 30
0.0
 40
0.9999999999999992
210
1.0
220
0.0
230
0.0
100
AcDbArc
 50
194.9999999999988
 51
345.0000000000012
  0
ARC
  5
1FF
330
13B
100
AcDbEntity
  8
PV-139
100
AcDbCircle
 10
-625.2
 20
34.29999999999999
 30
0.0
 40
0.9999999999999992
210
1.0
220
0.0
230
0.0
100
AcDbArc
 50
14.99999999999873
 51
165.0000000000011
  0
ARC
  5
200
330
13B
100
AcDbEntity
  8
PV-139
100
AcDbCircle
 10
-630.1
 20
-1.300000000000004
 30
0.0
 40
1.0
210
1.0
220
0.0
230
0.0
100
AcDbArc
 50
195.0000000000003
 51
345.000000000001
  0
ARC
  5
201
330
13B
100
AcDbEntity
  8
PV-139
100
AcDbCircle
 10
-630.1
 20
34.29999999999999
 30
0.0
 40
1.0
210
1.0
220
0.0
230
0.0
100
AcDbArc
 50
14.99999999999873
 51
164.9999999999996
  0
ARC
  5
202
330
13B
100
AcDbEntity
  8
PV-139
100
AcDbCircle
 10
-617.4999999999998
 20
1.75
 30
0.0
 40
2.5
210
1.0
220
0.0
230
0.0
100
AcDbArc
 50
270.0000000000002
 51
315.5729959991945
  0
ARC
  5
203
330
13B
100
AcDbEntity
  8
PV-139
100
AcDbCircle
 10
-617.4999999999998
 20
31.25
 30
0.0
 40
2.5
210
1.0
220
0.0
230
0.0
100
AcDbArc
 50
44.42700400080538
 51
89.99999999999982
  0
ARC
  5
204
330
13B
100
AcDbEntity
  8
PV-139
100
AcDbCircle
 10
-644.7999999999998
 20
34.29999999999999
 30
0.0
 40
0.9999999999999992
210
1.0
220
0.0
230
0.0
100
AcDbArc
 50
14.99999999999876
 51
165.0000000000011
  0
ARC
  5
205
330
13B
100
AcDbEntity
  8
PV-139
100
AcDbCircle
 10
-644.7999999999998
 20
-1.300000000000004
 30
0.0
 40
0.9999999999999992
210
1.0
220
0.0
230
0.0
100
AcDbArc
 50
194.9999999999988
 51
345.000000000001
  0
ARC
  5
206
330
13B
100
AcDbEntity
  8
PV-139
100
AcDbCircle
 10
-639.9
 20
34.29999999999999
 30
0.0
 40
1.0
210
1.0
220
0.0
230
0.0
100
AcDbArc
 50
15.00000000000033
 51
165.0000000000011
  0
ARC
  5
207
330
13B
100
AcDbEntity
  8
PV-139
100
AcDbCircle
 10
-639.9
 20
-1.300000000000004
 30
0.0
 40
1.0
210
1.0
220
0.0
230
0.0
100
AcDbArc
 50
194.9999999999988
 51
344.9999999999996
  0
ARC
  5
208
330
13B
100
AcDbEntity
  8
PV-139
100
AcDbCircle
 10
-635.0
 20
34.29999999999999
 30
0.0
 40
1.0
210
1.0
220
0.0
230
0.0
100
AcDbArc
 50
14.99999999999876
 51
165.0000000000011
  0
ARC
  5
209
330
13B
100
AcDbEntity
  8
PV-139
100
AcDbCircle
 10
-635.0
 20
-1.300000000000004
 30
0.0
 40
1.0
210
1.0
220
0.0
230
0.0
100
AcDbArc
 50
194.9999999999988
 51
345.000000000001
  0
ARC
  5
20A
330
13B
100
AcDbEntity
  8
PV-139
100
AcDbCircle
 10
-652.5
 20
31.25
 30
0.0
 40
2.5
210
1.0
220
0.0
230
0.0
100
AcDbArc
 50
90.00000000000019
 51
135.5729959991945
  0
ARC
  5
20B
330
13B
100
AcDbEntity
  8
PV-139
100
AcDbCircle
 10
-652.5
 20
1.75
 30
0.0
 40
2.5
210
1.0
220
0.0
230
0.0
100
AcDbArc
 50
224.4270040008053
 51
269.9999999999997
  0
ENDBLK
  5
20D
330
13B
100
AcDbEntity
  8
0
100
AcDbBlockEnd
  0
BLOCK
  5
210
330
20E
100
AcDbEntity
  8
0
100
AcDbBlockBegin
  2
RIGHT
 70
     0
 10
0.0
 20
0.0
 30
0.0
  3
RIGHT
  1

  0
INSERT
  5
20F
330
20E
100
AcDbEntity
  8
PV-139
100
AcDbBlockReference
  2
*U4
 10
0.0
 20
0.0
 30
0.0
 50
90.0
210
0.0
220
1.0
230
0.0
  0
ENDBLK
  5
211
330
20E
100
AcDbEntity
  8
0
100
AcDbBlockEnd
  0
BLOCK
  5
293
330
213
100
AcDbEntity
  8
0
100
AcDbBlockBegin
  2
*U6
 70
     1
 10
0.0
 20
0.0
 30
0.0
  3
*U6
  1
*ANON
  0
LINE
  5
214
330
213
100
AcDbEntity
  8
PV-139
100
AcDbLine
 10
15.2
 20
-636.7319440807308
 30
0.0
 11
-15.2
 21
-636.7319440807308
 31
0.0
  0
LINE
  5
215
330
213
100
AcDbEntity
  8
PV-139
100
AcDbLine
 10
15.2
 20
-638.168055919269
 30
0.0
 11
-15.2
 21
-638.168055919269
 31
0.0
  0
LINE
  5
216
330
213
100
AcDbEntity
  8
PV-139
100
AcDbLine
 10
15.2
 20
-641.6319440807309
 30
0.0
 11
-15.2
 21
-641.6319440807309
 31
0.0
  0
LINE
  5
217
330
213
100
AcDbEntity
  8
PV-139
100
AcDbLine
 10
15.2
 20
-643.068055919269
 30
0.0
 11
-15.2
 21
-643.068055919269
 31
0.0
  0
LINE
  5
218
330
213
100
AcDbEntity
  8
PV-139
100
AcDbLine
 10
17.25
 20
-645.9826482362472
 30
0.0
 11
-17.25
 21
-645.9826482362472
 31
0.0
  0
LINE
  5
219
330
213
100
AcDbEntity
  8
PV-139
100
AcDbLine
 10
15.2
 20
-633.268055919269
 30
0.0
 11
-15.2
 21
-633.268055919269
 31
0.0
  0
LINE
  5
21A
330
213
100
AcDbEntity
  8
PV-139
100
AcDbLine
 10
15.2
 20
-631.8319440807307
 30
0.0
 11
-15.2
 21
-631.8319440807307
 31
0.0
  0
LINE
  5
21B
330
213
100
AcDbEntity
  8
PV-139
100
AcDbLine
 10
15.2
 20
-628.3680559192688
 30
0.0
 11
-15.2
 21
-628.3680559192688
 31
0.0
  0
LINE
  5
21C
330
213
100
AcDbEntity
  8
PV-139
100
AcDbLine
 10
15.2
 20
-626.931944080731
 30
0.0
 11
-15.2
 21
-626.931944080731
 31
0.0
  0
LINE
  5
21D
330
213
100
AcDbEntity
  8
PV-139
100
AcDbLine
 10
17.25
 20
-624.0173517637527
 30
0.0
 11
-17.25
 21
-624.0173517637527
 31
0.0
  0
LINE
  5
21E
330
213
100
AcDbEntity
  8
PV-139
100
AcDbLine
 10
16.49999999999997
 20
-75.49999999999997
 30
0.0
 11
-16.50000000000003
 21
-75.49999999999997
 31
0.0
  0
ARC
  5
21F
330
213
100
AcDbEntity
  8
PV-139
100
AcDbCircle
 10
-37.5
 20
-15.0
 30
0.0
 40
1.5
100
AcDbArc
 50
180.0
 51
270.0
  0
LINE
  5
220
330
213
100
AcDbEntity
  8
PV-139
100
AcDbLine
 10
-39.0
 20
-4.999999999999999
 30
0.0
 11
-39.0
 21
-15.0
 31
0.0
  0
LINE
  5
221
330
213
100
AcDbEntity
  8
PV-139
100
AcDbLine
 10
-37.5
 20
0.0
 30
0.0
 11
-39.0
 21
0.0
 31
0.0
  0
LINE
  5
222
330
213
100
AcDbEntity
  8
PV-139
100
AcDbLine
 10
-39.0
 20
0.0
 30
0.0
 11
-39.0
 21
-4.999999999999999
 31
0.0
  0
LINE
  5
223
330
213
100
AcDbEntity
  8
PV-139
100
AcDbLine
 10
37.5
 20
0.0
 30
0.0
 11
-37.5
 21
0.0
 31
0.0
  0
LINE
  5
224
330
213
100
AcDbEntity
  8
PV-139
100
AcDbLine
 10
37.5
 20
-16.5
 30
0.0
 11
-37.5
 21
-16.5
 31
0.0
  0
LINE
  5
225
330
213
100
AcDbEntity
  8
PV-139
100
AcDbLine
 10
39.0
 20
-15.0
 30
0.0
 11
39.0
 21
-4.999999999999999
 31
0.0
  0
ARC
  5
226
330
213
100
AcDbEntity
  8
PV-139
100
AcDbCircle
 10
37.5
 20
-15.0
 30
0.0
 40
1.5
100
AcDbArc
 50
270.0
 51
0.0
  0
LINE
  5
227
330
213
100
AcDbEntity
  8
PV-139
100
AcDbLine
 10
39.0
 20
0.0
 30
0.0
 11
37.5
 21
0.0
 31
0.0
  0
LINE
  5
228
330
213
100
AcDbEntity
  8
PV-139
100
AcDbLine
 10
39.0
 20
-4.999999999999999
 30
0.0
 11
39.0
 21
0.0
 31
0.0
  0
LINE
  5
229
330
213
100
AcDbEntity
  8
PV-139
100
AcDbLine
 10
37.0
 20
-41.0
 30
0.0
 11
37.0
 21
-16.5
 31
0.0
  0
LINE
  5
22A
330
213
100
AcDbEntity
  8
PV-139
100
AcDbLine
 10
20.5
 20
-16.5
 30
0.0
 11
20.5
 21
-41.0
 31
0.0
  0
LINE
  5
22B
330
213
100
AcDbEntity
  8
PV-139
100
AcDbLine
 10
37.0
 20
-63.75
 30
0.0
 11
37.0
 21
-40.99999999999992
 31
0.0
  0
LINE
  5
22C
330
213
100
AcDbEntity
  8
PV-139
100
AcDbLine
 10
20.5
 20
-40.99999999999992
 30
0.0
 11
20.5
 21
-63.75
 31
0.0
  0
LINE
  5
22D
330
213
100
AcDbEntity
  8
PV-139
100
AcDbLine
 10
-20.5
 20
-41.0
 30
0.0
 11
-20.5
 21
-16.5
 31
0.0
  0
LINE
  5
22E
330
213
100
AcDbEntity
  8
PV-139
100
AcDbLine
 10
-37.0
 20
-16.5
 30
0.0
 11
-37.0
 21
-41.0
 31
0.0
  0
LINE
  5
22F
330
213
100
AcDbEntity
  8
PV-139
100
AcDbLine
 10
-20.5
 20
-63.75
 30
0.0
 11
-20.5
 21
-40.99999999999992
 31
0.0
  0
LINE
  5
230
330
213
100
AcDbEntity
  8
PV-139
100
AcDbLine
 10
-37.0
 20
-40.99999999999992
 30
0.0
 11
-37.0
 21
-63.75
 31
0.0
  0
LINE
  5
231
330
213
100
AcDbEntity
  8
PV-139
100
AcDbLine
 10
16.5
 20
-75.5
 30
0.0
 11
-16.5
 21
-75.5
 31
0.0
  0
SPLINE
  5
232
330
213
100
AcDbEntity
  8
PV-139
100
AcDbSpline
210
0.0
220
0.0
230
1.0
 70
     8
 71
     3
 72
    42
 73
    38
 74
     0
 42
0.0000000001
 43
0.0000000001
 40
26.21588118668894
 40
26.21588118668894
 40
26.21588118668894
 40
26.21588118668894
 40
29.46229922291184
 40
29.46229922291184
 40
32.70871725913472
 40
32.70871725913472
 40
35.95513529535762
 40
35.95513529535762
 40
39.20155333158049
 40
39.20155333158049
 40
42.50910559202984
 40
42.50910559202984
 40
45.8166578524792
 40
45.8166578524792
 40
49.12421011292853
 40
49.12421011292853
 40
50.77798624315322
 40
50.77798624315322
 40
52.43176237337789
 40
52.43176237337789
 40
54.08553850360258
 40
54.08553850360258
 40
55.73931463382725
 40
55.73931463382725
 40
59.04686689427662
 40
59.04686689427662
 40
62.35441915472598
 40
62.35441915472598
 40
65.66197141517534
 40
65.66197141517534
 40
68.90838945139825
 40
68.90838945139825
 40
72.15480748762115
 40
72.15480748762115
 40
75.40122552384406
 40
75.40122552384406
 40
78.64764356006697
 40
78.64764356006697
 40
78.64764356006697
 40
78.64764356006697
 10
16.5
 20
-63.5
 30
0.0
 10
16.5
 20
-63.5
 30
0.0
 10
16.39183527914408
 20
-63.42029034359335
 30
0.0
 10
15.95193928845766
 20
-63.10071316351375
 30
0.0
 10
15.62039769506283
 20
-62.86102169759992
 30
0.0
 10
14.7628814189079
 20
-62.25676639174245
 30
0.0
 10
14.23618779883281
 20
-61.89185854326735
 30
0.0
 10
13.0400312747397
 20
-61.09584847907679
 30
0.0
 10
12.37051620840881
 20
-60.66512132976864
 30
0.0
 10
10.95076438803451
 20
-59.8041133621031
 30
0.0
 10
10.14474583632959
 20
-59.33988781777181
 30
0.0
 10
8.388063587989906
 20
-58.42972254015836
 30
0.0
 10
7.437461759841365
 20
-57.98418486500753
 30
0.0
 10
5.433214894535278
 20
-57.20699344403482
 30
0.0
 10
4.377535134614306
 20
-56.87585702770672
 30
0.0
 10
2.753692762094609
 20
-56.53392514340414
 30
0.0
 10
2.205670966067851
 20
-56.4455600109062
 30
0.0
 10
1.104456686280179
 20
-56.32710553946233
 30
0.0
 10
0.5512587100748903
 20
-56.29705854077835
 30
0.0
 10
-0.5512587100748948
 20
-56.29705854077835
 30
0.0
 10
-1.104456686280187
 20
-56.32710553946233
 30
0.0
 10
-2.205670966067863
 20
-56.4455600109062
 30
0.0
 10
-2.753692762094622
 20
-56.53392514340414
 30
0.0
 10
-4.377535134614321
 20
-56.87585702770672
 30
0.0
 10
-5.433214894535298
 20
-57.20699344403482
 30
0.0
 10
-7.437461759841396
 20
-57.98418486500754
 30
0.0
 10
-8.388063587989936
 20
-58.42972254015837
 30
0.0
 10
-10.14474583632962
 20
-59.33988781777182
 30
0.0
 10
-10.95076438803456
 20
-59.80411336210313
 30
0.0
 10
-12.37051620840885
 20
-60.66512132976868
 30
0.0
 10
-13.04003127473974
 20
-61.09584847907682
 30
0.0
 10
-14.23618779883285
 20
-61.8918585432674
 30
0.0
 10
-14.76288141890794
 20
-62.25676639174249
 30
0.0
 10
-15.62039769506287
 20
-62.86102169759995
 30
0.0
 10
-15.95193928845769
 20
-63.10071316351375
 30
0.0
 10
-16.3918352791441
 20
-63.42029034359335
 30
0.0
 10
-16.5
 20
-63.50000000000001
 30
0.0
 10
-16.5
 20
-63.5
 30
0.0
  0
LINE
  5
233
330
213
100
AcDbEntity
  8
PV-139
100
AcDbLine
 10
17.5
 20
-80.0
 30
0.0
 11
16.49999999999997
 21
-80.0
 31
0.0
  0
LINE
  5
234
330
213
100
AcDbEntity
  8
PV-139
100
AcDbLine
 10
-16.50000000000002
 20
-80.0
 30
0.0
 11
-17.5
 21
-80.0
 31
0.0
  0
LINE
  5
235
330
213
100
AcDbEntity
  8
PV-139
100
AcDbLine
 10
-17.5
 20
-200.0
 30
0.0
 11
-16.49999999999994
 21
-200.0
 31
0.0
  0
LINE
  5
236
330
213
100
AcDbEntity
  8
PV-139
100
AcDbLine
 10
16.50000000000005
 20
-200.0
 30
0.0
 11
17.5
 21
-200.0
 31
0.0
  0
LINE
  5
237
330
213
100
AcDbEntity
  8
PV-139
100
AcDbLine
 10
17.5
 20
-240.0
 30
0.0
 11
16.49999999999997
 21
-240.0
 31
0.0
  0
LINE
  5
238
330
213
100
AcDbEntity
  8
PV-139
100
AcDbLine
 10
-16.50000000000002
 20
-240.0
 30
0.0
 11
-17.5
 21
-240.0
 31
0.0
  0
LINE
  5
239
330
213
100
AcDbEntity
  8
PV-139
100
AcDbLine
 10
17.5
 20
-400.0
 30
0.0
 11
16.49999999999997
 21
-400.0
 31
0.0
  0
LINE
  5
23A
330
213
100
AcDbEntity
  8
PV-139
100
AcDbLine
 10
-16.50000000000002
 20
-400.0
 30
0.0
 11
-17.5
 21
-400.0
 31
0.0
  0
LINE
  5
23B
330
213
100
AcDbEntity
  8
PV-139
100
AcDbLine
 10
-17.5
 20
-360.0
 30
0.0
 11
-16.49999999999994
 21
-360.0
 31
0.0
  0
LINE
  5
23C
330
213
100
AcDbEntity
  8
PV-139
100
AcDbLine
 10
16.50000000000005
 20
-360.0
 30
0.0
 11
17.5
 21
-360.0
 31
0.0
  0
LINE
  5
23D
330
213
100
AcDbEntity
  8
PV-139
100
AcDbLine
 10
17.5
 20
-560.0
 30
0.0
 11
16.49999999999997
 21
-560.0
 31
0.0
  0
LINE
  5
23E
330
213
100
AcDbEntity
  8
PV-139
100
AcDbLine
 10
-16.50000000000002
 20
-560.0
 30
0.0
 11
-17.5
 21
-560.0
 31
0.0
  0
LINE
  5
23F
330
213
100
AcDbEntity
  8
PV-139
100
AcDbLine
 10
-17.5
 20
-520.0
 30
0.0
 11
-16.49999999999994
 21
-520.0
 31
0.0
  0
LINE
  5
240
330
213
100
AcDbEntity
  8
PV-139
100
AcDbLine
 10
16.50000000000005
 20
-520.0
 30
0.0
 11
17.5
 21
-520.0
 31
0.0
  0
LINE
  5
241
330
213
100
AcDbEntity
  8
PV-139
100
AcDbLine
 10
17.5
 20
-720.0
 30
0.0
 11
16.49999999999997
 21
-720.0
 31
0.0
  0
LINE
  5
242
330
213
100
AcDbEntity
  8
PV-139
100
AcDbLine
 10
-16.50000000000002
 20
-720.0
 30
0.0
 11
-17.5
 21
-720.0
 31
0.0
  0
LINE
  5
243
330
213
100
AcDbEntity
  8
PV-139
100
AcDbLine
 10
-17.5
 20
-680.0
 30
0.0
 11
-16.49999999999994
 21
-680.0
 31
0.0
  0
LINE
  5
244
330
213
100
AcDbEntity
  8
PV-139
100
AcDbLine
 10
16.50000000000005
 20
-680.0
 30
0.0
 11
17.5
 21
-680.0
 31
0.0
  0
LINE
  5
245
330
213
100
AcDbEntity
  8
PV-139
100
AcDbLine
 10
17.5
 20
-880.0
 30
0.0
 11
16.49999999999997
 21
-880.0
 31
0.0
  0
LINE
  5
246
330
213
100
AcDbEntity
  8
PV-139
100
AcDbLine
 10
-16.50000000000002
 20
-880.0
 30
0.0
 11
-17.5
 21
-880.0
 31
0.0
  0
LINE
  5
247
330
213
100
AcDbEntity
  8
PV-139
100
AcDbLine
 10
-17.5
 20
-840.0
 30
0.0
 11
-16.49999999999994
 21
-840.0
 31
0.0
  0
LINE
  5
248
330
213
100
AcDbEntity
  8
PV-139
100
AcDbLine
 10
16.50000000000005
 20
-840.0
 30
0.0
 11
17.5
 21
-840.0
 31
0.0
  0
LINE
  5
249
330
213
100
AcDbEntity
  8
PV-139
100
AcDbLine
 10
-17.5
 20
-840.0
 30
0.0
 11
-17.5
 21
-880.0
 31
0.0
  0
LINE
  5
24A
330
213
100
AcDbEntity
  8
PV-139
100
AcDbLine
 10
17.5
 20
-840.0
 30
0.0
 11
17.5
 21
-880.0
 31
0.0
  0
LINE
  5
24B
330
213
100
AcDbEntity
  8
PV-139
100
AcDbLine
 10
-17.5
 20
-680.0
 30
0.0
 11
-17.5
 21
-720.0
 31
0.0
  0
LINE
  5
24C
330
213
100
AcDbEntity
  8
PV-139
100
AcDbLine
 10
17.5
 20
-680.0
 30
0.0
 11
17.5
 21
-720.0
 31
0.0
  0
LINE
  5
24D
330
213
100
AcDbEntity
  8
PV-139
100
AcDbLine
 10
-17.5
 20
-520.0
 30
0.0
 11
-17.5
 21
-560.0
 31
0.0
  0
LINE
  5
24E
330
213
100
AcDbEntity
  8
PV-139
100
AcDbLine
 10
17.5
 20
-520.0
 30
0.0
 11
17.5
 21
-560.0
 31
0.0
  0
LINE
  5
24F
330
213
100
AcDbEntity
  8
PV-139
100
AcDbLine
 10
-17.5
 20
-360.0
 30
0.0
 11
-17.5
 21
-400.0
 31
0.0
  0
LINE
  5
250
330
213
100
AcDbEntity
  8
PV-139
100
AcDbLine
 10
17.5
 20
-360.0
 30
0.0
 11
17.5
 21
-400.0
 31
0.0
  0
LINE
  5
251
330
213
100
AcDbEntity
  8
PV-139
100
AcDbLine
 10
-17.5
 20
-200.0
 30
0.0
 11
-17.5
 21
-240.0
 31
0.0
  0
LINE
  5
252
330
213
100
AcDbEntity
  8
PV-139
100
AcDbLine
 10
17.5
 20
-200.0
 30
0.0
 11
17.5
 21
-240.0
 31
0.0
  0
LINE
  5
253
330
213
100
AcDbEntity
  8
PV-139
100
AcDbLine
 10
-17.5
 20
-63.5
 30
0.0
 11
-17.5
 21
-80.0
 31
0.0
  0
LINE
  5
254
330
213
100
AcDbEntity
  8
PV-139
100
AcDbLine
 10
17.5
 20
-63.5
 30
0.0
 11
17.5
 21
-80.0
 31
0.0
  0
LINE
  5
255
330
213
100
AcDbEntity
  8
PV-139
100
AcDbLine
 10
16.5
 20
-63.5
 30
0.0
 11
20.5
 21
-63.5
 31
0.0
  0
LINE
  5
256
330
213
100
AcDbEntity
  8
PV-139
100
AcDbLine
 10
-20.5
 20
-63.5
 30
0.0
 11
-16.5
 21
-63.5
 31
0.0
  0
LINE
  5
257
330
213
100
AcDbEntity
  8
PV-139
100
AcDbLine
 10
-20.5
 20
-18.5
 30
0.0
 11
20.5
 21
-18.5
 31
0.0
  0
LINE
  5
258
330
213
100
AcDbEntity
  8
PV-139
100
AcDbLine
 10
-16.5
 20
-63.5
 30
0.0
 11
-16.5
 21
-75.5
 31
0.0
  0
LINE
  5
259
330
213
100
AcDbEntity
  8
PV-139
100
AcDbLine
 10
16.5
 20
-63.5
 30
0.0
 11
16.5
 21
-75.5
 31
0.0
  0
LINE
  5
25A
330
213
100
AcDbEntity
  8
PV-139
100
AcDbLine
 10
-20.5
 20
-63.75
 30
0.0
 11
-37.0
 21
-63.75
 31
0.0
  0
LINE
  5
25B
330
213
100
AcDbEntity
  8
PV-139
100
AcDbLine
 10
37.0
 20
-63.75
 30
0.0
 11
20.5
 21
-63.75
 31
0.0
  0
LINE
  5
25C
330
213
100
AcDbEntity
  8
PV-139
100
AcDbLine
 10
-16.50000000000003
 20
-75.49999999999997
 30
0.0
 11
-16.50000000000003
 21
-617.4999999999998
 31
0.0
  0
LINE
  5
25D
330
213
100
AcDbEntity
  8
PV-139
100
AcDbLine
 10
16.49999999999997
 20
-75.49999999999997
 30
0.0
 11
16.49999999999997
 21
-617.4999999999998
 31
0.0
  0
LINE
  5
25E
330
213
100
AcDbEntity
  8
PV-139
100
AcDbLine
 10
16.49999999999997
 20
-18.5
 30
0.0
 11
16.49999999999997
 21
-16.5
 31
0.0
  0
LINE
  5
25F
330
213
100
AcDbEntity
  8
PV-139
100
AcDbLine
 10
-16.50000000000003
 20
-18.5
 30
0.0
 11
-16.50000000000003
 21
-16.5
 31
0.0
  0
LINE
  5
260
330
213
100
AcDbEntity
  8
PV-139
100
AcDbLine
 10
-16.50000000000003
 20
-652.5
 30
0.0
 11
-16.50000000000003
 21
-887.5
 31
0.0
  0
LINE
  5
261
330
213
100
AcDbEntity
  8
PV-139
100
AcDbLine
 10
16.49999999999997
 20
-652.5
 30
0.0
 11
16.49999999999997
 21
-887.5
 31
0.0
  0
LINE
  5
262
330
213
100
AcDbEntity
  8
PV-139
100
AcDbLine
 10
-17.25000000000001
 20
-624.0173517637527
 30
0.0
 11
-18.05881904510253
 21
-624.2340741737108
 31
0.0
  0
LINE
  5
263
330
213
100
AcDbEntity
  8
PV-139
100
AcDbLine
 10
17.25000000000001
 20
-624.0173517637527
 30
0.0
 11
18.05881904510253
 21
-624.2340741737108
 31
0.0
  0
LINE
  5
264
330
213
100
AcDbEntity
  8
PV-139
100
AcDbLine
 10
15.20000000000001
 20
-626.931944080731
 30
0.0
 11
18.05881904510257
 21
-626.1659258262891
 31
0.0
  0
LINE
  5
265
330
213
100
AcDbEntity
  8
PV-139
100
AcDbLine
 10
-15.20000000000001
 20
-626.931944080731
 30
0.0
 11
-18.05881904510257
 21
-626.1659258262891
 31
0.0
  0
LINE
  5
266
330
213
100
AcDbEntity
  8
PV-139
100
AcDbLine
 10
-15.2
 20
-626.931944080731
 30
0.0
 11
-15.2
 21
-628.3680559192688
 31
0.0
  0
LINE
  5
267
330
213
100
AcDbEntity
  8
PV-139
100
AcDbLine
 10
15.2
 20
-626.931944080731
 30
0.0
 11
15.2
 21
-628.3680559192688
 31
0.0
  0
LINE
  5
268
330
213
100
AcDbEntity
  8
PV-139
100
AcDbLine
 10
-15.19999999999998
 20
-628.3680559192688
 30
0.0
 11
-18.0588190451025
 21
-629.1340741737108
 31
0.0
  0
LINE
  5
269
330
213
100
AcDbEntity
  8
PV-139
100
AcDbLine
 10
15.19999999999998
 20
-628.3680559192688
 30
0.0
 11
18.0588190451025
 21
-629.1340741737108
 31
0.0
  0
LINE
  5
26A
330
213
100
AcDbEntity
  8
PV-139
100
AcDbLine
 10
15.20000000000001
 20
-631.8319440807307
 30
0.0
 11
18.05881904510253
 21
-631.0659258262891
 31
0.0
  0
LINE
  5
26B
330
213
100
AcDbEntity
  8
PV-139
100
AcDbLine
 10
-15.20000000000001
 20
-631.8319440807307
 30
0.0
 11
-18.05881904510253
 21
-631.0659258262891
 31
0.0
  0
LINE
  5
26C
330
213
100
AcDbEntity
  8
PV-139
100
AcDbLine
 10
-15.2
 20
-631.8319440807311
 30
0.0
 11
-15.2
 21
-633.268055919269
 31
0.0
  0
LINE
  5
26D
330
213
100
AcDbEntity
  8
PV-139
100
AcDbLine
 10
15.2
 20
-631.8319440807311
 30
0.0
 11
15.2
 21
-633.268055919269
 31
0.0
  0
LINE
  5
26E
330
213
100
AcDbEntity
  8
PV-139
100
AcDbLine
 10
-15.20000000000001
 20
-633.268055919269
 30
0.0
 11
-18.0588190451025
 21
-634.0340741737109
 31
0.0
  0
LINE
  5
26F
330
213
100
AcDbEntity
  8
PV-139
100
AcDbLine
 10
15.20000000000001
 20
-633.268055919269
 30
0.0
 11
18.0588190451025
 21
-634.0340741737109
 31
0.0
  0
LINE
  5
270
330
213
100
AcDbEntity
  8
PV-139
100
AcDbLine
 10
-17.25
 20
-617.4999999999998
 30
0.0
 11
-17.25
 21
-624.0173517637529
 31
0.0
  0
LINE
  5
271
330
213
100
AcDbEntity
  8
PV-139
100
AcDbLine
 10
17.25
 20
-617.4999999999998
 30
0.0
 11
17.25
 21
-624.0173517637529
 31
0.0
  0
LINE
  5
272
330
213
100
AcDbEntity
  8
PV-139
100
AcDbLine
 10
17.25000000000001
 20
-645.9826482362472
 30
0.0
 11
18.05881904510253
 21
-645.7659258262889
 31
0.0
  0
LINE
  5
273
330
213
100
AcDbEntity
  8
PV-139
100
AcDbLine
 10
-17.25000000000001
 20
-645.9826482362472
 30
0.0
 11
-18.05881904510253
 21
-645.7659258262889
 31
0.0
  0
LINE
  5
274
330
213
100
AcDbEntity
  8
PV-139
100
AcDbLine
 10
-15.20000000000001
 20
-643.068055919269
 30
0.0
 11
-18.05881904510257
 21
-643.8340741737107
 31
0.0
  0
LINE
  5
275
330
213
100
AcDbEntity
  8
PV-139
100
AcDbLine
 10
15.20000000000001
 20
-643.068055919269
 30
0.0
 11
18.05881904510257
 21
-643.8340741737107
 31
0.0
  0
LINE
  5
276
330
213
100
AcDbEntity
  8
PV-139
100
AcDbLine
 10
-15.2
 20
-641.6319440807309
 30
0.0
 11
-15.2
 21
-643.068055919269
 31
0.0
  0
LINE
  5
277
330
213
100
AcDbEntity
  8
PV-139
100
AcDbLine
 10
15.2
 20
-641.6319440807309
 30
0.0
 11
15.2
 21
-643.068055919269
 31
0.0
  0
LINE
  5
278
330
213
100
AcDbEntity
  8
PV-139
100
AcDbLine
 10
15.19999999999998
 20
-641.6319440807309
 30
0.0
 11
18.0588190451025
 21
-640.8659258262892
 31
0.0
  0
LINE
  5
279
330
213
100
AcDbEntity
  8
PV-139
100
AcDbLine
 10
-15.19999999999998
 20
-641.6319440807309
 30
0.0
 11
-18.0588190451025
 21
-640.8659258262892
 31
0.0
  0
LINE
  5
27A
330
213
100
AcDbEntity
  8
PV-139
100
AcDbLine
 10
-15.20000000000001
 20
-638.168055919269
 30
0.0
 11
-18.05881904510253
 21
-638.9340741737107
 31
0.0
  0
LINE
  5
27B
330
213
100
AcDbEntity
  8
PV-139
100
AcDbLine
 10
15.20000000000001
 20
-638.168055919269
 30
0.0
 11
18.05881904510253
 21
-638.9340741737107
 31
0.0
  0
LINE
  5
27C
330
213
100
AcDbEntity
  8
PV-139
100
AcDbLine
 10
-15.2
 20
-636.7319440807308
 30
0.0
 11
-15.2
 21
-638.1680559192687
 31
0.0
  0
LINE
  5
27D
330
213
100
AcDbEntity
  8
PV-139
100
AcDbLine
 10
15.2
 20
-636.7319440807308
 30
0.0
 11
15.2
 21
-638.1680559192687
 31
0.0
  0
LINE
  5
27E
330
213
100
AcDbEntity
  8
PV-139
100
AcDbLine
 10
15.20000000000001
 20
-636.7319440807308
 30
0.0
 11
18.0588190451025
 21
-635.9659258262889
 31
0.0
  0
LINE
  5
27F
330
213
100
AcDbEntity
  8
PV-139
100
AcDbLine
 10
-15.20000000000001
 20
-636.7319440807308
 30
0.0
 11
-18.0588190451025
 21
-635.9659258262889
 31
0.0
  0
LINE
  5
280
330
213
100
AcDbEntity
  8
PV-139
100
AcDbLine
 10
-17.25
 20
-645.9826482362471
 30
0.0
 11
-17.25
 21
-652.5
 31
0.0
  0
LINE
  5
281
330
213
100
AcDbEntity
  8
PV-139
100
AcDbLine
 10
17.25
 20
-645.9826482362471
 30
0.0
 11
17.25
 21
-652.5
 31
0.0
  0
LINE
  5
282
330
213
100
AcDbEntity
  8
PV-139
100
AcDbLine
 10
-16.5
 20
-887.5000000000001
 30
0.0
 11
-16.5
 21
-923.4999999999999
 31
0.0
  0
LINE
  5
283
330
213
100
AcDbEntity
  8
PV-139
100
AcDbLine
 10
16.5
 20
-923.4999999999999
 30
0.0
 11
16.5
 21
-887.5000000000001
 31
0.0
  0
ARC
  5
284
330
213
100
AcDbEntity
  8
PV-139
100
AcDbCircle
 10
0.0
 20
-923.4999999999999
 30
0.0
 40
16.5
100
AcDbArc
 50
180.0
 51
0.0000000000011591
  0
ARC
  5
285
330
213
100
AcDbEntity
  8
PV-139
100
AcDbCircle
 10
17.8
 20
-625.2
 30
0.0
 40
0.9999999999999992
100
AcDbArc
 50
285.0000000000002
 51
75.00000000000124
  0
ARC
  5
286
330
213
100
AcDbEntity
  8
PV-139
100
AcDbCircle
 10
-17.8
 20
-625.2
 30
0.0
 40
0.9999999999999992
100
AcDbArc
 50
104.9999999999987
 51
255.0000000000011
  0
ARC
  5
287
330
213
100
AcDbEntity
  8
PV-139
100
AcDbCircle
 10
17.8
 20
-630.1
 30
0.0
 40
1.0
100
AcDbArc
 50
285.0000000000002
 51
75.00000000000124
  0
ARC
  5
288
330
213
100
AcDbEntity
  8
PV-139
100
AcDbCircle
 10
-17.8
 20
-630.1
 30
0.0
 40
1.0
100
AcDbArc
 50
104.9999999999987
 51
254.9999999999995
  0
ARC
  5
289
330
213
100
AcDbEntity
  8
PV-139
100
AcDbCircle
 10
14.75
 20
-617.4999999999998
 30
0.0
 40
2.5
100
AcDbArc
 50
0.0000000000002036
 51
45.57299599919475
  0
ARC
  5
28A
330
213
100
AcDbEntity
  8
PV-139
100
AcDbCircle
 10
-14.75
 20
-617.4999999999998
 30
0.0
 40
2.5
100
AcDbArc
 50
134.4270040008055
 51
179.9999999999998
  0
ARC
  5
28B
330
213
100
AcDbEntity
  8
PV-139
100
AcDbCircle
 10
-17.8
 20
-644.7999999999998
 30
0.0
 40
0.9999999999999992
100
AcDbArc
 50
104.9999999999987
 51
255.0000000000011
  0
ARC
  5
28C
330
213
100
AcDbEntity
  8
PV-139
100
AcDbCircle
 10
17.8
 20
-644.7999999999998
 30
0.0
 40
0.9999999999999992
100
AcDbArc
 50
284.9999999999986
 51
74.99999999999963
  0
ARC
  5
28D
330
213
100
AcDbEntity
  8
PV-139
100
AcDbCircle
 10
-17.8
 20
-639.9
 30
0.0
 40
1.0
100
AcDbArc
 50
105.0000000000002
 51
255.0000000000011
  0
ARC
  5
28E
330
213
100
AcDbEntity
  8
PV-139
100
AcDbCircle
 10
17.8
 20
-639.9
 30
0.0
 40
1.0
100
AcDbArc
 50
284.9999999999986
 51
74.99999999999963
  0
ARC
  5
28F
330
213
100
AcDbEntity
  8
PV-139
100
AcDbCircle
 10
-17.8
 20
-635.0
 30
0.0
 40
1.0
100
AcDbArc
 50
104.9999999999987
 51
255.0000000000011
  0
ARC
  5
290
330
213
100
AcDbEntity
  8
PV-139
100
AcDbCircle
 10
17.8
 20
-635.0
 30
0.0
 40
1.0
100
AcDbArc
 50
284.9999999999986
 51
75.00000000000122
  0
ARC
  5
291
330
213
100
AcDbEntity
  8
PV-139
100
AcDbCircle
 10
-14.75
 20
-652.5
 30
0.0
 40
2.5
100
AcDbArc
 50
180.0000000000002
 51
225.5729959991944
  0
ARC
  5
292
330
213
100
AcDbEntity
  8
PV-139
100
AcDbCircle
 10
14.75
 20
-652.5
 30
0.0
 40
2.5
100
AcDbArc
 50
314.4270040008052
 51
359.9999999999997
  0
ENDBLK
  5
294
330
213
100
AcDbEntity
  8
0
100
AcDbBlockEnd
  0
BLOCK
  5
297
330
295
100
AcDbEntity
  8
0
100
AcDbBlockBegin
  2
TOP
 70
     0
 10
0.0
 20
0.0
 30
0.0
  3
TOP
  1

  0
INSERT
  5
296
330
295
100
AcDbEntity
  8
PV-139
100
AcDbBlockReference
  2
*U6
 10
0.0
 20
0.0
 30
0.0
  0
ENDBLK
  5
298
330
295
100
AcDbEntity
  8
0
100
AcDbBlockEnd
  0
BLOCK
  5
589
330
57E
100
AcDbEntity
  8
0
100
AcDbBlockBegin
  2
*D8
 70
     1
 10
0.0
 20
0.0
 30
0.0
  3
*D8
  1

  0
LINE
  5
645
330
57E
100
AcDbEntity
  8
0
 62
     0
370
    -2
100
AcDbLine
 10
2546.611358742664
 20
2069.135450621504
 30
0.0
 11
2643.769657671981
 21
2069.135450621504
 31
0.0
  0
LINE
  5
646
330
57E
100
AcDbEntity
  8
0
 62
     0
370
    -2
100
AcDbLine
 10
2550.166312639421
 20
1179.135450621504
 30
0.0
 11
2643.769657671981
 21
1179.135450621503
 31
0.0
  0
LINE
  5
647
330
57E
100
AcDbEntity
  8
0
 62
     0
370
    -2
100
AcDbLine
 10
2642.519657671981
 20
2049.135450621504
 30
0.0
 11
2642.519657671981
 21
1199.135450621503
 31
0.0
  0
INSERT
  5
648
330
57E
100
AcDbEntity
  8
0
 62
     0
370
    -2
100
AcDbBlockReference
  2
_Dot
 10
2642.519657671981
 20
2069.135450621504
 30
0.0
 41
20.0
 42
20.0
 43
20.0
 50
90.0
  0
INSERT
  5
649
330
57E
100
AcDbEntity
  8
0
 62
     0
370
    -2
100
AcDbBlockReference
  2
_Dot
 10
2642.519657671981
 20
1179.135450621503
 30
0.0
 41
20.0
 42
20.0
 43
20.0
 50
270.0
  0
MTEXT
  5
64A
330
57E
100
AcDbEntity
  8
0
 62
     0
100
AcDbMText
 10
2599.543873224505
 20
1624.135450621504
 30
0.0
 40
45.0
 41
0.0
 71
     5
 72
     1
  1
890
  7
ARIAL
 11
0.0000000000000001
 21
1.0
 31
0.0
 73
     1
 44
1.0
1001
ACAD
1000
MTEXTBEGIN
1070
    73
1070
     1
1070
    44
1040
1.0
1070
    74
1070
     0
1000
MTEXTEND
  0
POINT
  5
64B
330
57E
100
AcDbEntity
  8
Defpoints
 62
     0
100
AcDbPoint
 10
2545.986358742664
 20
2069.135450621504
 30
0.0000000000000637
  0
POINT
  5
64C
330
57E
100
AcDbEntity
  8
Defpoints
 62
     0
100
AcDbPoint
 10
2549.541312639421
 20
1179.135450621504
 30
0.0000000000001445
  0
POINT
  5
64D
330
57E
100
AcDbEntity
  8
Defpoints
 62
     0
100
AcDbPoint
 10
2642.519657671981
 20
1179.135450621503
 30
0.0
  0
ENDBLK
  5
58A
330
57E
100
AcDbEntity
  8
0
100
AcDbBlockEnd
  0
BLOCK
  5
60A
330
609
100
AcDbEntity
  8
0
100
AcDbBlockBegin
  2
_Dot
 70
     0
 10
0.0
 20
0.0
 30
0.0
  3
_Dot
  1

  0
LWPOLYLINE
  5
60B
330
609
100
AcDbEntity
  8
0
  6
ByBlock
 62
     0
100
AcDbPolyline
 90
        2
 70
     1
 43
0.5
 10
-0.25
 20
0.0
 42
1.0
 10
0.25
 20
0.0
 42
1.0
  0
LINE
  5
60C
330
609
100
AcDbEntity
  8
0
  6
ByBlock
 62
     0
370
    -2
100
AcDbLine
 10
-0.5
 20
0.0
 30
0.0
 11
-1.0
 21
0.0
 31
0.0
  0
ENDBLK
  5
60D
330
609
100
AcDbEntity
  8
0
100
AcDbBlockEnd
  0
ENDSEC
  0
SECTION
  2
ENTITIES
  0
ARC
  5
37B
330
1F
100
AcDbEntity
  8
PV-139
100
AcDbCircle
 10
1371.59611135846
 20
2052.635450621504
 30
0.0
 40
17.25
100
AcDbArc
 50
0.0
 51
196.9574262941702
  0
ARC
  5
37C
330
1F
100
AcDbEntity
  8
PV-139
100
AcDbCircle
 10
1371.59611135846
 20
2052.635450621504
 30
0.0
 40
17.25
100
AcDbArc
 50
343.0425737058298
 51
0.0
  0
ARC
  5
37D
330
1F
100
AcDbEntity
  8
PV-139
100
AcDbCircle
 10
1371.59611135846
 20
1948.142594936966
 30
0.0000000000000199
 40
16.5
100
AcDbArc
 50
180.0
 51
0.0
  0
ARC
  5
37E
330
1F
100
AcDbEntity
  8
PV-139
100
AcDbCircle
 10
1371.59611135846
 20
2052.635450621504
 30
0.0
 40
16.5
100
AcDbArc
 50
0.0
 51
180.0
  0
LINE
  5
37F
330
1F
100
AcDbEntity
  8
PV-139
100
AcDbLine
 10
1332.59611135846
 20
2100.635450621504
 30
-0.0000000000000048
 11
1332.59611135846
 21
1867.635450621504
 31
-0.0000000000000048
210
0.0
220
1.0
230
0.0
  0
LINE
  5
380
330
1F
100
AcDbEntity
  8
PV-139
100
AcDbLine
 10
1332.59611135846
 20
2110.635450621504
 30
-0.0000000000000048
 11
1332.59611135846
 21
2100.635450621504
 31
-0.0000000000000048
210
0.0
220
1.0
230
0.0
  0
LINE
  5
381
330
1F
100
AcDbEntity
  8
PV-139
100
AcDbLine
 10
1332.59611135846
 20
1867.635450621504
 30
-0.0000000000000048
 11
1332.59611135846
 21
1857.635450621503
 31
-0.0000000000000048
210
0.0
220
1.0
230
0.0
  0
ARC
  5
382
330
1F
100
AcDbEntity
  8
PV-139
100
AcDbCircle
 10
1334.09611135846
 20
2110.635450621504
 30
-0.0000000000000046
 40
1.5
100
AcDbArc
 50
90.0
 51
180.0
  0
ARC
  5
383
330
1F
100
AcDbEntity
  8
PV-139
100
AcDbCircle
 10
1334.09611135846
 20
1857.635450621503
 30
-0.0000000000000046
 40
1.5
100
AcDbArc
 50
180.0
 51
270.0
  0
LINE
  5
384
330
1F
100
AcDbEntity
  8
PV-139
100
AcDbLine
 10
1409.09611135846
 20
2112.135450621504
 30
0.0000000000000046
 11
1334.09611135846
 21
2112.135450621504
 31
-0.0000000000000046
210
0.0
220
1.0
230
0.0
  0
LINE
  5
385
330
1F
100
AcDbEntity
  8
PV-139
100
AcDbLine
 10
1409.09611135846
 20
1856.135450621504
 30
0.0000000000000046
 11
1372.09611135846
 21
1856.135450621504
 31
0.0000000000000001
210
0.0
220
1.0
230
0.0
  0
LINE
  5
386
330
1F
100
AcDbEntity
  8
PV-139
100
AcDbLine
 10
1371.09611135846
 20
1856.135450621504
 30
-0.0000000000000001
 11
1334.09611135846
 21
1856.135450621504
 31
-0.0000000000000046
210
0.0
220
1.0
230
0.0
  0
LINE
  5
387
330
1F
100
AcDbEntity
  8
PV-139
100
AcDbLine
 10
1410.59611135846
 20
1867.635450621504
 30
0.0000000000000048
 11
1410.59611135846
 21
2100.635450621504
 31
0.0000000000000048
210
0.0
220
1.0
230
0.0
  0
LINE
  5
388
330
1F
100
AcDbEntity
  8
PV-139
100
AcDbLine
 10
1410.59611135846
 20
2100.635450621504
 30
0.0000000000000048
 11
1410.59611135846
 21
2110.635450621504
 31
0.0000000000000048
210
0.0
220
1.0
230
0.0
  0
LINE
  5
389
330
1F
100
AcDbEntity
  8
PV-139
100
AcDbLine
 10
1410.59611135846
 20
1857.635450621503
 30
0.0000000000000048
 11
1410.59611135846
 21
1867.635450621504
 31
0.0000000000000048
210
0.0
220
1.0
230
0.0
  0
ARC
  5
38A
330
1F
100
AcDbEntity
  8
PV-139
100
AcDbCircle
 10
1409.09611135846
 20
2110.635450621504
 30
0.0000000000000046
 40
1.5
100
AcDbArc
 50
0.0
 51
90.0
  0
ARC
  5
38B
330
1F
100
AcDbEntity
  8
PV-139
100
AcDbCircle
 10
1409.09611135846
 20
1857.635450621503
 30
0.0000000000000046
 40
1.5
100
AcDbArc
 50
270.0
 51
0.0
  0
LINE
  5
38C
330
1F
100
AcDbEntity
  8
PV-139
100
AcDbLine
 10
1408.59611135846
 20
2075.385450621504
 30
0.0000000000000045
 11
1392.09611135846
 21
2075.385450621504
 31
0.0000000000000025
210
0.0
220
1.0
230
0.0
  0
LINE
  5
38D
330
1F
100
AcDbEntity
  8
PV-139
100
AcDbLine
 10
1408.59611135846
 20
2029.885450621504
 30
0.0000000000000045
 11
1408.59611135846
 21
2075.385450621504
 31
0.0000000000000045
210
0.0
220
1.0
230
0.0
  0
LINE
  5
38E
330
1F
100
AcDbEntity
  8
PV-139
100
AcDbLine
 10
1408.59611135846
 20
2029.885450621504
 30
0.0000000000000045
 11
1392.09611135846
 21
2029.885450621504
 31
0.0000000000000025
210
0.0
220
1.0
230
0.0
  0
LINE
  5
38F
330
1F
100
AcDbEntity
  8
PV-139
100
AcDbLine
 10
1392.09611135846
 20
2075.385450621504
 30
0.0000000000000025
 11
1392.09611135846
 21
2029.885450621504
 31
0.0000000000000025
210
0.0
220
1.0
230
0.0
  0
LINE
  5
390
330
1F
100
AcDbEntity
  8
PV-139
100
AcDbLine
 10
1351.09611135846
 20
2075.385450621504
 30
-0.0000000000000025
 11
1334.59611135846
 21
2075.385450621504
 31
-0.0000000000000045
210
0.0
220
1.0
230
0.0
  0
LINE
  5
391
330
1F
100
AcDbEntity
  8
PV-139
100
AcDbLine
 10
1351.09611135846
 20
2029.885450621504
 30
-0.0000000000000025
 11
1351.09611135846
 21
2075.385450621504
 31
-0.0000000000000025
210
0.0
220
1.0
230
0.0
  0
LINE
  5
392
330
1F
100
AcDbEntity
  8
PV-139
100
AcDbLine
 10
1351.09611135846
 20
2029.885450621504
 30
-0.0000000000000025
 11
1334.59611135846
 21
2029.885450621504
 31
-0.0000000000000045
210
0.0
220
1.0
230
0.0
  0
LINE
  5
393
330
1F
100
AcDbEntity
  8
PV-139
100
AcDbLine
 10
1334.59611135846
 20
2075.385450621504
 30
-0.0000000000000045
 11
1334.59611135846
 21
2029.885450621504
 31
-0.0000000000000045
210
0.0
220
1.0
230
0.0
  0
LINE
  5
394
330
1F
100
AcDbEntity
  8
HEWI
 62
   253
370
     9
100
AcDbLine
 10
1371.09611135846
 20
2033.842100733844
 30
-0.0000000000000001
 11
1371.09611135846
 21
1179.135450621504
 31
-0.0000000000000001
210
0.0
220
1.0
230
0.0
  0
LINE
  5
396
330
1F
100
AcDbEntity
  8
PV-139
100
AcDbLine
 10
1371.59611135846
 20
1931.642594936967
 30
0.0000000000000198
 11
1372.59611135846
 21
1931.642594936967
 31
0.00000000000002
210
0.0
220
1.0
230
0.0
  0
LINE
  5
397
330
1F
100
AcDbEntity
  8
HEWI
 62
   253
370
     9
100
AcDbLine
 10
1372.09611135846
 20
2033.842100733844
 30
0.0000000000000001
 11
1372.09611135846
 21
1179.135450621504
 31
0.0000000000000001
210
0.0
220
1.0
230
0.0
  0
ARC
  5
398
330
1F
100
AcDbEntity
  8
PV-139
100
AcDbCircle
 10
1371.59611135846
 20
2052.635450621504
 30
0.0
 40
17.5
100
AcDbArc
 50
271.6372450777801
 51
19.46295094631174
  0
ARC
  5
399
330
1F
100
AcDbEntity
  8
PV-139
100
AcDbCircle
 10
1371.59611135846
 20
2052.635450621504
 30
0.0
 40
17.5
100
AcDbArc
 50
160.5370490536882
 51
268.36275492222
  0
LINE
  5
39A
330
1F
100
AcDbEntity
  8
PV-139
100
AcDbLine
 10
1351.09611135846
 20
2030.135450621504
 30
-0.0000000000000025
 11
1355.09611135846
 21
2030.135450621504
 31
-0.000000000000002
210
0.0
220
1.0
230
0.0
  0
LINE
  5
39B
330
1F
100
AcDbEntity
  8
PV-139
100
AcDbLine
 10
1388.09611135846
 20
2030.135450621504
 30
0.000000000000002
 11
1392.09611135846
 21
2030.135450621504
 31
0.0000000000000025
210
0.0
220
1.0
230
0.0
  0
LINE
  5
39C
330
1F
100
AcDbEntity
  8
PV-139
100
AcDbLine
 10
1351.09611135846
 20
2075.135450621504
 30
-0.0000000000000025
 11
1392.09611135846
 21
2075.135450621504
 31
0.0000000000000025
210
0.0
220
1.0
230
0.0
  0
ARC
  5
39D
330
1F
100
AcDbEntity
  8
PV-139
100
AcDbCircle
 10
1371.59611135846
 20
2052.635450621504
 30
0.0
 40
18.8
100
AcDbArc
 50
271.5240036224125
 51
28.63868468869648
  0
ARC
  5
39E
330
1F
100
AcDbEntity
  8
PV-139
100
AcDbCircle
 10
1371.59611135846
 20
2052.635450621504
 30
0.0
 40
18.8
100
AcDbArc
 50
151.3613153113035
 51
268.4759963775874
  0
LINE
  5
39F
330
1F
100
AcDbEntity
  8
PV-139
100
AcDbLine
 10
1355.09611135846
 20
2052.635450621504
 30
-0.000000000000002
 11
1355.09611135846
 21
1948.142594936966
 31
-0.000000000000002
210
0.0
220
1.0
230
0.0
  0
LINE
  5
3A0
330
1F
100
AcDbEntity
  8
PV-139
100
AcDbLine
 10
1388.09611135846
 20
1948.142594936966
 30
0.000000000000002
 11
1388.09611135846
 21
2052.635450621504
 31
0.000000000000002
210
0.0
220
1.0
230
0.0
  0
ARC
  5
3A1
330
1F
100
AcDbEntity
  8
PV-139
100
AcDbCircle
 10
1371.59611135846
 20
2052.635450621504
 30
0.0
 40
18.8
100
AcDbArc
 50
331.3613153113035
 51
208.6386846886965
  0
LINE
  5
3C0
330
1F
100
AcDbEntity
  8
HEWI
100
AcDbLine
 10
1598.59611137046
 20
1857.635450621503
 30
0.0
 11
1598.59611137046
 21
2110.635450621504
 31
0.0
210
0.0
220
1.0
230
0.0
  0
LINE
  5
3C1
330
1F
100
AcDbEntity
  8
HEWI
100
AcDbLine
 10
1598.59611137046
 20
2112.135450621504
 30
0.0
 11
1598.59611137046
 21
2110.635450621504
 31
0.0
210
0.0
220
1.0
230
0.0
  0
LINE
  5
3C2
330
1F
100
AcDbEntity
  8
HEWI
100
AcDbLine
 10
1598.59611137046
 20
1857.635450621503
 30
0.0
 11
1598.59611137046
 21
1856.135450621504
 31
0.0
210
0.0
220
1.0
230
0.0
  0
LINE
  5
3C3
330
1F
100
AcDbEntity
  8
HEWI
100
AcDbLine
 10
1603.59611137046
 20
2112.135450621504
 30
0.0000000000000009
 11
1598.59611137046
 21
2112.135450621504
 31
0.0
210
0.0
220
1.0
230
0.0
  0
ARC
  5
3C4
330
1F
100
AcDbEntity
  8
HEWI
100
AcDbCircle
 10
1603.59611137046
 20
2100.635450621504
 30
0.0000000000000009
 40
11.5
100
AcDbArc
 50
0.0
 51
90.0
  0
LINE
  5
3C5
330
1F
100
AcDbEntity
  8
HEWI
100
AcDbLine
 10
1615.09611137046
 20
1867.635450621504
 30
0.000000000000003
 11
1615.09611137046
 21
2100.635450621504
 31
0.000000000000003
210
0.0
220
1.0
230
0.0
  0
ARC
  5
3C6
330
1F
100
AcDbEntity
  8
HEWI
100
AcDbCircle
 10
1603.59611137046
 20
1867.635450621504
 30
0.0000000000000009
 40
11.5
100
AcDbArc
 50
270.0
 51
0.0
  0
LINE
  5
3C7
330
1F
100
AcDbEntity
  8
HEWI
100
AcDbLine
 10
1598.59611137046
 20
1856.135450621504
 30
0.0
 11
1603.59611137046
 21
1856.135450621504
 31
0.0000000000000009
210
0.0
220
1.0
230
0.0
  0
LINE
  5
3C8
330
1F
100
AcDbEntity
  8
HEWI
100
AcDbLine
 10
1615.09611137046
 20
2075.385450621504
 30
0.000000000000003
 11
1639.59611137046
 21
2075.385450621504
 31
0.0000000000000075
210
0.0
220
1.0
230
0.0
  0
LINE
  5
3C9
330
1F
100
AcDbEntity
  8
HEWI
100
AcDbLine
 10
1639.59611137046
 20
2029.885450621504
 30
0.0000000000000075
 11
1615.09611137046
 21
2029.885450621504
 31
0.000000000000003
210
0.0
220
1.0
230
0.0
  0
ARC
  5
3CA
330
1F
100
AcDbEntity
  8
HEWI
100
AcDbCircle
 10
1639.59611137046
 20
2052.635450621504
 30
0.0000000000000075
 40
22.74999999999999
100
AcDbArc
 50
270.0
 51
90.0
  0
LINE
  5
3CC
330
1F
100
AcDbEntity
  8
HEWI
100
AcDbLine
 10
1649.293990283577
 20
2035.142594936968
 30
0.0000000000000161
 11
1649.293990283577
 21
2070.135450621504
 31
0.0000000000000161
210
0.0
220
1.0
230
0.0
  0
LINE
  5
3CD
330
1F
100
AcDbEntity
  8
HEWI
100
AcDbLine
 10
1689.293990283577
 20
2070.135450621504
 30
0.0000000000000235
 11
1689.293990283577
 21
2035.142594936968
 31
0.0000000000000235
210
0.0
220
1.0
230
0.0
  0
LINE
  5
3CE
330
1F
100
AcDbEntity
  8
HEWI
100
AcDbLine
 10
1845.84611137046
 20
2035.142594936968
 30
0.0000000000000455
 11
1845.84611137046
 21
2070.135450621504
 31
0.0000000000000455
210
0.0
220
1.0
230
0.0
  0
LINE
  5
3CF
330
1F
100
AcDbEntity
  8
HEWI
100
AcDbLine
 10
1885.84611137046
 20
2070.135450621504
 30
0.0000000000000529
 11
1885.84611137046
 21
2035.142594936968
 31
0.0000000000000529
210
0.0
220
1.0
230
0.0
  0
LINE
  5
3D0
330
1F
100
AcDbEntity
  8
HEWI
 62
   253
370
     9
100
AcDbLine
 10
1618.596111370459
 20
2035.142594936968
 30
0.0000000000000037
 11
1618.596111370459
 21
1179.135450621504
 31
0.0000000000000037
210
0.0
220
1.0
230
0.0
  0
LINE
  5
3D1
330
1F
100
AcDbEntity
  8
HEWI
100
AcDbLine
 10
1649.293990283577
 20
2035.142594936968
 30
0.0000000000000161
 11
1689.293990283577
 21
2035.142594936968
 31
0.0000000000000235
210
0.0
220
1.0
230
0.0
  0
LINE
  5
3D2
330
1F
100
AcDbEntity
  8
HEWI
100
AcDbLine
 10
1845.84611137046
 20
2035.142594936968
 30
0.0000000000000455
 11
1885.84611137046
 21
2035.142594936968
 31
0.0000000000000529
210
0.0
220
1.0
230
0.0
  0
LINE
  5
3D3
330
1F
100
AcDbEntity
  8
HEWI
 62
   253
370
     9
100
AcDbLine
 10
2498.596111370459
 20
2035.142594936968
 30
0.0000000000001581
 11
2498.596111370459
 21
1179.135450621504
 31
0.0000000000001653
210
0.0
220
1.0
230
0.0
  0
LINE
  5
3D4
330
1F
100
AcDbEntity
  8
HEWI
 62
   253
370
     9
100
AcDbLine
 10
2498.596111370459
 20
1179.135450621504
 30
0.0000000000001445
 11
1618.596111370459
 21
1179.135450621504
 31
-0.0000000000000171
210
0.0
220
1.0
230
0.0
  0
LINE
  5
3D6
330
1F
100
AcDbEntity
  8
HEWI
100
AcDbLine
 10
1725.84611137046
 20
2036.135450621504
 30
0.0000000000000235
 11
1845.84611137046
 21
2036.135450621504
 31
0.0000000000000455
210
0.0
220
1.0
230
0.0
  0
LINE
  5
3D7
330
1F
100
AcDbEntity
  8
HEWI
100
AcDbLine
 10
1885.84611137046
 20
2036.135450621504
 30
0.0000000000000529
 11
2005.84611137046
 21
2036.135450621504
 31
0.0000000000000749
210
0.0
220
1.0
230
0.0
  0
LINE
  5
3D8
330
1F
100
AcDbEntity
  8
HEWI
100
AcDbLine
 10
2086.998709323896
 20
2036.135450621504
 30
0.0000000000000527
 11
2206.998709323896
 21
2036.135450621504
 31
0.0000000000000747
210
0.0
220
1.0
230
0.0
  0
LINE
  5
3D9
330
1F
100
AcDbEntity
  8
HEWI
100
AcDbLine
 10
2086.998709323896
 20
2070.135450621504
 30
0.0000000000000527
 11
2086.998709323896
 21
2035.142594936968
 31
0.0000000000000527
210
0.0
220
1.0
230
0.0
  0
LINE
  5
3DA
330
1F
100
AcDbEntity
  8
HEWI
100
AcDbLine
 10
2086.998709323896
 20
2035.142594936968
 30
0.0000000000000527
 11
2046.998709323896
 21
2035.142594936968
 31
0.0000000000000453
210
0.0
220
1.0
230
0.0
  0
LINE
  5
3DB
330
1F
100
AcDbEntity
  8
HEWI
100
AcDbLine
 10
2046.998709323896
 20
2035.142594936968
 30
0.0000000000000453
 11
2046.998709323896
 21
2070.135450621504
 31
0.0000000000000453
210
0.0
220
1.0
230
0.0
  0
LINE
  5
3E1
330
1F
100
AcDbEntity
  8
HEWI
100
AcDbLine
 10
2234.023296333459
 20
2036.135450621504
 30
0.0000000000001167
 11
2259.745394883163
 21
2036.135450621504
 31
0.0000000000001214
210
0.0
220
1.0
230
0.0
  0
LINE
  5
3E5
330
1F
100
AcDbEntity
  8
HEWI
100
AcDbLine
 10
2299.745394883163
 20
2036.135450621504
 30
0.0000000000001288
 11
2419.745394883162
 21
2036.135450621504
 31
0.0000000000001508
210
0.0
220
1.0
230
0.0
  0
LINE
  5
3E6
330
1F
100
AcDbEntity
  8
HEWI
100
AcDbLine
 10
2299.745394883163
 20
2070.135450621504
 30
0.0000000000001288
 11
2299.745394883163
 21
2035.142594936968
 31
0.0000000000001288
210
0.0
220
1.0
230
0.0
  0
LINE
  5
3E7
330
1F
100
AcDbEntity
  8
HEWI
100
AcDbLine
 10
2299.745394883163
 20
2035.142594936968
 30
0.0000000000001288
 11
2259.745394883163
 21
2035.142594936968
 31
0.0000000000001214
210
0.0
220
1.0
230
0.0
  0
LINE
  5
3E8
330
1F
100
AcDbEntity
  8
HEWI
100
AcDbLine
 10
2259.745394883163
 20
2035.142594936968
 30
0.0000000000001214
 11
2259.745394883163
 21
2070.135450621504
 31
0.0000000000001214
210
0.0
220
1.0
230
0.0
  0
LINE
  5
3E9
330
1F
100
AcDbEntity
  8
HEWI
100
AcDbLine
 10
2459.745394883162
 20
2036.135450621504
 30
0.0000000000001581
 11
2479.745394883162
 21
2036.135450621504
 31
0.0000000000001618
210
0.0
220
1.0
230
0.0
  0
LINE
  5
3EA
330
1F
100
AcDbEntity
  8
HEWI
100
AcDbLine
 10
2459.745394883162
 20
2070.135450621504
 30
0.0000000000001581
 11
2459.745394883162
 21
2035.142594936968
 31
0.0000000000001581
210
0.0
220
1.0
230
0.0
  0
LINE
  5
3EB
330
1F
100
AcDbEntity
  8
HEWI
100
AcDbLine
 10
2459.745394883162
 20
2035.142594936968
 30
0.0000000000001581
 11
2419.745394883162
 21
2035.142594936968
 31
0.0000000000001508
210
0.0
220
1.0
230
0.0
  0
LINE
  5
3EC
330
1F
100
AcDbEntity
  8
HEWI
100
AcDbLine
 10
2419.745394883162
 20
2035.142594936968
 30
0.0000000000001508
 11
2419.745394883162
 21
2070.135450621504
 31
0.0000000000001508
210
0.0
220
1.0
230
0.0
  0
LINE
  5
3ED
330
1F
100
AcDbEntity
  8
HEWI
100
AcDbLine
 10
2419.745394883162
 20
2070.135450621504
 30
0.0000000000001508
 11
2459.745394883162
 21
2070.135450621504
 31
0.0000000000001581
210
0.0
220
1.0
230
0.0
  0
LINE
  5
3EE
330
1F
100
AcDbEntity
  8
HEWI
100
AcDbLine
 10
2259.745394883163
 20
2070.135450621504
 30
0.0000000000001214
 11
2299.745394883163
 21
2070.135450621504
 31
0.0000000000001288
210
0.0
220
1.0
230
0.0
  0
LINE
  5
3F0
330
1F
100
AcDbEntity
  8
HEWI
100
AcDbLine
 10
2046.998709323896
 20
2070.135450621504
 30
0.0000000000000453
 11
2086.998709323896
 21
2070.135450621504
 31
0.0000000000000527
210
0.0
220
1.0
230
0.0
  0
LINE
  5
3F1
330
1F
100
AcDbEntity
  8
HEWI
100
AcDbLine
 10
1845.84611137046
 20
2070.135450621504
 30
0.0000000000000455
 11
1885.84611137046
 21
2070.135450621504
 31
0.0000000000000529
210
0.0
220
1.0
230
0.0
  0
LINE
  5
3F2
330
1F
100
AcDbEntity
  8
HEWI
100
AcDbLine
 10
1649.293990283577
 20
2070.135450621504
 30
0.0000000000000161
 11
1689.293990283577
 21
2070.135450621504
 31
0.0000000000000235
210
0.0
220
1.0
230
0.0
  0
LINE
  5
416
330
1F
100
AcDbEntity
  8
PV-139
100
AcDbLine
 10
1780.09611137046
 20
2036.135450621504
 30
0.0000000000000333
 11
1845.84611137046
 21
2036.135450621504
 31
0.0000000000000454
210
0.0
220
1.0
230
0.0
  0
LINE
  5
417
330
1F
100
AcDbEntity
  8
HEWI
100
AcDbLine
 10
1689.293990283577
 20
2036.135450621504
 30
0.0000000000000167
 11
1690.154536757733
 21
2036.135450621504
 31
0.0000000000000168
210
0.0
220
1.0
230
0.0
  0
LINE
  5
418
330
1F
100
AcDbEntity
  8
HEWI
100
AcDbLine
 10
1689.293990283577
 20
2069.135450621504
 30
0.0000000000000167
 11
1845.84611137046
 21
2069.135450621504
 31
0.0000000000000454
210
0.0
220
1.0
230
0.0
  0
LINE
  5
41E
330
1F
100
AcDbEntity
  8
HEWI
100
AcDbLine
 10
1845.84611137046
 20
2069.135450621504
 30
0.0000000000000455
 11
1827.34611137046
 21
2069.135450621504
 31
0.0000000000000421
210
0.0
220
1.0
230
0.0
  0
LINE
  5
424
330
1F
100
AcDbEntity
  8
HEWI
100
AcDbLine
 10
2251.09611137046
 20
2036.135450621504
 30
0.0000000000001199
 11
2259.745394883163
 21
2036.135450621504
 31
0.0000000000001157
210
0.0
220
1.0
230
0.0
  0
LINE
  5
425
330
1F
100
AcDbEntity
  8
HEWI
100
AcDbLine
 10
2251.09611137046
 20
2069.135450621504
 30
0.0000000000001199
 11
2259.745394883163
 21
2069.135450621504
 31
0.0000000000001215
210
0.0
220
1.0
230
0.0
  0
LINE
  5
468
330
1F
100
AcDbEntity
  8
PV-139
100
AcDbLine
 10
1388.09611135846
 20
850.6354506195039
 30
0.0
 11
1355.09611135846
 21
850.6354506195039
 31
0.0
  0
ARC
  5
469
330
1F
100
AcDbEntity
  8
PV-139
100
AcDbCircle
 10
1334.09611135846
 20
911.135450619504
 30
0.0
 40
1.5
100
AcDbArc
 50
180.0
 51
270.0
  0
LINE
  5
46A
330
1F
100
AcDbEntity
  8
PV-139
100
AcDbLine
 10
1332.59611135846
 20
921.1354506195039
 30
0.0
 11
1332.59611135846
 21
911.135450619504
 31
0.0
  0
LINE
  5
46B
330
1F
100
AcDbEntity
  8
PV-139
100
AcDbLine
 10
1334.09611135846
 20
926.1354506195038
 30
0.0
 11
1332.59611135846
 21
926.1354506195038
 31
0.0
  0
LINE
  5
46C
330
1F
100
AcDbEntity
  8
PV-139
100
AcDbLine
 10
1332.59611135846
 20
926.1354506195038
 30
0.0
 11
1332.59611135846
 21
921.1354506195039
 31
0.0
  0
LINE
  5
46D
330
1F
100
AcDbEntity
  8
PV-139
100
AcDbLine
 10
1409.09611135846
 20
926.1354506195038
 30
0.0
 11
1334.09611135846
 21
926.1354506195038
 31
0.0
  0
LINE
  5
46E
330
1F
100
AcDbEntity
  8
PV-139
100
AcDbLine
 10
1409.09611135846
 20
909.6354506195039
 30
0.0
 11
1334.09611135846
 21
909.6354506195039
 31
0.0
  0
LINE
  5
46F
330
1F
100
AcDbEntity
  8
PV-139
100
AcDbLine
 10
1410.59611135846
 20
911.135450619504
 30
0.0
 11
1410.59611135846
 21
921.1354506195039
 31
0.0
  0
ARC
  5
470
330
1F
100
AcDbEntity
  8
PV-139
100
AcDbCircle
 10
1409.09611135846
 20
911.135450619504
 30
0.0
 40
1.5
100
AcDbArc
 50
270.0
 51
0.0
  0
LINE
  5
471
330
1F
100
AcDbEntity
  8
PV-139
100
AcDbLine
 10
1410.59611135846
 20
926.1354506195038
 30
0.0
 11
1409.09611135846
 21
926.1354506195038
 31
0.0
  0
LINE
  5
472
330
1F
100
AcDbEntity
  8
PV-139
100
AcDbLine
 10
1410.59611135846
 20
921.1354506195039
 30
0.0
 11
1410.59611135846
 21
926.1354506195038
 31
0.0
  0
LINE
  5
473
330
1F
100
AcDbEntity
  8
PV-139
100
AcDbLine
 10
1408.59611135846
 20
885.1354506195038
 30
0.0
 11
1408.59611135846
 21
909.6354506195039
 31
0.0
  0
LINE
  5
474
330
1F
100
AcDbEntity
  8
PV-139
100
AcDbLine
 10
1392.09611135846
 20
909.6354506195039
 30
0.0
 11
1392.09611135846
 21
885.1354506195038
 31
0.0
  0
LINE
  5
475
330
1F
100
AcDbEntity
  8
PV-139
100
AcDbLine
 10
1408.59611135846
 20
862.3854506195039
 30
0.0
 11
1408.59611135846
 21
885.135450619504
 31
0.0
  0
LINE
  5
476
330
1F
100
AcDbEntity
  8
PV-139
100
AcDbLine
 10
1392.09611135846
 20
885.135450619504
 30
0.0
 11
1392.09611135846
 21
862.3854506195039
 31
0.0
  0
LINE
  5
477
330
1F
100
AcDbEntity
  8
PV-139
100
AcDbLine
 10
1351.09611135846
 20
885.1354506195038
 30
0.0
 11
1351.09611135846
 21
909.6354506195039
 31
0.0
  0
LINE
  5
478
330
1F
100
AcDbEntity
  8
PV-139
100
AcDbLine
 10
1334.59611135846
 20
909.6354506195039
 30
0.0
 11
1334.59611135846
 21
885.1354506195038
 31
0.0
  0
LINE
  5
479
330
1F
100
AcDbEntity
  8
PV-139
100
AcDbLine
 10
1351.09611135846
 20
862.3854506195039
 30
0.0
 11
1351.09611135846
 21
885.135450619504
 31
0.0
  0
LINE
  5
47A
330
1F
100
AcDbEntity
  8
PV-139
100
AcDbLine
 10
1334.59611135846
 20
885.135450619504
 30
0.0
 11
1334.59611135846
 21
862.3854506195039
 31
0.0
  0
LINE
  5
47B
330
1F
100
AcDbEntity
  8
PV-139
100
AcDbLine
 10
1388.09611135846
 20
850.6354506195039
 30
0.0
 11
1355.09611135846
 21
850.6354506195039
 31
0.0
  0
SPLINE
  5
47C
330
1F
100
AcDbEntity
  8
PV-139
100
AcDbSpline
210
0.0
220
0.0
230
1.0
 70
     8
 71
     3
 72
    42
 73
    38
 74
     0
 42
0.0000000001
 43
0.0000000001
 40
26.21588118668894
 40
26.21588118668894
 40
26.21588118668894
 40
26.21588118668894
 40
29.46229922291184
 40
29.46229922291184
 40
32.70871725913472
 40
32.70871725913472
 40
35.95513529535762
 40
35.95513529535762
 40
39.20155333158049
 40
39.20155333158049
 40
42.50910559202984
 40
42.50910559202984
 40
45.8166578524792
 40
45.8166578524792
 40
49.12421011292853
 40
49.12421011292853
 40
50.77798624315322
 40
50.77798624315322
 40
52.43176237337789
 40
52.43176237337789
 40
54.08553850360258
 40
54.08553850360258
 40
55.73931463382725
 40
55.73931463382725
 40
59.04686689427662
 40
59.04686689427662
 40
62.35441915472598
 40
62.35441915472598
 40
65.66197141517534
 40
65.66197141517534
 40
68.90838945139825
 40
68.90838945139825
 40
72.15480748762115
 40
72.15480748762115
 40
75.40122552384406
 40
75.40122552384406
 40
78.64764356006697
 40
78.64764356006697
 40
78.64764356006697
 40
78.64764356006697
 10
1388.09611135846
 20
862.6354506195038
 30
0.0
 10
1388.09611135846
 20
862.6354506195038
 30
0.0
 10
1387.987946637604
 20
862.7151602759104
 30
0.0
 10
1387.548050646917
 20
863.0347374559899
 30
0.0
 10
1387.216509053523
 20
863.2744289219038
 30
0.0
 10
1386.358992777368
 20
863.8786842277614
 30
0.0
 10
1385.832299157293
 20
864.2435920762364
 30
0.0
 10
1384.636142633199
 20
865.039602140427
 30
0.0
 10
1383.966627566868
 20
865.470329289735
 30
0.0
 10
1382.546875746494
 20
866.3313372574007
 30
0.0
 10
1381.740857194789
 20
866.795562801732
 30
0.0
 10
1379.98417494645
 20
867.7057280793455
 30
0.0
 10
1379.033573118301
 20
868.1512657544963
 30
0.0
 10
1377.029326252995
 20
868.9284571754692
 30
0.0
 10
1375.973646493074
 20
869.2595935917971
 30
0.0
 10
1374.349804120554
 20
869.6015254760995
 30
0.0
 10
1373.801782324528
 20
869.6898906085975
 30
0.0
 10
1372.70056804474
 20
869.8083450800416
 30
0.0
 10
1372.147370068535
 20
869.8383920787255
 30
0.0
 10
1371.044852648385
 20
869.8383920787255
 30
0.0
 10
1370.49165467218
 20
869.8083450800416
 30
0.0
 10
1369.390440392392
 20
869.6898906085975
 30
0.0
 10
1368.842418596365
 20
869.6015254760995
 30
0.0
 10
1367.218576223846
 20
869.2595935917971
 30
0.0
 10
1366.162896463924
 20
868.928457175469
 30
0.0
 10
1364.158649598618
 20
868.1512657544963
 30
0.0
 10
1363.20804777047
 20
867.7057280793455
 30
0.0
 10
1361.45136552213
 20
866.795562801732
 30
0.0
 10
1360.645346970425
 20
866.3313372574007
 30
0.0
 10
1359.225595150051
 20
865.470329289735
 30
0.0
 10
1358.55608008372
 20
865.039602140427
 30
0.0
 10
1357.359923559627
 20
864.2435920762364
 30
0.0
 10
1356.833229939552
 20
863.878684227761
 30
0.0
 10
1355.975713663397
 20
863.2744289219038
 30
0.0
 10
1355.644172070002
 20
863.0347374559899
 30
0.0
 10
1355.204276079316
 20
862.7151602759104
 30
0.0
 10
1355.09611135846
 20
862.6354506195038
 30
0.0
 10
1355.09611135846
 20
862.6354506195038
 30
0.0
  0
LINE
  5
47D
330
1F
100
AcDbEntity
  8
PV-139
100
AcDbLine
 10
1389.09611135846
 20
846.1354506195039
 30
0.0
 11
1388.09611135846
 21
846.1354506195039
 31
0.0
  0
LINE
  5
47E
330
1F
100
AcDbEntity
  8
PV-139
100
AcDbLine
 10
1355.09611135846
 20
846.1354506195039
 30
0.0
 11
1354.09611135846
 21
846.1354506195039
 31
0.0
  0
LINE
  5
47F
330
1F
100
AcDbEntity
  8
PV-139
100
AcDbLine
 10
1354.09611135846
 20
841.9804492408502
 30
0.0
 11
1355.09611135846
 21
841.9804492408502
 31
0.0
  0
LINE
  5
480
330
1F
100
AcDbEntity
  8
PV-139
100
AcDbLine
 10
1388.09611135846
 20
841.9804492408502
 30
0.0
 11
1389.09611135846
 21
841.9804492408502
 31
0.0
  0
LINE
  5
481
330
1F
100
AcDbEntity
  8
PV-139
100
AcDbLine
 10
1389.09611135846
 20
801.9804492408502
 30
0.0
 11
1388.09611135846
 21
801.9804492408502
 31
0.0
  0
LINE
  5
482
330
1F
100
AcDbEntity
  8
PV-139
100
AcDbLine
 10
1355.09611135846
 20
801.9804492408502
 30
0.0
 11
1354.09611135846
 21
801.9804492408502
 31
0.0
  0
LINE
  5
483
330
1F
100
AcDbEntity
  8
PV-139
100
AcDbLine
 10
1389.09611135846
 20
622.6729453456437
 30
0.0
 11
1388.09611135846
 21
622.6729453456437
 31
0.0
  0
LINE
  5
484
330
1F
100
AcDbEntity
  8
PV-139
100
AcDbLine
 10
1355.09611135846
 20
622.6729453456437
 30
0.0
 11
1354.09611135846
 21
622.6729453456437
 31
0.0
  0
LINE
  5
485
330
1F
100
AcDbEntity
  8
PV-139
100
AcDbLine
 10
1354.09611135846
 20
662.6729453456428
 30
0.0
 11
1355.09611135846
 21
662.6729453456428
 31
0.0
  0
LINE
  5
486
330
1F
100
AcDbEntity
  8
PV-139
100
AcDbLine
 10
1388.09611135846
 20
662.6729453456428
 30
0.0
 11
1389.09611135846
 21
662.6729453456428
 31
0.0
  0
LINE
  5
489
330
1F
100
AcDbEntity
  8
PV-139
100
AcDbLine
 10
1354.09611135846
 20
492.1415818346113
 30
0.0
 11
1355.09611135846
 21
492.1415818346113
 31
0.0
  0
LINE
  5
48A
330
1F
100
AcDbEntity
  8
PV-139
100
AcDbLine
 10
1388.09611135846
 20
492.1415818346113
 30
0.0
 11
1389.09611135846
 21
492.1415818346113
 31
0.0
  0
LINE
  5
48F
330
1F
100
AcDbEntity
  8
PV-139
100
AcDbLine
 10
1389.09611135846
 20
81.13545061950459
 30
0.0
 11
1388.09611135846
 21
81.13545061950459
 31
0.0
  0
LINE
  5
490
330
1F
100
AcDbEntity
  8
PV-139
100
AcDbLine
 10
1355.09611135846
 20
81.13545061950459
 30
0.0
 11
1354.09611135846
 21
81.13545061950459
 31
0.0
  0
LINE
  5
491
330
1F
100
AcDbEntity
  8
PV-139
100
AcDbLine
 10
1354.09611135846
 20
121.1354506195046
 30
0.0
 11
1355.09611135846
 21
121.1354506195046
 31
0.0
  0
LINE
  5
492
330
1F
100
AcDbEntity
  8
PV-139
100
AcDbLine
 10
1388.09611135846
 20
121.1354506195046
 30
0.0
 11
1389.09611135846
 21
121.1354506195046
 31
0.0
  0
LINE
  5
493
330
1F
100
AcDbEntity
  8
PV-139
100
AcDbLine
 10
1354.09611135846
 20
121.1354506195046
 30
0.0
 11
1354.09611135846
 21
81.13545061950459
 31
0.0
  0
LINE
  5
494
330
1F
100
AcDbEntity
  8
PV-139
100
AcDbLine
 10
1389.09611135846
 20
121.1354506195046
 30
0.0
 11
1389.09611135846
 21
81.13545061950459
 31
0.0
  0
LINE
  5
497
330
1F
100
AcDbEntity
  8
PV-139
100
AcDbLine
 10
1354.09611135846
 20
492.1415818346113
 30
0.0
 11
1354.09611135846
 21
452.1415818346112
 31
0.0
  0
LINE
  5
498
330
1F
100
AcDbEntity
  8
PV-139
100
AcDbLine
 10
1389.09611135846
 20
492.1415818346113
 30
0.0
 11
1389.09611135846
 21
452.1415818346112
 31
0.0
  0
LINE
  5
499
330
1F
100
AcDbEntity
  8
PV-139
100
AcDbLine
 10
1354.09611135846
 20
662.6729453456428
 30
0.0
 11
1354.09611135846
 21
622.6729453456437
 31
0.0
  0
LINE
  5
49A
330
1F
100
AcDbEntity
  8
PV-139
100
AcDbLine
 10
1389.09611135846
 20
662.6729453456428
 30
0.0
 11
1389.09611135846
 21
622.6729453456437
 31
0.0
  0
LINE
  5
49B
330
1F
100
AcDbEntity
  8
PV-139
100
AcDbLine
 10
1354.09611135846
 20
841.9804492408502
 30
0.0
 11
1354.09611135846
 21
801.9804492408502
 31
0.0
  0
LINE
  5
49C
330
1F
100
AcDbEntity
  8
PV-139
100
AcDbLine
 10
1389.09611135846
 20
841.9804492408502
 30
0.0
 11
1389.09611135846
 21
801.9804492408502
 31
0.0
  0
LINE
  5
49D
330
1F
100
AcDbEntity
  8
PV-139
100
AcDbLine
 10
1354.09611135846
 20
862.6354506195038
 30
0.0
 11
1354.09611135846
 21
846.1354506195039
 31
0.0
  0
LINE
  5
49E
330
1F
100
AcDbEntity
  8
PV-139
100
AcDbLine
 10
1389.09611135846
 20
862.6354506195038
 30
0.0
 11
1389.09611135846
 21
846.1354506195039
 31
0.0
  0
LINE
  5
49F
330
1F
100
AcDbEntity
  8
PV-139
100
AcDbLine
 10
1388.09611135846
 20
862.6354506195038
 30
0.0
 11
1392.09611135846
 21
862.6354506195038
 31
0.0
  0
LINE
  5
4A0
330
1F
100
AcDbEntity
  8
PV-139
100
AcDbLine
 10
1351.09611135846
 20
862.6354506195038
 30
0.0
 11
1355.09611135846
 21
862.6354506195038
 31
0.0
  0
LINE
  5
4A1
330
1F
100
AcDbEntity
  8
PV-139
100
AcDbLine
 10
1351.09611135846
 20
907.6354506195039
 30
0.0
 11
1392.09611135846
 21
907.6354506195039
 31
0.0
  0
LINE
  5
4A2
330
1F
100
AcDbEntity
  8
PV-139
100
AcDbLine
 10
1355.09611135846
 20
862.6354506195038
 30
0.0
 11
1355.09611135846
 21
850.6354506195039
 31
0.0
  0
LINE
  5
4A3
330
1F
100
AcDbEntity
  8
PV-139
100
AcDbLine
 10
1388.09611135846
 20
862.6354506195038
 30
0.0
 11
1388.09611135846
 21
850.6354506195039
 31
0.0
  0
LINE
  5
4A4
330
1F
100
AcDbEntity
  8
PV-139
100
AcDbLine
 10
1351.09611135846
 20
862.3854506195039
 30
0.0
 11
1334.59611135846
 21
862.3854506195039
 31
0.0
  0
LINE
  5
4A5
330
1F
100
AcDbEntity
  8
PV-139
100
AcDbLine
 10
1408.59611135846
 20
862.3854506195039
 30
0.0
 11
1392.09611135846
 21
862.3854506195039
 31
0.0
  0
LINE
  5
4A6
330
1F
100
AcDbEntity
  8
PV-139
100
AcDbLine
 10
1355.09611135846
 20
850.6354506195039
 30
0.0
 11
1355.09611135846
 21
841.9804492408502
 31
0.0
  0
LINE
  5
4A7
330
1F
100
AcDbEntity
  8
PV-139
100
AcDbLine
 10
1388.09611135846
 20
850.6354506195039
 30
0.0
 11
1388.09611135846
 21
841.9804492408502
 31
0.0
  0
LINE
  5
4A8
330
1F
100
AcDbEntity
  8
PV-139
100
AcDbLine
 10
1388.09611135846
 20
907.6354506195039
 30
0.0
 11
1388.09611135846
 21
909.6354506195039
 31
0.0
  0
LINE
  5
4A9
330
1F
100
AcDbEntity
  8
PV-139
100
AcDbLine
 10
1355.09611135846
 20
907.6354506195039
 30
0.0
 11
1355.09611135846
 21
909.6354506195039
 31
0.0
  0
LINE
  5
4AA
330
1F
100
AcDbEntity
  8
PV-139
100
AcDbLine
 10
1355.09611135846
 20
282.9865804559593
 30
0.0
 11
1355.09611135846
 21
121.1354506195046
 31
0.0
  0
LINE
  5
4AB
330
1F
100
AcDbEntity
  8
PV-139
100
AcDbLine
 10
1388.09611135846
 20
282.9865804559593
 30
0.0
 11
1388.09611135846
 21
121.1354506195046
 31
0.0
  0
LINE
  5
4CC
330
1F
100
AcDbEntity
  8
PV-139
100
AcDbLine
 10
1355.09611135846
 20
73.63545061950458
 30
0.0
 11
1355.09611135846
 21
29.74381239542936
 31
0.0
  0
LINE
  5
4CD
330
1F
100
AcDbEntity
  8
PV-139
100
AcDbLine
 10
1388.09611135846
 20
29.0038812003263
 30
0.0
 11
1388.09611135846
 21
73.63545061950458
 31
0.0
  0
ARC
  5
4CE
330
1F
100
AcDbEntity
  8
PV-139
100
AcDbCircle
 10
1372.158637246535
 20
54.46179339257128
 30
0.0
 40
30.03511901518484
100
AcDbArc
 50
235.3831466985697
 51
302.0478937848833
  0
LINE
  5
522
330
1F
100
AcDbEntity
  8
HEWI
100
AcDbLine
 10
1945.09611137046
 20
2069.135450621504
 30
0.0000000000000637
 11
2046.998709323896
 21
2069.135450621504
 31
0.0000000000000637
  0
ARC
  5
52F
330
1F
100
AcDbEntity
  8
HEWI
100
AcDbCircle
 10
2473.306732695384
 20
2052.635450621504
 30
0.000000000000129
 40
27.28800506531023
100
AcDbArc
 50
322.7955284096168
 51
37.20447159038319
  0
LINE
  5
555
330
1F
100
AcDbEntity
  8
HEWI
100
AcDbLine
 10
1690.154536757733
 20
2037.942706145789
 30
0.0000000000000199
 11
1690.154536757733
 21
2035.142594936968
 31
0.0000000000000199
  0
LINE
  5
556
330
1F
100
AcDbEntity
  8
HEWI
100
AcDbLine
 10
1723.154536757733
 20
2035.142594936968
 30
0.0000000000000199
 11
1723.154536757733
 21
2037.942706145789
 31
0.0000000000000199
  0
LINE
  5
557
330
1F
100
AcDbEntity
  8
HEWI
100
AcDbLine
 10
1619.154711679135
 20
1960.245596702963
 30
0.0000000000000199
 11
1617.603957651749
 21
1960.232063477591
 31
0.0000000000000199
  0
LINE
  5
558
330
1F
100
AcDbEntity
  8
HEWI
100
AcDbLine
 10
1617.603957651749
 20
1936.053126396341
 30
0.0000000000000199
 11
1619.154711679135
 21
1936.039593170969
 31
0.0000000000000199
  0
LINE
  5
55A
330
1F
100
AcDbEntity
  8
HEWI
100
AcDbLine
 10
1615.09611137046
 20
1956.228468983348
 30
0.0000000000000199
 11
1615.09611137046
 21
1940.056720890585
 31
0.0000000000000199
  0
LINE
  5
55B
330
1F
100
AcDbEntity
  8
HEWI
100
AcDbLine
 10
1619.154536757732
 20
1964.142594936968
 30
0.0000000000000199
 11
1619.154536757732
 21
1932.142594936968
 31
0.0000000000000199
  0
LINE
  5
55D
330
1F
100
AcDbEntity
  8
HEWI
100
AcDbLine
 10
1686.60241567085
 20
2035.142594936968
 30
0.0000000000000199
 11
1653.60241567085
 21
2035.142594936968
 31
0.0000000000000199
  0
LINE
  5
55E
330
1F
100
AcDbEntity
  8
HEWI
100
AcDbLine
 10
1615.108882507198
 20
1956.351604121112
 30
0.0000000000000199
 11
1615.108882507198
 21
1939.933585752824
 31
0.0000000000000199
  0
LINE
  5
55F
330
1F
100
AcDbEntity
  8
HEWI
100
AcDbLine
 10
1619.654536757729
 20
1931.642594936968
 30
0.0000000000000199
 11
1619.654536757729
 21
1964.642594936968
 31
0.0000000000000199
  0
ARC
  5
560
330
1F
100
AcDbEntity
  8
HEWI
100
AcDbCircle
 10
1617.621410722744
 20
1958.232139631463
 30
0.0000000000000199
 40
2.0
100
AcDbArc
 50
90.50000000001762
 51
164.6024831560813
  0
ARC
  5
561
330
1F
100
AcDbEntity
  8
HEWI
100
AcDbCircle
 10
1617.621410722744
 20
1938.053050242472
 30
0.0000000000000199
 40
2.0
100
AcDbArc
 50
195.3975168439724
 51
269.4999999999824
  0
ARC
  5
562
330
1F
100
AcDbEntity
  8
HEWI
100
AcDbCircle
 10
1615.696111370458
 20
1956.228468983348
 30
0.0000000000000199
 40
0.6
100
AcDbArc
 50
168.1573159102473
 51
180.0
  0
ARC
  5
563
330
1F
100
AcDbEntity
  8
HEWI
100
AcDbCircle
 10
1615.696111370458
 20
1940.056720890585
 30
0.0000000000000199
 40
0.6
100
AcDbArc
 50
180.0
 51
191.8426840897526
  0
ARC
  5
564
330
1F
100
AcDbEntity
  8
HEWI
100
AcDbCircle
 10
1619.654536757729
 20
1932.142594936968
 30
0.0000000000000199
 40
0.5
100
AcDbArc
 50
180.0
 51
270.0
  0
ARC
  5
565
330
1F
100
AcDbEntity
  8
HEWI
100
AcDbCircle
 10
1619.654536757729
 20
1964.142594936968
 30
0.0000000000000199
 40
0.5
100
AcDbArc
 50
90.0
 51
180.0
  0
ARC
  5
566
330
1F
100
AcDbEntity
  8
HEWI
100
AcDbCircle
 10
-1619.654536757729
 20
2035.142594936968
 30
-0.0000000000000199
 40
70.5
210
0.0
220
0.0
230
-1.0
100
AcDbArc
 50
180.0
 51
270.0
  0
ARC
  5
567
330
1F
100
AcDbEntity
  8
HEWI
100
AcDbCircle
 10
1619.654536757729
 20
2035.142594936968
 30
0.0000000000000199
 40
103.5
100
AcDbArc
 50
270.0
 51
0.0
  0
ARC
  5
568
330
1F
100
AcDbEntity
  8
HEWI
100
AcDbCircle
 10
1654.257473391348
 20
1948.142594936965
 30
0.0000000000000199
 40
40.0
100
AcDbArc
 50
191.8426840897526
 51
195.397516843865
  0
ARC
  5
569
330
1F
100
AcDbEntity
  8
HEWI
100
AcDbCircle
 10
1654.257473391348
 20
1948.142594936965
 30
0.0000000000000199
 40
40.0
100
AcDbArc
 50
164.602483156135
 51
168.1573159102473
  0
SPLINE
  5
56A
330
1F
100
AcDbEntity
  8
HEWI
100
AcDbSpline
210
0.0
220
0.0
230
1.0
 70
     8
 71
     3
 72
    12
 73
     8
 74
     0
 42
0.0000000001
 43
0.0000000001
 40
0.0
 40
0.0
 40
0.0
 40
0.0
 40
0.2741936752587717
 40
0.2741936752587717
 40
0.6825236473598225
 40
0.6825236473598225
 40
1.0
 40
1.0
 40
1.0
 40
1.0
 10
1704.450057451317
 20
2050.445875799123
 30
0.0000000000000199
 10
1705.179628431086
 20
2050.819948328022
 30
0.0000000000000199
 10
1705.962023021746
 20
2051.079981093899
 30
0.0000000000000199
 10
1708.012691579124
 20
2051.006800493118
 30
0.0000000000000199
 10
1709.107824681394
 20
2050.369392510466
 30
0.0000000000000199
 10
1710.86098479499
 20
2049.178537549213
 30
0.0000000000000199
 10
1711.584985380605
 20
2048.606545981698
 30
0.0000000000000199
 10
1712.279711757399
 20
2048.027648118055
 30
0.0000000000000199
  0
SPLINE
  5
56B
330
1F
100
AcDbEntity
  8
HEWI
100
AcDbSpline
210
0.0
220
0.0
230
1.0
 70
     8
 71
     3
 72
    14
 73
    10
 74
     0
 42
0.0000000001
 43
0.0000000001
 40
0.0
 40
0.0
 40
0.0
 40
0.0
 40
0.1553082392560269
 40
0.1553082392560269
 40
0.5773413789765236
 40
0.5773413789765236
 40
0.999374518697021
 40
0.999374518697021
 40
1.0
 40
1.0
 40
1.0
 40
1.0
 10
1716.025288442555
 20
2044.715962066929
 30
0.0000000000000199
 10
1716.606021387592
 20
2044.179836058035
 30
0.0000000000000199
 10
1717.167320341518
 20
2043.654180303688
 30
0.0000000000000199
 10
1719.175786523565
 20
2041.768998922572
 30
0.0000000000000199
 10
1720.48319664987
 20
2040.517641968898
 30
0.0000000000000199
 10
1722.384741140553
 20
2038.693188485751
 30
0.0000000000000199
 10
1722.960723672781
 20
2038.136628532463
 30
0.0000000000000199
 10
1722.954475832112
 20
2038.142653691112
 30
0.0000000000000199
 10
1722.954465311514
 20
2038.142663839255
 30
0.0000000000000199
 10
1722.954453516953
 20
2038.142675218423
 30
0.0000000000000199
  0
SPLINE
  5
56C
330
1F
100
AcDbEntity
  8
HEWI
100
AcDbSpline
210
0.0
220
0.0
230
1.0
 70
     8
 71
     3
 72
    16
 73
    12
 74
     0
 42
0.0000000001
 43
0.0000000001
 40
0.0
 40
0.0
 40
0.0
 40
0.0
 40
0.1250157563598047
 40
0.1250157563598047
 40
0.2500315127196094
 40
0.2500315127196094
 40
0.500063025439219
 40
0.500063025439219
 40
0.7500945381588286
 40
0.7500945381588286
 40
1.0
 40
1.0
 40
1.0
 40
1.0
 10
1706.654536757733
 20
2051.009414512056
 30
0.0000000000000199
 10
1705.391467522038
 20
2051.009414512053
 30
0.0000000000000199
 10
1704.26268997229
 20
2050.371183301191
 30
0.0000000000000199
 10
1702.239146321912
 20
2049.013404078232
 30
0.0000000000000199
 10
1701.302052173012
 20
2048.242723494947
 30
0.0000000000000199
 10
1698.622729066881
 20
2045.961935666952
 30
0.0000000000000199
 10
1696.965335627692
 20
2044.414898861875
 30
0.0000000000000199
 10
1693.976051661857
 20
2041.609635697737
 30
0.0000000000000199
 10
1692.648524495844
 20
2040.339090886876
 30
0.0000000000000199
 10
1690.725896463007
 20
2038.494631943183
 30
0.0000000000000199
 10
1690.147702041389
 20
2037.936005921121
 30
0.0000000000000199
 10
1690.154599865038
 20
2037.942655786965
 30
0.0000000000000199
  0
SPLINE
  5
56D
330
1F
100
AcDbEntity
  8
HEWI
100
AcDbSpline
210
0.0
220
0.0
230
1.0
 70
     8
 71
     3
 72
    16
 73
    12
 74
     0
 42
0.0000000001
 43
0.0000000001
 40
0.0
 40
0.0
 40
0.0
 40
0.0
 40
0.2491612241202365
 40
0.2491612241202365
 40
0.4994408160801579
 40
0.4994408160801579
 40
0.749720408040079
 40
0.749720408040079
 40
0.8748602040200394
 40
0.8748602040200394
 40
1.0
 40
1.0
 40
1.0
 40
1.0
 10
1723.154330003459
 20
2037.942794360151
 30
0.0000000000000199
 10
1723.141819522452
 20
2037.954867113853
 30
0.0000000000000199
 10
1722.55682989934
 20
2038.520025092322
 30
0.0000000000000199
 10
1720.615748742113
 20
2040.381947822895
 30
0.0000000000000199
 10
1719.296616098645
 20
2041.644274633149
 30
0.0000000000000199
 10
1716.302117855792
 20
2044.453469931072
 30
0.0000000000000199
 10
1714.676262994466
 20
2045.97174796379
 30
0.0000000000000199
 10
1711.982716576398
 20
2048.262787754286
 30
0.0000000000000199
 10
1711.052283374831
 20
2049.027260919721
 30
0.0000000000000199
 10
1709.026300549189
 20
2050.38260292246
 30
0.0000000000000199
 10
1707.91760599342
 20
2051.009414512056
 30
0.0000000000000199
 10
1706.654536757733
 20
2051.009414512056
 30
0.0000000000000199
  0
LINE
  5
56E
330
1F
100
AcDbEntity
  8
HEWI
 62
   253
370
     9
100
AcDbLine
 10
1618.596111370459
 20
2035.142594936968
 30
0.0000000000000037
 11
2498.596111370459
 21
2035.142594936968
 31
0.0000000000001581
  0
LINE
  5
570
330
1F
100
AcDbEntity
  8
HEWI
 62
   253
370
     9
100
AcDbLine
 10
2459.745394883162
 20
2035.142594936968
 30
0.0000000000001581
 11
2498.596111370459
 21
2035.142594936968
 31
0.0000000000001581
  0
LINE
  5
571
330
1F
100
AcDbEntity
  8
HEWI
100
AcDbLine
 10
1885.84611137046
 20
2069.135450621504
 30
0.0000000000000528
 11
2046.998709323896
 21
2069.135450621504
 31
0.0000000000000824
210
0.0
220
1.0
230
0.0
  0
LINE
  5
572
330
1F
100
AcDbEntity
  8
PV-139
100
AcDbLine
 10
1885.84611137046
 20
2036.135450621504
 30
0.0000000000000527
 11
2046.998709323896
 21
2036.135450621504
 31
0.0000000000000824
210
0.0
220
1.0
230
0.0
  0
LINE
  5
573
330
1F
100
AcDbEntity
  8
HEWI
100
AcDbLine
 10
2086.998709323896
 20
2069.135450621504
 30
0.0000000000000637
 11
2259.745394883163
 21
2069.135450621504
 31
0.0000000000000637
  0
LINE
  5
574
330
1F
100
AcDbEntity
  8
HEWI
100
AcDbLine
 10
2086.998709323896
 20
2069.135450621504
 30
0.0000000000000897
 11
2216.09611137046
 21
2069.135450621504
 31
0.0000000000001134
210
0.0
220
1.0
230
0.0
  0
LINE
  5
575
330
1F
100
AcDbEntity
  8
PV-139
100
AcDbLine
 10
2086.998709323896
 20
2036.135450621504
 30
0.0000000000000897
 11
2234.023296333459
 21
2036.135450621504
 31
0.0000000000001167
210
0.0
220
1.0
230
0.0
  0
LINE
  5
576
330
1F
100
AcDbEntity
  8
HEWI
100
AcDbLine
 10
2299.745394883163
 20
2036.135450621504
 30
0.0000000000000965
 11
2419.745394883162
 21
2036.135450621504
 31
0.0000000000000389
210
0.0
220
1.0
230
0.0
  0
LINE
  5
577
330
1F
100
AcDbEntity
  8
HEWI
100
AcDbLine
 10
2299.745394883163
 20
2069.135450621504
 30
0.0000000000000637
 11
2419.745394883162
 21
2069.135450621504
 31
0.0000000000000637
  0
LINE
  5
578
330
1F
100
AcDbEntity
  8
HEWI
100
AcDbLine
 10
2299.745394883163
 20
2069.135450621504
 30
0.0000000000001288
 11
2419.745394883162
 21
2069.135450621504
 31
0.0000000000001508
210
0.0
220
1.0
230
0.0
  0
LINE
  5
579
330
1F
100
AcDbEntity
  8
HEWI
100
AcDbLine
 10
2459.745394883162
 20
2036.135450621504
 30
0.0000000000000196
 11
2495.041157473703
 21
2036.135450621504
 31
0.0000000000000027
210
0.0
220
1.0
230
0.0
  0
LINE
  5
57A
330
1F
100
AcDbEntity
  8
HEWI
100
AcDbLine
 10
2459.745394883162
 20
2069.135450621504
 30
0.0000000000000637
 11
2495.041157473703
 21
2069.135450621504
 31
0.0000000000000637
  0
LINE
  5
57B
330
1F
100
AcDbEntity
  8
HEWI
100
AcDbLine
 10
2459.745394883162
 20
2069.135450621504
 30
0.0000000000001582
 11
2486.09611137046
 21
2069.135450621504
 31
0.000000000000163
210
0.0
220
1.0
230
0.0
  0
DIMENSION
  5
57C
330
1F
100
AcDbEntity
  8
0
100
AcDbDimension
  2
*D8
 10
2642.519657671981
 20
1179.135450621503
 30
0.0
 11
2599.543873224505
 21
1624.135450621504
 31
0.0
 70
    32
 71
     5
 42
890.0
  3
ISO-25
100
AcDbAlignedDimension
 13
2545.986358742664
 23
2069.135450621504
 33
0.0000000000000637
 14
2549.541312639421
 24
1179.135450621504
 34
0.0000000000001445
 50
90.0
100
AcDbRotatedDimension
1001
ACAD
1000
DSTYLE
1002
{
1070
    41
1040
20.0
1070
   140
1040
45.0
1070
   147
1040
20.0
1070
   173
1070
     1
1070
   340
1005
61B
1070
   343
1005
609
1070
   344
1005
609
1002
}
  0
LINE
  5
595
330
1F
100
AcDbEntity
  8
HEWI
100
AcDbLine
 10
1144.596111346459
 20
1857.635450621504
 30
0.0
 11
1144.596111346459
 21
2110.635450621504
 31
0.0
210
0.0000000000000004
220
1.0
230
0.0
  0
LINE
  5
596
330
1F
100
AcDbEntity
  8
HEWI
100
AcDbLine
 10
1144.596111346459
 20
2112.135450621504
 30
0.0
 11
1144.596111346459
 21
2110.635450621504
 31
0.0
210
0.0000000000000004
220
1.0
230
0.0
  0
LINE
  5
597
330
1F
100
AcDbEntity
  8
HEWI
100
AcDbLine
 10
1144.596111346459
 20
1857.635450621504
 30
0.0
 11
1144.596111346459
 21
1856.135450621504
 31
0.0
210
0.0000000000000004
220
1.0
230
0.0
  0
LINE
  5
598
330
1F
100
AcDbEntity
  8
HEWI
100
AcDbLine
 10
1139.59611134646
 20
2112.135450621504
 30
0.0000000000000009
 11
1144.596111346459
 21
2112.135450621504
 31
0.0
210
0.0000000000000004
220
1.0
230
0.0
  0
ARC
  5
599
330
1F
100
AcDbEntity
  8
HEWI
100
AcDbCircle
 10
1139.59611134646
 20
2100.635450621504
 30
0.0000000000000009
 40
11.5
100
AcDbArc
 50
90.0
 51
180.0
  0
LINE
  5
59A
330
1F
100
AcDbEntity
  8
HEWI
100
AcDbLine
 10
1128.09611134646
 20
1867.635450621504
 30
0.000000000000003
 11
1128.09611134646
 21
2100.635450621504
 31
0.000000000000003
210
0.0000000000000004
220
1.0
230
0.0
  0
ARC
  5
59B
330
1F
100
AcDbEntity
  8
HEWI
100
AcDbCircle
 10
1139.59611134646
 20
1867.635450621504
 30
0.0000000000000009
 40
11.5
100
AcDbArc
 50
180.0
 51
270.0
  0
LINE
  5
59C
330
1F
100
AcDbEntity
  8
HEWI
100
AcDbLine
 10
1144.596111346459
 20
1856.135450621504
 30
0.0
 11
1139.59611134646
 21
1856.135450621504
 31
0.0000000000000009
210
0.0000000000000004
220
1.0
230
0.0
  0
LINE
  5
59D
330
1F
100
AcDbEntity
  8
HEWI
100
AcDbLine
 10
1128.09611134646
 20
2075.385450621504
 30
0.000000000000003
 11
1103.59611134646
 21
2075.385450621504
 31
0.0000000000000075
210
0.0000000000000004
220
1.0
230
0.0
  0
LINE
  5
59E
330
1F
100
AcDbEntity
  8
HEWI
100
AcDbLine
 10
1103.59611134646
 20
2029.885450621504
 30
0.0000000000000075
 11
1128.09611134646
 21
2029.885450621504
 31
0.000000000000003
210
0.0000000000000004
220
1.0
230
0.0
  0
ARC
  5
59F
330
1F
100
AcDbEntity
  8
HEWI
100
AcDbCircle
 10
1103.59611134646
 20
2052.635450621504
 30
0.0000000000000075
 40
22.74999999999999
100
AcDbArc
 50
90.0
 51
270.0
  0
LINE
  5
5A0
330
1F
100
AcDbEntity
  8
HEWI
100
AcDbLine
 10
1093.898232433343
 20
2035.142594936968
 30
0.0000000000000161
 11
1093.898232433343
 21
2070.135450621504
 31
0.0000000000000161
210
0.0000000000000004
220
1.0
230
0.0
  0
LINE
  5
5A1
330
1F
100
AcDbEntity
  8
HEWI
100
AcDbLine
 10
1053.898232433343
 20
2070.135450621504
 30
0.0000000000000235
 11
1053.898232433343
 21
2035.142594936968
 31
0.0000000000000235
210
0.0000000000000004
220
1.0
230
0.0
  0
LINE
  5
5A2
330
1F
100
AcDbEntity
  8
HEWI
100
AcDbLine
 10
897.3461113464599
 20
2035.142594936968
 30
0.0000000000000455
 11
897.3461113464599
 21
2070.135450621505
 31
0.0000000000000455
210
0.0000000000000004
220
1.0
230
0.0
  0
LINE
  5
5A3
330
1F
100
AcDbEntity
  8
HEWI
100
AcDbLine
 10
857.3461113464599
 20
2070.135450621505
 30
0.0000000000000529
 11
857.3461113464599
 21
2035.142594936968
 31
0.0000000000000529
210
0.0000000000000004
220
1.0
230
0.0
  0
LINE
  5
5A4
330
1F
100
AcDbEntity
  8
HEWI
 62
   253
370
     9
100
AcDbLine
 10
1124.59611134646
 20
2035.142594936968
 30
0.0000000000000037
 11
1124.596111346459
 21
1179.135450621504
 31
0.0000000000000037
210
0.0000000000000004
220
1.0
230
0.0
  0
LINE
  5
5A5
330
1F
100
AcDbEntity
  8
HEWI
100
AcDbLine
 10
1093.898232433343
 20
2035.142594936968
 30
0.0000000000000161
 11
1053.898232433343
 21
2035.142594936968
 31
0.0000000000000235
210
0.0000000000000004
220
1.0
230
0.0
  0
LINE
  5
5A6
330
1F
100
AcDbEntity
  8
HEWI
100
AcDbLine
 10
897.3461113464599
 20
2035.142594936968
 30
0.0000000000000455
 11
857.3461113464599
 21
2035.142594936968
 31
0.0000000000000529
210
0.0000000000000004
220
1.0
230
0.0
  0
LINE
  5
5A7
330
1F
100
AcDbEntity
  8
HEWI
 62
   253
370
     9
100
AcDbLine
 10
244.5961113464609
 20
2035.142594936969
 30
0.0000000000001581
 11
244.5961113464605
 21
1179.135450621504
 31
0.0000000000001653
210
0.0000000000000004
220
1.0
230
0.0
  0
LINE
  5
5A8
330
1F
100
AcDbEntity
  8
HEWI
 62
   253
370
     9
100
AcDbLine
 10
244.5961113464605
 20
1179.135450621504
 30
0.0000000000001445
 11
1124.596111346459
 21
1179.135450621504
 31
-0.0000000000000171
210
0.0000000000000004
220
1.0
230
0.0
  0
LINE
  5
5A9
330
1F
100
AcDbEntity
  8
HEWI
100
AcDbLine
 10
1017.34611134646
 20
2036.135450621504
 30
0.0000000000000235
 11
897.3461113464599
 21
2036.135450621504
 31
0.0000000000000455
210
0.0000000000000004
220
1.0
230
0.0
  0
LINE
  5
5AA
330
1F
100
AcDbEntity
  8
HEWI
100
AcDbLine
 10
857.3461113464599
 20
2036.135450621504
 30
0.0000000000000529
 11
737.3461113464599
 21
2036.135450621504
 31
0.0000000000000749
210
0.0000000000000004
220
1.0
230
0.0
  0
LINE
  5
5AB
330
1F
100
AcDbEntity
  8
HEWI
100
AcDbLine
 10
656.1935133930236
 20
2036.135450621504
 30
0.0000000000000527
 11
536.1935133930236
 21
2036.135450621504
 31
0.0000000000000747
210
0.0000000000000004
220
1.0
230
0.0
  0
LINE
  5
5AC
330
1F
100
AcDbEntity
  8
HEWI
100
AcDbLine
 10
656.1935133930236
 20
2070.135450621505
 30
0.0000000000000527
 11
656.1935133930236
 21
2035.142594936969
 31
0.0000000000000527
210
0.0000000000000004
220
1.0
230
0.0
  0
LINE
  5
5AD
330
1F
100
AcDbEntity
  8
HEWI
100
AcDbLine
 10
656.1935133930236
 20
2035.142594936969
 30
0.0000000000000527
 11
696.1935133930235
 21
2035.142594936969
 31
0.0000000000000453
210
0.0000000000000004
220
1.0
230
0.0
  0
LINE
  5
5AE
330
1F
100
AcDbEntity
  8
HEWI
100
AcDbLine
 10
696.1935133930235
 20
2035.142594936969
 30
0.0000000000000453
 11
696.1935133930235
 21
2070.135450621505
 31
0.0000000000000453
210
0.0000000000000004
220
1.0
230
0.0
  0
LINE
  5
5AF
330
1F
100
AcDbEntity
  8
HEWI
100
AcDbLine
 10
509.1689263834606
 20
2036.135450621504
 30
0.0000000000001167
 11
483.446827833757
 21
2036.135450621504
 31
0.0000000000001214
210
0.0000000000000004
220
1.0
230
0.0
  0
LINE
  5
5B0
330
1F
100
AcDbEntity
  8
HEWI
100
AcDbLine
 10
443.4468278337569
 20
2036.135450621504
 30
0.0000000000001288
 11
323.4468278337581
 21
2036.135450621504
 31
0.0000000000001508
210
0.0000000000000004
220
1.0
230
0.0
  0
LINE
  5
5B1
330
1F
100
AcDbEntity
  8
HEWI
100
AcDbLine
 10
443.4468278337569
 20
2070.135450621505
 30
0.0000000000001288
 11
443.4468278337569
 21
2035.142594936969
 31
0.0000000000001288
210
0.0000000000000004
220
1.0
230
0.0
  0
LINE
  5
5B2
330
1F
100
AcDbEntity
  8
HEWI
100
AcDbLine
 10
443.4468278337569
 20
2035.142594936969
 30
0.0000000000001288
 11
483.446827833757
 21
2035.142594936969
 31
0.0000000000001214
210
0.0000000000000004
220
1.0
230
0.0
  0
LINE
  5
5B3
330
1F
100
AcDbEntity
  8
HEWI
100
AcDbLine
 10
483.446827833757
 20
2035.142594936969
 30
0.0000000000001214
 11
483.446827833757
 21
2070.135450621505
 31
0.0000000000001214
210
0.0000000000000004
220
1.0
230
0.0
  0
LINE
  5
5B4
330
1F
100
AcDbEntity
  8
HEWI
100
AcDbLine
 10
283.4468278337581
 20
2036.135450621504
 30
0.0000000000001581
 11
263.4468278337581
 21
2036.135450621504
 31
0.0000000000001618
210
0.0000000000000004
220
1.0
230
0.0
  0
LINE
  5
5B5
330
1F
100
AcDbEntity
  8
HEWI
100
AcDbLine
 10
283.4468278337581
 20
2070.135450621505
 30
0.0000000000001581
 11
283.4468278337581
 21
2035.142594936969
 31
0.0000000000001581
210
0.0000000000000004
220
1.0
230
0.0
  0
LINE
  5
5B6
330
1F
100
AcDbEntity
  8
HEWI
100
AcDbLine
 10
283.4468278337581
 20
2035.142594936969
 30
0.0000000000001581
 11
323.4468278337581
 21
2035.142594936969
 31
0.0000000000001508
210
0.0000000000000004
220
1.0
230
0.0
  0
LINE
  5
5B7
330
1F
100
AcDbEntity
  8
HEWI
100
AcDbLine
 10
323.4468278337581
 20
2035.142594936969
 30
0.0000000000001508
 11
323.4468278337581
 21
2070.135450621505
 31
0.0000000000001508
210
0.0000000000000004
220
1.0
230
0.0
  0
LINE
  5
5B8
330
1F
100
AcDbEntity
  8
HEWI
100
AcDbLine
 10
323.4468278337581
 20
2070.135450621505
 30
0.0000000000001508
 11
283.4468278337581
 21
2070.135450621505
 31
0.0000000000001581
210
0.0000000000000004
220
1.0
230
0.0
  0
LINE
  5
5B9
330
1F
100
AcDbEntity
  8
HEWI
100
AcDbLine
 10
483.446827833757
 20
2070.135450621505
 30
0.0000000000001214
 11
443.4468278337569
 21
2070.135450621505
 31
0.0000000000001288
210
0.0000000000000004
220
1.0
230
0.0
  0
LINE
  5
5BA
330
1F
100
AcDbEntity
  8
HEWI
100
AcDbLine
 10
696.1935133930235
 20
2070.135450621505
 30
0.0000000000000453
 11
656.1935133930236
 21
2070.135450621505
 31
0.0000000000000527
210
0.0000000000000004
220
1.0
230
0.0
  0
LINE
  5
5BB
330
1F
100
AcDbEntity
  8
HEWI
100
AcDbLine
 10
897.3461113464599
 20
2070.135450621505
 30
0.0000000000000455
 11
857.3461113464599
 21
2070.135450621505
 31
0.0000000000000529
210
0.0000000000000004
220
1.0
230
0.0
  0
LINE
  5
5BC
330
1F
100
AcDbEntity
  8
HEWI
100
AcDbLine
 10
1093.898232433343
 20
2070.135450621504
 30
0.0000000000000161
 11
1053.898232433343
 21
2070.135450621504
 31
0.0000000000000235
210
0.0000000000000004
220
1.0
230
0.0
  0
LINE
  5
5BD
330
1F
100
AcDbEntity
  8
PV-139
100
AcDbLine
 10
963.09611134646
 20
2036.135450621504
 30
0.0000000000000333
 11
897.3461113464599
 21
2036.135450621504
 31
0.0000000000000454
210
0.0000000000000004
220
1.0
230
0.0
  0
LINE
  5
5BE
330
1F
100
AcDbEntity
  8
PV-139
100
AcDbLine
 10
857.3461113464599
 20
2036.135450621504
 30
0.0000000000000527
 11
696.1935133930235
 21
2036.135450621504
 31
0.0000000000000824
210
0.0000000000000004
220
1.0
230
0.0
  0
LINE
  5
5BF
330
1F
100
AcDbEntity
  8
PV-139
100
AcDbLine
 10
656.1935133930236
 20
2036.135450621504
 30
0.0000000000000897
 11
509.1689263834606
 21
2036.135450621504
 31
0.0000000000001167
210
0.0000000000000004
220
1.0
230
0.0
  0
LINE
  5
5C0
330
1F
100
AcDbEntity
  8
HEWI
100
AcDbLine
 10
1053.898232433343
 20
2036.135450621504
 30
0.0000000000000167
 11
1053.037685959187
 21
2036.135450621504
 31
0.0000000000000168
210
0.0000000000000004
220
1.0
230
0.0
  0
LINE
  5
5C1
330
1F
100
AcDbEntity
  8
HEWI
100
AcDbLine
 10
1053.898232433343
 20
2069.135450621504
 30
0.0000000000000167
 11
897.3461113464599
 21
2069.135450621504
 31
0.0000000000000454
210
0.0000000000000004
220
1.0
230
0.0
  0
LINE
  5
5C2
330
1F
100
AcDbEntity
  8
HEWI
100
AcDbLine
 10
857.3461113464601
 20
2069.135450621504
 30
0.0000000000000528
 11
696.1935133930235
 21
2069.135450621504
 31
0.0000000000000824
210
0.0000000000000004
220
1.0
230
0.0
  0
LINE
  5
5C3
330
1F
100
AcDbEntity
  8
HEWI
100
AcDbLine
 10
656.1935133930236
 20
2069.135450621504
 30
0.0000000000000897
 11
527.0961113464599
 21
2069.135450621504
 31
0.0000000000001134
210
0.0000000000000004
220
1.0
230
0.0
  0
LINE
  5
5C4
330
1F
100
AcDbEntity
  8
HEWI
100
AcDbLine
 10
897.3461113464599
 20
2069.135450621504
 30
0.0000000000000455
 11
915.84611134646
 21
2069.135450621504
 31
0.0000000000000421
210
0.0000000000000004
220
1.0
230
0.0
  0
LINE
  5
5C5
330
1F
100
AcDbEntity
  8
HEWI
100
AcDbLine
 10
492.0961113464598
 20
2036.135450621504
 30
0.0000000000001199
 11
483.446827833757
 21
2036.135450621504
 31
0.0000000000001157
210
0.0000000000000004
220
1.0
230
0.0
  0
LINE
  5
5C6
330
1F
100
AcDbEntity
  8
HEWI
100
AcDbLine
 10
443.4468278337569
 20
2036.135450621504
 30
0.0000000000000965
 11
323.4468278337581
 21
2036.135450621504
 31
0.0000000000000389
210
0.0000000000000004
220
1.0
230
0.0
  0
LINE
  5
5C7
330
1F
100
AcDbEntity
  8
HEWI
100
AcDbLine
 10
283.4468278337579
 20
2036.135450621504
 30
0.0000000000000196
 11
248.1510652432169
 21
2036.135450621504
 31
0.0000000000000027
210
0.0000000000000004
220
1.0
230
0.0
  0
LINE
  5
5C8
330
1F
100
AcDbEntity
  8
HEWI
100
AcDbLine
 10
492.0961113464598
 20
2069.135450621505
 30
0.0000000000001199
 11
483.446827833757
 21
2069.135450621505
 31
0.0000000000001215
210
0.0000000000000004
220
1.0
230
0.0
  0
LINE
  5
5C9
330
1F
100
AcDbEntity
  8
HEWI
100
AcDbLine
 10
443.4468278337569
 20
2069.135450621505
 30
0.0000000000001288
 11
323.4468278337581
 21
2069.135450621505
 31
0.0000000000001508
210
0.0000000000000004
220
1.0
230
0.0
  0
LINE
  5
5CA
330
1F
100
AcDbEntity
  8
HEWI
100
AcDbLine
 10
283.4468278337579
 20
2069.135450621505
 30
0.0000000000001582
 11
257.09611134646
 21
2069.135450621505
 31
0.000000000000163
210
0.0000000000000004
220
1.0
230
0.0
  0
LINE
  5
5CB
330
1F
100
AcDbEntity
  8
HEWI
100
AcDbLine
 10
798.0961113464599
 20
2069.135450621504
 30
0.0000000000000637
 11
696.1935133930236
 21
2069.135450621504
 31
0.0000000000000637
  0
LINE
  5
5CC
330
1F
100
AcDbEntity
  8
HEWI
100
AcDbLine
 10
656.1935133930236
 20
2069.135450621505
 30
0.0000000000000637
 11
483.446827833757
 21
2069.135450621505
 31
0.0000000000000637
  0
LINE
  5
5CD
330
1F
100
AcDbEntity
  8
HEWI
100
AcDbLine
 10
443.446827833757
 20
2069.135450621505
 30
0.0000000000000637
 11
323.4468278337581
 21
2069.135450621505
 31
0.0000000000000637
  0
LINE
  5
5CE
330
1F
100
AcDbEntity
  8
HEWI
100
AcDbLine
 10
283.4468278337581
 20
2069.135450621505
 30
0.0000000000000637
 11
248.1510652432169
 21
2069.135450621505
 31
0.0000000000000637
  0
ARC
  5
5CF
330
1F
100
AcDbEntity
  8
HEWI
100
AcDbCircle
 10
269.8854900215356
 20
2052.635450621504
 30
0.000000000000129
 40
27.28800506531023
100
AcDbArc
 50
142.7955284096168
 51
217.2044715903832
  0
LINE
  5
5D0
330
1F
100
AcDbEntity
  8
HEWI
100
AcDbLine
 10
1053.037685959187
 20
2037.942706145789
 30
0.0000000000000199
 11
1053.037685959187
 21
2035.142594936968
 31
0.0000000000000199
  0
LINE
  5
5D1
330
1F
100
AcDbEntity
  8
HEWI
100
AcDbLine
 10
1020.037685959187
 20
2035.142594936968
 30
0.0000000000000199
 11
1020.037685959187
 21
2037.942706145789
 31
0.0000000000000199
  0
LINE
  5
5D2
330
1F
100
AcDbEntity
  8
HEWI
100
AcDbLine
 10
1124.037511037784
 20
1960.245596702963
 30
0.0000000000000199
 11
1125.588265065171
 21
1960.232063477591
 31
0.0000000000000199
  0
LINE
  5
5D3
330
1F
100
AcDbEntity
  8
HEWI
100
AcDbLine
 10
1125.588265065171
 20
1936.053126396341
 30
0.0000000000000199
 11
1124.037511037784
 21
1936.039593170969
 31
0.0000000000000199
  0
LINE
  5
5D4
330
1F
100
AcDbEntity
  8
HEWI
100
AcDbLine
 10
1128.09611134646
 20
1956.228468983348
 30
0.0000000000000199
 11
1128.09611134646
 21
1940.056720890585
 31
0.0000000000000199
  0
LINE
  5
5D5
330
1F
100
AcDbEntity
  8
HEWI
100
AcDbLine
 10
1124.037685959187
 20
1964.142594936968
 30
0.0000000000000199
 11
1124.037685959187
 21
1932.142594936968
 31
0.0000000000000199
  0
LINE
  5
5D6
330
1F
100
AcDbEntity
  8
HEWI
100
AcDbLine
 10
1056.589807046069
 20
2035.142594936968
 30
0.0000000000000199
 11
1089.589807046069
 21
2035.142594936968
 31
0.0000000000000199
  0
LINE
  5
5D7
330
1F
100
AcDbEntity
  8
HEWI
100
AcDbLine
 10
1128.083340209721
 20
1956.351604121112
 30
0.0000000000000199
 11
1128.083340209721
 21
1939.933585752824
 31
0.0000000000000199
  0
LINE
  5
5D8
330
1F
100
AcDbEntity
  8
HEWI
100
AcDbLine
 10
1123.53768595919
 20
1931.642594936968
 30
0.0000000000000199
 11
1123.53768595919
 21
1964.642594936968
 31
0.0000000000000199
  0
ARC
  5
5D9
330
1F
100
AcDbEntity
  8
HEWI
100
AcDbCircle
 10
1125.570811994175
 20
1958.232139631463
 30
0.0000000000000199
 40
2.0
100
AcDbArc
 50
15.39751684391869
 51
89.49999999998238
  0
ARC
  5
5DA
330
1F
100
AcDbEntity
  8
HEWI
100
AcDbCircle
 10
1125.570811994175
 20
1938.053050242472
 30
0.0000000000000199
 40
2.0
100
AcDbArc
 50
270.5000000000176
 51
344.6024831560276
  0
ARC
  5
5DB
330
1F
100
AcDbEntity
  8
HEWI
100
AcDbCircle
 10
1127.496111346461
 20
1956.228468983348
 30
0.0000000000000199
 40
0.6
100
AcDbArc
 50
0.0
 51
11.84268408975266
  0
ARC
  5
5DC
330
1F
100
AcDbEntity
  8
HEWI
100
AcDbCircle
 10
1127.496111346461
 20
1940.056720890585
 30
0.0000000000000199
 40
0.6
100
AcDbArc
 50
348.1573159102473
 51
0.0
  0
ARC
  5
5DD
330
1F
100
AcDbEntity
  8
HEWI
100
AcDbCircle
 10
1123.53768595919
 20
1932.142594936968
 30
0.0000000000000199
 40
0.5
100
AcDbArc
 50
270.0
 51
0.0
  0
ARC
  5
5DE
330
1F
100
AcDbEntity
  8
HEWI
100
AcDbCircle
 10
1123.53768595919
 20
1964.142594936968
 30
0.0000000000000199
 40
0.5
100
AcDbArc
 50
0.0
 51
90.0
  0
ARC
  5
5DF
330
1F
100
AcDbEntity
  8
HEWI
100
AcDbCircle
 10
-1123.53768595919
 20
2035.142594936968
 30
-0.0000000000000199
 40
70.5
210
0.0
220
0.0
230
-1.0
100
AcDbArc
 50
270.0
 51
0.0
  0
ARC
  5
5E0
330
1F
100
AcDbEntity
  8
HEWI
100
AcDbCircle
 10
1123.53768595919
 20
2035.142594936968
 30
0.0000000000000199
 40
103.5
100
AcDbArc
 50
180.0
 51
270.0
  0
ARC
  5
5E1
330
1F
100
AcDbEntity
  8
HEWI
100
AcDbCircle
 10
1088.934749325571
 20
1948.142594936965
 30
0.0000000000000199
 40
40.0
100
AcDbArc
 50
344.602483156135
 51
348.1573159102473
  0
ARC
  5
5E2
330
1F
100
AcDbEntity
  8
HEWI
100
AcDbCircle
 10
1088.934749325571
 20
1948.142594936965
 30
0.0000000000000199
 40
40.0
100
AcDbArc
 50
11.84268408975266
 51
15.39751684386499
  0
SPLINE
  5
5E3
330
1F
100
AcDbEntity
  8
HEWI
100
AcDbSpline
210
0.0
220
0.0
230
1.0
 70
     8
 71
     3
 72
    12
 73
     8
 74
     0
 42
0.0000000001
 43
0.0000000001
 40
0.0
 40
0.0
 40
0.0
 40
0.0
 40
0.2741936752587717
 40
0.2741936752587717
 40
0.6825236473598225
 40
0.6825236473598225
 40
1.0
 40
1.0
 40
1.0
 40
1.0
 10
1038.742165265603
 20
2050.445875799123
 30
0.0000000000000199
 10
1038.012594285834
 20
2050.819948328022
 30
0.0000000000000199
 10
1037.230199695174
 20
2051.079981093899
 30
0.0000000000000199
 10
1035.179531137795
 20
2051.006800493118
 30
0.0000000000000199
 10
1034.084398035525
 20
2050.369392510466
 30
0.0000000000000199
 10
1032.33123792193
 20
2049.178537549213
 30
0.0000000000000199
 10
1031.607237336314
 20
2048.606545981698
 30
0.0000000000000199
 10
1030.91251095952
 20
2048.027648118055
 30
0.0000000000000199
  0
SPLINE
  5
5E4
330
1F
100
AcDbEntity
  8
HEWI
100
AcDbSpline
210
0.0
220
0.0
230
1.0
 70
     8
 71
     3
 72
    14
 73
    10
 74
     0
 42
0.0000000001
 43
0.0000000001
 40
0.0
 40
0.0
 40
0.0
 40
0.0
 40
0.1553082392560269
 40
0.1553082392560269
 40
0.5773413789765236
 40
0.5773413789765236
 40
0.999374518697021
 40
0.999374518697021
 40
1.0
 40
1.0
 40
1.0
 40
1.0
 10
1027.166934274364
 20
2044.715962066929
 30
0.0000000000000199
 10
1026.586201329328
 20
2044.179836058035
 30
0.0000000000000199
 10
1026.024902375402
 20
2043.654180303688
 30
0.0000000000000199
 10
1024.016436193354
 20
2041.768998922572
 30
0.0000000000000199
 10
1022.70902606705
 20
2040.517641968898
 30
0.0000000000000199
 10
1020.807481576366
 20
2038.693188485751
 30
0.0000000000000199
 10
1020.231499044139
 20
2038.136628532464
 30
0.0000000000000199
 10
1020.237746884808
 20
2038.142653691113
 30
0.0000000000000199
 10
1020.237757405406
 20
2038.142663839256
 30
0.0000000000000199
 10
1020.237769199966
 20
2038.142675218423
 30
0.0000000000000199
  0
SPLINE
  5
5E5
330
1F
100
AcDbEntity
  8
HEWI
100
AcDbSpline
210
0.0
220
0.0
230
1.0
 70
     8
 71
     3
 72
    16
 73
    12
 74
     0
 42
0.0000000001
 43
0.0000000001
 40
0.0
 40
0.0
 40
0.0
 40
0.0
 40
0.1250157563598047
 40
0.1250157563598047
 40
0.2500315127196094
 40
0.2500315127196094
 40
0.500063025439219
 40
0.500063025439219
 40
0.7500945381588286
 40
0.7500945381588286
 40
1.0
 40
1.0
 40
1.0
 40
1.0
 10
1036.537685959187
 20
2051.009414512056
 30
0.0000000000000199
 10
1037.800755194881
 20
2051.009414512053
 30
0.0000000000000199
 10
1038.929532744629
 20
2050.371183301191
 30
0.0000000000000199
 10
1040.953076395008
 20
2049.013404078232
 30
0.0000000000000199
 10
1041.890170543907
 20
2048.242723494947
 30
0.0000000000000199
 10
1044.569493650038
 20
2045.961935666952
 30
0.0000000000000199
 10
1046.226887089227
 20
2044.414898861875
 30
0.0000000000000199
 10
1049.216171055062
 20
2041.609635697737
 30
0.0000000000000199
 10
1050.543698221076
 20
2040.339090886876
 30
0.0000000000000199
 10
1052.466326253912
 20
2038.494631943183
 30
0.0000000000000199
 10
1053.04452067553
 20
2037.936005921121
 30
0.0000000000000199
 10
1053.037622851881
 20
2037.942655786965
 30
0.0000000000000199
  0
SPLINE
  5
5E6
330
1F
100
AcDbEntity
  8
HEWI
100
AcDbSpline
210
0.0
220
0.0
230
1.0
 70
     8
 71
     3
 72
    16
 73
    12
 74
     0
 42
0.0000000001
 43
0.0000000001
 40
0.0
 40
0.0
 40
0.0
 40
0.0
 40
0.2491612241202365
 40
0.2491612241202365
 40
0.4994408160801579
 40
0.4994408160801579
 40
0.749720408040079
 40
0.749720408040079
 40
0.8748602040200394
 40
0.8748602040200394
 40
1.0
 40
1.0
 40
1.0
 40
1.0
 10
1020.03789271346
 20
2037.942794360152
 30
0.0000000000000199
 10
1020.050403194467
 20
2037.954867113854
 30
0.0000000000000199
 10
1020.635392817579
 20
2038.520025092322
 30
0.0000000000000199
 10
1022.576473974806
 20
2040.381947822895
 30
0.0000000000000199
 10
1023.895606618274
 20
2041.644274633149
 30
0.0000000000000199
 10
1026.890104861128
 20
2044.453469931072
 30
0.0000000000000199
 10
1028.515959722454
 20
2045.97174796379
 30
0.0000000000000199
 10
1031.209506140521
 20
2048.262787754286
 30
0.0000000000000199
 10
1032.139939342088
 20
2049.027260919721
 30
0.0000000000000199
 10
1034.165922167731
 20
2050.38260292246
 30
0.0000000000000199
 10
1035.2746167235
 20
2051.009414512056
 30
0.0000000000000199
 10
1036.537685959187
 20
2051.009414512056
 30
0.0000000000000199
  0
LINE
  5
5E7
330
1F
100
AcDbEntity
  8
HEWI
 62
   253
370
     9
100
AcDbLine
 10
1124.59611134646
 20
2035.142594936968
 30
0.0000000000000037
 11
244.5961113464609
 21
2035.142594936969
 31
0.0000000000001581
  0
LINE
  5
5E8
330
1F
100
AcDbEntity
  8
HEWI
 62
   253
370
     9
100
AcDbLine
 10
283.4468278337581
 20
2035.142594936969
 30
0.0000000000001581
 11
244.5961113464609
 21
2035.142594936969
 31
0.0000000000001581
  0
LINE
  5
5EA
330
1F
100
AcDbEntity
  8
HEWI
100
AcDbLine
 10
1020.037685959187
 20
2036.135450621504
 30
0.0000000000000229
 11
996.09611134646
 21
2036.135450621504
 31
0.0000000000000273
210
0.0000000000000004
220
1.0
230
0.0
  0
LINE
  5
5EB
330
1F
100
AcDbEntity
  8
HEWI
100
AcDbLine
 10
1723.154536757733
 20
2036.135450621504
 30
0.0000000000000229
 11
1747.096111370459
 21
2036.135450621504
 31
0.0000000000000273
210
0.0
220
1.0
230
0.0
  0
LWPOLYLINE
  5
5FA
330
1F
100
AcDbEntity
  8
0
100
AcDbPolyline
 90
        4
 70
     1
 43
0.0
 10
1354.09611135846
 20
801.9804492408502
 10
1389.09611135846
 20
801.9804492408502
 10
1389.09611135846
 20
841.9804492408502
 10
1354.09611135846
 20
841.9804492408502
  0
LWPOLYLINE
  5
5FD
330
1F
100
AcDbEntity
  8
0
100
AcDbPolyline
 90
        4
 70
     0
 43
0.0
 10
1389.09611135846
 20
662.6729453456428
 10
1354.09611135846
 20
662.6729453456428
 10
1354.09611135846
 20
622.6729453456437
 10
1389.09611135846
 20
622.6729453456437
  0
LWPOLYLINE
  5
5FE
330
1F
100
AcDbEntity
  8
0
100
AcDbPolyline
 90
        4
 70
     1
 43
0.0
 10
1354.09611135846
 20
81.13545061950459
 10
1389.09611135846
 20
81.13545061950459
 10
1389.09611135846
 20
121.1354506195046
 10
1354.09611135846
 20
121.1354506195046
  0
LWPOLYLINE
  5
5FF
330
1F
100
AcDbEntity
  8
0
100
AcDbPolyline
 90
        4
 70
     1
 43
0.0
 10
1354.09611135846
 20
452.1415818346112
 10
1389.09611135846
 20
452.1415818346112
 10
1389.09611135846
 20
492.1415818346113
 10
1354.09611135846
 20
492.1415818346113
  0
LWPOLYLINE
  5
600
330
1F
100
AcDbEntity
  8
0
100
AcDbPolyline
 90
        4
 70
     1
 43
0.0
 10
1354.09611135846
 20
282.9865804559593
 10
1389.09611135846
 20
282.9865804559593
 10
1389.09611135846
 20
322.9865804559592
 10
1354.09611135846
 20
322.9865804559592
  0
LINE
  5
601
330
1F
100
AcDbEntity
  8
PV-139
100
AcDbLine
 10
1388.09611135846
 20
81.13545061950459
 30
0.0
 11
1388.09611135846
 21
73.63545061950595
 31
0.0
  0
LINE
  5
602
330
1F
100
AcDbEntity
  8
PV-139
100
AcDbLine
 10
1355.09611135846
 20
81.13545061950459
 30
0.0
 11
1355.09611135846
 21
73.63545061950595
 31
0.0
  0
LINE
  5
603
330
1F
100
AcDbEntity
  8
PV-139
100
AcDbLine
 10
1355.09611135846
 20
452.1415818346112
 30
0.0
 11
1355.09611135846
 21
322.9865804559592
 31
0.0
  0
LINE
  5
604
330
1F
100
AcDbEntity
  8
PV-139
100
AcDbLine
 10
1388.09611135846
 20
452.1415818346112
 30
0.0
 11
1388.09611135846
 21
322.9865804559592
 31
0.0
  0
LINE
  5
605
330
1F
100
AcDbEntity
  8
PV-139
100
AcDbLine
 10
1355.09611135846
 20
622.6729453456437
 30
0.0
 11
1355.09611135846
 21
492.1415818346113
 31
0.0
  0
LINE
  5
606
330
1F
100
AcDbEntity
  8
PV-139
100
AcDbLine
 10
1388.09611135846
 20
622.6729453456437
 30
0.0
 11
1388.09611135846
 21
492.1415818346113
 31
0.0
  0
LINE
  5
607
330
1F
100
AcDbEntity
  8
PV-139
100
AcDbLine
 10
1355.09611135846
 20
801.9804492408502
 30
0.0
 11
1355.09611135846
 21
662.6729453456428
 31
0.0
  0
LINE
  5
608
330
1F
100
AcDbEntity
  8
PV-139
100
AcDbLine
 10
1388.09611135846
 20
801.9804492408502
 30
0.0
 11
1388.09611135846
 21
662.6729453456428
 31
0.0
  0
ENDSEC
  0
SECTION
  2
OBJECTS
  0
DICTIONARY
  5
C
330
0
100
AcDbDictionary
281
     1
  3
ACAD_CIP_PREVIOUS_PRODUCT_INFO
350
676
  3
ACAD_COLOR
350
517
  3
ACAD_DETAILVIEWSTYLE
350
670
  3
ACAD_GROUP
350
D
  3
ACAD_LAYOUT
350
51A
  3
ACAD_MATERIAL
350
502
  3
ACAD_MLEADERSTYLE
350
66B
  3
ACAD_MLINESTYLE
350
17
  3
ACAD_PLOTSETTINGS
350
19
  3
ACAD_PLOTSTYLENAME
350
2A3
  3
ACAD_SCALELIST
350
659
  3
ACAD_SECTIONVIEWSTYLE
350
66D
  3
ACAD_TABLESTYLE
350
518
  3
ACAD_VISUALSTYLE
350
506
  3
ACDB_RECOMPOSE_DATA
350
68A
  3
AcDbVariableDictionary
350
51F
  3
DWGPROPS
350
68B
  0
DICTIONARY
  5
534
330
2
100
AcDbDictionary
280
     1
281
     1
  3
ACAD_LAYERSTATES
360
535
  0
DICTIONARY
  5
678
330
10
100
AcDbDictionary
280
     1
281
     1
  3
ADSK_XREC_LAYER_RECONCILED
360
679
  0
DICTIONARY
  5
67A
330
73
100
AcDbDictionary
280
     1
281
     1
  3
ADSK_XREC_LAYER_RECONCILED
360
67B
  0
DICTIONARY
  5
67C
330
532
100
AcDbDictionary
280
     1
281
     1
  3
ADSK_XREC_LAYER_RECONCILED
360
67D
  0
DICTIONARY
  5
29D
330
1F
100
AcDbDictionary
280
     1
281
     1
  3
ACAD_LAYOUTSELFREF
360
4FF
  3
ACAD_SORTENTS
360
524
  0
DICTIONARY
  5
29B
330
1B
100
AcDbDictionary
280
     1
281
     1
  3
ACAD_LAYOUTSELFREF
360
4FE
  0
XRECORD
  5
676
102
{ACAD_REACTORS
330
C
102
}
330
C
100
AcDbXrecord
280
     1
300
ACDLT
300
2013
300
ACDLT_F_S
  0
DICTIONARY
  5
517
102
{ACAD_REACTORS
330
C
102
}
330
C
100
AcDbDictionary
281
     1
  0
DICTIONARY
  5
670
102
{ACAD_REACTORS
330
C
102
}
330
C
100
AcDbDictionary
281
     1
  3
Imperial24
350
671
  0
DICTIONARY
  5
D
102
{ACAD_REACTORS
330
C
102
}
330
C
100
AcDbDictionary
281
     1
  0
DICTIONARY
  5
51A
102
{ACAD_REACTORS
330
C
102
}
330
C
100
AcDbDictionary
281
     1
  3
Layout1
350
51C
  3
Model
350
51B
  0
DICTIONARY
  5
502
102
{ACAD_REACTORS
330
C
102
}
330
C
100
AcDbDictionary
281
     1
  3
ByBlock
350
504
  3
ByLayer
350
503
  3
Global
350
505
  0
DICTIONARY
  5
66B
102
{ACAD_REACTORS
330
C
102
}
330
C
100
AcDbDictionary
281
     1
  3
Standard
350
66C
  0
DICTIONARY
  5
17
102
{ACAD_REACTORS
330
C
102
}
330
C
100
AcDbDictionary
281
     1
  3
STANDARD
350
18
  0
DICTIONARY
  5
19
102
{ACAD_REACTORS
330
C
102
}
330
C
100
AcDbDictionary
281
     1
  0
ACDBDICTIONARYWDFLT
  5
2A3
102
{ACAD_REACTORS
330
C
102
}
330
C
100
AcDbDictionary
281
     1
  3
Normal
350
2A4
100
AcDbDictionaryWithDefault
340
2A4
  0
DICTIONARY
  5
659
102
{ACAD_REACTORS
330
C
102
}
330
C
100
AcDbDictionary
281
     1
  3
A0
350
65A
  3
A1
350
65B
  3
A2
350
65C
  3
A3
350
65D
  3
A4
350
65E
  3
A5
350
65F
  3
A6
350
660
  3
A7
350
661
  3
A8
350
662
  3
A9
350
663
  3
B0
350
664
  3
B1
350
665
  3
B2
350
666
  3
B3
350
667
  3
B4
350
668
  3
B5
350
669
  3
B6
350
66A
  0
DICTIONARY
  5
66D
102
{ACAD_REACTORS
330
C
102
}
330
C
100
AcDbDictionary
281
     1
  3
Imperial24
350
66F
  0
DICTIONARY
  5
518
102
{ACAD_REACTORS
330
C
102
}
330
C
100
AcDbDictionary
281
     1
  3
Standard
350
519
  0
DICTIONARY
  5
506
102
{ACAD_REACTORS
330
C
102
}
330
C
100
AcDbDictionary
281
     1
  3
2dWireframe
350
50C
  3
3D Hidden
350
50E
  3
3dWireframe
350
50D
  3
Basic
350
50B
  3
Brighten
350
512
  3
ColorChange
350
516
  3
Conceptual
350
50F
  3
Dim
350
511
  3
EdgeColorOff
350
658
  3
Facepattern
350
515
  3
Flat
350
507
  3
FlatWithEdges
350
508
  3
Gouraud
350
509
  3
GouraudWithEdges
350
50A
  3
Hidden
350
650
  3
JitterOff
350
656
  3
Linepattern
350
514
  3
OverhangOff
350
657
  3
Realistic
350
510
  3
Shaded
350
655
  3
Shaded with edges
350
654
  3
Shades of Gray
350
651
  3
Sketchy
350
652
  3
Thicken
350
513
  3
Wireframe
350
64F
  3
X-Ray
350
653
  0
XRECORD
  5
68A
102
{ACAD_REACTORS
330
C
102
}
330
C
100
AcDbXrecord
280
     1
 90
        1
330
519
  0
DICTIONARY
  5
51F
102
{ACAD_REACTORS
330
C
102
}
330
C
100
AcDbDictionary
281
     1
  3
CANNOSCALE
350
681
  3
CMLEADERSTYLE
350
67E
  3
CTABLESTYLE
350
520
  3
CVIEWDETAILSTYLE
350
67F
  3
CVIEWSECTIONSTYLE
350
680
  3
DIMASSOC
350
685
  3
INDEXCTL
350
683
  3
SOLIDHIST
350
686
  3
SORTENTS
350
682
  3
XCLIPFRAME
350
684
  0
XRECORD
  5
68B
102
{ACAD_REACTORS
330
C
102
}
330
C
100
AcDbXrecord
280
     1
  1
DWGPROPS COOKIE
  2

  3

  4

  6

  7

  8
kaschu
  9

300
=
301
=
302
=
303
=
304
=
305
=
306
=
307
=
308
=
309
=
 40
0.0138841319444445
 41
2451762.433120949
 42
2456694.549135764
  1

 90
        0
  0
DICTIONARY
  5
535
102
{ACAD_REACTORS
330
534
102
}
330
534
100
AcDbDictionary
281
     1
  0
XRECORD
  5
679
102
{ACAD_REACTORS
330
678
102
}
330
678
100
AcDbXrecord
280
     1
290
     1
  0
XRECORD
  5
67B
102
{ACAD_REACTORS
330
67A
102
}
330
67A
100
AcDbXrecord
280
     1
290
     1
  0
XRECORD
  5
67D
102
{ACAD_REACTORS
330
67C
102
}
330
67C
100
AcDbXrecord
280
     1
290
     1
  0
XRECORD
  5
4FF
102
{ACAD_REACTORS
330
29D
102
}
330
29D
100
AcDbXrecord
280
     1
340
1F
  0
SORTENTSTABLE
  5
524
102
{ACAD_REACTORS
330
29D
102
}
330
29D
100
AcDbSortentsTable
330
1F
331
5B6
  5
5BF
331
5B2
  5
5BB
331
56B
  5
598
331
5AE
  5
5B7
331
387
  5
387
331
5AA
  5
5B3
331
46D
  5
478
331
383
  5
383
331
37F
  5
37F
331
3D6
  5
3D7
331
469
  5
474
331
4A4
  5
522
331
37B
  5
37B
331
3D2
  5
3D3
331
425
  5
470
331
4A0
  5
4AB
331
567
  5
57C
331
563
  5
578
331
5A6
  5
5AF
331
5E5
  5
600
331
55F
  5
574
331
5A2
  5
5AB
331
5E1
  5
5FA
331
55B
  5
571
331
59E
  5
5A7
331
3CE
  5
3CF
331
5DD
  5
5E7
331
5D9
  5
5E3
331
3CA
  5
3CB
331
59A
  5
5A3
331
49C
  5
4A7
331
3C6
  5
3C7
331
498
  5
4A3
331
494
  5
4A1
331
3C2
  5
3C3
331
490
  5
49D
331
557
  5
56D
331
5D5
  5
5DF
331
596
  5
59F
331
5D1
  5
5DB
331
5CD
  5
5D7
331
5C9
  5
5D3
331
607
  5
530
331
603
  5
556
331
3F1
  5
3F2
331
39E
  5
39E
331
3ED
  5
3EE
331
484
  5
497
331
39A
  5
39A
331
480
  5
491
331
3E9
  5
3EA
331
52F
  5
56A
331
4CC
  5
563
331
5C5
  5
5CF
331
5C1
  5
5CB
331
5FF
  5
607
331
57A
  5
569
331
5BD
  5
5C6
331
396
  5
396
331
576
  5
46D
331
4A8
  5
55D
331
5B9
  5
5C2
331
47C
  5
489
331
392
  5
392
331
572
  5
418
331
3E5
  5
3E6
331
38E
  5
38E
331
3E1
  5
3E2
331
478
  5
483
331
38A
  5
38A
331
474
  5
47F
331
3D9
  5
3DA
331
470
  5
47B
331
5B5
  5
5BE
331
5B1
  5
5BA
331
56E
  5
59B
331
56A
  5
597
331
386
  5
386
331
5AD
  5
5B6
331
5E8
  5
603
331
382
  5
382
331
46C
  5
477
331
5A9
  5
5B2
331
468
  5
473
331
4A7
  5
557
331
37E
  5
37E
331
424
  5
46C
331
4A3
  5
4CE
331
3D1
  5
3D2
331
566
  5
57B
331
562
  5
577
331
5E4
  5
5FF
331
5A5
  5
5AE
331
55E
  5
573
331
5E0
  5
5EA
331
5A1
  5
5AA
331
55A
  5
570
331
5DC
  5
5E6
331
59D
  5
5A6
331
49F
  5
4AA
331
3CD
  5
3CE
331
599
  5
5A2
331
49B
  5
4A6
331
3C9
  5
3CA
331
5D8
  5
5E2
331
497
  5
4A2
331
3C5
  5
3C6
331
418
  5
434
331
493
  5
4A0
331
3C1
  5
3C2
331
556
  5
56C
331
595
  5
59E
331
5D4
  5
5DE
331
5D0
  5
5DA
331
48F
  5
49C
331
5CC
  5
5D6
331
606
  5
55A
331
3A1
  5
3A1
331
5C8
  5
5D2
331
602
  5
560
331
39D
  5
39D
331
3F0
  5
3F1
331
399
  5
399
331
3EC
  5
3ED
331
483
  5
494
331
3E8
  5
3E9
331
5C4
  5
5CE
331
5C0
  5
5C9
331
5FE
  5
606
331
579
  5
46F
331
522
  5
566
331
4AB
  5
561
331
575
  5
419
331
5BC
  5
5C5
331
47F
  5
490
331
5FA
  5
604
331
391
  5
391
331
571
  5
469
331
47B
  5
486
331
5B8
  5
5C1
331
477
  5
482
331
38D
  5
38D
331
473
  5
47E
331
389
  5
389
331
3D8
  5
3D9
331
5B4
  5
5BD
331
56D
  5
59A
331
5B0
  5
5B9
331
5EB
  5
425
331
5AC
  5
5B5
331
46F
  5
47A
331
385
  5
385
331
569
  5
596
331
5A8
  5
5B1
331
46B
  5
476
331
381
  5
381
331
4A6
  5
52D
331
37D
  5
37D
331
3D4
  5
3D5
331
4A2
  5
4CD
331
3D0
  5
3D1
331
565
  5
57A
331
5E7
  5
602
331
561
  5
576
331
5A4
  5
5AD
331
5E3
  5
5FE
331
55D
  5
572
331
5A0
  5
5A9
331
5DF
  5
5E9
331
5DB
  5
5E5
331
49E
  5
4A9
331
3CC
  5
3CD
331
59C
  5
5A5
331
3C8
  5
3C9
331
598
  5
5A1
331
49A
  5
4A5
331
3C4
  5
3C5
331
417
  5
41F
331
492
  5
49F
331
3C0
  5
3C0
331
5D7
  5
5E1
331
555
  5
56B
331
5D3
  5
5DD
331
5CF
  5
5D9
331
5CB
  5
5D5
331
605
  5
555
331
48A
  5
49B
331
3A0
  5
3A0
331
601
  5
562
331
486
  5
499
331
39C
  5
39C
331
3EB
  5
3EC
331
482
  5
493
331
398
  5
398
331
4CE
  5
565
331
5C7
  5
5D1
331
57C
  5
59D
331
5C3
  5
5CD
331
5BF
  5
5C8
331
5FD
  5
605
331
578
  5
471
331
4AA
  5
55F
331
5BB
  5
5C4
331
47E
  5
48F
331
394
  5
394
331
574
  5
46A
331
3E7
  5
3E8
331
390
  5
390
331
570
  5
59C
331
47A
  5
485
331
38C
  5
38C
331
476
  5
481
331
388
  5
388
331
3DB
  5
3DC
331
472
  5
47D
331
5B7
  5
5C0
331
5B3
  5
5BC
331
5AF
  5
5B8
331
56C
  5
599
331
568
  5
595
331
5EA
  5
5CA
331
384
  5
384
331
46E
  5
479
331
5AB
  5
5B4
331
380
  5
380
331
3D7
  5
3D8
331
46A
  5
475
331
4A5
  5
523
331
37C
  5
37C
331
3D3
  5
3D4
331
4A1
  5
4CC
331
564
  5
579
331
5E6
  5
601
331
5A7
  5
5B0
331
560
  5
575
331
5E2
  5
5FD
331
5A3
  5
5AC
331
5DE
  5
5E8
331
59F
  5
5A8
331
3CF
  5
3D0
331
5DA
  5
5E4
331
59B
  5
5A4
331
41E
  5
46B
331
49D
  5
4A8
331
558
  5
56E
331
499
  5
4A4
331
3C7
  5
3C8
331
3C3
  5
3C4
331
416
  5
417
331
491
  5
49E
331
597
  5
5A0
331
5D6
  5
5E0
331
5D2
  5
5DC
331
5CE
  5
5D8
331
608
  5
558
331
5CA
  5
5D4
331
604
  5
55B
331
39F
  5
39F
331
3F2
  5
3F3
331
489
  5
49A
331
600
  5
608
331
39B
  5
39B
331
3EE
  5
3EF
331
485
  5
498
331
3EA
  5
3EB
331
481
  5
492
331
5C6
  5
5D0
331
4CD
  5
564
331
5C2
  5
5CC
331
57B
  5
472
331
397
  5
397
331
577
  5
568
331
5BE
  5
5C7
331
4A9
  5
55E
331
393
  5
393
331
573
  5
567
331
3E6
  5
3E7
331
47D
  5
48A
331
5BA
  5
5C3
331
479
  5
484
331
38F
  5
38F
331
475
  5
480
331
38B
  5
38B
331
471
  5
47C
331
3DA
  5
3DB
  0
XRECORD
  5
4FE
102
{ACAD_REACTORS
330
29B
102
}
330
29B
100
AcDbXrecord
280
     1
340
1B
  0
ACDBDETAILVIEWSTYLE
  5
671
102
{ACAD_REACTORS
330
670
102
}
330
670
100
AcDbModelDocViewStyle
 70
     0
  3
Imperial24
290
     0
100
AcDbDetailViewStyle
 70
     0
 71
     0
 90
        3
 71
     1
340
11
 40
0.24
340
0
 40
0.24
300

 40
0.36
280
     3
 71
     2
340
16
 90
       25
 71
     3
340
11
 40
0.24
 90
        1
 40
0.75
 90
        1
300
%<\AcVar ViewType \f "%tc1">% %<\AcVar ViewDetailId>%\PVARIA %<\AcVar ViewScale \f "%sn">%
 71
     4
340
16
 90
       25
340
16
 90
       25
280
     0
  0
LAYOUT
  5
51C
102
{ACAD_XDICTIONARY
360
6B5
102
}
102
{ACAD_REACTORS
330
51A
102
}
330
51A
100
AcDbPlotSettings
  1

  2
\\druckserv1\AROBBE04
  4

  6

 40
0.0
 41
0.0
 42
0.0
 43
0.0
 44
0.0
 45
0.0
 46
0.0
 47
0.0
 48
0.0
 49
0.0
140
0.0
141
0.0
142
1.0
143
1.0
 70
   688
 72
     0
 73
     0
 74
     5
  7

 75
    16
147
1.0
148
0.0
149
0.0
100
AcDbLayout
  1
Layout1
 70
     1
 71
     1
 10
0.0
 20
0.0
 11
12.0
 21
9.0
 12
0.0
 22
0.0
 32
0.0
 14
1.000000000000000E+20
 24
1.000000000000000E+20
 34
1.000000000000000E+20
 15
-1.000000000000000E+20
 25
-1.000000000000000E+20
 35
-1.000000000000000E+20
146
0.0
 13
0.0
 23
0.0
 33
0.0
 16
1.0
 26
0.0
 36
0.0
 17
0.0
 27
1.0
 37
0.0
 76
     0
330
1B
  0
LAYOUT
  5
51B
102
{ACAD_XDICTIONARY
360
6B3
102
}
102
{ACAD_REACTORS
330
51A
102
}
330
51A
100
AcDbPlotSettings
  1

  2
\\druckserv1\AROBBE04
  4

  6

 40
0.0
 41
0.0
 42
0.0
 43
0.0
 44
0.0
 45
0.0
 46
0.0
 47
0.0
 48
0.0
 49
0.0
140
0.0
141
0.0
142
1.0
143
1.0
 70
  1712
 72
     0
 73
     0
 74
     0
  7

 75
     0
147
1.0
148
0.0
149
0.0
100
AcDbLayout
  1
Model
 70
     1
 71
     0
 10
0.0
 20
0.0
 11
12.0
 21
9.0
 12
0.0
 22
0.0
 32
0.0
 14
0.0
 24
0.0
 34
0.0
 15
0.0
 25
0.0
 35
0.0
146
0.0
 13
0.0
 23
0.0
 33
0.0
 16
1.0
 26
0.0
 36
0.0
 17
0.0
 27
1.0
 37
0.0
 76
     0
330
1F
331
4DD
  0
MATERIAL
  5
504
102
{ACAD_XDICTIONARY
360
68E
102
}
102
{ACAD_REACTORS
330
502
102
}
330
502
100
AcDbMaterial
  1
ByBlock
 73
     1
 78
     1
172
     1
176
     1
270
     1
274
     1
  0
MATERIAL
  5
503
102
{ACAD_XDICTIONARY
360
68C
102
}
102
{ACAD_REACTORS
330
502
102
}
330
502
100
AcDbMaterial
  1
ByLayer
 73
     1
 78
     1
172
     1
176
     1
270
     1
274
     1
  0
MATERIAL
  5
505
102
{ACAD_XDICTIONARY
360
690
102
}
102
{ACAD_REACTORS
330
502
102
}
330
502
100
AcDbMaterial
  1
Global
 73
     1
 78
     1
172
     1
176
     1
270
     1
274
     1
  0
MLEADERSTYLE
  5
66C
102
{ACAD_XDICTIONARY
360
6CC
102
}
102
{ACAD_REACTORS
330
66B
102
}
330
66B
100
AcDbMLeaderStyle
170
     2
171
     1
172
     0
 90
        2
 40
0.0
 41
0.0
173
     1
 91
-1056964608
340
14
 92
       -2
290
     1
 42
0.09
291
     1
 43
0.36
  3
Standard
 44
0.18
300

342
11
174
     1
178
     6
175
     1
176
     0
 93
-1056964608
 45
0.18
292
     0
297
     0
 46
0.18
 94
-1056964608
 47
1.0
 49
1.0
140
1.0
293
     1
141
0.0
294
     1
177
     0
142
1.0
295
     0
296
     0
143
0.125
1001
ACAD_MLEADERVER
1070
     2
  0
MLINESTYLE
  5
18
102
{ACAD_REACTORS
330
17
102
}
330
17
100
AcDbMlineStyle
  2
STANDARD
 70
     0
  3

 62
   256
 51
90.0
 52
90.0
 71
     2
 49
0.5
 62
   256
  6
BYLAYER
 49
-0.5
 62
   256
  6
BYLAYER
  0
ACDBPLACEHOLDER
  5
2A4
102
{ACAD_REACTORS
330
2A3
102
}
330
2A3
  0
SCALE
  5
65A
102
{ACAD_REACTORS
330
659
102
}
330
659
100
AcDbScale
 70
     0
300
1:1
140
1.0
141
1.0
290
     1
  0
SCALE
  5
65B
102
{ACAD_REACTORS
330
659
102
}
330
659
100
AcDbScale
 70
     0
300
1/128" = 1'-0"
140
0.0078125
141
12.0
290
     0
  0
SCALE
  5
65C
102
{ACAD_REACTORS
330
659
102
}
330
659
100
AcDbScale
 70
     0
300
1/64" = 1'-0"
140
0.015625
141
12.0
290
     0
  0
SCALE
  5
65D
102
{ACAD_REACTORS
330
659
102
}
330
659
100
AcDbScale
 70
     0
300
1/32" = 1'-0"
140
0.03125
141
12.0
290
     0
  0
SCALE
  5
65E
102
{ACAD_REACTORS
330
659
102
}
330
659
100
AcDbScale
 70
     0
300
1/16" = 1'-0"
140
0.0625
141
12.0
290
     0
  0
SCALE
  5
65F
102
{ACAD_REACTORS
330
659
102
}
330
659
100
AcDbScale
 70
     0
300
3/32" = 1'-0"
140
0.09375
141
12.0
290
     0
  0
SCALE
  5
660
102
{ACAD_REACTORS
330
659
102
}
330
659
100
AcDbScale
 70
     0
300
1/8" = 1'-0"
140
0.125
141
12.0
290
     0
  0
SCALE
  5
661
102
{ACAD_REACTORS
330
659
102
}
330
659
100
AcDbScale
 70
     0
300
3/16" = 1'-0"
140
0.1875
141
12.0
290
     0
  0
SCALE
  5
662
102
{ACAD_REACTORS
330
659
102
}
330
659
100
AcDbScale
 70
     0
300
1/4" = 1'-0"
140
0.25
141
12.0
290
     0
  0
SCALE
  5
663
102
{ACAD_REACTORS
330
659
102
}
330
659
100
AcDbScale
 70
     0
300
3/8" = 1'-0"
140
0.375
141
12.0
290
     0
  0
SCALE
  5
664
102
{ACAD_REACTORS
330
659
102
}
330
659
100
AcDbScale
 70
     0
300
1/2" = 1'-0"
140
0.5
141
12.0
290
     0
  0
SCALE
  5
665
102
{ACAD_REACTORS
330
659
102
}
330
659
100
AcDbScale
 70
     0
300
3/4" = 1'-0"
140
0.75
141
12.0
290
     0
  0
SCALE
  5
666
102
{ACAD_REACTORS
330
659
102
}
330
659
100
AcDbScale
 70
     0
300
1" = 1'-0"
140
1.0
141
12.0
290
     0
  0
SCALE
  5
667
102
{ACAD_REACTORS
330
659
102
}
330
659
100
AcDbScale
 70
     0
300
1-1/2" = 1'-0"
140
1.5
141
12.0
290
     0
  0
SCALE
  5
668
102
{ACAD_REACTORS
330
659
102
}
330
659
100
AcDbScale
 70
     0
300
3" = 1'-0"
140
3.0
141
12.0
290
     0
  0
SCALE
  5
669
102
{ACAD_REACTORS
330
659
102
}
330
659
100
AcDbScale
 70
     0
300
6" = 1'-0"
140
6.0
141
12.0
290
     0
  0
SCALE
  5
66A
102
{ACAD_REACTORS
330
659
102
}
330
659
100
AcDbScale
 70
     0
300
1'-0" = 1'-0"
140
12.0
141
12.0
290
     0
  0
ACDBSECTIONVIEWSTYLE
  5
66F
102
{ACAD_REACTORS
330
66D
102
}
330
66D
100
AcDbModelDocViewStyle
 70
     0
  3
Imperial24
290
     0
100
AcDbSectionViewStyle
 70
     0
 71
     0
 90
       78
 71
     1
340
11
 40
0.24
340
0
340
0
 40
0.24
300
I, O, Q, S, X, Z
 40
0.48
 90
        3
 40
0.18
 90
        1
 71
     2
340
66E
 90
       25
340
16
 90
       50
 40
0.24
 40
0.0
 40
0.24
 71
     3
340
11
 40
0.24
 90
        1
 40
0.75
 90
        1
300
%<\AcVar ViewType \f "%tc1">% %<\AcVar ViewSectionStartId>%-%<\AcVar ViewSectionEndId>%\PVARIA %<\AcVar ViewScale \f "%sn">%
 71
     4
300
ANSI31
 40
1.0
 90
        0
290
     0
290
     0
 90
        6
 40
0.0
 40
1.570796326794896
 40
0.2617993877991494
 40
1.308996938995747
 40
-0.2617993877991494
 40
1.832595714594046
  0
TABLESTYLE
  5
519
102
{ACAD_XDICTIONARY
360
688
102
}
102
{ACAD_REACTORS
330
518
102
}
330
518
100
AcDbTableStyle
  3
Standard
 70
     0
 71
     0
 40
0.06
 41
0.06
280
     0
281
     0
  7
STANDARD
140
0.18
170
     2
 62
     0
 63
     7
283
     0
274
    -2
284
     1
 64
     0
275
    -2
285
     1
 65
     0
276
    -2
286
     1
 66
     0
277
    -2
287
     1
 67
     0
278
    -2
288
     1
 68
     0
279
    -2
289
     1
 69
     0
  7
STANDARD
140
0.25
170
     5
 62
     0
 63
     7
283
     0
274
    -2
284
     1
 64
     0
275
    -2
285
     1
 65
     0
276
    -2
286
     1
 66
     0
277
    -2
287
     1
 67
     0
278
    -2
288
     1
 68
     0
279
    -2
289
     1
 69
     0
  7
STANDARD
140
0.18
170
     5
 62
     0
 63
     7
283
     0
274
    -2
284
     1
 64
     0
275
    -2
285
     1
 65
     0
276
    -2
286
     1
 66
     0
277
    -2
287
     1
 67
     0
278
    -2
288
     1
 68
     0
279
    -2
289
     1
 69
     0
  0
VISUALSTYLE
  5
50C
102
{ACAD_XDICTIONARY
360
69C
102
}
102
{ACAD_REACTORS
330
506
102
}
330
506
100
AcDbVisualStyle
  2
2dWireframe
 70
     4
 71
     0
 72
     2
 73
     0
 90
        0
 40
-0.6
 41
-30.0
 62
     5
 63
     7
 74
     1
 91
        4
 64
     7
 65
   257
 75
     1
175
     1
 42
1.0
 92
        0
 66
   257
 43
1.0
 76
     1
 77
     6
 78
     2
 67
     7
 79
     5
170
     0
171
     0
290
     0
174
     0
 93
        1
 44
0.0
173
     0
291
     0
 45
0.0
1001
ACAD
1000
AcDbSavedByObjectVersion
1070
     0
  0
VISUALSTYLE
  5
50E
102
{ACAD_XDICTIONARY
360
6A0
102
}
102
{ACAD_REACTORS
330
506
102
}
330
506
100
AcDbVisualStyle
  2
3D Hidden
 70
     6
 71
     1
 72
     2
 73
     2
 90
        0
 40
-0.6
 41
-30.0
 62
     5
 63
     7
 74
     2
 91
        2
 64
     7
 65
   257
 75
     2
175
     1
 42
40.0
 92
        0
 66
   257
 43
1.0
 76
     1
 77
     6
 78
     2
 67
     7
 79
     3
170
     0
171
     0
290
     0
174
     0
 93
        1
 44
0.0
173
     0
291
     0
 45
0.0
1001
ACAD
1000
AcDbSavedByObjectVersion
1070
     0
  0
VISUALSTYLE
  5
50D
102
{ACAD_XDICTIONARY
360
69E
102
}
102
{ACAD_REACTORS
330
506
102
}
330
506
100
AcDbVisualStyle
  2
3dWireframe
 70
     5
 71
     0
 72
     2
 73
     0
 90
        0
 40
-0.6
 41
-30.0
 62
     5
 63
     7
 74
     1
 91
        4
 64
     7
 65
   257
 75
     1
175
     1
 42
1.0
 92
        0
 66
   257
 43
1.0
 76
     1
 77
     6
 78
     2
 67
     7
 79
     5
170
     0
171
     0
290
     0
174
     0
 93
        1
 44
0.0
173
     0
291
     0
 45
0.0
1001
ACAD
1000
AcDbSavedByObjectVersion
1070
     0
  0
VISUALSTYLE
  5
50B
102
{ACAD_XDICTIONARY
360
69A
102
}
102
{ACAD_REACTORS
330
506
102
}
330
506
100
AcDbVisualStyle
  2
Basic
 70
     7
 71
     1
 72
     0
 73
     1
 90
        0
 40
-0.6
 41
-30.0
 62
     5
 63
     7
 74
     0
 91
        4
 64
     7
 65
   257
 75
     1
175
     1
 42
1.0
 92
        8
 66
     7
 43
1.0
 76
     1
 77
     6
 78
     2
 67
     7
 79
     5
170
     0
171
     0
290
     0
174
     0
 93
        1
 44
0.0
173
     0
291
     1
 45
0.0
1001
ACAD
1000
AcDbSavedByObjectVersion
1070
     0
  0
VISUALSTYLE
  5
512
102
{ACAD_XDICTIONARY
360
6A8
102
}
102
{ACAD_REACTORS
330
506
102
}
330
506
100
AcDbVisualStyle
  2
Brighten
 70
    12
 71
     2
 72
     2
 73
     0
 90
        0
 40
-0.6
 41
-30.0
 62
     5
 63
     7
 74
     1
 91
        4
 64
     7
 65
   257
 75
     1
175
     1
 42
1.0
 92
        8
 66
     7
 43
1.0
 76
     1
 77
     6
 78
     2
 67
     7
 79
     5
170
     0
171
     0
290
     0
174
     0
 93
        1
 44
50.0
173
     0
291
     1
 45
0.0
1001
ACAD
1000
AcDbSavedByObjectVersion
1070
     0
  0
VISUALSTYLE
  5
516
102
{ACAD_XDICTIONARY
360
6B0
102
}
102
{ACAD_REACTORS
330
506
102
}
330
506
100
AcDbVisualStyle
  2
ColorChange
 70
    16
 71
     2
 72
     2
 73
     3
 90
        0
 40
-0.6
 41
-30.0
 62
     5
 63
     8
 74
     1
 91
        4
 64
     7
 65
   257
 75
     1
175
     1
 42
1.0
 92
        8
 66
     8
 43
1.0
 76
     1
 77
     6
 78
     2
 67
     7
 79
     5
170
     0
171
     0
290
     0
174
     0
 93
        1
 44
0.0
173
     0
291
     1
 45
0.0
1001
ACAD
1000
AcDbSavedByObjectVersion
1070
     0
  0
VISUALSTYLE
  5
50F
102
{ACAD_XDICTIONARY
360
6A2
102
}
102
{ACAD_REACTORS
330
506
102
}
330
506
100
AcDbVisualStyle
  2
Conceptual
 70
     9
 71
     3
 72
     2
 73
     0
 90
        0
 40
-0.6
 41
-30.0
 62
     5
 63
     7
 74
     2
 91
        2
 64
     7
 65
   257
 75
     1
175
     1
 42
40.0
 92
        8
 66
     7
 43
1.0
 76
     1
 77
     6
 78
     2
 67
     7
 79
     3
170
     0
171
     0
290
     0
174
     0
 93
        1
 44
0.0
173
     0
291
     0
 45
0.0
1001
ACAD
1000
AcDbSavedByObjectVersion
1070
     0
  0
VISUALSTYLE
  5
511
102
{ACAD_XDICTIONARY
360
6A6
102
}
102
{ACAD_REACTORS
330
506
102
}
330
506
100
AcDbVisualStyle
  2
Dim
 70
    11
 71
     2
 72
     2
 73
     0
 90
        0
 40
-0.6
 41
-30.0
 62
     5
 63
     7
 74
     1
 91
        4
 64
     7
 65
   257
 75
     1
175
     1
 42
1.0
 92
        8
 66
     7
 43
1.0
 76
     1
 77
     6
 78
     2
 67
     7
 79
     5
170
     0
171
     0
290
     0
174
     0
 93
        1
 44
-50.0
173
     0
291
     1
 45
0.0
1001
ACAD
1000
AcDbSavedByObjectVersion
1070
     0
  0
VISUALSTYLE
  5
658
102
{ACAD_XDICTIONARY
360
6C9
102
}
102
{ACAD_REACTORS
330
506
102
}
330
506
100
AcDbVisualStyle
  2
EdgeColorOff
 70
    22
 71
     2
 72
     2
 73
     0
 90
        0
 40
-0.6
 41
-30.0
 62
     5
 63
     7
 74
     1
 91
        4
 64
     7
 65
   257
 75
     1
175
     1
 42
1.0
 92
        8
 66
     7
 43
1.0
 76
     1
 77
     6
 78
     2
 67
     7
 79
     5
170
     0
171
     0
290
     0
174
     0
 93
        1
 44
0.0
173
     0
291
     1
 45
0.0
1001
ACAD
1000
AcDbSavedByObjectVersion
1070
     0
  0
VISUALSTYLE
  5
515
102
{ACAD_XDICTIONARY
360
6AE
102
}
102
{ACAD_REACTORS
330
506
102
}
330
506
100
AcDbVisualStyle
  2
Facepattern
 70
    15
 71
     2
 72
     2
 73
     0
 90
        0
 40
-0.6
 41
-30.0
 62
     5
 63
     7
 74
     1
 91
        4
 64
     7
 65
   257
 75
     1
175
     1
 42
1.0
 92
        8
 66
     7
 43
1.0
 76
     1
 77
     6
 78
     2
 67
     7
 79
     5
170
     0
171
     0
290
     0
174
     0
 93
        1
 44
0.0
173
     0
291
     1
 45
0.0
1001
ACAD
1000
AcDbSavedByObjectVersion
1070
     0
  0
VISUALSTYLE
  5
507
102
{ACAD_XDICTIONARY
360
692
102
}
102
{ACAD_REACTORS
330
506
102
}
330
506
100
AcDbVisualStyle
  2
Flat
 70
     0
 71
     2
 72
     1
 73
     1
 90
        2
 40
-0.6
 41
30.0
 62
     5
 63
     7
 74
     0
 91
        4
 64
     7
 65
   257
 75
     1
175
     1
 42
1.0
 92
        8
 66
     7
 43
1.0
 76
     1
 77
     6
 78
     2
 67
     7
 79
     5
170
     0
171
     0
290
     0
174
     0
 93
       13
 44
0.0
173
     0
291
     1
 45
0.0
1001
ACAD
1000
AcDbSavedByObjectVersion
1070
     0
  0
VISUALSTYLE
  5
508
102
{ACAD_XDICTIONARY
360
694
102
}
102
{ACAD_REACTORS
330
506
102
}
330
506
100
AcDbVisualStyle
  2
FlatWithEdges
 70
     1
 71
     2
 72
     1
 73
     1
 90
        2
 40
-0.6
 41
30.0
 62
     5
 63
     7
 74
     1
 91
        4
 64
     7
 65
   257
 75
     1
175
     1
 42
1.0
 92
        0
 66
   257
 43
1.0
 76
     1
 77
     6
 78
     2
 67
     7
 79
     5
170
     0
171
     0
290
     0
174
     0
 93
       13
 44
0.0
173
     0
291
     1
 45
0.0
1001
ACAD
1000
AcDbSavedByObjectVersion
1070
     0
  0
VISUALSTYLE
  5
509
102
{ACAD_XDICTIONARY
360
696
102
}
102
{ACAD_REACTORS
330
506
102
}
330
506
100
AcDbVisualStyle
  2
Gouraud
 70
     2
 71
     2
 72
     2
 73
     1
 90
        2
 40
-0.6
 41
30.0
 62
     5
 63
     7
 74
     0
 91
        4
 64
     7
 65
   257
 75
     1
175
     1
 42
1.0
 92
        0
 66
     7
 43
1.0
 76
     1
 77
     6
 78
     2
 67
     7
 79
     5
170
     0
171
     0
290
     0
174
     0
 93
       13
 44
0.0
173
     0
291
     1
 45
0.0
1001
ACAD
1000
AcDbSavedByObjectVersion
1070
     0
  0
VISUALSTYLE
  5
50A
102
{ACAD_XDICTIONARY
360
698
102
}
102
{ACAD_REACTORS
330
506
102
}
330
506
100
AcDbVisualStyle
  2
GouraudWithEdges
 70
     3
 71
     2
 72
     2
 73
     1
 90
        2
 40
-0.6
 41
30.0
 62
     5
 63
     7
 74
     1
 91
        4
 64
     7
 65
   257
 75
     1
175
     1
 42
1.0
 92
        0
 66
   257
 43
1.0
 76
     1
 77
     6
 78
     2
 67
     7
 79
     5
170
     0
171
     0
290
     0
174
     0
 93
       13
 44
0.0
173
     0
291
     1
 45
0.0
1001
ACAD
1000
AcDbSavedByObjectVersion
1070
     0
  0
VISUALSTYLE
  5
650
102
{ACAD_XDICTIONARY
360
6B9
102
}
102
{ACAD_REACTORS
330
506
102
}
330
506
100
AcDbVisualStyle
  2
Hidden
 70
     6
 71
     1
 72
     2
 73
     2
 90
        0
 40
-0.6
 41
-30.0
 62
     5
 63
     7
 74
     2
 91
        2
 64
     7
 65
   257
 75
     2
175
     1
 42
40.0
 92
        0
 66
   257
 43
1.0
 76
     1
 77
     6
 78
     2
 67
     7
 79
     3
170
     0
171
     0
290
     0
174
     0
 93
        1
 44
0.0
173
     0
291
     0
 45
0.0
1001
ACAD
1000
AcDbSavedByObjectVersion
1070
     0
  0
VISUALSTYLE
  5
656
102
{ACAD_XDICTIONARY
360
6C5
102
}
102
{ACAD_REACTORS
330
506
102
}
330
506
100
AcDbVisualStyle
  2
JitterOff
 70
    20
 71
     2
 72
     2
 73
     0
 90
        0
 40
-0.6
 41
-30.0
 62
     5
 63
     7
 74
     1
 91
        4
 64
     7
 65
   257
 75
     1
175
     1
 42
1.0
 92
       10
 66
     7
 43
1.0
 76
     1
 77
     6
 78
     2
 67
     7
 79
     5
170
     0
171
     0
290
     0
174
     0
 93
        1
 44
0.0
173
     0
291
     1
 45
0.0
1001
ACAD
1000
AcDbSavedByObjectVersion
1070
     0
  0
VISUALSTYLE
  5
514
102
{ACAD_XDICTIONARY
360
6AC
102
}
102
{ACAD_REACTORS
330
506
102
}
330
506
100
AcDbVisualStyle
  2
Linepattern
 70
    14
 71
     2
 72
     2
 73
     0
 90
        0
 40
-0.6
 41
-30.0
 62
     5
 63
     7
 74
     1
 91
        4
 64
     7
 65
   257
 75
     7
175
     7
 42
1.0
 92
        8
 66
     7
 43
1.0
 76
     1
 77
     6
 78
     2
 67
     7
 79
     5
170
     0
171
     0
290
     0
174
     0
 93
        1
 44
0.0
173
     0
291
     1
 45
0.0
1001
ACAD
1000
AcDbSavedByObjectVersion
1070
     0
  0
VISUALSTYLE
  5
657
102
{ACAD_XDICTIONARY
360
6C7
102
}
102
{ACAD_REACTORS
330
506
102
}
330
506
100
AcDbVisualStyle
  2
OverhangOff
 70
    21
 71
     2
 72
     2
 73
     0
 90
        0
 40
-0.6
 41
-30.0
 62
     5
 63
     7
 74
     1
 91
        4
 64
     7
 65
   257
 75
     1
175
     1
 42
1.0
 92
        9
 66
     7
 43
1.0
 76
     1
 77
     6
 78
     2
 67
     7
 79
     5
170
     0
171
     0
290
     0
174
     0
 93
        1
 44
0.0
173
     0
291
     1
 45
0.0
1001
ACAD
1000
AcDbSavedByObjectVersion
1070
     0
  0
VISUALSTYLE
  5
510
102
{ACAD_XDICTIONARY
360
6A4
102
}
102
{ACAD_REACTORS
330
506
102
}
330
506
100
AcDbVisualStyle
  2
Realistic
 70
     8
 71
     2
 72
     2
 73
     0
 90
        0
 40
-0.6
 41
-30.0
 62
     5
 63
     7
 74
     1
 91
        0
 64
     7
 65
   257
 75
     1
175
     1
 42
1.0
 92
        8
 66
     8
 43
1.0
 76
     1
 77
     6
 78
     2
 67
     7
 79
     5
170
     0
171
     0
290
     0
174
     0
 93
       13
 44
0.0
173
     0
291
     0
 45
0.0
1001
ACAD
1000
AcDbSavedByObjectVersion
1070
     0
  0
VISUALSTYLE
  5
655
102
{ACAD_XDICTIONARY
360
6C3
102
}
102
{ACAD_REACTORS
330
506
102
}
330
506
100
AcDbVisualStyle
  2
Shaded
 70
    27
 71
     2
 72
     2
 73
     1
 90
        2
 40
-0.6
 41
30.0
 62
     5
 63
     7
 74
     0
 91
        4
 64
     7
 65
   257
 75
     1
175
     1
 42
1.0
 92
        8
 66
   257
 43
1.0
 76
     1
 77
     6
 78
     2
 67
     8
 79
     3
170
     0
171
     0
290
     0
174
     0
 93
        5
 44
0.0
173
     0
291
     0
 45
0.0
1001
ACAD
1000
AcDbSavedByObjectVersion
1070
     0
  0
VISUALSTYLE
  5
654
102
{ACAD_XDICTIONARY
360
6C1
102
}
102
{ACAD_REACTORS
330
506
102
}
330
506
100
AcDbVisualStyle
  2
Shaded with edges
 70
    26
 71
     2
 72
     2
 73
     1
 90
        2
 40
-0.6
 41
30.0
 62
     5
 63
     7
 74
     1
 91
       10
 64
     7
 65
   257
 75
     2
175
     1
 42
1.0
 92
        8
 66
   257
 43
1.0
 76
     1
 77
     6
 78
     2
 67
     7
 79
     3
170
     0
171
     0
290
     0
174
     0
 93
        5
 44
0.0
173
     0
291
     0
 45
0.0
1001
ACAD
1000
AcDbSavedByObjectVersion
1070
     0
  0
VISUALSTYLE
  5
651
102
{ACAD_XDICTIONARY
360
6BB
102
}
102
{ACAD_REACTORS
330
506
102
}
330
506
100
AcDbVisualStyle
  2
Shades of Gray
 70
    23
 71
     2
 72
     2
 73
     3
 90
        0
 40
-0.6
 41
-30.0
 62
     5
 63
     7
 74
     2
 91
        2
 64
     7
 65
     7
 75
     1
175
     1
 42
40.0
 92
        8
 66
     7
 43
1.0
 76
     1
 77
     6
 78
     2
 67
     7
 79
     3
170
     0
171
     0
290
     0
174
     0
 93
        1
 44
0.0
173
     0
291
     0
 45
0.0
1001
ACAD
1000
AcDbSavedByObjectVersion
1070
     0
  0
VISUALSTYLE
  5
652
102
{ACAD_XDICTIONARY
360
6BD
102
}
102
{ACAD_REACTORS
330
506
102
}
330
506
100
AcDbVisualStyle
  2
Sketchy
 70
    24
 71
     1
 72
     2
 73
     2
 90
        0
 40
-0.6
 41
-30.0
 62
     5
 63
     7
 74
     2
 91
        2
 64
     7
 65
     7
 75
     1
175
     1
 42
40.0
 92
       11
 66
     7
 43
1.0
 76
     1
 77
     6
 78
     2
 67
     7
 79
     6
170
     0
171
     0
290
     0
174
     0
 93
        1
 44
0.0
173
     0
291
     0
 45
0.0
1001
ACAD
1000
AcDbSavedByObjectVersion
1070
     0
  0
VISUALSTYLE
  5
513
102
{ACAD_XDICTIONARY
360
6AA
102
}
102
{ACAD_REACTORS
330
506
102
}
330
506
100
AcDbVisualStyle
  2
Thicken
 70
    13
 71
     2
 72
     2
 73
     0
 90
        0
 40
-0.6
 41
-30.0
 62
     5
 63
     7
 74
     1
 91
        4
 64
     7
 65
   257
 75
     1
175
     1
 42
1.0
 92
       12
 66
     7
 43
1.0
 76
     1
 77
     6
 78
     2
 67
     7
 79
     5
170
     0
171
     0
290
     0
174
     0
 93
        1
 44
0.0
173
     0
291
     1
 45
0.0
1001
ACAD
1000
AcDbSavedByObjectVersion
1070
     0
  0
VISUALSTYLE
  5
64F
102
{ACAD_XDICTIONARY
360
6B7
102
}
102
{ACAD_REACTORS
330
506
102
}
330
506
100
AcDbVisualStyle
  2
Wireframe
 70
     5
 71
     0
 72
     2
 73
     0
 90
        0
 40
-0.6
 41
-30.0
 62
     5
 63
     7
 74
     1
 91
        4
 64
     7
 65
   257
 75
     1
175
     1
 42
1.0
 92
        0
 66
   257
 43
1.0
 76
     1
 77
     6
 78
     2
 67
     7
 79
     3
170
     0
171
     0
290
     0
174
     0
 93
        1
 44
0.0
173
     0
291
     0
 45
0.0
1001
ACAD
1000
AcDbSavedByObjectVersion
1070
     0
  0
VISUALSTYLE
  5
653
102
{ACAD_XDICTIONARY
360
6BF
102
}
102
{ACAD_REACTORS
330
506
102
}
330
506
100
AcDbVisualStyle
  2
X-Ray
 70
    25
 71
     2
 72
     2
 73
     1
 90
        1
 40
0.5
 41
-30.0
 62
     5
 63
     7
 74
     1
 91
        0
 64
     7
 65
   257
 75
     1
175
     1
 42
1.0
 92
        8
 66
     7
 43
1.0
 76
     1
 77
     6
 78
     2
 67
     7
 79
     3
170
     0
171
     0
290
     0
174
     0
 93
       13
 44
0.0
173
     0
291
     0
 45
0.0
1001
ACAD
1000
AcDbSavedByObjectVersion
1070
     0
  0
DICTIONARYVAR
  5
681
102
{ACAD_REACTORS
330
51F
102
}
330
51F
100
DictionaryVariables
280
     0
  1
1:1
  0
DICTIONARYVAR
  5
67E
102
{ACAD_REACTORS
330
51F
102
}
330
51F
100
DictionaryVariables
280
     0
  1
STANDARD
  0
DICTIONARYVAR
  5
520
102
{ACAD_REACTORS
330
51F
102
}
330
51F
100
DictionaryVariables
280
     0
  1
STANDARD
  0
DICTIONARYVAR
  5
67F
102
{ACAD_REACTORS
330
51F
102
}
330
51F
100
DictionaryVariables
280
     0
  1
Imperial24
  0
DICTIONARYVAR
  5
680
102
{ACAD_REACTORS
330
51F
102
}
330
51F
100
DictionaryVariables
280
     0
  1
Imperial24
  0
DICTIONARYVAR
  5
685
102
{ACAD_REACTORS
330
51F
102
}
330
51F
100
DictionaryVariables
280
     0
  1
1
  0
DICTIONARYVAR
  5
683
102
{ACAD_REACTORS
330
51F
102
}
330
51F
100
DictionaryVariables
280
     0
  1
0
  0
DICTIONARYVAR
  5
686
102
{ACAD_REACTORS
330
51F
102
}
330
51F
100
DictionaryVariables
280
     0
  1
1
  0
DICTIONARYVAR
  5
682
102
{ACAD_REACTORS
330
51F
102
}
330
51F
100
DictionaryVariables
280
     0
  1
127
  0
DICTIONARYVAR
  5
684
102
{ACAD_REACTORS
330
51F
102
}
330
51F
100
DictionaryVariables
280
     0
  1
0
  0
DICTIONARY
  5
6B5
330
51C
100
AcDbDictionary
280
     1
281
     1
  3
ACAD_XREC_ROUNDTRIP
360
6B6
  0
DICTIONARY
  5
6B3
330
51B
100
AcDbDictionary
280
     1
281
     1
  3
ACAD_XREC_ROUNDTRIP
360
6B4
  0
DICTIONARY
  5
68E
330
504
100
AcDbDictionary
280
     1
281
     1
  3
ACAD_XREC_ROUNDTRIP
360
68F
  0
DICTIONARY
  5
68C
330
503
100
AcDbDictionary
280
     1
281
     1
  3
ACAD_XREC_ROUNDTRIP
360
68D
  0
DICTIONARY
  5
690
330
505
100
AcDbDictionary
280
     1
281
     1
  3
ACAD_XREC_ROUNDTRIP
360
691
  0
DICTIONARY
  5
6CC
330
66C
100
AcDbDictionary
280
     1
281
     1
  3
ACAD_XREC_ROUNDTRIP
360
6CD
  0
DICTIONARY
  5
688
330
519
100
AcDbDictionary
280
     1
281
     1
  3
ACAD_ROUNDTRIP_2008_TABLESTYLE_CELLSTYLEMAP
360
689
  3
ACAD_XREC_ROUNDTRIP
360
6B2
  0
DICTIONARY
  5
69C
330
50C
100
AcDbDictionary
280
     1
281
     1
  3
ACAD_XREC_ROUNDTRIP
360
69D
  0
DICTIONARY
  5
6A0
330
50E
100
AcDbDictionary
280
     1
281
     1
  3
ACAD_XREC_ROUNDTRIP
360
6A1
  0
DICTIONARY
  5
69E
330
50D
100
AcDbDictionary
280
     1
281
     1
  3
ACAD_XREC_ROUNDTRIP
360
69F
  0
DICTIONARY
  5
69A
330
50B
100
AcDbDictionary
280
     1
281
     1
  3
ACAD_XREC_ROUNDTRIP
360
69B
  0
DICTIONARY
  5
6A8
330
512
100
AcDbDictionary
280
     1
281
     1
  3
ACAD_XREC_ROUNDTRIP
360
6A9
  0
DICTIONARY
  5
6B0
330
516
100
AcDbDictionary
280
     1
281
     1
  3
ACAD_XREC_ROUNDTRIP
360
6B1
  0
DICTIONARY
  5
6A2
330
50F
100
AcDbDictionary
280
     1
281
     1
  3
ACAD_XREC_ROUNDTRIP
360
6A3
  0
DICTIONARY
  5
6A6
330
511
100
AcDbDictionary
280
     1
281
     1
  3
ACAD_XREC_ROUNDTRIP
360
6A7
  0
DICTIONARY
  5
6C9
330
658
100
AcDbDictionary
280
     1
281
     1
  3
ACAD_XREC_ROUNDTRIP
360
6CA
  0
DICTIONARY
  5
6AE
330
515
100
AcDbDictionary
280
     1
281
     1
  3
ACAD_XREC_ROUNDTRIP
360
6AF
  0
DICTIONARY
  5
692
330
507
100
AcDbDictionary
280
     1
281
     1
  3
ACAD_XREC_ROUNDTRIP
360
693
  0
DICTIONARY
  5
694
330
508
100
AcDbDictionary
280
     1
281
     1
  3
ACAD_XREC_ROUNDTRIP
360
695
  0
DICTIONARY
  5
696
330
509
100
AcDbDictionary
280
     1
281
     1
  3
ACAD_XREC_ROUNDTRIP
360
697
  0
DICTIONARY
  5
698
330
50A
100
AcDbDictionary
280
     1
281
     1
  3
ACAD_XREC_ROUNDTRIP
360
699
  0
DICTIONARY
  5
6B9
330
650
100
AcDbDictionary
280
     1
281
     1
  3
ACAD_XREC_ROUNDTRIP
360
6BA
  0
DICTIONARY
  5
6C5
330
656
100
AcDbDictionary
280
     1
281
     1
  3
ACAD_XREC_ROUNDTRIP
360
6C6
  0
DICTIONARY
  5
6AC
330
514
100
AcDbDictionary
280
     1
281
     1
  3
ACAD_XREC_ROUNDTRIP
360
6AD
  0
DICTIONARY
  5
6C7
330
657
100
AcDbDictionary
280
     1
281
     1
  3
ACAD_XREC_ROUNDTRIP
360
6C8
  0
DICTIONARY
  5
6A4
330
510
100
AcDbDictionary
280
     1
281
     1
  3
ACAD_XREC_ROUNDTRIP
360
6A5
  0
DICTIONARY
  5
6C3
330
655
100
AcDbDictionary
280
     1
281
     1
  3
ACAD_XREC_ROUNDTRIP
360
6C4
  0
DICTIONARY
  5
6C1
330
654
100
AcDbDictionary
280
     1
281
     1
  3
ACAD_XREC_ROUNDTRIP
360
6C2
  0
DICTIONARY
  5
6BB
330
651
100
AcDbDictionary
280
     1
281
     1
  3
ACAD_XREC_ROUNDTRIP
360
6BC
  0
DICTIONARY
  5
6BD
330
652
100
AcDbDictionary
280
     1
281
     1
  3
ACAD_XREC_ROUNDTRIP
360
6BE
  0
DICTIONARY
  5
6AA
330
513
100
AcDbDictionary
280
     1
281
     1
  3
ACAD_XREC_ROUNDTRIP
360
6AB
  0
DICTIONARY
  5
6B7
330
64F
100
AcDbDictionary
280
     1
281
     1
  3
ACAD_XREC_ROUNDTRIP
360
6B8
  0
DICTIONARY
  5
6BF
330
653
100
AcDbDictionary
280
     1
281
     1
  3
ACAD_XREC_ROUNDTRIP
360
6C0
  0
XRECORD
  5
6B6
102
{ACAD_REACTORS
330
6B5
102
}
330
6B5
100
AcDbXrecord
280
     1
102
SHADEPLOT
 70
     0
102
SHADEPLOTRESLEVEL
 70
     2
102
SHADEPLOTCUSTOMDPI
 70
   300
  0
XRECORD
  5
6B4
102
{ACAD_REACTORS
330
6B3
102
}
330
6B3
100
AcDbXrecord
280
     1
102
SHADEPLOT
 70
     0
102
SHADEPLOTRESLEVEL
 70
     2
102
SHADEPLOTCUSTOMDPI
 70
   300
  0
XRECORD
  5
68F
102
{ACAD_REACTORS
330
68E
102
}
330
68E
100
AcDbXrecord
280
     1
102
MATERIAL
148
0.0
149
0.0
149
0.0
 93
        0
 94
       63
282
     0
 72
     1
 77
     1
171
     1
175
     1
179
     1
273
     0
  0
XRECORD
  5
68D
102
{ACAD_REACTORS
330
68C
102
}
330
68C
100
AcDbXrecord
280
     1
102
MATERIAL
148
0.0
149
0.0
149
0.0
 93
        0
 94
       63
282
     0
 72
     1
 77
     1
171
     1
175
     1
179
     1
273
     0
  0
XRECORD
  5
691
102
{ACAD_REACTORS
330
690
102
}
330
690
100
AcDbXrecord
280
     1
102
MATERIAL
148
0.0
149
0.0
149
0.0
 93
        0
 94
       63
282
     0
 72
     1
 77
     1
171
     1
175
     1
179
     1
273
     0
  0
XRECORD
  5
6CD
102
{ACAD_REACTORS
330
6CC
102
}
330
6CC
100
AcDbXrecord
280
     1
102
ACAD_ROUNDTRIP_2012_MLEADER_STYLE
298
     1
  0
CELLSTYLEMAP
  5
689
102
{ACAD_REACTORS
330
688
102
}
330
688
100
AcDbCellStyleMap
 90
        3
300
CELLSTYLE
  1
TABLEFORMAT_BEGIN
 90
        5
170
     1
 91
        0
 92
    32768
 62
   257
 93
        1
300
CONTENTFORMAT
  1
CONTENTFORMAT_BEGIN
 90
        0
 91
        0
 92
      512
 93
        0
300

 40
0.0
140
1.0
 94
        5
 62
     0
340
11
144
0.25
309
CONTENTFORMAT_END
171
     0
 94
        6
 95
        1
302
GRIDFORMAT
  1
GRIDFORMAT_BEGIN
 90
        0
 91
        1
 62
     0
 92
       -2
340
0
 93
        0
 40
0.045
309
GRIDFORMAT_END
 95
        2
302
GRIDFORMAT
  1
GRIDFORMAT_BEGIN
 90
        0
 91
        1
 62
     0
 92
       -2
340
0
 93
        0
 40
0.045
309
GRIDFORMAT_END
 95
        4
302
GRIDFORMAT
  1
GRIDFORMAT_BEGIN
 90
        0
 91
        1
 62
     0
 92
       -2
340
0
 93
        0
 40
0.045
309
GRIDFORMAT_END
 95
        8
302
GRIDFORMAT
  1
GRIDFORMAT_BEGIN
 90
        0
 91
        1
 62
     0
 92
       -2
340
0
 93
        0
 40
0.045
309
GRIDFORMAT_END
 95
       16
302
GRIDFORMAT
  1
GRIDFORMAT_BEGIN
 90
        0
 91
        1
 62
     0
 92
       -2
340
0
 93
        0
 40
0.045
309
GRIDFORMAT_END
 95
       32
302
GRIDFORMAT
  1
GRIDFORMAT_BEGIN
 90
        0
 91
        1
 62
     0
 92
       -2
340
0
 93
        0
 40
0.045
309
GRIDFORMAT_END
309
TABLEFORMAT_END
  1
CELLSTYLE_BEGIN
 90
        1
 91
        1
300
_TITLE
309
CELLSTYLE_END
300
CELLSTYLE
  1
TABLEFORMAT_BEGIN
 90
        5
170
     1
 91
        0
 92
        0
 62
   257
 93
        1
300
CONTENTFORMAT
  1
CONTENTFORMAT_BEGIN
 90
        0
 91
        0
 92
      512
 93
        0
300

 40
0.0
140
1.0
 94
        5
 62
     0
340
11
144
0.18
309
CONTENTFORMAT_END
171
     0
 94
        6
 95
        1
302
GRIDFORMAT
  1
GRIDFORMAT_BEGIN
 90
        0
 91
        1
 62
     0
 92
       -2
340
0
 93
        0
 40
0.045
309
GRIDFORMAT_END
 95
        2
302
GRIDFORMAT
  1
GRIDFORMAT_BEGIN
 90
        0
 91
        1
 62
     0
 92
       -2
340
0
 93
        0
 40
0.045
309
GRIDFORMAT_END
 95
        4
302
GRIDFORMAT
  1
GRIDFORMAT_BEGIN
 90
        0
 91
        1
 62
     0
 92
       -2
340
0
 93
        0
 40
0.045
309
GRIDFORMAT_END
 95
        8
302
GRIDFORMAT
  1
GRIDFORMAT_BEGIN
 90
        0
 91
        1
 62
     0
 92
       -2
340
0
 93
        0
 40
0.045
309
GRIDFORMAT_END
 95
       16
302
GRIDFORMAT
  1
GRIDFORMAT_BEGIN
 90
        0
 91
        1
 62
     0
 92
       -2
340
0
 93
        0
 40
0.045
309
GRIDFORMAT_END
 95
       32
302
GRIDFORMAT
  1
GRIDFORMAT_BEGIN
 90
        0
 91
        1
 62
     0
 92
       -2
340
0
 93
        0
 40
0.045
309
GRIDFORMAT_END
309
TABLEFORMAT_END
  1
CELLSTYLE_BEGIN
 90
        2
 91
        1
300
_HEADER
309
CELLSTYLE_END
300
CELLSTYLE
  1
TABLEFORMAT_BEGIN
 90
        5
170
     1
 91
        0
 92
        0
 62
   257
 93
        1
300
CONTENTFORMAT
  1
CONTENTFORMAT_BEGIN
 90
        0
 91
        0
 92
      512
 93
        0
300

 40
0.0
140
1.0
 94
        2
 62
     0
340
11
144
0.18
309
CONTENTFORMAT_END
171
     0
 94
        6
 95
        1
302
GRIDFORMAT
  1
GRIDFORMAT_BEGIN
 90
        0
 91
        1
 62
     0
 92
       -2
340
0
 93
        0
 40
0.045
309
GRIDFORMAT_END
 95
        2
302
GRIDFORMAT
  1
GRIDFORMAT_BEGIN
 90
        0
 91
        1
 62
     0
 92
       -2
340
0
 93
        0
 40
0.045
309
GRIDFORMAT_END
 95
        4
302
GRIDFORMAT
  1
GRIDFORMAT_BEGIN
 90
        0
 91
        1
 62
     0
 92
       -2
340
0
 93
        0
 40
0.045
309
GRIDFORMAT_END
 95
        8
302
GRIDFORMAT
  1
GRIDFORMAT_BEGIN
 90
        0
 91
        1
 62
     0
 92
       -2
340
0
 93
        0
 40
0.045
309
GRIDFORMAT_END
 95
       16
302
GRIDFORMAT
  1
GRIDFORMAT_BEGIN
 90
        0
 91
        1
 62
     0
 92
       -2
340
0
 93
        0
 40
0.045
309
GRIDFORMAT_END
 95
       32
302
GRIDFORMAT
  1
GRIDFORMAT_BEGIN
 90
        0
 91
        1
 62
     0
 92
       -2
340
0
 93
        0
 40
0.045
309
GRIDFORMAT_END
309
TABLEFORMAT_END
  1
CELLSTYLE_BEGIN
 90
        3
 91
        2
300
_DATA
309
CELLSTYLE_END
  0
XRECORD
  5
6B2
102
{ACAD_REACTORS
330
688
102
}
330
688
100
AcDbXrecord
280
     1
102
ACAD_ROUNDTRIP_PRE2007_TABLESTYLE
 90
      512
 91
        0
  1

 92
      512
 93
        0
  2

 94
      512
 95
        0
  3

  0
XRECORD
  5
69D
102
{ACAD_REACTORS
330
69C
102
}
330
69C
100
AcDbXrecord
280
     1
102
RTVSPost2010Prop28
280
     1
102
RTVSPost2010PropOp28
 70
     1
102
RTVSPost2010Prop29
280
     1
102
RTVSPost2010PropOp29
 70
     1
102
RTVSPost2010Prop30
280
     0
102
RTVSPost2010PropOp30
 70
     1
102
RTVSPost2010Prop31
280
     0
102
RTVSPost2010PropOp31
 70
     1
102
RTVSPost2010Prop32
280
     0
102
RTVSPost2010PropOp32
 70
     1
102
RTVSPost2010Prop33
280
     0
102
RTVSPost2010PropOp33
 70
     1
102
RTVSPost2010Prop34
280
     0
102
RTVSPost2010PropOp34
 70
     1
102
RTVSPost2010Prop35
280
     0
102
RTVSPost2010PropOp35
 70
     1
102
RTVSPost2010Prop36
280
     0
102
RTVSPost2010PropOp36
 70
     1
102
RTVSPost2010Prop37
 90
       50
102
RTVSPost2010PropOp37
 70
     1
102
RTVSPost2010Prop38
140
0.0
102
RTVSPost2010PropOp38
 70
     1
102
RTVSPost2010Prop39
140
1.0
102
RTVSPost2010PropOp39
 70
     1
102
RTVSPost2010Prop40
 90
        0
102
RTVSPost2010PropOp40
 70
     1
102
RTVSPost2010Prop41ColorIndex
 90
       18
102
RTVSPost2010Prop41ColorRGB
 90
        0
102
RTVSPost2010PropOp41
 70
     1
102
RTVSPost2010Prop42
 90
       50
102
RTVSPost2010PropOp42
 70
     1
102
RTVSPost2010Prop43
 90
        3
102
RTVSPost2010PropOp43
 70
     1
102
RTVSPost2010Prop44ColorIndex
 90
        5
102
RTVSPost2010Prop44ColorRGB
 90
      255
102
RTVSPost2010PropOp44
 70
     1
102
RTVSPost2010Prop45
280
     0
102
RTVSPost2010PropOp45
 70
     1
102
RTVSPost2010Prop46
 90
       50
102
RTVSPost2010PropOp46
 70
     1
102
RTVSPost2010Prop47
 90
       50
102
RTVSPost2010PropOp47
 70
     1
102
RTVSPost2010Prop48
 90
       50
102
RTVSPost2010PropOp48
 70
     1
102
RTVSPost2010Prop49
280
     0
102
RTVSPost2010PropOp49
 70
     1
102
RTVSPost2010Prop50
 90
       50
102
RTVSPost2010PropOp50
 70
     1
102
RTVSPost2010Prop51ColorIndex
 90
      256
102
RTVSPost2010Prop51ColorRGB
 90
-16777216
102
RTVSPost2010PropOp51
 70
     0
102
RTVSPost2010Prop52
140
1.0
102
RTVSPost2010PropOp52
 70
     0
102
RTVSPost2010Prop53
 90
        2
102
RTVSPost2010PropOp53
 70
     1
102
RTVSPost2010Prop54
  1
strokes_ogs.tif
102
RTVSPost2010PropOp54
 70
     1
102
RTVSPost2010Prop55
280
     0
102
RTVSPost2010PropOp55
 70
     1
102
RTVSPost2010Prop56
140
1.0
102
RTVSPost2010PropOp56
 70
     1
102
RTVSPost2010Prop57
140
1.0
102
RTVSPost2010PropOp57
 70
     1
102
RTVSPropertyOp0
 70
     1
102
RTVSPropertyOp1
 70
     1
102
RTVSPropertyOp2
 70
     1
102
RTVSPropertyOp3
 70
     1
102
RTVSPropertyOp4
 70
     1
102
RTVSPropertyOp5
 70
     1
102
RTVSPropertyOp6
 70
     1
102
RTVSPropertyOp7
 70
     1
102
RTVSPropertyOp8
 70
     1
102
RTVSPropertyOp9
 70
     1
102
RTVSPropertyOp10
 70
     1
102
RTVSPropertyOp11
 70
     1
102
RTVSPropertyOp12
 70
     1
102
RTVSPropertyOp13
 70
     1
102
RTVSPropertyOp14
 70
     1
102
RTVSPropertyOp15
 70
     1
102
RTVSPropertyOp16
 70
     1
102
RTVSPropertyOp17
 70
     1
102
RTVSPropertyOp18
 70
     1
102
RTVSPropertyOp19
 70
     1
102
RTVSPropertyOp20
 70
     1
102
RTVSPropertyOp21
 70
     1
102
RTVSPropertyOp22
 70
     1
102
RTVSPropertyOp23
 70
     1
102
RTVSPropertyOp24
 70
     1
102
RTVSPropertyOp25
 70
     1
102
RTVSPropertyOp26
 70
     1
102
RTVSPropertyOp27
 70
     1
102
RTVSPropertyOp28
 70
     1
102
RTVSPropertyOp29
 70
     1
102
RTVSPropertyOp30
 70
     1
102
RTVSPropertyOp31
 70
     1
102
RTVSPropertyOp32
 70
     1
102
RTVSPropertyOp33
 70
     1
102
RTVSPropertyOp34
 70
     1
102
RTVSPropertyOp35
 70
     1
102
RTVSPropertyOp36
 70
     1
102
RTVSPropertyOp37
 70
     1
102
RTVSPropertyOp38
 70
     1
102
RTVSPropertyOp39
 70
     1
102
RTVSPropertyOp40
 70
     1
102
RTVSPropertyOp41
 70
     1
102
RTVSPropertyOp42
 70
     1
102
RTVSPropertyOp43
 70
     1
102
RTVSPropertyOp44
 70
     1
102
RTVSPropertyOp45
 70
     1
102
RTVSPropertyOp46
 70
     1
102
RTVSPropertyOp47
 70
     1
102
RTVSPropertyOp48
 70
     1
102
RTVSPropertyOp49
 70
     1
102
RTVSPropertyOp50
 70
     1
102
RTVSPropertyOp51
 70
     0
102
RTVSPropertyOp52
 70
     0
102
RTVSPropertyOp53
 70
     1
102
RTVSPropertyOp54
 70
     1
102
RTVSPropertyOp55
 70
     1
102
RTVSPropertyOp56
 70
     1
102
RTVSPropertyOp57
 70
     1
102
RTVSPropertyOp58
 70
     1
102
RTVSPropertyOp59
 70
     1
102
RTVSPropertyOp60
 70
     1
102
RTVSPropertyOp61
 70
     1
102
RTVSPropertyOp62
 70
     1
  0
XRECORD
  5
6A1
102
{ACAD_REACTORS
330
6A0
102
}
330
6A0
100
AcDbXrecord
280
     1
102
RTVSPost2010Prop28
280
     0
102
RTVSPost2010PropOp28
 70
     1
102
RTVSPost2010Prop29
280
     1
102
RTVSPost2010PropOp29
 70
     1
102
RTVSPost2010Prop30
280
     1
102
RTVSPost2010PropOp30
 70
     1
102
RTVSPost2010Prop31
280
     0
102
RTVSPost2010PropOp31
 70
     1
102
RTVSPost2010Prop32
280
     0
102
RTVSPost2010PropOp32
 70
     1
102
RTVSPost2010Prop33
280
     0
102
RTVSPost2010PropOp33
 70
     1
102
RTVSPost2010Prop34
280
     0
102
RTVSPost2010PropOp34
 70
     1
102
RTVSPost2010Prop35
280
     0
102
RTVSPost2010PropOp35
 70
     1
102
RTVSPost2010Prop36
280
     0
102
RTVSPost2010PropOp36
 70
     1
102
RTVSPost2010Prop37
 90
       50
102
RTVSPost2010PropOp37
 70
     1
102
RTVSPost2010Prop38
140
0.0
102
RTVSPost2010PropOp38
 70
     1
102
RTVSPost2010Prop39
140
1.0
102
RTVSPost2010PropOp39
 70
     1
102
RTVSPost2010Prop40
 90
        0
102
RTVSPost2010PropOp40
 70
     1
102
RTVSPost2010Prop41ColorIndex
 90
       18
102
RTVSPost2010Prop41ColorRGB
 90
        0
102
RTVSPost2010PropOp41
 70
     1
102
RTVSPost2010Prop42
 90
       50
102
RTVSPost2010PropOp42
 70
     1
102
RTVSPost2010Prop43
 90
        3
102
RTVSPost2010PropOp43
 70
     1
102
RTVSPost2010Prop44ColorIndex
 90
        5
102
RTVSPost2010Prop44ColorRGB
 90
      255
102
RTVSPost2010PropOp44
 70
     1
102
RTVSPost2010Prop45
280
     0
102
RTVSPost2010PropOp45
 70
     1
102
RTVSPost2010Prop46
 90
       50
102
RTVSPost2010PropOp46
 70
     1
102
RTVSPost2010Prop47
 90
       50
102
RTVSPost2010PropOp47
 70
     1
102
RTVSPost2010Prop48
 90
       50
102
RTVSPost2010PropOp48
 70
     1
102
RTVSPost2010Prop49
280
     0
102
RTVSPost2010PropOp49
 70
     1
102
RTVSPost2010Prop50
 90
       50
102
RTVSPost2010PropOp50
 70
     1
102
RTVSPost2010Prop51ColorIndex
 90
      256
102
RTVSPost2010Prop51ColorRGB
 90
-16777216
102
RTVSPost2010PropOp51
 70
     0
102
RTVSPost2010Prop52
140
1.0
102
RTVSPost2010PropOp52
 70
     0
102
RTVSPost2010Prop53
 90
        2
102
RTVSPost2010PropOp53
 70
     1
102
RTVSPost2010Prop54
  1
strokes_ogs.tif
102
RTVSPost2010PropOp54
 70
     1
102
RTVSPost2010Prop55
280
     0
102
RTVSPost2010PropOp55
 70
     1
102
RTVSPost2010Prop56
140
1.0
102
RTVSPost2010PropOp56
 70
     1
102
RTVSPost2010Prop57
140
1.0
102
RTVSPost2010PropOp57
 70
     1
102
RTVSPropertyOp0
 70
     1
102
RTVSPropertyOp1
 70
     1
102
RTVSPropertyOp2
 70
     1
102
RTVSPropertyOp3
 70
     1
102
RTVSPropertyOp4
 70
     1
102
RTVSPropertyOp5
 70
     1
102
RTVSPropertyOp6
 70
     1
102
RTVSPropertyOp7
 70
     1
102
RTVSPropertyOp8
 70
     1
102
RTVSPropertyOp9
 70
     1
102
RTVSPropertyOp10
 70
     1
102
RTVSPropertyOp11
 70
     1
102
RTVSPropertyOp12
 70
     1
102
RTVSPropertyOp13
 70
     1
102
RTVSPropertyOp14
 70
     1
102
RTVSPropertyOp15
 70
     1
102
RTVSPropertyOp16
 70
     1
102
RTVSPropertyOp17
 70
     1
102
RTVSPropertyOp18
 70
     1
102
RTVSPropertyOp19
 70
     1
102
RTVSPropertyOp20
 70
     1
102
RTVSPropertyOp21
 70
     1
102
RTVSPropertyOp22
 70
     1
102
RTVSPropertyOp23
 70
     1
102
RTVSPropertyOp24
 70
     1
102
RTVSPropertyOp25
 70
     1
102
RTVSPropertyOp26
 70
     1
102
RTVSPropertyOp27
 70
     1
102
RTVSPropertyOp28
 70
     1
102
RTVSPropertyOp29
 70
     1
102
RTVSPropertyOp30
 70
     1
102
RTVSPropertyOp31
 70
     1
102
RTVSPropertyOp32
 70
     1
102
RTVSPropertyOp33
 70
     1
102
RTVSPropertyOp34
 70
     1
102
RTVSPropertyOp35
 70
     1
102
RTVSPropertyOp36
 70
     1
102
RTVSPropertyOp37
 70
     1
102
RTVSPropertyOp38
 70
     1
102
RTVSPropertyOp39
 70
     1
102
RTVSPropertyOp40
 70
     1
102
RTVSPropertyOp41
 70
     1
102
RTVSPropertyOp42
 70
     1
102
RTVSPropertyOp43
 70
     1
102
RTVSPropertyOp44
 70
     1
102
RTVSPropertyOp45
 70
     1
102
RTVSPropertyOp46
 70
     1
102
RTVSPropertyOp47
 70
     1
102
RTVSPropertyOp48
 70
     1
102
RTVSPropertyOp49
 70
     1
102
RTVSPropertyOp50
 70
     1
102
RTVSPropertyOp51
 70
     0
102
RTVSPropertyOp52
 70
     0
102
RTVSPropertyOp53
 70
     1
102
RTVSPropertyOp54
 70
     1
102
RTVSPropertyOp55
 70
     1
102
RTVSPropertyOp56
 70
     1
102
RTVSPropertyOp57
 70
     1
102
RTVSPropertyOp58
 70
     1
102
RTVSPropertyOp59
 70
     1
102
RTVSPropertyOp60
 70
     1
102
RTVSPropertyOp61
 70
     1
102
RTVSPropertyOp62
 70
     1
  0
XRECORD
  5
69F
102
{ACAD_REACTORS
330
69E
102
}
330
69E
100
AcDbXrecord
280
     1
102
RTVSPost2010Prop28
280
     0
102
RTVSPost2010PropOp28
 70
     1
102
RTVSPost2010Prop29
280
     1
102
RTVSPost2010PropOp29
 70
     1
102
RTVSPost2010Prop30
280
     1
102
RTVSPost2010PropOp30
 70
     1
102
RTVSPost2010Prop31
280
     0
102
RTVSPost2010PropOp31
 70
     1
102
RTVSPost2010Prop32
280
     0
102
RTVSPost2010PropOp32
 70
     1
102
RTVSPost2010Prop33
280
     0
102
RTVSPost2010PropOp33
 70
     1
102
RTVSPost2010Prop34
280
     0
102
RTVSPost2010PropOp34
 70
     1
102
RTVSPost2010Prop35
280
     0
102
RTVSPost2010PropOp35
 70
     1
102
RTVSPost2010Prop36
280
     0
102
RTVSPost2010PropOp36
 70
     1
102
RTVSPost2010Prop37
 90
       50
102
RTVSPost2010PropOp37
 70
     1
102
RTVSPost2010Prop38
140
0.0
102
RTVSPost2010PropOp38
 70
     1
102
RTVSPost2010Prop39
140
1.0
102
RTVSPost2010PropOp39
 70
     1
102
RTVSPost2010Prop40
 90
        0
102
RTVSPost2010PropOp40
 70
     1
102
RTVSPost2010Prop41ColorIndex
 90
       18
102
RTVSPost2010Prop41ColorRGB
 90
        0
102
RTVSPost2010PropOp41
 70
     1
102
RTVSPost2010Prop42
 90
       50
102
RTVSPost2010PropOp42
 70
     1
102
RTVSPost2010Prop43
 90
        3
102
RTVSPost2010PropOp43
 70
     1
102
RTVSPost2010Prop44ColorIndex
 90
        5
102
RTVSPost2010Prop44ColorRGB
 90
      255
102
RTVSPost2010PropOp44
 70
     1
102
RTVSPost2010Prop45
280
     0
102
RTVSPost2010PropOp45
 70
     1
102
RTVSPost2010Prop46
 90
       50
102
RTVSPost2010PropOp46
 70
     1
102
RTVSPost2010Prop47
 90
       50
102
RTVSPost2010PropOp47
 70
     1
102
RTVSPost2010Prop48
 90
       50
102
RTVSPost2010PropOp48
 70
     1
102
RTVSPost2010Prop49
280
     0
102
RTVSPost2010PropOp49
 70
     1
102
RTVSPost2010Prop50
 90
       50
102
RTVSPost2010PropOp50
 70
     1
102
RTVSPost2010Prop51ColorIndex
 90
      256
102
RTVSPost2010Prop51ColorRGB
 90
-16777216
102
RTVSPost2010PropOp51
 70
     0
102
RTVSPost2010Prop52
140
1.0
102
RTVSPost2010PropOp52
 70
     0
102
RTVSPost2010Prop53
 90
        2
102
RTVSPost2010PropOp53
 70
     1
102
RTVSPost2010Prop54
  1
strokes_ogs.tif
102
RTVSPost2010PropOp54
 70
     1
102
RTVSPost2010Prop55
280
     0
102
RTVSPost2010PropOp55
 70
     1
102
RTVSPost2010Prop56
140
1.0
102
RTVSPost2010PropOp56
 70
     1
102
RTVSPost2010Prop57
140
1.0
102
RTVSPost2010PropOp57
 70
     1
102
RTVSPropertyOp0
 70
     1
102
RTVSPropertyOp1
 70
     1
102
RTVSPropertyOp2
 70
     1
102
RTVSPropertyOp3
 70
     1
102
RTVSPropertyOp4
 70
     1
102
RTVSPropertyOp5
 70
     1
102
RTVSPropertyOp6
 70
     1
102
RTVSPropertyOp7
 70
     1
102
RTVSPropertyOp8
 70
     1
102
RTVSPropertyOp9
 70
     1
102
RTVSPropertyOp10
 70
     1
102
RTVSPropertyOp11
 70
     1
102
RTVSPropertyOp12
 70
     1
102
RTVSPropertyOp13
 70
     1
102
RTVSPropertyOp14
 70
     1
102
RTVSPropertyOp15
 70
     1
102
RTVSPropertyOp16
 70
     1
102
RTVSPropertyOp17
 70
     1
102
RTVSPropertyOp18
 70
     1
102
RTVSPropertyOp19
 70
     1
102
RTVSPropertyOp20
 70
     1
102
RTVSPropertyOp21
 70
     1
102
RTVSPropertyOp22
 70
     1
102
RTVSPropertyOp23
 70
     1
102
RTVSPropertyOp24
 70
     1
102
RTVSPropertyOp25
 70
     1
102
RTVSPropertyOp26
 70
     1
102
RTVSPropertyOp27
 70
     1
102
RTVSPropertyOp28
 70
     1
102
RTVSPropertyOp29
 70
     1
102
RTVSPropertyOp30
 70
     1
102
RTVSPropertyOp31
 70
     1
102
RTVSPropertyOp32
 70
     1
102
RTVSPropertyOp33
 70
     1
102
RTVSPropertyOp34
 70
     1
102
RTVSPropertyOp35
 70
     1
102
RTVSPropertyOp36
 70
     1
102
RTVSPropertyOp37
 70
     1
102
RTVSPropertyOp38
 70
     1
102
RTVSPropertyOp39
 70
     1
102
RTVSPropertyOp40
 70
     1
102
RTVSPropertyOp41
 70
     1
102
RTVSPropertyOp42
 70
     1
102
RTVSPropertyOp43
 70
     1
102
RTVSPropertyOp44
 70
     1
102
RTVSPropertyOp45
 70
     1
102
RTVSPropertyOp46
 70
     1
102
RTVSPropertyOp47
 70
     1
102
RTVSPropertyOp48
 70
     1
102
RTVSPropertyOp49
 70
     1
102
RTVSPropertyOp50
 70
     1
102
RTVSPropertyOp51
 70
     0
102
RTVSPropertyOp52
 70
     0
102
RTVSPropertyOp53
 70
     1
102
RTVSPropertyOp54
 70
     1
102
RTVSPropertyOp55
 70
     1
102
RTVSPropertyOp56
 70
     1
102
RTVSPropertyOp57
 70
     1
102
RTVSPropertyOp58
 70
     1
102
RTVSPropertyOp59
 70
     1
102
RTVSPropertyOp60
 70
     1
102
RTVSPropertyOp61
 70
     1
102
RTVSPropertyOp62
 70
     1
  0
XRECORD
  5
69B
102
{ACAD_REACTORS
330
69A
102
}
330
69A
100
AcDbXrecord
280
     1
102
RTVSPost2010Prop28
280
     0
102
RTVSPost2010PropOp28
 70
     1
102
RTVSPost2010Prop29
280
     1
102
RTVSPost2010PropOp29
 70
     1
102
RTVSPost2010Prop30
280
     1
102
RTVSPost2010PropOp30
 70
     1
102
RTVSPost2010Prop31
280
     0
102
RTVSPost2010PropOp31
 70
     1
102
RTVSPost2010Prop32
280
     0
102
RTVSPost2010PropOp32
 70
     1
102
RTVSPost2010Prop33
280
     0
102
RTVSPost2010PropOp33
 70
     1
102
RTVSPost2010Prop34
280
     0
102
RTVSPost2010PropOp34
 70
     1
102
RTVSPost2010Prop35
280
     0
102
RTVSPost2010PropOp35
 70
     1
102
RTVSPost2010Prop36
280
     0
102
RTVSPost2010PropOp36
 70
     1
102
RTVSPost2010Prop37
 90
       50
102
RTVSPost2010PropOp37
 70
     1
102
RTVSPost2010Prop38
140
0.0
102
RTVSPost2010PropOp38
 70
     1
102
RTVSPost2010Prop39
140
1.0
102
RTVSPost2010PropOp39
 70
     1
102
RTVSPost2010Prop40
 90
        0
102
RTVSPost2010PropOp40
 70
     1
102
RTVSPost2010Prop41ColorIndex
 90
       18
102
RTVSPost2010Prop41ColorRGB
 90
        0
102
RTVSPost2010PropOp41
 70
     1
102
RTVSPost2010Prop42
 90
       50
102
RTVSPost2010PropOp42
 70
     1
102
RTVSPost2010Prop43
 90
        3
102
RTVSPost2010PropOp43
 70
     1
102
RTVSPost2010Prop44ColorIndex
 90
        5
102
RTVSPost2010Prop44ColorRGB
 90
      255
102
RTVSPost2010PropOp44
 70
     1
102
RTVSPost2010Prop45
280
     0
102
RTVSPost2010PropOp45
 70
     1
102
RTVSPost2010Prop46
 90
       50
102
RTVSPost2010PropOp46
 70
     1
102
RTVSPost2010Prop47
 90
       50
102
RTVSPost2010PropOp47
 70
     1
102
RTVSPost2010Prop48
 90
       50
102
RTVSPost2010PropOp48
 70
     1
102
RTVSPost2010Prop49
280
     0
102
RTVSPost2010PropOp49
 70
     1
102
RTVSPost2010Prop50
 90
       50
102
RTVSPost2010PropOp50
 70
     1
102
RTVSPost2010Prop51ColorIndex
 90
      256
102
RTVSPost2010Prop51ColorRGB
 90
-16777216
102
RTVSPost2010PropOp51
 70
     0
102
RTVSPost2010Prop52
140
1.0
102
RTVSPost2010PropOp52
 70
     0
102
RTVSPost2010Prop53
 90
        2
102
RTVSPost2010PropOp53
 70
     1
102
RTVSPost2010Prop54
  1
strokes_ogs.tif
102
RTVSPost2010PropOp54
 70
     1
102
RTVSPost2010Prop55
280
     0
102
RTVSPost2010PropOp55
 70
     1
102
RTVSPost2010Prop56
140
1.0
102
RTVSPost2010PropOp56
 70
     1
102
RTVSPost2010Prop57
140
1.0
102
RTVSPost2010PropOp57
 70
     1
102
RTVSPropertyOp0
 70
     1
102
RTVSPropertyOp1
 70
     1
102
RTVSPropertyOp2
 70
     1
102
RTVSPropertyOp3
 70
     1
102
RTVSPropertyOp4
 70
     1
102
RTVSPropertyOp5
 70
     1
102
RTVSPropertyOp6
 70
     1
102
RTVSPropertyOp7
 70
     1
102
RTVSPropertyOp8
 70
     1
102
RTVSPropertyOp9
 70
     1
102
RTVSPropertyOp10
 70
     1
102
RTVSPropertyOp11
 70
     1
102
RTVSPropertyOp12
 70
     1
102
RTVSPropertyOp13
 70
     1
102
RTVSPropertyOp14
 70
     1
102
RTVSPropertyOp15
 70
     1
102
RTVSPropertyOp16
 70
     1
102
RTVSPropertyOp17
 70
     1
102
RTVSPropertyOp18
 70
     1
102
RTVSPropertyOp19
 70
     1
102
RTVSPropertyOp20
 70
     1
102
RTVSPropertyOp21
 70
     1
102
RTVSPropertyOp22
 70
     1
102
RTVSPropertyOp23
 70
     1
102
RTVSPropertyOp24
 70
     1
102
RTVSPropertyOp25
 70
     1
102
RTVSPropertyOp26
 70
     1
102
RTVSPropertyOp27
 70
     1
102
RTVSPropertyOp28
 70
     1
102
RTVSPropertyOp29
 70
     1
102
RTVSPropertyOp30
 70
     1
102
RTVSPropertyOp31
 70
     1
102
RTVSPropertyOp32
 70
     1
102
RTVSPropertyOp33
 70
     1
102
RTVSPropertyOp34
 70
     1
102
RTVSPropertyOp35
 70
     1
102
RTVSPropertyOp36
 70
     1
102
RTVSPropertyOp37
 70
     1
102
RTVSPropertyOp38
 70
     1
102
RTVSPropertyOp39
 70
     1
102
RTVSPropertyOp40
 70
     1
102
RTVSPropertyOp41
 70
     1
102
RTVSPropertyOp42
 70
     1
102
RTVSPropertyOp43
 70
     1
102
RTVSPropertyOp44
 70
     1
102
RTVSPropertyOp45
 70
     1
102
RTVSPropertyOp46
 70
     1
102
RTVSPropertyOp47
 70
     1
102
RTVSPropertyOp48
 70
     1
102
RTVSPropertyOp49
 70
     1
102
RTVSPropertyOp50
 70
     1
102
RTVSPropertyOp51
 70
     0
102
RTVSPropertyOp52
 70
     0
102
RTVSPropertyOp53
 70
     1
102
RTVSPropertyOp54
 70
     1
102
RTVSPropertyOp55
 70
     1
102
RTVSPropertyOp56
 70
     1
102
RTVSPropertyOp57
 70
     1
102
RTVSPropertyOp58
 70
     1
102
RTVSPropertyOp59
 70
     1
102
RTVSPropertyOp60
 70
     1
102
RTVSPropertyOp61
 70
     1
102
RTVSPropertyOp62
 70
     1
  0
XRECORD
  5
6A9
102
{ACAD_REACTORS
330
6A8
102
}
330
6A8
100
AcDbXrecord
280
     1
102
RTVSPost2010Prop28
280
     0
102
RTVSPost2010PropOp28
 70
     1
102
RTVSPost2010Prop29
280
     1
102
RTVSPost2010PropOp29
 70
     1
102
RTVSPost2010Prop30
280
     1
102
RTVSPost2010PropOp30
 70
     1
102
RTVSPost2010Prop31
280
     0
102
RTVSPost2010PropOp31
 70
     1
102
RTVSPost2010Prop32
280
     0
102
RTVSPost2010PropOp32
 70
     1
102
RTVSPost2010Prop33
280
     0
102
RTVSPost2010PropOp33
 70
     1
102
RTVSPost2010Prop34
280
     0
102
RTVSPost2010PropOp34
 70
     1
102
RTVSPost2010Prop35
280
     0
102
RTVSPost2010PropOp35
 70
     1
102
RTVSPost2010Prop36
280
     0
102
RTVSPost2010PropOp36
 70
     1
102
RTVSPost2010Prop37
 90
       50
102
RTVSPost2010PropOp37
 70
     1
102
RTVSPost2010Prop38
140
0.0
102
RTVSPost2010PropOp38
 70
     1
102
RTVSPost2010Prop39
140
1.0
102
RTVSPost2010PropOp39
 70
     1
102
RTVSPost2010Prop40
 90
        0
102
RTVSPost2010PropOp40
 70
     1
102
RTVSPost2010Prop41ColorIndex
 90
       18
102
RTVSPost2010Prop41ColorRGB
 90
        0
102
RTVSPost2010PropOp41
 70
     1
102
RTVSPost2010Prop42
 90
       50
102
RTVSPost2010PropOp42
 70
     1
102
RTVSPost2010Prop43
 90
        3
102
RTVSPost2010PropOp43
 70
     1
102
RTVSPost2010Prop44ColorIndex
 90
        5
102
RTVSPost2010Prop44ColorRGB
 90
      255
102
RTVSPost2010PropOp44
 70
     1
102
RTVSPost2010Prop45
280
     0
102
RTVSPost2010PropOp45
 70
     1
102
RTVSPost2010Prop46
 90
       50
102
RTVSPost2010PropOp46
 70
     1
102
RTVSPost2010Prop47
 90
       50
102
RTVSPost2010PropOp47
 70
     1
102
RTVSPost2010Prop48
 90
       50
102
RTVSPost2010PropOp48
 70
     1
102
RTVSPost2010Prop49
280
     0
102
RTVSPost2010PropOp49
 70
     1
102
RTVSPost2010Prop50
 90
       50
102
RTVSPost2010PropOp50
 70
     1
102
RTVSPost2010Prop51ColorIndex
 90
      256
102
RTVSPost2010Prop51ColorRGB
 90
-16777216
102
RTVSPost2010PropOp51
 70
     0
102
RTVSPost2010Prop52
140
1.0
102
RTVSPost2010PropOp52
 70
     0
102
RTVSPost2010Prop53
 90
        2
102
RTVSPost2010PropOp53
 70
     1
102
RTVSPost2010Prop54
  1
strokes_ogs.tif
102
RTVSPost2010PropOp54
 70
     1
102
RTVSPost2010Prop55
280
     0
102
RTVSPost2010PropOp55
 70
     1
102
RTVSPost2010Prop56
140
1.0
102
RTVSPost2010PropOp56
 70
     1
102
RTVSPost2010Prop57
140
1.0
102
RTVSPost2010PropOp57
 70
     1
102
RTVSPropertyOp0
 70
     1
102
RTVSPropertyOp1
 70
     1
102
RTVSPropertyOp2
 70
     1
102
RTVSPropertyOp3
 70
     1
102
RTVSPropertyOp4
 70
     1
102
RTVSPropertyOp5
 70
     1
102
RTVSPropertyOp6
 70
     1
102
RTVSPropertyOp7
 70
     1
102
RTVSPropertyOp8
 70
     1
102
RTVSPropertyOp9
 70
     1
102
RTVSPropertyOp10
 70
     1
102
RTVSPropertyOp11
 70
     1
102
RTVSPropertyOp12
 70
     1
102
RTVSPropertyOp13
 70
     1
102
RTVSPropertyOp14
 70
     1
102
RTVSPropertyOp15
 70
     1
102
RTVSPropertyOp16
 70
     1
102
RTVSPropertyOp17
 70
     1
102
RTVSPropertyOp18
 70
     1
102
RTVSPropertyOp19
 70
     1
102
RTVSPropertyOp20
 70
     1
102
RTVSPropertyOp21
 70
     1
102
RTVSPropertyOp22
 70
     1
102
RTVSPropertyOp23
 70
     1
102
RTVSPropertyOp24
 70
     1
102
RTVSPropertyOp25
 70
     1
102
RTVSPropertyOp26
 70
     1
102
RTVSPropertyOp27
 70
     1
102
RTVSPropertyOp28
 70
     1
102
RTVSPropertyOp29
 70
     1
102
RTVSPropertyOp30
 70
     1
102
RTVSPropertyOp31
 70
     1
102
RTVSPropertyOp32
 70
     1
102
RTVSPropertyOp33
 70
     1
102
RTVSPropertyOp34
 70
     1
102
RTVSPropertyOp35
 70
     1
102
RTVSPropertyOp36
 70
     1
102
RTVSPropertyOp37
 70
     1
102
RTVSPropertyOp38
 70
     1
102
RTVSPropertyOp39
 70
     1
102
RTVSPropertyOp40
 70
     1
102
RTVSPropertyOp41
 70
     1
102
RTVSPropertyOp42
 70
     1
102
RTVSPropertyOp43
 70
     1
102
RTVSPropertyOp44
 70
     1
102
RTVSPropertyOp45
 70
     1
102
RTVSPropertyOp46
 70
     1
102
RTVSPropertyOp47
 70
     1
102
RTVSPropertyOp48
 70
     1
102
RTVSPropertyOp49
 70
     1
102
RTVSPropertyOp50
 70
     1
102
RTVSPropertyOp51
 70
     0
102
RTVSPropertyOp52
 70
     0
102
RTVSPropertyOp53
 70
     1
102
RTVSPropertyOp54
 70
     1
102
RTVSPropertyOp55
 70
     1
102
RTVSPropertyOp56
 70
     1
102
RTVSPropertyOp57
 70
     1
102
RTVSPropertyOp58
 70
     1
102
RTVSPropertyOp59
 70
     1
102
RTVSPropertyOp60
 70
     1
102
RTVSPropertyOp61
 70
     1
102
RTVSPropertyOp62
 70
     1
  0
XRECORD
  5
6B1
102
{ACAD_REACTORS
330
6B0
102
}
330
6B0
100
AcDbXrecord
280
     1
102
RTVSPost2010Prop28
280
     0
102
RTVSPost2010PropOp28
 70
     1
102
RTVSPost2010Prop29
280
     1
102
RTVSPost2010PropOp29
 70
     1
102
RTVSPost2010Prop30
280
     1
102
RTVSPost2010PropOp30
 70
     1
102
RTVSPost2010Prop31
280
     0
102
RTVSPost2010PropOp31
 70
     1
102
RTVSPost2010Prop32
280
     0
102
RTVSPost2010PropOp32
 70
     1
102
RTVSPost2010Prop33
280
     0
102
RTVSPost2010PropOp33
 70
     1
102
RTVSPost2010Prop34
280
     0
102
RTVSPost2010PropOp34
 70
     1
102
RTVSPost2010Prop35
280
     0
102
RTVSPost2010PropOp35
 70
     1
102
RTVSPost2010Prop36
280
     0
102
RTVSPost2010PropOp36
 70
     1
102
RTVSPost2010Prop37
 90
       50
102
RTVSPost2010PropOp37
 70
     1
102
RTVSPost2010Prop38
140
0.0
102
RTVSPost2010PropOp38
 70
     1
102
RTVSPost2010Prop39
140
1.0
102
RTVSPost2010PropOp39
 70
     1
102
RTVSPost2010Prop40
 90
        0
102
RTVSPost2010PropOp40
 70
     1
102
RTVSPost2010Prop41ColorIndex
 90
       18
102
RTVSPost2010Prop41ColorRGB
 90
        0
102
RTVSPost2010PropOp41
 70
     1
102
RTVSPost2010Prop42
 90
       50
102
RTVSPost2010PropOp42
 70
     1
102
RTVSPost2010Prop43
 90
        3
102
RTVSPost2010PropOp43
 70
     1
102
RTVSPost2010Prop44ColorIndex
 90
        5
102
RTVSPost2010Prop44ColorRGB
 90
      255
102
RTVSPost2010PropOp44
 70
     1
102
RTVSPost2010Prop45
280
     0
102
RTVSPost2010PropOp45
 70
     1
102
RTVSPost2010Prop46
 90
       50
102
RTVSPost2010PropOp46
 70
     1
102
RTVSPost2010Prop47
 90
       50
102
RTVSPost2010PropOp47
 70
     1
102
RTVSPost2010Prop48
 90
       50
102
RTVSPost2010PropOp48
 70
     1
102
RTVSPost2010Prop49
280
     0
102
RTVSPost2010PropOp49
 70
     1
102
RTVSPost2010Prop50
 90
       50
102
RTVSPost2010PropOp50
 70
     1
102
RTVSPost2010Prop51ColorIndex
 90
      256
102
RTVSPost2010Prop51ColorRGB
 90
-16777216
102
RTVSPost2010PropOp51
 70
     0
102
RTVSPost2010Prop52
140
1.0
102
RTVSPost2010PropOp52
 70
     0
102
RTVSPost2010Prop53
 90
        2
102
RTVSPost2010PropOp53
 70
     1
102
RTVSPost2010Prop54
  1
strokes_ogs.tif
102
RTVSPost2010PropOp54
 70
     1
102
RTVSPost2010Prop55
280
     0
102
RTVSPost2010PropOp55
 70
     1
102
RTVSPost2010Prop56
140
1.0
102
RTVSPost2010PropOp56
 70
     1
102
RTVSPost2010Prop57
140
1.0
102
RTVSPost2010PropOp57
 70
     1
102
RTVSPropertyOp0
 70
     1
102
RTVSPropertyOp1
 70
     1
102
RTVSPropertyOp2
 70
     1
102
RTVSPropertyOp3
 70
     1
102
RTVSPropertyOp4
 70
     1
102
RTVSPropertyOp5
 70
     1
102
RTVSPropertyOp6
 70
     1
102
RTVSPropertyOp7
 70
     1
102
RTVSPropertyOp8
 70
     1
102
RTVSPropertyOp9
 70
     1
102
RTVSPropertyOp10
 70
     1
102
RTVSPropertyOp11
 70
     1
102
RTVSPropertyOp12
 70
     1
102
RTVSPropertyOp13
 70
     1
102
RTVSPropertyOp14
 70
     1
102
RTVSPropertyOp15
 70
     1
102
RTVSPropertyOp16
 70
     1
102
RTVSPropertyOp17
 70
     1
102
RTVSPropertyOp18
 70
     1
102
RTVSPropertyOp19
 70
     1
102
RTVSPropertyOp20
 70
     1
102
RTVSPropertyOp21
 70
     1
102
RTVSPropertyOp22
 70
     1
102
RTVSPropertyOp23
 70
     1
102
RTVSPropertyOp24
 70
     1
102
RTVSPropertyOp25
 70
     1
102
RTVSPropertyOp26
 70
     1
102
RTVSPropertyOp27
 70
     1
102
RTVSPropertyOp28
 70
     1
102
RTVSPropertyOp29
 70
     1
102
RTVSPropertyOp30
 70
     1
102
RTVSPropertyOp31
 70
     1
102
RTVSPropertyOp32
 70
     1
102
RTVSPropertyOp33
 70
     1
102
RTVSPropertyOp34
 70
     1
102
RTVSPropertyOp35
 70
     1
102
RTVSPropertyOp36
 70
     1
102
RTVSPropertyOp37
 70
     1
102
RTVSPropertyOp38
 70
     1
102
RTVSPropertyOp39
 70
     1
102
RTVSPropertyOp40
 70
     1
102
RTVSPropertyOp41
 70
     1
102
RTVSPropertyOp42
 70
     1
102
RTVSPropertyOp43
 70
     1
102
RTVSPropertyOp44
 70
     1
102
RTVSPropertyOp45
 70
     1
102
RTVSPropertyOp46
 70
     1
102
RTVSPropertyOp47
 70
     1
102
RTVSPropertyOp48
 70
     1
102
RTVSPropertyOp49
 70
     1
102
RTVSPropertyOp50
 70
     1
102
RTVSPropertyOp51
 70
     0
102
RTVSPropertyOp52
 70
     0
102
RTVSPropertyOp53
 70
     1
102
RTVSPropertyOp54
 70
     1
102
RTVSPropertyOp55
 70
     1
102
RTVSPropertyOp56
 70
     1
102
RTVSPropertyOp57
 70
     1
102
RTVSPropertyOp58
 70
     1
102
RTVSPropertyOp59
 70
     1
102
RTVSPropertyOp60
 70
     1
102
RTVSPropertyOp61
 70
     1
102
RTVSPropertyOp62
 70
     1
  0
XRECORD
  5
6A3
102
{ACAD_REACTORS
330
6A2
102
}
330
6A2
100
AcDbXrecord
280
     1
102
RTVSPost2010Prop28
280
     0
102
RTVSPost2010PropOp28
 70
     1
102
RTVSPost2010Prop29
280
     1
102
RTVSPost2010PropOp29
 70
     1
102
RTVSPost2010Prop30
280
     1
102
RTVSPost2010PropOp30
 70
     1
102
RTVSPost2010Prop31
280
     0
102
RTVSPost2010PropOp31
 70
     1
102
RTVSPost2010Prop32
280
     0
102
RTVSPost2010PropOp32
 70
     1
102
RTVSPost2010Prop33
280
     0
102
RTVSPost2010PropOp33
 70
     1
102
RTVSPost2010Prop34
280
     0
102
RTVSPost2010PropOp34
 70
     1
102
RTVSPost2010Prop35
280
     0
102
RTVSPost2010PropOp35
 70
     1
102
RTVSPost2010Prop36
280
     0
102
RTVSPost2010PropOp36
 70
     1
102
RTVSPost2010Prop37
 90
       50
102
RTVSPost2010PropOp37
 70
     1
102
RTVSPost2010Prop38
140
0.0
102
RTVSPost2010PropOp38
 70
     1
102
RTVSPost2010Prop39
140
1.0
102
RTVSPost2010PropOp39
 70
     1
102
RTVSPost2010Prop40
 90
        0
102
RTVSPost2010PropOp40
 70
     1
102
RTVSPost2010Prop41ColorIndex
 90
       18
102
RTVSPost2010Prop41ColorRGB
 90
        0
102
RTVSPost2010PropOp41
 70
     1
102
RTVSPost2010Prop42
 90
       50
102
RTVSPost2010PropOp42
 70
     1
102
RTVSPost2010Prop43
 90
        3
102
RTVSPost2010PropOp43
 70
     1
102
RTVSPost2010Prop44ColorIndex
 90
        5
102
RTVSPost2010Prop44ColorRGB
 90
      255
102
RTVSPost2010PropOp44
 70
     1
102
RTVSPost2010Prop45
280
     0
102
RTVSPost2010PropOp45
 70
     1
102
RTVSPost2010Prop46
 90
       50
102
RTVSPost2010PropOp46
 70
     1
102
RTVSPost2010Prop47
 90
       50
102
RTVSPost2010PropOp47
 70
     1
102
RTVSPost2010Prop48
 90
       50
102
RTVSPost2010PropOp48
 70
     1
102
RTVSPost2010Prop49
280
     0
102
RTVSPost2010PropOp49
 70
     1
102
RTVSPost2010Prop50
 90
       50
102
RTVSPost2010PropOp50
 70
     1
102
RTVSPost2010Prop51ColorIndex
 90
      256
102
RTVSPost2010Prop51ColorRGB
 90
-16777216
102
RTVSPost2010PropOp51
 70
     0
102
RTVSPost2010Prop52
140
1.0
102
RTVSPost2010PropOp52
 70
     0
102
RTVSPost2010Prop53
 90
        2
102
RTVSPost2010PropOp53
 70
     1
102
RTVSPost2010Prop54
  1
strokes_ogs.tif
102
RTVSPost2010PropOp54
 70
     1
102
RTVSPost2010Prop55
280
     0
102
RTVSPost2010PropOp55
 70
     1
102
RTVSPost2010Prop56
140
1.0
102
RTVSPost2010PropOp56
 70
     1
102
RTVSPost2010Prop57
140
1.0
102
RTVSPost2010PropOp57
 70
     1
102
RTVSPropertyOp0
 70
     1
102
RTVSPropertyOp1
 70
     1
102
RTVSPropertyOp2
 70
     1
102
RTVSPropertyOp3
 70
     1
102
RTVSPropertyOp4
 70
     1
102
RTVSPropertyOp5
 70
     1
102
RTVSPropertyOp6
 70
     1
102
RTVSPropertyOp7
 70
     1
102
RTVSPropertyOp8
 70
     1
102
RTVSPropertyOp9
 70
     1
102
RTVSPropertyOp10
 70
     1
102
RTVSPropertyOp11
 70
     1
102
RTVSPropertyOp12
 70
     1
102
RTVSPropertyOp13
 70
     1
102
RTVSPropertyOp14
 70
     1
102
RTVSPropertyOp15
 70
     1
102
RTVSPropertyOp16
 70
     1
102
RTVSPropertyOp17
 70
     1
102
RTVSPropertyOp18
 70
     1
102
RTVSPropertyOp19
 70
     1
102
RTVSPropertyOp20
 70
     1
102
RTVSPropertyOp21
 70
     1
102
RTVSPropertyOp22
 70
     1
102
RTVSPropertyOp23
 70
     1
102
RTVSPropertyOp24
 70
     1
102
RTVSPropertyOp25
 70
     1
102
RTVSPropertyOp26
 70
     1
102
RTVSPropertyOp27
 70
     1
102
RTVSPropertyOp28
 70
     1
102
RTVSPropertyOp29
 70
     1
102
RTVSPropertyOp30
 70
     1
102
RTVSPropertyOp31
 70
     1
102
RTVSPropertyOp32
 70
     1
102
RTVSPropertyOp33
 70
     1
102
RTVSPropertyOp34
 70
     1
102
RTVSPropertyOp35
 70
     1
102
RTVSPropertyOp36
 70
     1
102
RTVSPropertyOp37
 70
     1
102
RTVSPropertyOp38
 70
     1
102
RTVSPropertyOp39
 70
     1
102
RTVSPropertyOp40
 70
     1
102
RTVSPropertyOp41
 70
     1
102
RTVSPropertyOp42
 70
     1
102
RTVSPropertyOp43
 70
     1
102
RTVSPropertyOp44
 70
     1
102
RTVSPropertyOp45
 70
     1
102
RTVSPropertyOp46
 70
     1
102
RTVSPropertyOp47
 70
     1
102
RTVSPropertyOp48
 70
     1
102
RTVSPropertyOp49
 70
     1
102
RTVSPropertyOp50
 70
     1
102
RTVSPropertyOp51
 70
     0
102
RTVSPropertyOp52
 70
     0
102
RTVSPropertyOp53
 70
     1
102
RTVSPropertyOp54
 70
     1
102
RTVSPropertyOp55
 70
     1
102
RTVSPropertyOp56
 70
     1
102
RTVSPropertyOp57
 70
     1
102
RTVSPropertyOp58
 70
     1
102
RTVSPropertyOp59
 70
     1
102
RTVSPropertyOp60
 70
     1
102
RTVSPropertyOp61
 70
     1
102
RTVSPropertyOp62
 70
     1
  0
XRECORD
  5
6A7
102
{ACAD_REACTORS
330
6A6
102
}
330
6A6
100
AcDbXrecord
280
     1
102
RTVSPost2010Prop28
280
     0
102
RTVSPost2010PropOp28
 70
     1
102
RTVSPost2010Prop29
280
     1
102
RTVSPost2010PropOp29
 70
     1
102
RTVSPost2010Prop30
280
     1
102
RTVSPost2010PropOp30
 70
     1
102
RTVSPost2010Prop31
280
     0
102
RTVSPost2010PropOp31
 70
     1
102
RTVSPost2010Prop32
280
     0
102
RTVSPost2010PropOp32
 70
     1
102
RTVSPost2010Prop33
280
     0
102
RTVSPost2010PropOp33
 70
     1
102
RTVSPost2010Prop34
280
     0
102
RTVSPost2010PropOp34
 70
     1
102
RTVSPost2010Prop35
280
     0
102
RTVSPost2010PropOp35
 70
     1
102
RTVSPost2010Prop36
280
     0
102
RTVSPost2010PropOp36
 70
     1
102
RTVSPost2010Prop37
 90
       50
102
RTVSPost2010PropOp37
 70
     1
102
RTVSPost2010Prop38
140
0.0
102
RTVSPost2010PropOp38
 70
     1
102
RTVSPost2010Prop39
140
1.0
102
RTVSPost2010PropOp39
 70
     1
102
RTVSPost2010Prop40
 90
        0
102
RTVSPost2010PropOp40
 70
     1
102
RTVSPost2010Prop41ColorIndex
 90
       18
102
RTVSPost2010Prop41ColorRGB
 90
        0
102
RTVSPost2010PropOp41
 70
     1
102
RTVSPost2010Prop42
 90
       50
102
RTVSPost2010PropOp42
 70
     1
102
RTVSPost2010Prop43
 90
        3
102
RTVSPost2010PropOp43
 70
     1
102
RTVSPost2010Prop44ColorIndex
 90
        5
102
RTVSPost2010Prop44ColorRGB
 90
      255
102
RTVSPost2010PropOp44
 70
     1
102
RTVSPost2010Prop45
280
     0
102
RTVSPost2010PropOp45
 70
     1
102
RTVSPost2010Prop46
 90
       50
102
RTVSPost2010PropOp46
 70
     1
102
RTVSPost2010Prop47
 90
       50
102
RTVSPost2010PropOp47
 70
     1
102
RTVSPost2010Prop48
 90
       50
102
RTVSPost2010PropOp48
 70
     1
102
RTVSPost2010Prop49
280
     0
102
RTVSPost2010PropOp49
 70
     1
102
RTVSPost2010Prop50
 90
       50
102
RTVSPost2010PropOp50
 70
     1
102
RTVSPost2010Prop51ColorIndex
 90
      256
102
RTVSPost2010Prop51ColorRGB
 90
-16777216
102
RTVSPost2010PropOp51
 70
     0
102
RTVSPost2010Prop52
140
1.0
102
RTVSPost2010PropOp52
 70
     0
102
RTVSPost2010Prop53
 90
        2
102
RTVSPost2010PropOp53
 70
     1
102
RTVSPost2010Prop54
  1
strokes_ogs.tif
102
RTVSPost2010PropOp54
 70
     1
102
RTVSPost2010Prop55
280
     0
102
RTVSPost2010PropOp55
 70
     1
102
RTVSPost2010Prop56
140
1.0
102
RTVSPost2010PropOp56
 70
     1
102
RTVSPost2010Prop57
140
1.0
102
RTVSPost2010PropOp57
 70
     1
102
RTVSPropertyOp0
 70
     1
102
RTVSPropertyOp1
 70
     1
102
RTVSPropertyOp2
 70
     1
102
RTVSPropertyOp3
 70
     1
102
RTVSPropertyOp4
 70
     1
102
RTVSPropertyOp5
 70
     1
102
RTVSPropertyOp6
 70
     1
102
RTVSPropertyOp7
 70
     1
102
RTVSPropertyOp8
 70
     1
102
RTVSPropertyOp9
 70
     1
102
RTVSPropertyOp10
 70
     1
102
RTVSPropertyOp11
 70
     1
102
RTVSPropertyOp12
 70
     1
102
RTVSPropertyOp13
 70
     1
102
RTVSPropertyOp14
 70
     1
102
RTVSPropertyOp15
 70
     1
102
RTVSPropertyOp16
 70
     1
102
RTVSPropertyOp17
 70
     1
102
RTVSPropertyOp18
 70
     1
102
RTVSPropertyOp19
 70
     1
102
RTVSPropertyOp20
 70
     1
102
RTVSPropertyOp21
 70
     1
102
RTVSPropertyOp22
 70
     1
102
RTVSPropertyOp23
 70
     1
102
RTVSPropertyOp24
 70
     1
102
RTVSPropertyOp25
 70
     1
102
RTVSPropertyOp26
 70
     1
102
RTVSPropertyOp27
 70
     1
102
RTVSPropertyOp28
 70
     1
102
RTVSPropertyOp29
 70
     1
102
RTVSPropertyOp30
 70
     1
102
RTVSPropertyOp31
 70
     1
102
RTVSPropertyOp32
 70
     1
102
RTVSPropertyOp33
 70
     1
102
RTVSPropertyOp34
 70
     1
102
RTVSPropertyOp35
 70
     1
102
RTVSPropertyOp36
 70
     1
102
RTVSPropertyOp37
 70
     1
102
RTVSPropertyOp38
 70
     1
102
RTVSPropertyOp39
 70
     1
102
RTVSPropertyOp40
 70
     1
102
RTVSPropertyOp41
 70
     1
102
RTVSPropertyOp42
 70
     1
102
RTVSPropertyOp43
 70
     1
102
RTVSPropertyOp44
 70
     1
102
RTVSPropertyOp45
 70
     1
102
RTVSPropertyOp46
 70
     1
102
RTVSPropertyOp47
 70
     1
102
RTVSPropertyOp48
 70
     1
102
RTVSPropertyOp49
 70
     1
102
RTVSPropertyOp50
 70
     1
102
RTVSPropertyOp51
 70
     0
102
RTVSPropertyOp52
 70
     0
102
RTVSPropertyOp53
 70
     1
102
RTVSPropertyOp54
 70
     1
102
RTVSPropertyOp55
 70
     1
102
RTVSPropertyOp56
 70
     1
102
RTVSPropertyOp57
 70
     1
102
RTVSPropertyOp58
 70
     1
102
RTVSPropertyOp59
 70
     1
102
RTVSPropertyOp60
 70
     1
102
RTVSPropertyOp61
 70
     1
102
RTVSPropertyOp62
 70
     1
  0
XRECORD
  5
6CA
102
{ACAD_REACTORS
330
6C9
102
}
330
6C9
100
AcDbXrecord
280
     1
102
RTVSPost2010Prop28
280
     0
102
RTVSPost2010PropOp28
 70
     0
102
RTVSPost2010Prop29
280
     1
102
RTVSPost2010PropOp29
 70
     0
102
RTVSPost2010Prop30
280
     1
102
RTVSPost2010PropOp30
 70
     0
102
RTVSPost2010Prop31
280
     0
102
RTVSPost2010PropOp31
 70
     0
102
RTVSPost2010Prop32
280
     0
102
RTVSPost2010PropOp32
 70
     0
102
RTVSPost2010Prop33
280
     0
102
RTVSPost2010PropOp33
 70
     0
102
RTVSPost2010Prop34
280
     0
102
RTVSPost2010PropOp34
 70
     0
102
RTVSPost2010Prop35
280
     0
102
RTVSPost2010PropOp35
 70
     0
102
RTVSPost2010Prop36
280
     0
102
RTVSPost2010PropOp36
 70
     0
102
RTVSPost2010Prop37
 90
       50
102
RTVSPost2010PropOp37
 70
     0
102
RTVSPost2010Prop38
140
0.0
102
RTVSPost2010PropOp38
 70
     0
102
RTVSPost2010Prop39
140
1.0
102
RTVSPost2010PropOp39
 70
     0
102
RTVSPost2010Prop40
 90
        0
102
RTVSPost2010PropOp40
 70
     0
102
RTVSPost2010Prop41ColorIndex
 90
       18
102
RTVSPost2010Prop41ColorRGB
 90
        0
102
RTVSPost2010PropOp41
 70
     0
102
RTVSPost2010Prop42
 90
       50
102
RTVSPost2010PropOp42
 70
     0
102
RTVSPost2010Prop43
 90
        3
102
RTVSPost2010PropOp43
 70
     0
102
RTVSPost2010Prop44ColorIndex
 90
        5
102
RTVSPost2010Prop44ColorRGB
 90
      255
102
RTVSPost2010PropOp44
 70
     0
102
RTVSPost2010Prop45
280
     0
102
RTVSPost2010PropOp45
 70
     0
102
RTVSPost2010Prop46
 90
       50
102
RTVSPost2010PropOp46
 70
     0
102
RTVSPost2010Prop47
 90
       50
102
RTVSPost2010PropOp47
 70
     0
102
RTVSPost2010Prop48
 90
       50
102
RTVSPost2010PropOp48
 70
     0
102
RTVSPost2010Prop49
280
     0
102
RTVSPost2010PropOp49
 70
     0
102
RTVSPost2010Prop50
 90
       50
102
RTVSPost2010PropOp50
 70
     0
102
RTVSPost2010Prop51ColorIndex
 90
      256
102
RTVSPost2010Prop51ColorRGB
 90
-16777216
102
RTVSPost2010PropOp51
 70
     0
102
RTVSPost2010Prop52
140
1.0
102
RTVSPost2010PropOp52
 70
     0
102
RTVSPost2010Prop53
 90
        2
102
RTVSPost2010PropOp53
 70
     0
102
RTVSPost2010Prop54
  1
strokes_ogs.tif
102
RTVSPost2010PropOp54
 70
     0
102
RTVSPost2010Prop55
280
     0
102
RTVSPost2010PropOp55
 70
     0
102
RTVSPost2010Prop56
140
1.0
102
RTVSPost2010PropOp56
 70
     0
102
RTVSPost2010Prop57
140
1.0
102
RTVSPost2010PropOp57
 70
     0
102
RTVSPropertyOp0
 70
     0
102
RTVSPropertyOp1
 70
     0
102
RTVSPropertyOp2
 70
     0
102
RTVSPropertyOp3
 70
     0
102
RTVSPropertyOp4
 70
     0
102
RTVSPropertyOp5
 70
     0
102
RTVSPropertyOp6
 70
     0
102
RTVSPropertyOp7
 70
     0
102
RTVSPropertyOp8
 70
     0
102
RTVSPropertyOp9
 70
     0
102
RTVSPropertyOp10
 70
     0
102
RTVSPropertyOp11
 70
     0
102
RTVSPropertyOp12
 70
     0
102
RTVSPropertyOp13
 70
     0
102
RTVSPropertyOp14
 70
     2
102
RTVSPropertyOp15
 70
     0
102
RTVSPropertyOp16
 70
     0
102
RTVSPropertyOp17
 70
     0
102
RTVSPropertyOp18
 70
     0
102
RTVSPropertyOp19
 70
     0
102
RTVSPropertyOp20
 70
     0
102
RTVSPropertyOp21
 70
     0
102
RTVSPropertyOp22
 70
     0
102
RTVSPropertyOp23
 70
     0
102
RTVSPropertyOp24
 70
     0
102
RTVSPropertyOp25
 70
     0
102
RTVSPropertyOp26
 70
     0
102
RTVSPropertyOp27
 70
     0
102
RTVSPropertyOp28
 70
     0
102
RTVSPropertyOp29
 70
     0
102
RTVSPropertyOp30
 70
     0
102
RTVSPropertyOp31
 70
     0
102
RTVSPropertyOp32
 70
     0
102
RTVSPropertyOp33
 70
     0
102
RTVSPropertyOp34
 70
     0
102
RTVSPropertyOp35
 70
     0
102
RTVSPropertyOp36
 70
     0
102
RTVSPropertyOp37
 70
     0
102
RTVSPropertyOp38
 70
     0
102
RTVSPropertyOp39
 70
     0
102
RTVSPropertyOp40
 70
     0
102
RTVSPropertyOp41
 70
     0
102
RTVSPropertyOp42
 70
     0
102
RTVSPropertyOp43
 70
     0
102
RTVSPropertyOp44
 70
     0
102
RTVSPropertyOp45
 70
     0
102
RTVSPropertyOp46
 70
     0
102
RTVSPropertyOp47
 70
     0
102
RTVSPropertyOp48
 70
     0
102
RTVSPropertyOp49
 70
     0
102
RTVSPropertyOp50
 70
     0
102
RTVSPropertyOp51
 70
     0
102
RTVSPropertyOp52
 70
     0
102
RTVSPropertyOp53
 70
     0
102
RTVSPropertyOp54
 70
     0
102
RTVSPropertyOp55
 70
     0
102
RTVSPropertyOp56
 70
     0
102
RTVSPropertyOp57
 70
     0
102
RTVSPropertyOp58
 70
     0
102
RTVSPropertyOp59
 70
     0
102
RTVSPropertyOp60
 70
     0
102
RTVSPropertyOp61
 70
     0
102
RTVSPropertyOp62
 70
     0
  0
XRECORD
  5
6AF
102
{ACAD_REACTORS
330
6AE
102
}
330
6AE
100
AcDbXrecord
280
     1
102
RTVSPost2010Prop28
280
     0
102
RTVSPost2010PropOp28
 70
     1
102
RTVSPost2010Prop29
280
     1
102
RTVSPost2010PropOp29
 70
     1
102
RTVSPost2010Prop30
280
     1
102
RTVSPost2010PropOp30
 70
     1
102
RTVSPost2010Prop31
280
     0
102
RTVSPost2010PropOp31
 70
     1
102
RTVSPost2010Prop32
280
     0
102
RTVSPost2010PropOp32
 70
     1
102
RTVSPost2010Prop33
280
     0
102
RTVSPost2010PropOp33
 70
     1
102
RTVSPost2010Prop34
280
     0
102
RTVSPost2010PropOp34
 70
     1
102
RTVSPost2010Prop35
280
     0
102
RTVSPost2010PropOp35
 70
     1
102
RTVSPost2010Prop36
280
     0
102
RTVSPost2010PropOp36
 70
     1
102
RTVSPost2010Prop37
 90
       50
102
RTVSPost2010PropOp37
 70
     1
102
RTVSPost2010Prop38
140
0.0
102
RTVSPost2010PropOp38
 70
     1
102
RTVSPost2010Prop39
140
1.0
102
RTVSPost2010PropOp39
 70
     1
102
RTVSPost2010Prop40
 90
        0
102
RTVSPost2010PropOp40
 70
     1
102
RTVSPost2010Prop41ColorIndex
 90
       18
102
RTVSPost2010Prop41ColorRGB
 90
        0
102
RTVSPost2010PropOp41
 70
     1
102
RTVSPost2010Prop42
 90
       50
102
RTVSPost2010PropOp42
 70
     1
102
RTVSPost2010Prop43
 90
        3
102
RTVSPost2010PropOp43
 70
     1
102
RTVSPost2010Prop44ColorIndex
 90
        5
102
RTVSPost2010Prop44ColorRGB
 90
      255
102
RTVSPost2010PropOp44
 70
     1
102
RTVSPost2010Prop45
280
     0
102
RTVSPost2010PropOp45
 70
     1
102
RTVSPost2010Prop46
 90
       50
102
RTVSPost2010PropOp46
 70
     1
102
RTVSPost2010Prop47
 90
       50
102
RTVSPost2010PropOp47
 70
     1
102
RTVSPost2010Prop48
 90
       50
102
RTVSPost2010PropOp48
 70
     1
102
RTVSPost2010Prop49
280
     0
102
RTVSPost2010PropOp49
 70
     1
102
RTVSPost2010Prop50
 90
       50
102
RTVSPost2010PropOp50
 70
     1
102
RTVSPost2010Prop51ColorIndex
 90
      256
102
RTVSPost2010Prop51ColorRGB
 90
-16777216
102
RTVSPost2010PropOp51
 70
     0
102
RTVSPost2010Prop52
140
1.0
102
RTVSPost2010PropOp52
 70
     0
102
RTVSPost2010Prop53
 90
        2
102
RTVSPost2010PropOp53
 70
     1
102
RTVSPost2010Prop54
  1
strokes_ogs.tif
102
RTVSPost2010PropOp54
 70
     1
102
RTVSPost2010Prop55
280
     0
102
RTVSPost2010PropOp55
 70
     1
102
RTVSPost2010Prop56
140
1.0
102
RTVSPost2010PropOp56
 70
     1
102
RTVSPost2010Prop57
140
1.0
102
RTVSPost2010PropOp57
 70
     1
102
RTVSPropertyOp0
 70
     1
102
RTVSPropertyOp1
 70
     1
102
RTVSPropertyOp2
 70
     1
102
RTVSPropertyOp3
 70
     1
102
RTVSPropertyOp4
 70
     1
102
RTVSPropertyOp5
 70
     1
102
RTVSPropertyOp6
 70
     1
102
RTVSPropertyOp7
 70
     1
102
RTVSPropertyOp8
 70
     1
102
RTVSPropertyOp9
 70
     1
102
RTVSPropertyOp10
 70
     1
102
RTVSPropertyOp11
 70
     1
102
RTVSPropertyOp12
 70
     1
102
RTVSPropertyOp13
 70
     1
102
RTVSPropertyOp14
 70
     1
102
RTVSPropertyOp15
 70
     1
102
RTVSPropertyOp16
 70
     1
102
RTVSPropertyOp17
 70
     1
102
RTVSPropertyOp18
 70
     1
102
RTVSPropertyOp19
 70
     1
102
RTVSPropertyOp20
 70
     1
102
RTVSPropertyOp21
 70
     1
102
RTVSPropertyOp22
 70
     1
102
RTVSPropertyOp23
 70
     1
102
RTVSPropertyOp24
 70
     1
102
RTVSPropertyOp25
 70
     1
102
RTVSPropertyOp26
 70
     1
102
RTVSPropertyOp27
 70
     1
102
RTVSPropertyOp28
 70
     1
102
RTVSPropertyOp29
 70
     1
102
RTVSPropertyOp30
 70
     1
102
RTVSPropertyOp31
 70
     1
102
RTVSPropertyOp32
 70
     1
102
RTVSPropertyOp33
 70
     1
102
RTVSPropertyOp34
 70
     1
102
RTVSPropertyOp35
 70
     1
102
RTVSPropertyOp36
 70
     1
102
RTVSPropertyOp37
 70
     1
102
RTVSPropertyOp38
 70
     1
102
RTVSPropertyOp39
 70
     1
102
RTVSPropertyOp40
 70
     1
102
RTVSPropertyOp41
 70
     1
102
RTVSPropertyOp42
 70
     1
102
RTVSPropertyOp43
 70
     1
102
RTVSPropertyOp44
 70
     1
102
RTVSPropertyOp45
 70
     1
102
RTVSPropertyOp46
 70
     1
102
RTVSPropertyOp47
 70
     1
102
RTVSPropertyOp48
 70
     1
102
RTVSPropertyOp49
 70
     1
102
RTVSPropertyOp50
 70
     1
102
RTVSPropertyOp51
 70
     0
102
RTVSPropertyOp52
 70
     0
102
RTVSPropertyOp53
 70
     1
102
RTVSPropertyOp54
 70
     1
102
RTVSPropertyOp55
 70
     1
102
RTVSPropertyOp56
 70
     1
102
RTVSPropertyOp57
 70
     1
102
RTVSPropertyOp58
 70
     1
102
RTVSPropertyOp59
 70
     1
102
RTVSPropertyOp60
 70
     1
102
RTVSPropertyOp61
 70
     1
102
RTVSPropertyOp62
 70
     1
  0
XRECORD
  5
693
102
{ACAD_REACTORS
330
692
102
}
330
692
100
AcDbXrecord
280
     1
102
RTVSPost2010Prop28
280
     0
102
RTVSPost2010PropOp28
 70
     1
102
RTVSPost2010Prop29
280
     1
102
RTVSPost2010PropOp29
 70
     1
102
RTVSPost2010Prop30
280
     1
102
RTVSPost2010PropOp30
 70
     1
102
RTVSPost2010Prop31
280
     0
102
RTVSPost2010PropOp31
 70
     1
102
RTVSPost2010Prop32
280
     0
102
RTVSPost2010PropOp32
 70
     1
102
RTVSPost2010Prop33
280
     0
102
RTVSPost2010PropOp33
 70
     1
102
RTVSPost2010Prop34
280
     0
102
RTVSPost2010PropOp34
 70
     1
102
RTVSPost2010Prop35
280
     0
102
RTVSPost2010PropOp35
 70
     1
102
RTVSPost2010Prop36
280
     0
102
RTVSPost2010PropOp36
 70
     1
102
RTVSPost2010Prop37
 90
       50
102
RTVSPost2010PropOp37
 70
     1
102
RTVSPost2010Prop38
140
0.0
102
RTVSPost2010PropOp38
 70
     1
102
RTVSPost2010Prop39
140
1.0
102
RTVSPost2010PropOp39
 70
     1
102
RTVSPost2010Prop40
 90
        0
102
RTVSPost2010PropOp40
 70
     1
102
RTVSPost2010Prop41ColorIndex
 90
       18
102
RTVSPost2010Prop41ColorRGB
 90
        0
102
RTVSPost2010PropOp41
 70
     1
102
RTVSPost2010Prop42
 90
       50
102
RTVSPost2010PropOp42
 70
     1
102
RTVSPost2010Prop43
 90
        3
102
RTVSPost2010PropOp43
 70
     1
102
RTVSPost2010Prop44ColorIndex
 90
        5
102
RTVSPost2010Prop44ColorRGB
 90
      255
102
RTVSPost2010PropOp44
 70
     1
102
RTVSPost2010Prop45
280
     0
102
RTVSPost2010PropOp45
 70
     1
102
RTVSPost2010Prop46
 90
       50
102
RTVSPost2010PropOp46
 70
     1
102
RTVSPost2010Prop47
 90
       50
102
RTVSPost2010PropOp47
 70
     1
102
RTVSPost2010Prop48
 90
       50
102
RTVSPost2010PropOp48
 70
     1
102
RTVSPost2010Prop49
280
     0
102
RTVSPost2010PropOp49
 70
     1
102
RTVSPost2010Prop50
 90
       50
102
RTVSPost2010PropOp50
 70
     1
102
RTVSPost2010Prop51ColorIndex
 90
      256
102
RTVSPost2010Prop51ColorRGB
 90
-16777216
102
RTVSPost2010PropOp51
 70
     0
102
RTVSPost2010Prop52
140
1.0
102
RTVSPost2010PropOp52
 70
     0
102
RTVSPost2010Prop53
 90
        2
102
RTVSPost2010PropOp53
 70
     1
102
RTVSPost2010Prop54
  1
strokes_ogs.tif
102
RTVSPost2010PropOp54
 70
     1
102
RTVSPost2010Prop55
280
     0
102
RTVSPost2010PropOp55
 70
     1
102
RTVSPost2010Prop56
140
1.0
102
RTVSPost2010PropOp56
 70
     1
102
RTVSPost2010Prop57
140
1.0
102
RTVSPost2010PropOp57
 70
     1
102
RTVSPropertyOp0
 70
     1
102
RTVSPropertyOp1
 70
     1
102
RTVSPropertyOp2
 70
     1
102
RTVSPropertyOp3
 70
     1
102
RTVSPropertyOp4
 70
     1
102
RTVSPropertyOp5
 70
     1
102
RTVSPropertyOp6
 70
     1
102
RTVSPropertyOp7
 70
     1
102
RTVSPropertyOp8
 70
     1
102
RTVSPropertyOp9
 70
     1
102
RTVSPropertyOp10
 70
     1
102
RTVSPropertyOp11
 70
     1
102
RTVSPropertyOp12
 70
     1
102
RTVSPropertyOp13
 70
     1
102
RTVSPropertyOp14
 70
     1
102
RTVSPropertyOp15
 70
     1
102
RTVSPropertyOp16
 70
     1
102
RTVSPropertyOp17
 70
     1
102
RTVSPropertyOp18
 70
     1
102
RTVSPropertyOp19
 70
     1
102
RTVSPropertyOp20
 70
     1
102
RTVSPropertyOp21
 70
     1
102
RTVSPropertyOp22
 70
     1
102
RTVSPropertyOp23
 70
     1
102
RTVSPropertyOp24
 70
     1
102
RTVSPropertyOp25
 70
     1
102
RTVSPropertyOp26
 70
     1
102
RTVSPropertyOp27
 70
     1
102
RTVSPropertyOp28
 70
     1
102
RTVSPropertyOp29
 70
     1
102
RTVSPropertyOp30
 70
     1
102
RTVSPropertyOp31
 70
     1
102
RTVSPropertyOp32
 70
     1
102
RTVSPropertyOp33
 70
     1
102
RTVSPropertyOp34
 70
     1
102
RTVSPropertyOp35
 70
     1
102
RTVSPropertyOp36
 70
     1
102
RTVSPropertyOp37
 70
     1
102
RTVSPropertyOp38
 70
     1
102
RTVSPropertyOp39
 70
     1
102
RTVSPropertyOp40
 70
     1
102
RTVSPropertyOp41
 70
     1
102
RTVSPropertyOp42
 70
     1
102
RTVSPropertyOp43
 70
     1
102
RTVSPropertyOp44
 70
     1
102
RTVSPropertyOp45
 70
     1
102
RTVSPropertyOp46
 70
     1
102
RTVSPropertyOp47
 70
     1
102
RTVSPropertyOp48
 70
     1
102
RTVSPropertyOp49
 70
     1
102
RTVSPropertyOp50
 70
     1
102
RTVSPropertyOp51
 70
     0
102
RTVSPropertyOp52
 70
     0
102
RTVSPropertyOp53
 70
     1
102
RTVSPropertyOp54
 70
     1
102
RTVSPropertyOp55
 70
     1
102
RTVSPropertyOp56
 70
     1
102
RTVSPropertyOp57
 70
     1
102
RTVSPropertyOp58
 70
     1
102
RTVSPropertyOp59
 70
     1
102
RTVSPropertyOp60
 70
     1
102
RTVSPropertyOp61
 70
     1
102
RTVSPropertyOp62
 70
     1
  0
XRECORD
  5
695
102
{ACAD_REACTORS
330
694
102
}
330
694
100
AcDbXrecord
280
     1
102
RTVSPost2010Prop28
280
     0
102
RTVSPost2010PropOp28
 70
     1
102
RTVSPost2010Prop29
280
     1
102
RTVSPost2010PropOp29
 70
     1
102
RTVSPost2010Prop30
280
     1
102
RTVSPost2010PropOp30
 70
     1
102
RTVSPost2010Prop31
280
     0
102
RTVSPost2010PropOp31
 70
     1
102
RTVSPost2010Prop32
280
     0
102
RTVSPost2010PropOp32
 70
     1
102
RTVSPost2010Prop33
280
     0
102
RTVSPost2010PropOp33
 70
     1
102
RTVSPost2010Prop34
280
     0
102
RTVSPost2010PropOp34
 70
     1
102
RTVSPost2010Prop35
280
     0
102
RTVSPost2010PropOp35
 70
     1
102
RTVSPost2010Prop36
280
     0
102
RTVSPost2010PropOp36
 70
     1
102
RTVSPost2010Prop37
 90
       50
102
RTVSPost2010PropOp37
 70
     1
102
RTVSPost2010Prop38
140
0.0
102
RTVSPost2010PropOp38
 70
     1
102
RTVSPost2010Prop39
140
1.0
102
RTVSPost2010PropOp39
 70
     1
102
RTVSPost2010Prop40
 90
        0
102
RTVSPost2010PropOp40
 70
     1
102
RTVSPost2010Prop41ColorIndex
 90
       18
102
RTVSPost2010Prop41ColorRGB
 90
        0
102
RTVSPost2010PropOp41
 70
     1
102
RTVSPost2010Prop42
 90
       50
102
RTVSPost2010PropOp42
 70
     1
102
RTVSPost2010Prop43
 90
        3
102
RTVSPost2010PropOp43
 70
     1
102
RTVSPost2010Prop44ColorIndex
 90
        5
102
RTVSPost2010Prop44ColorRGB
 90
      255
102
RTVSPost2010PropOp44
 70
     1
102
RTVSPost2010Prop45
280
     0
102
RTVSPost2010PropOp45
 70
     1
102
RTVSPost2010Prop46
 90
       50
102
RTVSPost2010PropOp46
 70
     1
102
RTVSPost2010Prop47
 90
       50
102
RTVSPost2010PropOp47
 70
     1
102
RTVSPost2010Prop48
 90
       50
102
RTVSPost2010PropOp48
 70
     1
102
RTVSPost2010Prop49
280
     0
102
RTVSPost2010PropOp49
 70
     1
102
RTVSPost2010Prop50
 90
       50
102
RTVSPost2010PropOp50
 70
     1
102
RTVSPost2010Prop51ColorIndex
 90
      256
102
RTVSPost2010Prop51ColorRGB
 90
-16777216
102
RTVSPost2010PropOp51
 70
     0
102
RTVSPost2010Prop52
140
1.0
102
RTVSPost2010PropOp52
 70
     0
102
RTVSPost2010Prop53
 90
        2
102
RTVSPost2010PropOp53
 70
     1
102
RTVSPost2010Prop54
  1
strokes_ogs.tif
102
RTVSPost2010PropOp54
 70
     1
102
RTVSPost2010Prop55
280
     0
102
RTVSPost2010PropOp55
 70
     1
102
RTVSPost2010Prop56
140
1.0
102
RTVSPost2010PropOp56
 70
     1
102
RTVSPost2010Prop57
140
1.0
102
RTVSPost2010PropOp57
 70
     1
102
RTVSPropertyOp0
 70
     1
102
RTVSPropertyOp1
 70
     1
102
RTVSPropertyOp2
 70
     1
102
RTVSPropertyOp3
 70
     1
102
RTVSPropertyOp4
 70
     1
102
RTVSPropertyOp5
 70
     1
102
RTVSPropertyOp6
 70
     1
102
RTVSPropertyOp7
 70
     1
102
RTVSPropertyOp8
 70
     1
102
RTVSPropertyOp9
 70
     1
102
RTVSPropertyOp10
 70
     1
102
RTVSPropertyOp11
 70
     1
102
RTVSPropertyOp12
 70
     1
102
RTVSPropertyOp13
 70
     1
102
RTVSPropertyOp14
 70
     1
102
RTVSPropertyOp15
 70
     1
102
RTVSPropertyOp16
 70
     1
102
RTVSPropertyOp17
 70
     1
102
RTVSPropertyOp18
 70
     1
102
RTVSPropertyOp19
 70
     1
102
RTVSPropertyOp20
 70
     1
102
RTVSPropertyOp21
 70
     1
102
RTVSPropertyOp22
 70
     1
102
RTVSPropertyOp23
 70
     1
102
RTVSPropertyOp24
 70
     1
102
RTVSPropertyOp25
 70
     1
102
RTVSPropertyOp26
 70
     1
102
RTVSPropertyOp27
 70
     1
102
RTVSPropertyOp28
 70
     1
102
RTVSPropertyOp29
 70
     1
102
RTVSPropertyOp30
 70
     1
102
RTVSPropertyOp31
 70
     1
102
RTVSPropertyOp32
 70
     1
102
RTVSPropertyOp33
 70
     1
102
RTVSPropertyOp34
 70
     1
102
RTVSPropertyOp35
 70
     1
102
RTVSPropertyOp36
 70
     1
102
RTVSPropertyOp37
 70
     1
102
RTVSPropertyOp38
 70
     1
102
RTVSPropertyOp39
 70
     1
102
RTVSPropertyOp40
 70
     1
102
RTVSPropertyOp41
 70
     1
102
RTVSPropertyOp42
 70
     1
102
RTVSPropertyOp43
 70
     1
102
RTVSPropertyOp44
 70
     1
102
RTVSPropertyOp45
 70
     1
102
RTVSPropertyOp46
 70
     1
102
RTVSPropertyOp47
 70
     1
102
RTVSPropertyOp48
 70
     1
102
RTVSPropertyOp49
 70
     1
102
RTVSPropertyOp50
 70
     1
102
RTVSPropertyOp51
 70
     0
102
RTVSPropertyOp52
 70
     0
102
RTVSPropertyOp53
 70
     1
102
RTVSPropertyOp54
 70
     1
102
RTVSPropertyOp55
 70
     1
102
RTVSPropertyOp56
 70
     1
102
RTVSPropertyOp57
 70
     1
102
RTVSPropertyOp58
 70
     1
102
RTVSPropertyOp59
 70
     1
102
RTVSPropertyOp60
 70
     1
102
RTVSPropertyOp61
 70
     1
102
RTVSPropertyOp62
 70
     1
  0
XRECORD
  5
697
102
{ACAD_REACTORS
330
696
102
}
330
696
100
AcDbXrecord
280
     1
102
RTVSPost2010Prop28
280
     0
102
RTVSPost2010PropOp28
 70
     1
102
RTVSPost2010Prop29
280
     1
102
RTVSPost2010PropOp29
 70
     1
102
RTVSPost2010Prop30
280
     1
102
RTVSPost2010PropOp30
 70
     1
102
RTVSPost2010Prop31
280
     0
102
RTVSPost2010PropOp31
 70
     1
102
RTVSPost2010Prop32
280
     0
102
RTVSPost2010PropOp32
 70
     1
102
RTVSPost2010Prop33
280
     0
102
RTVSPost2010PropOp33
 70
     1
102
RTVSPost2010Prop34
280
     0
102
RTVSPost2010PropOp34
 70
     1
102
RTVSPost2010Prop35
280
     0
102
RTVSPost2010PropOp35
 70
     1
102
RTVSPost2010Prop36
280
     0
102
RTVSPost2010PropOp36
 70
     1
102
RTVSPost2010Prop37
 90
       50
102
RTVSPost2010PropOp37
 70
     1
102
RTVSPost2010Prop38
140
0.0
102
RTVSPost2010PropOp38
 70
     1
102
RTVSPost2010Prop39
140
1.0
102
RTVSPost2010PropOp39
 70
     1
102
RTVSPost2010Prop40
 90
        0
102
RTVSPost2010PropOp40
 70
     1
102
RTVSPost2010Prop41ColorIndex
 90
       18
102
RTVSPost2010Prop41ColorRGB
 90
        0
102
RTVSPost2010PropOp41
 70
     1
102
RTVSPost2010Prop42
 90
       50
102
RTVSPost2010PropOp42
 70
     1
102
RTVSPost2010Prop43
 90
        3
102
RTVSPost2010PropOp43
 70
     1
102
RTVSPost2010Prop44ColorIndex
 90
        5
102
RTVSPost2010Prop44ColorRGB
 90
      255
102
RTVSPost2010PropOp44
 70
     1
102
RTVSPost2010Prop45
280
     0
102
RTVSPost2010PropOp45
 70
     1
102
RTVSPost2010Prop46
 90
       50
102
RTVSPost2010PropOp46
 70
     1
102
RTVSPost2010Prop47
 90
       50
102
RTVSPost2010PropOp47
 70
     1
102
RTVSPost2010Prop48
 90
       50
102
RTVSPost2010PropOp48
 70
     1
102
RTVSPost2010Prop49
280
     0
102
RTVSPost2010PropOp49
 70
     1
102
RTVSPost2010Prop50
 90
       50
102
RTVSPost2010PropOp50
 70
     1
102
RTVSPost2010Prop51ColorIndex
 90
      256
102
RTVSPost2010Prop51ColorRGB
 90
-16777216
102
RTVSPost2010PropOp51
 70
     0
102
RTVSPost2010Prop52
140
1.0
102
RTVSPost2010PropOp52
 70
     0
102
RTVSPost2010Prop53
 90
        2
102
RTVSPost2010PropOp53
 70
     1
102
RTVSPost2010Prop54
  1
strokes_ogs.tif
102
RTVSPost2010PropOp54
 70
     1
102
RTVSPost2010Prop55
280
     0
102
RTVSPost2010PropOp55
 70
     1
102
RTVSPost2010Prop56
140
1.0
102
RTVSPost2010PropOp56
 70
     1
102
RTVSPost2010Prop57
140
1.0
102
RTVSPost2010PropOp57
 70
     1
102
RTVSPropertyOp0
 70
     1
102
RTVSPropertyOp1
 70
     1
102
RTVSPropertyOp2
 70
     1
102
RTVSPropertyOp3
 70
     1
102
RTVSPropertyOp4
 70
     1
102
RTVSPropertyOp5
 70
     1
102
RTVSPropertyOp6
 70
     1
102
RTVSPropertyOp7
 70
     1
102
RTVSPropertyOp8
 70
     1
102
RTVSPropertyOp9
 70
     1
102
RTVSPropertyOp10
 70
     1
102
RTVSPropertyOp11
 70
     1
102
RTVSPropertyOp12
 70
     1
102
RTVSPropertyOp13
 70
     1
102
RTVSPropertyOp14
 70
     1
102
RTVSPropertyOp15
 70
     1
102
RTVSPropertyOp16
 70
     1
102
RTVSPropertyOp17
 70
     1
102
RTVSPropertyOp18
 70
     1
102
RTVSPropertyOp19
 70
     1
102
RTVSPropertyOp20
 70
     1
102
RTVSPropertyOp21
 70
     1
102
RTVSPropertyOp22
 70
     1
102
RTVSPropertyOp23
 70
     1
102
RTVSPropertyOp24
 70
     1
102
RTVSPropertyOp25
 70
     1
102
RTVSPropertyOp26
 70
     1
102
RTVSPropertyOp27
 70
     1
102
RTVSPropertyOp28
 70
     1
102
RTVSPropertyOp29
 70
     1
102
RTVSPropertyOp30
 70
     1
102
RTVSPropertyOp31
 70
     1
102
RTVSPropertyOp32
 70
     1
102
RTVSPropertyOp33
 70
     1
102
RTVSPropertyOp34
 70
     1
102
RTVSPropertyOp35
 70
     1
102
RTVSPropertyOp36
 70
     1
102
RTVSPropertyOp37
 70
     1
102
RTVSPropertyOp38
 70
     1
102
RTVSPropertyOp39
 70
     1
102
RTVSPropertyOp40
 70
     1
102
RTVSPropertyOp41
 70
     1
102
RTVSPropertyOp42
 70
     1
102
RTVSPropertyOp43
 70
     1
102
RTVSPropertyOp44
 70
     1
102
RTVSPropertyOp45
 70
     1
102
RTVSPropertyOp46
 70
     1
102
RTVSPropertyOp47
 70
     1
102
RTVSPropertyOp48
 70
     1
102
RTVSPropertyOp49
 70
     1
102
RTVSPropertyOp50
 70
     1
102
RTVSPropertyOp51
 70
     0
102
RTVSPropertyOp52
 70
     0
102
RTVSPropertyOp53
 70
     1
102
RTVSPropertyOp54
 70
     1
102
RTVSPropertyOp55
 70
     1
102
RTVSPropertyOp56
 70
     1
102
RTVSPropertyOp57
 70
     1
102
RTVSPropertyOp58
 70
     1
102
RTVSPropertyOp59
 70
     1
102
RTVSPropertyOp60
 70
     1
102
RTVSPropertyOp61
 70
     1
102
RTVSPropertyOp62
 70
     1
  0
XRECORD
  5
699
102
{ACAD_REACTORS
330
698
102
}
330
698
100
AcDbXrecord
280
     1
102
RTVSPost2010Prop28
280
     0
102
RTVSPost2010PropOp28
 70
     1
102
RTVSPost2010Prop29
280
     1
102
RTVSPost2010PropOp29
 70
     1
102
RTVSPost2010Prop30
280
     1
102
RTVSPost2010PropOp30
 70
     1
102
RTVSPost2010Prop31
280
     0
102
RTVSPost2010PropOp31
 70
     1
102
RTVSPost2010Prop32
280
     0
102
RTVSPost2010PropOp32
 70
     1
102
RTVSPost2010Prop33
280
     0
102
RTVSPost2010PropOp33
 70
     1
102
RTVSPost2010Prop34
280
     0
102
RTVSPost2010PropOp34
 70
     1
102
RTVSPost2010Prop35
280
     0
102
RTVSPost2010PropOp35
 70
     1
102
RTVSPost2010Prop36
280
     0
102
RTVSPost2010PropOp36
 70
     1
102
RTVSPost2010Prop37
 90
       50
102
RTVSPost2010PropOp37
 70
     1
102
RTVSPost2010Prop38
140
0.0
102
RTVSPost2010PropOp38
 70
     1
102
RTVSPost2010Prop39
140
1.0
102
RTVSPost2010PropOp39
 70
     1
102
RTVSPost2010Prop40
 90
        0
102
RTVSPost2010PropOp40
 70
     1
102
RTVSPost2010Prop41ColorIndex
 90
       18
102
RTVSPost2010Prop41ColorRGB
 90
        0
102
RTVSPost2010PropOp41
 70
     1
102
RTVSPost2010Prop42
 90
       50
102
RTVSPost2010PropOp42
 70
     1
102
RTVSPost2010Prop43
 90
        3
102
RTVSPost2010PropOp43
 70
     1
102
RTVSPost2010Prop44ColorIndex
 90
        5
102
RTVSPost2010Prop44ColorRGB
 90
      255
102
RTVSPost2010PropOp44
 70
     1
102
RTVSPost2010Prop45
280
     0
102
RTVSPost2010PropOp45
 70
     1
102
RTVSPost2010Prop46
 90
       50
102
RTVSPost2010PropOp46
 70
     1
102
RTVSPost2010Prop47
 90
       50
102
RTVSPost2010PropOp47
 70
     1
102
RTVSPost2010Prop48
 90
       50
102
RTVSPost2010PropOp48
 70
     1
102
RTVSPost2010Prop49
280
     0
102
RTVSPost2010PropOp49
 70
     1
102
RTVSPost2010Prop50
 90
       50
102
RTVSPost2010PropOp50
 70
     1
102
RTVSPost2010Prop51ColorIndex
 90
      256
102
RTVSPost2010Prop51ColorRGB
 90
-16777216
102
RTVSPost2010PropOp51
 70
     0
102
RTVSPost2010Prop52
140
1.0
102
RTVSPost2010PropOp52
 70
     0
102
RTVSPost2010Prop53
 90
        2
102
RTVSPost2010PropOp53
 70
     1
102
RTVSPost2010Prop54
  1
strokes_ogs.tif
102
RTVSPost2010PropOp54
 70
     1
102
RTVSPost2010Prop55
280
     0
102
RTVSPost2010PropOp55
 70
     1
102
RTVSPost2010Prop56
140
1.0
102
RTVSPost2010PropOp56
 70
     1
102
RTVSPost2010Prop57
140
1.0
102
RTVSPost2010PropOp57
 70
     1
102
RTVSPropertyOp0
 70
     1
102
RTVSPropertyOp1
 70
     1
102
RTVSPropertyOp2
 70
     1
102
RTVSPropertyOp3
 70
     1
102
RTVSPropertyOp4
 70
     1
102
RTVSPropertyOp5
 70
     1
102
RTVSPropertyOp6
 70
     1
102
RTVSPropertyOp7
 70
     1
102
RTVSPropertyOp8
 70
     1
102
RTVSPropertyOp9
 70
     1
102
RTVSPropertyOp10
 70
     1
102
RTVSPropertyOp11
 70
     1
102
RTVSPropertyOp12
 70
     1
102
RTVSPropertyOp13
 70
     1
102
RTVSPropertyOp14
 70
     1
102
RTVSPropertyOp15
 70
     1
102
RTVSPropertyOp16
 70
     1
102
RTVSPropertyOp17
 70
     1
102
RTVSPropertyOp18
 70
     1
102
RTVSPropertyOp19
 70
     1
102
RTVSPropertyOp20
 70
     1
102
RTVSPropertyOp21
 70
     1
102
RTVSPropertyOp22
 70
     1
102
RTVSPropertyOp23
 70
     1
102
RTVSPropertyOp24
 70
     1
102
RTVSPropertyOp25
 70
     1
102
RTVSPropertyOp26
 70
     1
102
RTVSPropertyOp27
 70
     1
102
RTVSPropertyOp28
 70
     1
102
RTVSPropertyOp29
 70
     1
102
RTVSPropertyOp30
 70
     1
102
RTVSPropertyOp31
 70
     1
102
RTVSPropertyOp32
 70
     1
102
RTVSPropertyOp33
 70
     1
102
RTVSPropertyOp34
 70
     1
102
RTVSPropertyOp35
 70
     1
102
RTVSPropertyOp36
 70
     1
102
RTVSPropertyOp37
 70
     1
102
RTVSPropertyOp38
 70
     1
102
RTVSPropertyOp39
 70
     1
102
RTVSPropertyOp40
 70
     1
102
RTVSPropertyOp41
 70
     1
102
RTVSPropertyOp42
 70
     1
102
RTVSPropertyOp43
 70
     1
102
RTVSPropertyOp44
 70
     1
102
RTVSPropertyOp45
 70
     1
102
RTVSPropertyOp46
 70
     1
102
RTVSPropertyOp47
 70
     1
102
RTVSPropertyOp48
 70
     1
102
RTVSPropertyOp49
 70
     1
102
RTVSPropertyOp50
 70
     1
102
RTVSPropertyOp51
 70
     0
102
RTVSPropertyOp52
 70
     0
102
RTVSPropertyOp53
 70
     1
102
RTVSPropertyOp54
 70
     1
102
RTVSPropertyOp55
 70
     1
102
RTVSPropertyOp56
 70
     1
102
RTVSPropertyOp57
 70
     1
102
RTVSPropertyOp58
 70
     1
102
RTVSPropertyOp59
 70
     1
102
RTVSPropertyOp60
 70
     1
102
RTVSPropertyOp61
 70
     1
102
RTVSPropertyOp62
 70
     1
  0
XRECORD
  5
6BA
102
{ACAD_REACTORS
330
6B9
102
}
330
6B9
100
AcDbXrecord
280
     1
102
RTVSPost2010Prop28
280
     0
102
RTVSPost2010PropOp28
 70
     1
102
RTVSPost2010Prop29
280
     1
102
RTVSPost2010PropOp29
 70
     1
102
RTVSPost2010Prop30
280
     1
102
RTVSPost2010PropOp30
 70
     1
102
RTVSPost2010Prop31
280
     0
102
RTVSPost2010PropOp31
 70
     1
102
RTVSPost2010Prop32
280
     0
102
RTVSPost2010PropOp32
 70
     1
102
RTVSPost2010Prop33
280
     0
102
RTVSPost2010PropOp33
 70
     1
102
RTVSPost2010Prop34
280
     0
102
RTVSPost2010PropOp34
 70
     1
102
RTVSPost2010Prop35
280
     0
102
RTVSPost2010PropOp35
 70
     1
102
RTVSPost2010Prop36
280
     0
102
RTVSPost2010PropOp36
 70
     1
102
RTVSPost2010Prop37
 90
       50
102
RTVSPost2010PropOp37
 70
     1
102
RTVSPost2010Prop38
140
0.0
102
RTVSPost2010PropOp38
 70
     1
102
RTVSPost2010Prop39
140
1.0
102
RTVSPost2010PropOp39
 70
     1
102
RTVSPost2010Prop40
 90
        0
102
RTVSPost2010PropOp40
 70
     1
102
RTVSPost2010Prop41ColorIndex
 90
       18
102
RTVSPost2010Prop41ColorRGB
 90
        0
102
RTVSPost2010PropOp41
 70
     1
102
RTVSPost2010Prop42
 90
       50
102
RTVSPost2010PropOp42
 70
     1
102
RTVSPost2010Prop43
 90
        3
102
RTVSPost2010PropOp43
 70
     1
102
RTVSPost2010Prop44ColorIndex
 90
        5
102
RTVSPost2010Prop44ColorRGB
 90
      255
102
RTVSPost2010PropOp44
 70
     1
102
RTVSPost2010Prop45
280
     0
102
RTVSPost2010PropOp45
 70
     1
102
RTVSPost2010Prop46
 90
       50
102
RTVSPost2010PropOp46
 70
     1
102
RTVSPost2010Prop47
 90
       50
102
RTVSPost2010PropOp47
 70
     1
102
RTVSPost2010Prop48
 90
       50
102
RTVSPost2010PropOp48
 70
     1
102
RTVSPost2010Prop49
280
     0
102
RTVSPost2010PropOp49
 70
     1
102
RTVSPost2010Prop50
 90
       50
102
RTVSPost2010PropOp50
 70
     1
102
RTVSPost2010Prop51ColorIndex
 90
      256
102
RTVSPost2010Prop51ColorRGB
 90
-16777216
102
RTVSPost2010PropOp51
 70
     0
102
RTVSPost2010Prop52
140
1.0
102
RTVSPost2010PropOp52
 70
     0
102
RTVSPost2010Prop53
 90
        2
102
RTVSPost2010PropOp53
 70
     1
102
RTVSPost2010Prop54
  1
strokes_ogs.tif
102
RTVSPost2010PropOp54
 70
     1
102
RTVSPost2010Prop55
280
     0
102
RTVSPost2010PropOp55
 70
     1
102
RTVSPost2010Prop56
140
1.0
102
RTVSPost2010PropOp56
 70
     1
102
RTVSPost2010Prop57
140
1.0
102
RTVSPost2010PropOp57
 70
     1
102
RTVSPropertyOp0
 70
     1
102
RTVSPropertyOp1
 70
     1
102
RTVSPropertyOp2
 70
     1
102
RTVSPropertyOp3
 70
     1
102
RTVSPropertyOp4
 70
     1
102
RTVSPropertyOp5
 70
     1
102
RTVSPropertyOp6
 70
     1
102
RTVSPropertyOp7
 70
     1
102
RTVSPropertyOp8
 70
     1
102
RTVSPropertyOp9
 70
     1
102
RTVSPropertyOp10
 70
     1
102
RTVSPropertyOp11
 70
     1
102
RTVSPropertyOp12
 70
     1
102
RTVSPropertyOp13
 70
     1
102
RTVSPropertyOp14
 70
     1
102
RTVSPropertyOp15
 70
     1
102
RTVSPropertyOp16
 70
     1
102
RTVSPropertyOp17
 70
     1
102
RTVSPropertyOp18
 70
     1
102
RTVSPropertyOp19
 70
     1
102
RTVSPropertyOp20
 70
     1
102
RTVSPropertyOp21
 70
     1
102
RTVSPropertyOp22
 70
     1
102
RTVSPropertyOp23
 70
     1
102
RTVSPropertyOp24
 70
     1
102
RTVSPropertyOp25
 70
     1
102
RTVSPropertyOp26
 70
     1
102
RTVSPropertyOp27
 70
     1
102
RTVSPropertyOp28
 70
     1
102
RTVSPropertyOp29
 70
     1
102
RTVSPropertyOp30
 70
     1
102
RTVSPropertyOp31
 70
     1
102
RTVSPropertyOp32
 70
     1
102
RTVSPropertyOp33
 70
     1
102
RTVSPropertyOp34
 70
     1
102
RTVSPropertyOp35
 70
     1
102
RTVSPropertyOp36
 70
     1
102
RTVSPropertyOp37
 70
     1
102
RTVSPropertyOp38
 70
     1
102
RTVSPropertyOp39
 70
     1
102
RTVSPropertyOp40
 70
     1
102
RTVSPropertyOp41
 70
     1
102
RTVSPropertyOp42
 70
     1
102
RTVSPropertyOp43
 70
     1
102
RTVSPropertyOp44
 70
     1
102
RTVSPropertyOp45
 70
     1
102
RTVSPropertyOp46
 70
     1
102
RTVSPropertyOp47
 70
     1
102
RTVSPropertyOp48
 70
     1
102
RTVSPropertyOp49
 70
     1
102
RTVSPropertyOp50
 70
     1
102
RTVSPropertyOp51
 70
     0
102
RTVSPropertyOp52
 70
     0
102
RTVSPropertyOp53
 70
     1
102
RTVSPropertyOp54
 70
     1
102
RTVSPropertyOp55
 70
     1
102
RTVSPropertyOp56
 70
     1
102
RTVSPropertyOp57
 70
     1
102
RTVSPropertyOp58
 70
     1
102
RTVSPropertyOp59
 70
     1
102
RTVSPropertyOp60
 70
     1
102
RTVSPropertyOp61
 70
     1
102
RTVSPropertyOp62
 70
     1
  0
XRECORD
  5
6C6
102
{ACAD_REACTORS
330
6C5
102
}
330
6C5
100
AcDbXrecord
280
     1
102
RTVSPost2010Prop28
280
     0
102
RTVSPost2010PropOp28
 70
     0
102
RTVSPost2010Prop29
280
     1
102
RTVSPost2010PropOp29
 70
     0
102
RTVSPost2010Prop30
280
     1
102
RTVSPost2010PropOp30
 70
     0
102
RTVSPost2010Prop31
280
     0
102
RTVSPost2010PropOp31
 70
     0
102
RTVSPost2010Prop32
280
     0
102
RTVSPost2010PropOp32
 70
     0
102
RTVSPost2010Prop33
280
     0
102
RTVSPost2010PropOp33
 70
     0
102
RTVSPost2010Prop34
280
     0
102
RTVSPost2010PropOp34
 70
     0
102
RTVSPost2010Prop35
280
     0
102
RTVSPost2010PropOp35
 70
     0
102
RTVSPost2010Prop36
280
     0
102
RTVSPost2010PropOp36
 70
     0
102
RTVSPost2010Prop37
 90
       50
102
RTVSPost2010PropOp37
 70
     0
102
RTVSPost2010Prop38
140
0.0
102
RTVSPost2010PropOp38
 70
     0
102
RTVSPost2010Prop39
140
1.0
102
RTVSPost2010PropOp39
 70
     0
102
RTVSPost2010Prop40
 90
        0
102
RTVSPost2010PropOp40
 70
     0
102
RTVSPost2010Prop41ColorIndex
 90
       18
102
RTVSPost2010Prop41ColorRGB
 90
        0
102
RTVSPost2010PropOp41
 70
     0
102
RTVSPost2010Prop42
 90
       50
102
RTVSPost2010PropOp42
 70
     0
102
RTVSPost2010Prop43
 90
        3
102
RTVSPost2010PropOp43
 70
     0
102
RTVSPost2010Prop44ColorIndex
 90
        5
102
RTVSPost2010Prop44ColorRGB
 90
      255
102
RTVSPost2010PropOp44
 70
     0
102
RTVSPost2010Prop45
280
     0
102
RTVSPost2010PropOp45
 70
     0
102
RTVSPost2010Prop46
 90
       50
102
RTVSPost2010PropOp46
 70
     0
102
RTVSPost2010Prop47
 90
       50
102
RTVSPost2010PropOp47
 70
     0
102
RTVSPost2010Prop48
 90
       50
102
RTVSPost2010PropOp48
 70
     0
102
RTVSPost2010Prop49
280
     0
102
RTVSPost2010PropOp49
 70
     0
102
RTVSPost2010Prop50
 90
       50
102
RTVSPost2010PropOp50
 70
     0
102
RTVSPost2010Prop51ColorIndex
 90
      256
102
RTVSPost2010Prop51ColorRGB
 90
-16777216
102
RTVSPost2010PropOp51
 70
     0
102
RTVSPost2010Prop52
140
1.0
102
RTVSPost2010PropOp52
 70
     0
102
RTVSPost2010Prop53
 90
        2
102
RTVSPost2010PropOp53
 70
     0
102
RTVSPost2010Prop54
  1
strokes_ogs.tif
102
RTVSPost2010PropOp54
 70
     0
102
RTVSPost2010Prop55
280
     0
102
RTVSPost2010PropOp55
 70
     0
102
RTVSPost2010Prop56
140
1.0
102
RTVSPost2010PropOp56
 70
     0
102
RTVSPost2010Prop57
140
1.0
102
RTVSPost2010PropOp57
 70
     0
102
RTVSPropertyOp0
 70
     0
102
RTVSPropertyOp1
 70
     0
102
RTVSPropertyOp2
 70
     0
102
RTVSPropertyOp3
 70
     0
102
RTVSPropertyOp4
 70
     0
102
RTVSPropertyOp5
 70
     0
102
RTVSPropertyOp6
 70
     0
102
RTVSPropertyOp7
 70
     0
102
RTVSPropertyOp8
 70
     0
102
RTVSPropertyOp9
 70
     0
102
RTVSPropertyOp10
 70
     0
102
RTVSPropertyOp11
 70
     0
102
RTVSPropertyOp12
 70
     0
102
RTVSPropertyOp13
 70
     0
102
RTVSPropertyOp14
 70
     2
102
RTVSPropertyOp15
 70
     0
102
RTVSPropertyOp16
 70
     0
102
RTVSPropertyOp17
 70
     0
102
RTVSPropertyOp18
 70
     0
102
RTVSPropertyOp19
 70
     0
102
RTVSPropertyOp20
 70
     0
102
RTVSPropertyOp21
 70
     0
102
RTVSPropertyOp22
 70
     0
102
RTVSPropertyOp23
 70
     0
102
RTVSPropertyOp24
 70
     0
102
RTVSPropertyOp25
 70
     0
102
RTVSPropertyOp26
 70
     0
102
RTVSPropertyOp27
 70
     0
102
RTVSPropertyOp28
 70
     0
102
RTVSPropertyOp29
 70
     0
102
RTVSPropertyOp30
 70
     0
102
RTVSPropertyOp31
 70
     0
102
RTVSPropertyOp32
 70
     0
102
RTVSPropertyOp33
 70
     0
102
RTVSPropertyOp34
 70
     0
102
RTVSPropertyOp35
 70
     0
102
RTVSPropertyOp36
 70
     0
102
RTVSPropertyOp37
 70
     0
102
RTVSPropertyOp38
 70
     0
102
RTVSPropertyOp39
 70
     0
102
RTVSPropertyOp40
 70
     0
102
RTVSPropertyOp41
 70
     0
102
RTVSPropertyOp42
 70
     0
102
RTVSPropertyOp43
 70
     0
102
RTVSPropertyOp44
 70
     0
102
RTVSPropertyOp45
 70
     0
102
RTVSPropertyOp46
 70
     0
102
RTVSPropertyOp47
 70
     0
102
RTVSPropertyOp48
 70
     0
102
RTVSPropertyOp49
 70
     0
102
RTVSPropertyOp50
 70
     0
102
RTVSPropertyOp51
 70
     0
102
RTVSPropertyOp52
 70
     0
102
RTVSPropertyOp53
 70
     0
102
RTVSPropertyOp54
 70
     0
102
RTVSPropertyOp55
 70
     0
102
RTVSPropertyOp56
 70
     0
102
RTVSPropertyOp57
 70
     0
102
RTVSPropertyOp58
 70
     0
102
RTVSPropertyOp59
 70
     0
102
RTVSPropertyOp60
 70
     0
102
RTVSPropertyOp61
 70
     0
102
RTVSPropertyOp62
 70
     0
  0
XRECORD
  5
6AD
102
{ACAD_REACTORS
330
6AC
102
}
330
6AC
100
AcDbXrecord
280
     1
102
RTVSPost2010Prop28
280
     0
102
RTVSPost2010PropOp28
 70
     1
102
RTVSPost2010Prop29
280
     1
102
RTVSPost2010PropOp29
 70
     1
102
RTVSPost2010Prop30
280
     1
102
RTVSPost2010PropOp30
 70
     1
102
RTVSPost2010Prop31
280
     0
102
RTVSPost2010PropOp31
 70
     1
102
RTVSPost2010Prop32
280
     0
102
RTVSPost2010PropOp32
 70
     1
102
RTVSPost2010Prop33
280
     0
102
RTVSPost2010PropOp33
 70
     1
102
RTVSPost2010Prop34
280
     0
102
RTVSPost2010PropOp34
 70
     1
102
RTVSPost2010Prop35
280
     0
102
RTVSPost2010PropOp35
 70
     1
102
RTVSPost2010Prop36
280
     0
102
RTVSPost2010PropOp36
 70
     1
102
RTVSPost2010Prop37
 90
       50
102
RTVSPost2010PropOp37
 70
     1
102
RTVSPost2010Prop38
140
0.0
102
RTVSPost2010PropOp38
 70
     1
102
RTVSPost2010Prop39
140
1.0
102
RTVSPost2010PropOp39
 70
     1
102
RTVSPost2010Prop40
 90
        0
102
RTVSPost2010PropOp40
 70
     1
102
RTVSPost2010Prop41ColorIndex
 90
       18
102
RTVSPost2010Prop41ColorRGB
 90
        0
102
RTVSPost2010PropOp41
 70
     1
102
RTVSPost2010Prop42
 90
       50
102
RTVSPost2010PropOp42
 70
     1
102
RTVSPost2010Prop43
 90
        3
102
RTVSPost2010PropOp43
 70
     1
102
RTVSPost2010Prop44ColorIndex
 90
        5
102
RTVSPost2010Prop44ColorRGB
 90
      255
102
RTVSPost2010PropOp44
 70
     1
102
RTVSPost2010Prop45
280
     0
102
RTVSPost2010PropOp45
 70
     1
102
RTVSPost2010Prop46
 90
       50
102
RTVSPost2010PropOp46
 70
     1
102
RTVSPost2010Prop47
 90
       50
102
RTVSPost2010PropOp47
 70
     1
102
RTVSPost2010Prop48
 90
       50
102
RTVSPost2010PropOp48
 70
     1
102
RTVSPost2010Prop49
280
     0
102
RTVSPost2010PropOp49
 70
     1
102
RTVSPost2010Prop50
 90
       50
102
RTVSPost2010PropOp50
 70
     1
102
RTVSPost2010Prop51ColorIndex
 90
      256
102
RTVSPost2010Prop51ColorRGB
 90
-16777216
102
RTVSPost2010PropOp51
 70
     0
102
RTVSPost2010Prop52
140
1.0
102
RTVSPost2010PropOp52
 70
     0
102
RTVSPost2010Prop53
 90
        2
102
RTVSPost2010PropOp53
 70
     1
102
RTVSPost2010Prop54
  1
strokes_ogs.tif
102
RTVSPost2010PropOp54
 70
     1
102
RTVSPost2010Prop55
280
     0
102
RTVSPost2010PropOp55
 70
     1
102
RTVSPost2010Prop56
140
1.0
102
RTVSPost2010PropOp56
 70
     1
102
RTVSPost2010Prop57
140
1.0
102
RTVSPost2010PropOp57
 70
     1
102
RTVSPropertyOp0
 70
     1
102
RTVSPropertyOp1
 70
     1
102
RTVSPropertyOp2
 70
     1
102
RTVSPropertyOp3
 70
     1
102
RTVSPropertyOp4
 70
     1
102
RTVSPropertyOp5
 70
     1
102
RTVSPropertyOp6
 70
     1
102
RTVSPropertyOp7
 70
     1
102
RTVSPropertyOp8
 70
     1
102
RTVSPropertyOp9
 70
     1
102
RTVSPropertyOp10
 70
     1
102
RTVSPropertyOp11
 70
     1
102
RTVSPropertyOp12
 70
     1
102
RTVSPropertyOp13
 70
     1
102
RTVSPropertyOp14
 70
     1
102
RTVSPropertyOp15
 70
     1
102
RTVSPropertyOp16
 70
     1
102
RTVSPropertyOp17
 70
     1
102
RTVSPropertyOp18
 70
     1
102
RTVSPropertyOp19
 70
     1
102
RTVSPropertyOp20
 70
     1
102
RTVSPropertyOp21
 70
     1
102
RTVSPropertyOp22
 70
     1
102
RTVSPropertyOp23
 70
     1
102
RTVSPropertyOp24
 70
     1
102
RTVSPropertyOp25
 70
     1
102
RTVSPropertyOp26
 70
     1
102
RTVSPropertyOp27
 70
     1
102
RTVSPropertyOp28
 70
     1
102
RTVSPropertyOp29
 70
     1
102
RTVSPropertyOp30
 70
     1
102
RTVSPropertyOp31
 70
     1
102
RTVSPropertyOp32
 70
     1
102
RTVSPropertyOp33
 70
     1
102
RTVSPropertyOp34
 70
     1
102
RTVSPropertyOp35
 70
     1
102
RTVSPropertyOp36
 70
     1
102
RTVSPropertyOp37
 70
     1
102
RTVSPropertyOp38
 70
     1
102
RTVSPropertyOp39
 70
     1
102
RTVSPropertyOp40
 70
     1
102
RTVSPropertyOp41
 70
     1
102
RTVSPropertyOp42
 70
     1
102
RTVSPropertyOp43
 70
     1
102
RTVSPropertyOp44
 70
     1
102
RTVSPropertyOp45
 70
     1
102
RTVSPropertyOp46
 70
     1
102
RTVSPropertyOp47
 70
     1
102
RTVSPropertyOp48
 70
     1
102
RTVSPropertyOp49
 70
     1
102
RTVSPropertyOp50
 70
     1
102
RTVSPropertyOp51
 70
     0
102
RTVSPropertyOp52
 70
     0
102
RTVSPropertyOp53
 70
     1
102
RTVSPropertyOp54
 70
     1
102
RTVSPropertyOp55
 70
     1
102
RTVSPropertyOp56
 70
     1
102
RTVSPropertyOp57
 70
     1
102
RTVSPropertyOp58
 70
     1
102
RTVSPropertyOp59
 70
     1
102
RTVSPropertyOp60
 70
     1
102
RTVSPropertyOp61
 70
     1
102
RTVSPropertyOp62
 70
     1
  0
XRECORD
  5
6C8
102
{ACAD_REACTORS
330
6C7
102
}
330
6C7
100
AcDbXrecord
280
     1
102
RTVSPost2010Prop28
280
     0
102
RTVSPost2010PropOp28
 70
     0
102
RTVSPost2010Prop29
280
     1
102
RTVSPost2010PropOp29
 70
     0
102
RTVSPost2010Prop30
280
     1
102
RTVSPost2010PropOp30
 70
     0
102
RTVSPost2010Prop31
280
     0
102
RTVSPost2010PropOp31
 70
     0
102
RTVSPost2010Prop32
280
     0
102
RTVSPost2010PropOp32
 70
     0
102
RTVSPost2010Prop33
280
     0
102
RTVSPost2010PropOp33
 70
     0
102
RTVSPost2010Prop34
280
     0
102
RTVSPost2010PropOp34
 70
     0
102
RTVSPost2010Prop35
280
     0
102
RTVSPost2010PropOp35
 70
     0
102
RTVSPost2010Prop36
280
     0
102
RTVSPost2010PropOp36
 70
     0
102
RTVSPost2010Prop37
 90
       50
102
RTVSPost2010PropOp37
 70
     0
102
RTVSPost2010Prop38
140
0.0
102
RTVSPost2010PropOp38
 70
     0
102
RTVSPost2010Prop39
140
1.0
102
RTVSPost2010PropOp39
 70
     0
102
RTVSPost2010Prop40
 90
        0
102
RTVSPost2010PropOp40
 70
     0
102
RTVSPost2010Prop41ColorIndex
 90
       18
102
RTVSPost2010Prop41ColorRGB
 90
        0
102
RTVSPost2010PropOp41
 70
     0
102
RTVSPost2010Prop42
 90
       50
102
RTVSPost2010PropOp42
 70
     0
102
RTVSPost2010Prop43
 90
        3
102
RTVSPost2010PropOp43
 70
     0
102
RTVSPost2010Prop44ColorIndex
 90
        5
102
RTVSPost2010Prop44ColorRGB
 90
      255
102
RTVSPost2010PropOp44
 70
     0
102
RTVSPost2010Prop45
280
     0
102
RTVSPost2010PropOp45
 70
     0
102
RTVSPost2010Prop46
 90
       50
102
RTVSPost2010PropOp46
 70
     0
102
RTVSPost2010Prop47
 90
       50
102
RTVSPost2010PropOp47
 70
     0
102
RTVSPost2010Prop48
 90
       50
102
RTVSPost2010PropOp48
 70
     0
102
RTVSPost2010Prop49
280
     0
102
RTVSPost2010PropOp49
 70
     0
102
RTVSPost2010Prop50
 90
       50
102
RTVSPost2010PropOp50
 70
     0
102
RTVSPost2010Prop51ColorIndex
 90
      256
102
RTVSPost2010Prop51ColorRGB
 90
-16777216
102
RTVSPost2010PropOp51
 70
     0
102
RTVSPost2010Prop52
140
1.0
102
RTVSPost2010PropOp52
 70
     0
102
RTVSPost2010Prop53
 90
        2
102
RTVSPost2010PropOp53
 70
     0
102
RTVSPost2010Prop54
  1
strokes_ogs.tif
102
RTVSPost2010PropOp54
 70
     0
102
RTVSPost2010Prop55
280
     0
102
RTVSPost2010PropOp55
 70
     0
102
RTVSPost2010Prop56
140
1.0
102
RTVSPost2010PropOp56
 70
     0
102
RTVSPost2010Prop57
140
1.0
102
RTVSPost2010PropOp57
 70
     0
102
RTVSPropertyOp0
 70
     0
102
RTVSPropertyOp1
 70
     0
102
RTVSPropertyOp2
 70
     0
102
RTVSPropertyOp3
 70
     0
102
RTVSPropertyOp4
 70
     0
102
RTVSPropertyOp5
 70
     0
102
RTVSPropertyOp6
 70
     0
102
RTVSPropertyOp7
 70
     0
102
RTVSPropertyOp8
 70
     0
102
RTVSPropertyOp9
 70
     0
102
RTVSPropertyOp10
 70
     0
102
RTVSPropertyOp11
 70
     0
102
RTVSPropertyOp12
 70
     0
102
RTVSPropertyOp13
 70
     0
102
RTVSPropertyOp14
 70
     2
102
RTVSPropertyOp15
 70
     0
102
RTVSPropertyOp16
 70
     0
102
RTVSPropertyOp17
 70
     0
102
RTVSPropertyOp18
 70
     0
102
RTVSPropertyOp19
 70
     0
102
RTVSPropertyOp20
 70
     0
102
RTVSPropertyOp21
 70
     0
102
RTVSPropertyOp22
 70
     0
102
RTVSPropertyOp23
 70
     0
102
RTVSPropertyOp24
 70
     0
102
RTVSPropertyOp25
 70
     0
102
RTVSPropertyOp26
 70
     0
102
RTVSPropertyOp27
 70
     0
102
RTVSPropertyOp28
 70
     0
102
RTVSPropertyOp29
 70
     0
102
RTVSPropertyOp30
 70
     0
102
RTVSPropertyOp31
 70
     0
102
RTVSPropertyOp32
 70
     0
102
RTVSPropertyOp33
 70
     0
102
RTVSPropertyOp34
 70
     0
102
RTVSPropertyOp35
 70
     0
102
RTVSPropertyOp36
 70
     0
102
RTVSPropertyOp37
 70
     0
102
RTVSPropertyOp38
 70
     0
102
RTVSPropertyOp39
 70
     0
102
RTVSPropertyOp40
 70
     0
102
RTVSPropertyOp41
 70
     0
102
RTVSPropertyOp42
 70
     0
102
RTVSPropertyOp43
 70
     0
102
RTVSPropertyOp44
 70
     0
102
RTVSPropertyOp45
 70
     0
102
RTVSPropertyOp46
 70
     0
102
RTVSPropertyOp47
 70
     0
102
RTVSPropertyOp48
 70
     0
102
RTVSPropertyOp49
 70
     0
102
RTVSPropertyOp50
 70
     0
102
RTVSPropertyOp51
 70
     0
102
RTVSPropertyOp52
 70
     0
102
RTVSPropertyOp53
 70
     0
102
RTVSPropertyOp54
 70
     0
102
RTVSPropertyOp55
 70
     0
102
RTVSPropertyOp56
 70
     0
102
RTVSPropertyOp57
 70
     0
102
RTVSPropertyOp58
 70
     0
102
RTVSPropertyOp59
 70
     0
102
RTVSPropertyOp60
 70
     0
102
RTVSPropertyOp61
 70
     0
102
RTVSPropertyOp62
 70
     0
  0
XRECORD
  5
6A5
102
{ACAD_REACTORS
330
6A4
102
}
330
6A4
100
AcDbXrecord
280
     1
102
RTVSPost2010Prop28
280
     0
102
RTVSPost2010PropOp28
 70
     1
102
RTVSPost2010Prop29
280
     1
102
RTVSPost2010PropOp29
 70
     1
102
RTVSPost2010Prop30
280
     1
102
RTVSPost2010PropOp30
 70
     1
102
RTVSPost2010Prop31
280
     0
102
RTVSPost2010PropOp31
 70
     1
102
RTVSPost2010Prop32
280
     0
102
RTVSPost2010PropOp32
 70
     1
102
RTVSPost2010Prop33
280
     0
102
RTVSPost2010PropOp33
 70
     1
102
RTVSPost2010Prop34
280
     0
102
RTVSPost2010PropOp34
 70
     1
102
RTVSPost2010Prop35
280
     0
102
RTVSPost2010PropOp35
 70
     1
102
RTVSPost2010Prop36
280
     0
102
RTVSPost2010PropOp36
 70
     1
102
RTVSPost2010Prop37
 90
       50
102
RTVSPost2010PropOp37
 70
     1
102
RTVSPost2010Prop38
140
0.0
102
RTVSPost2010PropOp38
 70
     1
102
RTVSPost2010Prop39
140
1.0
102
RTVSPost2010PropOp39
 70
     1
102
RTVSPost2010Prop40
 90
        0
102
RTVSPost2010PropOp40
 70
     1
102
RTVSPost2010Prop41ColorIndex
 90
       18
102
RTVSPost2010Prop41ColorRGB
 90
        0
102
RTVSPost2010PropOp41
 70
     1
102
RTVSPost2010Prop42
 90
       50
102
RTVSPost2010PropOp42
 70
     1
102
RTVSPost2010Prop43
 90
        3
102
RTVSPost2010PropOp43
 70
     1
102
RTVSPost2010Prop44ColorIndex
 90
        5
102
RTVSPost2010Prop44ColorRGB
 90
      255
102
RTVSPost2010PropOp44
 70
     1
102
RTVSPost2010Prop45
280
     0
102
RTVSPost2010PropOp45
 70
     1
102
RTVSPost2010Prop46
 90
       50
102
RTVSPost2010PropOp46
 70
     1
102
RTVSPost2010Prop47
 90
       50
102
RTVSPost2010PropOp47
 70
     1
102
RTVSPost2010Prop48
 90
       50
102
RTVSPost2010PropOp48
 70
     1
102
RTVSPost2010Prop49
280
     0
102
RTVSPost2010PropOp49
 70
     1
102
RTVSPost2010Prop50
 90
       50
102
RTVSPost2010PropOp50
 70
     1
102
RTVSPost2010Prop51ColorIndex
 90
      256
102
RTVSPost2010Prop51ColorRGB
 90
-16777216
102
RTVSPost2010PropOp51
 70
     0
102
RTVSPost2010Prop52
140
1.0
102
RTVSPost2010PropOp52
 70
     0
102
RTVSPost2010Prop53
 90
        2
102
RTVSPost2010PropOp53
 70
     1
102
RTVSPost2010Prop54
  1
strokes_ogs.tif
102
RTVSPost2010PropOp54
 70
     1
102
RTVSPost2010Prop55
280
     0
102
RTVSPost2010PropOp55
 70
     1
102
RTVSPost2010Prop56
140
1.0
102
RTVSPost2010PropOp56
 70
     1
102
RTVSPost2010Prop57
140
1.0
102
RTVSPost2010PropOp57
 70
     1
102
RTVSPropertyOp0
 70
     1
102
RTVSPropertyOp1
 70
     1
102
RTVSPropertyOp2
 70
     1
102
RTVSPropertyOp3
 70
     1
102
RTVSPropertyOp4
 70
     1
102
RTVSPropertyOp5
 70
     1
102
RTVSPropertyOp6
 70
     1
102
RTVSPropertyOp7
 70
     1
102
RTVSPropertyOp8
 70
     1
102
RTVSPropertyOp9
 70
     1
102
RTVSPropertyOp10
 70
     1
102
RTVSPropertyOp11
 70
     1
102
RTVSPropertyOp12
 70
     1
102
RTVSPropertyOp13
 70
     1
102
RTVSPropertyOp14
 70
     1
102
RTVSPropertyOp15
 70
     1
102
RTVSPropertyOp16
 70
     1
102
RTVSPropertyOp17
 70
     1
102
RTVSPropertyOp18
 70
     1
102
RTVSPropertyOp19
 70
     1
102
RTVSPropertyOp20
 70
     1
102
RTVSPropertyOp21
 70
     1
102
RTVSPropertyOp22
 70
     1
102
RTVSPropertyOp23
 70
     1
102
RTVSPropertyOp24
 70
     1
102
RTVSPropertyOp25
 70
     1
102
RTVSPropertyOp26
 70
     1
102
RTVSPropertyOp27
 70
     1
102
RTVSPropertyOp28
 70
     1
102
RTVSPropertyOp29
 70
     1
102
RTVSPropertyOp30
 70
     1
102
RTVSPropertyOp31
 70
     1
102
RTVSPropertyOp32
 70
     1
102
RTVSPropertyOp33
 70
     1
102
RTVSPropertyOp34
 70
     1
102
RTVSPropertyOp35
 70
     1
102
RTVSPropertyOp36
 70
     1
102
RTVSPropertyOp37
 70
     1
102
RTVSPropertyOp38
 70
     1
102
RTVSPropertyOp39
 70
     1
102
RTVSPropertyOp40
 70
     1
102
RTVSPropertyOp41
 70
     1
102
RTVSPropertyOp42
 70
     1
102
RTVSPropertyOp43
 70
     1
102
RTVSPropertyOp44
 70
     1
102
RTVSPropertyOp45
 70
     1
102
RTVSPropertyOp46
 70
     1
102
RTVSPropertyOp47
 70
     1
102
RTVSPropertyOp48
 70
     1
102
RTVSPropertyOp49
 70
     1
102
RTVSPropertyOp50
 70
     1
102
RTVSPropertyOp51
 70
     0
102
RTVSPropertyOp52
 70
     0
102
RTVSPropertyOp53
 70
     1
102
RTVSPropertyOp54
 70
     1
102
RTVSPropertyOp55
 70
     1
102
RTVSPropertyOp56
 70
     1
102
RTVSPropertyOp57
 70
     1
102
RTVSPropertyOp58
 70
     1
102
RTVSPropertyOp59
 70
     1
102
RTVSPropertyOp60
 70
     1
102
RTVSPropertyOp61
 70
     1
102
RTVSPropertyOp62
 70
     1
  0
XRECORD
  5
6C4
102
{ACAD_REACTORS
330
6C3
102
}
330
6C3
100
AcDbXrecord
280
     1
102
RTVSPost2010Prop28
280
     0
102
RTVSPost2010PropOp28
 70
     1
102
RTVSPost2010Prop29
280
     1
102
RTVSPost2010PropOp29
 70
     1
102
RTVSPost2010Prop30
280
     1
102
RTVSPost2010PropOp30
 70
     1
102
RTVSPost2010Prop31
280
     0
102
RTVSPost2010PropOp31
 70
     1
102
RTVSPost2010Prop32
280
     0
102
RTVSPost2010PropOp32
 70
     1
102
RTVSPost2010Prop33
280
     0
102
RTVSPost2010PropOp33
 70
     1
102
RTVSPost2010Prop34
280
     0
102
RTVSPost2010PropOp34
 70
     1
102
RTVSPost2010Prop35
280
     0
102
RTVSPost2010PropOp35
 70
     1
102
RTVSPost2010Prop36
280
     0
102
RTVSPost2010PropOp36
 70
     1
102
RTVSPost2010Prop37
 90
       50
102
RTVSPost2010PropOp37
 70
     1
102
RTVSPost2010Prop38
140
0.0
102
RTVSPost2010PropOp38
 70
     1
102
RTVSPost2010Prop39
140
1.0
102
RTVSPost2010PropOp39
 70
     1
102
RTVSPost2010Prop40
 90
        0
102
RTVSPost2010PropOp40
 70
     1
102
RTVSPost2010Prop41ColorIndex
 90
       18
102
RTVSPost2010Prop41ColorRGB
 90
        0
102
RTVSPost2010PropOp41
 70
     1
102
RTVSPost2010Prop42
 90
       50
102
RTVSPost2010PropOp42
 70
     1
102
RTVSPost2010Prop43
 90
        3
102
RTVSPost2010PropOp43
 70
     1
102
RTVSPost2010Prop44ColorIndex
 90
        5
102
RTVSPost2010Prop44ColorRGB
 90
      255
102
RTVSPost2010PropOp44
 70
     1
102
RTVSPost2010Prop45
280
     0
102
RTVSPost2010PropOp45
 70
     1
102
RTVSPost2010Prop46
 90
       50
102
RTVSPost2010PropOp46
 70
     1
102
RTVSPost2010Prop47
 90
       50
102
RTVSPost2010PropOp47
 70
     1
102
RTVSPost2010Prop48
 90
       50
102
RTVSPost2010PropOp48
 70
     1
102
RTVSPost2010Prop49
280
     0
102
RTVSPost2010PropOp49
 70
     1
102
RTVSPost2010Prop50
 90
       50
102
RTVSPost2010PropOp50
 70
     1
102
RTVSPost2010Prop51ColorIndex
 90
      256
102
RTVSPost2010Prop51ColorRGB
 90
-16777216
102
RTVSPost2010PropOp51
 70
     0
102
RTVSPost2010Prop52
140
1.0
102
RTVSPost2010PropOp52
 70
     0
102
RTVSPost2010Prop53
 90
        2
102
RTVSPost2010PropOp53
 70
     1
102
RTVSPost2010Prop54
  1
strokes_ogs.tif
102
RTVSPost2010PropOp54
 70
     1
102
RTVSPost2010Prop55
280
     0
102
RTVSPost2010PropOp55
 70
     1
102
RTVSPost2010Prop56
140
1.0
102
RTVSPost2010PropOp56
 70
     1
102
RTVSPost2010Prop57
140
1.0
102
RTVSPost2010PropOp57
 70
     1
102
RTVSPropertyOp0
 70
     1
102
RTVSPropertyOp1
 70
     1
102
RTVSPropertyOp2
 70
     1
102
RTVSPropertyOp3
 70
     1
102
RTVSPropertyOp4
 70
     1
102
RTVSPropertyOp5
 70
     1
102
RTVSPropertyOp6
 70
     1
102
RTVSPropertyOp7
 70
     1
102
RTVSPropertyOp8
 70
     1
102
RTVSPropertyOp9
 70
     1
102
RTVSPropertyOp10
 70
     1
102
RTVSPropertyOp11
 70
     1
102
RTVSPropertyOp12
 70
     1
102
RTVSPropertyOp13
 70
     1
102
RTVSPropertyOp14
 70
     1
102
RTVSPropertyOp15
 70
     1
102
RTVSPropertyOp16
 70
     1
102
RTVSPropertyOp17
 70
     1
102
RTVSPropertyOp18
 70
     1
102
RTVSPropertyOp19
 70
     1
102
RTVSPropertyOp20
 70
     1
102
RTVSPropertyOp21
 70
     1
102
RTVSPropertyOp22
 70
     1
102
RTVSPropertyOp23
 70
     1
102
RTVSPropertyOp24
 70
     1
102
RTVSPropertyOp25
 70
     1
102
RTVSPropertyOp26
 70
     1
102
RTVSPropertyOp27
 70
     1
102
RTVSPropertyOp28
 70
     1
102
RTVSPropertyOp29
 70
     1
102
RTVSPropertyOp30
 70
     1
102
RTVSPropertyOp31
 70
     1
102
RTVSPropertyOp32
 70
     1
102
RTVSPropertyOp33
 70
     1
102
RTVSPropertyOp34
 70
     1
102
RTVSPropertyOp35
 70
     1
102
RTVSPropertyOp36
 70
     1
102
RTVSPropertyOp37
 70
     1
102
RTVSPropertyOp38
 70
     1
102
RTVSPropertyOp39
 70
     1
102
RTVSPropertyOp40
 70
     1
102
RTVSPropertyOp41
 70
     1
102
RTVSPropertyOp42
 70
     1
102
RTVSPropertyOp43
 70
     1
102
RTVSPropertyOp44
 70
     1
102
RTVSPropertyOp45
 70
     1
102
RTVSPropertyOp46
 70
     1
102
RTVSPropertyOp47
 70
     1
102
RTVSPropertyOp48
 70
     1
102
RTVSPropertyOp49
 70
     1
102
RTVSPropertyOp50
 70
     1
102
RTVSPropertyOp51
 70
     0
102
RTVSPropertyOp52
 70
     0
102
RTVSPropertyOp53
 70
     1
102
RTVSPropertyOp54
 70
     1
102
RTVSPropertyOp55
 70
     1
102
RTVSPropertyOp56
 70
     1
102
RTVSPropertyOp57
 70
     1
102
RTVSPropertyOp58
 70
     1
102
RTVSPropertyOp59
 70
     1
102
RTVSPropertyOp60
 70
     1
102
RTVSPropertyOp61
 70
     1
102
RTVSPropertyOp62
 70
     1
  0
XRECORD
  5
6C2
102
{ACAD_REACTORS
330
6C1
102
}
330
6C1
100
AcDbXrecord
280
     1
102
RTVSPost2010Prop28
280
     0
102
RTVSPost2010PropOp28
 70
     1
102
RTVSPost2010Prop29
280
     1
102
RTVSPost2010PropOp29
 70
     1
102
RTVSPost2010Prop30
280
     1
102
RTVSPost2010PropOp30
 70
     1
102
RTVSPost2010Prop31
280
     0
102
RTVSPost2010PropOp31
 70
     1
102
RTVSPost2010Prop32
280
     0
102
RTVSPost2010PropOp32
 70
     1
102
RTVSPost2010Prop33
280
     0
102
RTVSPost2010PropOp33
 70
     1
102
RTVSPost2010Prop34
280
     0
102
RTVSPost2010PropOp34
 70
     1
102
RTVSPost2010Prop35
280
     0
102
RTVSPost2010PropOp35
 70
     1
102
RTVSPost2010Prop36
280
     0
102
RTVSPost2010PropOp36
 70
     1
102
RTVSPost2010Prop37
 90
       50
102
RTVSPost2010PropOp37
 70
     1
102
RTVSPost2010Prop38
140
0.0
102
RTVSPost2010PropOp38
 70
     1
102
RTVSPost2010Prop39
140
1.0
102
RTVSPost2010PropOp39
 70
     1
102
RTVSPost2010Prop40
 90
        0
102
RTVSPost2010PropOp40
 70
     1
102
RTVSPost2010Prop41ColorIndex
 90
       18
102
RTVSPost2010Prop41ColorRGB
 90
        0
102
RTVSPost2010PropOp41
 70
     1
102
RTVSPost2010Prop42
 90
       50
102
RTVSPost2010PropOp42
 70
     1
102
RTVSPost2010Prop43
 90
        3
102
RTVSPost2010PropOp43
 70
     1
102
RTVSPost2010Prop44ColorIndex
 90
        5
102
RTVSPost2010Prop44ColorRGB
 90
      255
102
RTVSPost2010PropOp44
 70
     1
102
RTVSPost2010Prop45
280
     0
102
RTVSPost2010PropOp45
 70
     1
102
RTVSPost2010Prop46
 90
       50
102
RTVSPost2010PropOp46
 70
     1
102
RTVSPost2010Prop47
 90
       50
102
RTVSPost2010PropOp47
 70
     1
102
RTVSPost2010Prop48
 90
       50
102
RTVSPost2010PropOp48
 70
     1
102
RTVSPost2010Prop49
280
     0
102
RTVSPost2010PropOp49
 70
     1
102
RTVSPost2010Prop50
 90
       50
102
RTVSPost2010PropOp50
 70
     1
102
RTVSPost2010Prop51ColorIndex
 90
      256
102
RTVSPost2010Prop51ColorRGB
 90
-16777216
102
RTVSPost2010PropOp51
 70
     0
102
RTVSPost2010Prop52
140
1.0
102
RTVSPost2010PropOp52
 70
     0
102
RTVSPost2010Prop53
 90
        2
102
RTVSPost2010PropOp53
 70
     1
102
RTVSPost2010Prop54
  1
strokes_ogs.tif
102
RTVSPost2010PropOp54
 70
     1
102
RTVSPost2010Prop55
280
     0
102
RTVSPost2010PropOp55
 70
     1
102
RTVSPost2010Prop56
140
1.0
102
RTVSPost2010PropOp56
 70
     1
102
RTVSPost2010Prop57
140
1.0
102
RTVSPost2010PropOp57
 70
     1
102
RTVSPropertyOp0
 70
     1
102
RTVSPropertyOp1
 70
     1
102
RTVSPropertyOp2
 70
     1
102
RTVSPropertyOp3
 70
     1
102
RTVSPropertyOp4
 70
     1
102
RTVSPropertyOp5
 70
     1
102
RTVSPropertyOp6
 70
     1
102
RTVSPropertyOp7
 70
     1
102
RTVSPropertyOp8
 70
     1
102
RTVSPropertyOp9
 70
     1
102
RTVSPropertyOp10
 70
     1
102
RTVSPropertyOp11
 70
     1
102
RTVSPropertyOp12
 70
     1
102
RTVSPropertyOp13
 70
     1
102
RTVSPropertyOp14
 70
     1
102
RTVSPropertyOp15
 70
     1
102
RTVSPropertyOp16
 70
     1
102
RTVSPropertyOp17
 70
     1
102
RTVSPropertyOp18
 70
     1
102
RTVSPropertyOp19
 70
     1
102
RTVSPropertyOp20
 70
     1
102
RTVSPropertyOp21
 70
     1
102
RTVSPropertyOp22
 70
     1
102
RTVSPropertyOp23
 70
     1
102
RTVSPropertyOp24
 70
     1
102
RTVSPropertyOp25
 70
     1
102
RTVSPropertyOp26
 70
     1
102
RTVSPropertyOp27
 70
     1
102
RTVSPropertyOp28
 70
     1
102
RTVSPropertyOp29
 70
     1
102
RTVSPropertyOp30
 70
     1
102
RTVSPropertyOp31
 70
     1
102
RTVSPropertyOp32
 70
     1
102
RTVSPropertyOp33
 70
     1
102
RTVSPropertyOp34
 70
     1
102
RTVSPropertyOp35
 70
     1
102
RTVSPropertyOp36
 70
     1
102
RTVSPropertyOp37
 70
     1
102
RTVSPropertyOp38
 70
     1
102
RTVSPropertyOp39
 70
     1
102
RTVSPropertyOp40
 70
     1
102
RTVSPropertyOp41
 70
     1
102
RTVSPropertyOp42
 70
     1
102
RTVSPropertyOp43
 70
     1
102
RTVSPropertyOp44
 70
     1
102
RTVSPropertyOp45
 70
     1
102
RTVSPropertyOp46
 70
     1
102
RTVSPropertyOp47
 70
     1
102
RTVSPropertyOp48
 70
     1
102
RTVSPropertyOp49
 70
     1
102
RTVSPropertyOp50
 70
     1
102
RTVSPropertyOp51
 70
     0
102
RTVSPropertyOp52
 70
     0
102
RTVSPropertyOp53
 70
     1
102
RTVSPropertyOp54
 70
     1
102
RTVSPropertyOp55
 70
     1
102
RTVSPropertyOp56
 70
     1
102
RTVSPropertyOp57
 70
     1
102
RTVSPropertyOp58
 70
     1
102
RTVSPropertyOp59
 70
     1
102
RTVSPropertyOp60
 70
     1
102
RTVSPropertyOp61
 70
     1
102
RTVSPropertyOp62
 70
     1
  0
XRECORD
  5
6BC
102
{ACAD_REACTORS
330
6BB
102
}
330
6BB
100
AcDbXrecord
280
     1
102
RTVSPost2010Prop28
280
     0
102
RTVSPost2010PropOp28
 70
     1
102
RTVSPost2010Prop29
280
     1
102
RTVSPost2010PropOp29
 70
     1
102
RTVSPost2010Prop30
280
     1
102
RTVSPost2010PropOp30
 70
     1
102
RTVSPost2010Prop31
280
     0
102
RTVSPost2010PropOp31
 70
     1
102
RTVSPost2010Prop32
280
     0
102
RTVSPost2010PropOp32
 70
     1
102
RTVSPost2010Prop33
280
     0
102
RTVSPost2010PropOp33
 70
     1
102
RTVSPost2010Prop34
280
     0
102
RTVSPost2010PropOp34
 70
     1
102
RTVSPost2010Prop35
280
     0
102
RTVSPost2010PropOp35
 70
     1
102
RTVSPost2010Prop36
280
     0
102
RTVSPost2010PropOp36
 70
     1
102
RTVSPost2010Prop37
 90
       50
102
RTVSPost2010PropOp37
 70
     1
102
RTVSPost2010Prop38
140
0.0
102
RTVSPost2010PropOp38
 70
     1
102
RTVSPost2010Prop39
140
1.0
102
RTVSPost2010PropOp39
 70
     1
102
RTVSPost2010Prop40
 90
        0
102
RTVSPost2010PropOp40
 70
     1
102
RTVSPost2010Prop41ColorIndex
 90
       18
102
RTVSPost2010Prop41ColorRGB
 90
        0
102
RTVSPost2010PropOp41
 70
     1
102
RTVSPost2010Prop42
 90
       50
102
RTVSPost2010PropOp42
 70
     1
102
RTVSPost2010Prop43
 90
        3
102
RTVSPost2010PropOp43
 70
     1
102
RTVSPost2010Prop44ColorIndex
 90
        5
102
RTVSPost2010Prop44ColorRGB
 90
      255
102
RTVSPost2010PropOp44
 70
     1
102
RTVSPost2010Prop45
280
     0
102
RTVSPost2010PropOp45
 70
     1
102
RTVSPost2010Prop46
 90
       50
102
RTVSPost2010PropOp46
 70
     1
102
RTVSPost2010Prop47
 90
       50
102
RTVSPost2010PropOp47
 70
     1
102
RTVSPost2010Prop48
 90
       50
102
RTVSPost2010PropOp48
 70
     1
102
RTVSPost2010Prop49
280
     0
102
RTVSPost2010PropOp49
 70
     1
102
RTVSPost2010Prop50
 90
       50
102
RTVSPost2010PropOp50
 70
     1
102
RTVSPost2010Prop51ColorIndex
 90
      256
102
RTVSPost2010Prop51ColorRGB
 90
-16777216
102
RTVSPost2010PropOp51
 70
     0
102
RTVSPost2010Prop52
140
1.0
102
RTVSPost2010PropOp52
 70
     0
102
RTVSPost2010Prop53
 90
        2
102
RTVSPost2010PropOp53
 70
     1
102
RTVSPost2010Prop54
  1
strokes_ogs.tif
102
RTVSPost2010PropOp54
 70
     1
102
RTVSPost2010Prop55
280
     0
102
RTVSPost2010PropOp55
 70
     1
102
RTVSPost2010Prop56
140
1.0
102
RTVSPost2010PropOp56
 70
     1
102
RTVSPost2010Prop57
140
1.0
102
RTVSPost2010PropOp57
 70
     1
102
RTVSPropertyOp0
 70
     1
102
RTVSPropertyOp1
 70
     1
102
RTVSPropertyOp2
 70
     1
102
RTVSPropertyOp3
 70
     1
102
RTVSPropertyOp4
 70
     1
102
RTVSPropertyOp5
 70
     1
102
RTVSPropertyOp6
 70
     1
102
RTVSPropertyOp7
 70
     1
102
RTVSPropertyOp8
 70
     1
102
RTVSPropertyOp9
 70
     1
102
RTVSPropertyOp10
 70
     1
102
RTVSPropertyOp11
 70
     1
102
RTVSPropertyOp12
 70
     1
102
RTVSPropertyOp13
 70
     1
102
RTVSPropertyOp14
 70
     1
102
RTVSPropertyOp15
 70
     1
102
RTVSPropertyOp16
 70
     1
102
RTVSPropertyOp17
 70
     1
102
RTVSPropertyOp18
 70
     1
102
RTVSPropertyOp19
 70
     1
102
RTVSPropertyOp20
 70
     1
102
RTVSPropertyOp21
 70
     1
102
RTVSPropertyOp22
 70
     1
102
RTVSPropertyOp23
 70
     1
102
RTVSPropertyOp24
 70
     1
102
RTVSPropertyOp25
 70
     1
102
RTVSPropertyOp26
 70
     1
102
RTVSPropertyOp27
 70
     1
102
RTVSPropertyOp28
 70
     1
102
RTVSPropertyOp29
 70
     1
102
RTVSPropertyOp30
 70
     1
102
RTVSPropertyOp31
 70
     1
102
RTVSPropertyOp32
 70
     1
102
RTVSPropertyOp33
 70
     1
102
RTVSPropertyOp34
 70
     1
102
RTVSPropertyOp35
 70
     1
102
RTVSPropertyOp36
 70
     1
102
RTVSPropertyOp37
 70
     1
102
RTVSPropertyOp38
 70
     1
102
RTVSPropertyOp39
 70
     1
102
RTVSPropertyOp40
 70
     1
102
RTVSPropertyOp41
 70
     1
102
RTVSPropertyOp42
 70
     1
102
RTVSPropertyOp43
 70
     1
102
RTVSPropertyOp44
 70
     1
102
RTVSPropertyOp45
 70
     1
102
RTVSPropertyOp46
 70
     1
102
RTVSPropertyOp47
 70
     1
102
RTVSPropertyOp48
 70
     1
102
RTVSPropertyOp49
 70
     1
102
RTVSPropertyOp50
 70
     1
102
RTVSPropertyOp51
 70
     0
102
RTVSPropertyOp52
 70
     0
102
RTVSPropertyOp53
 70
     1
102
RTVSPropertyOp54
 70
     1
102
RTVSPropertyOp55
 70
     1
102
RTVSPropertyOp56
 70
     1
102
RTVSPropertyOp57
 70
     1
102
RTVSPropertyOp58
 70
     1
102
RTVSPropertyOp59
 70
     1
102
RTVSPropertyOp60
 70
     1
102
RTVSPropertyOp61
 70
     1
102
RTVSPropertyOp62
 70
     1
  0
XRECORD
  5
6BE
102
{ACAD_REACTORS
330
6BD
102
}
330
6BD
100
AcDbXrecord
280
     1
102
RTVSPost2010Prop28
280
     0
102
RTVSPost2010PropOp28
 70
     1
102
RTVSPost2010Prop29
280
     1
102
RTVSPost2010PropOp29
 70
     1
102
RTVSPost2010Prop30
280
     1
102
RTVSPost2010PropOp30
 70
     1
102
RTVSPost2010Prop31
280
     0
102
RTVSPost2010PropOp31
 70
     1
102
RTVSPost2010Prop32
280
     0
102
RTVSPost2010PropOp32
 70
     1
102
RTVSPost2010Prop33
280
     0
102
RTVSPost2010PropOp33
 70
     1
102
RTVSPost2010Prop34
280
     0
102
RTVSPost2010PropOp34
 70
     1
102
RTVSPost2010Prop35
280
     0
102
RTVSPost2010PropOp35
 70
     1
102
RTVSPost2010Prop36
280
     0
102
RTVSPost2010PropOp36
 70
     1
102
RTVSPost2010Prop37
 90
       50
102
RTVSPost2010PropOp37
 70
     1
102
RTVSPost2010Prop38
140
0.0
102
RTVSPost2010PropOp38
 70
     1
102
RTVSPost2010Prop39
140
1.0
102
RTVSPost2010PropOp39
 70
     1
102
RTVSPost2010Prop40
 90
        0
102
RTVSPost2010PropOp40
 70
     1
102
RTVSPost2010Prop41ColorIndex
 90
       18
102
RTVSPost2010Prop41ColorRGB
 90
        0
102
RTVSPost2010PropOp41
 70
     1
102
RTVSPost2010Prop42
 90
       50
102
RTVSPost2010PropOp42
 70
     1
102
RTVSPost2010Prop43
 90
        3
102
RTVSPost2010PropOp43
 70
     1
102
RTVSPost2010Prop44ColorIndex
 90
        5
102
RTVSPost2010Prop44ColorRGB
 90
      255
102
RTVSPost2010PropOp44
 70
     1
102
RTVSPost2010Prop45
280
     0
102
RTVSPost2010PropOp45
 70
     1
102
RTVSPost2010Prop46
 90
       50
102
RTVSPost2010PropOp46
 70
     1
102
RTVSPost2010Prop47
 90
       50
102
RTVSPost2010PropOp47
 70
     1
102
RTVSPost2010Prop48
 90
       50
102
RTVSPost2010PropOp48
 70
     1
102
RTVSPost2010Prop49
280
     0
102
RTVSPost2010PropOp49
 70
     1
102
RTVSPost2010Prop50
 90
       50
102
RTVSPost2010PropOp50
 70
     1
102
RTVSPost2010Prop51ColorIndex
 90
      256
102
RTVSPost2010Prop51ColorRGB
 90
-16777216
102
RTVSPost2010PropOp51
 70
     0
102
RTVSPost2010Prop52
140
1.0
102
RTVSPost2010PropOp52
 70
     0
102
RTVSPost2010Prop53
 90
        2
102
RTVSPost2010PropOp53
 70
     1
102
RTVSPost2010Prop54
  1
strokes_ogs.tif
102
RTVSPost2010PropOp54
 70
     1
102
RTVSPost2010Prop55
280
     0
102
RTVSPost2010PropOp55
 70
     1
102
RTVSPost2010Prop56
140
1.0
102
RTVSPost2010PropOp56
 70
     1
102
RTVSPost2010Prop57
140
1.0
102
RTVSPost2010PropOp57
 70
     1
102
RTVSPropertyOp0
 70
     1
102
RTVSPropertyOp1
 70
     1
102
RTVSPropertyOp2
 70
     1
102
RTVSPropertyOp3
 70
     1
102
RTVSPropertyOp4
 70
     1
102
RTVSPropertyOp5
 70
     1
102
RTVSPropertyOp6
 70
     1
102
RTVSPropertyOp7
 70
     1
102
RTVSPropertyOp8
 70
     1
102
RTVSPropertyOp9
 70
     1
102
RTVSPropertyOp10
 70
     1
102
RTVSPropertyOp11
 70
     1
102
RTVSPropertyOp12
 70
     1
102
RTVSPropertyOp13
 70
     1
102
RTVSPropertyOp14
 70
     1
102
RTVSPropertyOp15
 70
     1
102
RTVSPropertyOp16
 70
     1
102
RTVSPropertyOp17
 70
     1
102
RTVSPropertyOp18
 70
     1
102
RTVSPropertyOp19
 70
     1
102
RTVSPropertyOp20
 70
     1
102
RTVSPropertyOp21
 70
     1
102
RTVSPropertyOp22
 70
     1
102
RTVSPropertyOp23
 70
     1
102
RTVSPropertyOp24
 70
     1
102
RTVSPropertyOp25
 70
     1
102
RTVSPropertyOp26
 70
     1
102
RTVSPropertyOp27
 70
     1
102
RTVSPropertyOp28
 70
     1
102
RTVSPropertyOp29
 70
     1
102
RTVSPropertyOp30
 70
     1
102
RTVSPropertyOp31
 70
     1
102
RTVSPropertyOp32
 70
     1
102
RTVSPropertyOp33
 70
     1
102
RTVSPropertyOp34
 70
     1
102
RTVSPropertyOp35
 70
     1
102
RTVSPropertyOp36
 70
     1
102
RTVSPropertyOp37
 70
     1
102
RTVSPropertyOp38
 70
     1
102
RTVSPropertyOp39
 70
     1
102
RTVSPropertyOp40
 70
     1
102
RTVSPropertyOp41
 70
     1
102
RTVSPropertyOp42
 70
     1
102
RTVSPropertyOp43
 70
     1
102
RTVSPropertyOp44
 70
     1
102
RTVSPropertyOp45
 70
     1
102
RTVSPropertyOp46
 70
     1
102
RTVSPropertyOp47
 70
     1
102
RTVSPropertyOp48
 70
     1
102
RTVSPropertyOp49
 70
     1
102
RTVSPropertyOp50
 70
     1
102
RTVSPropertyOp51
 70
     0
102
RTVSPropertyOp52
 70
     0
102
RTVSPropertyOp53
 70
     1
102
RTVSPropertyOp54
 70
     1
102
RTVSPropertyOp55
 70
     1
102
RTVSPropertyOp56
 70
     1
102
RTVSPropertyOp57
 70
     1
102
RTVSPropertyOp58
 70
     1
102
RTVSPropertyOp59
 70
     1
102
RTVSPropertyOp60
 70
     1
102
RTVSPropertyOp61
 70
     1
102
RTVSPropertyOp62
 70
     1
  0
XRECORD
  5
6AB
102
{ACAD_REACTORS
330
6AA
102
}
330
6AA
100
AcDbXrecord
280
     1
102
RTVSPost2010Prop28
280
     0
102
RTVSPost2010PropOp28
 70
     1
102
RTVSPost2010Prop29
280
     1
102
RTVSPost2010PropOp29
 70
     1
102
RTVSPost2010Prop30
280
     1
102
RTVSPost2010PropOp30
 70
     1
102
RTVSPost2010Prop31
280
     0
102
RTVSPost2010PropOp31
 70
     1
102
RTVSPost2010Prop32
280
     0
102
RTVSPost2010PropOp32
 70
     1
102
RTVSPost2010Prop33
280
     0
102
RTVSPost2010PropOp33
 70
     1
102
RTVSPost2010Prop34
280
     0
102
RTVSPost2010PropOp34
 70
     1
102
RTVSPost2010Prop35
280
     0
102
RTVSPost2010PropOp35
 70
     1
102
RTVSPost2010Prop36
280
     0
102
RTVSPost2010PropOp36
 70
     1
102
RTVSPost2010Prop37
 90
       50
102
RTVSPost2010PropOp37
 70
     1
102
RTVSPost2010Prop38
140
0.0
102
RTVSPost2010PropOp38
 70
     1
102
RTVSPost2010Prop39
140
1.0
102
RTVSPost2010PropOp39
 70
     1
102
RTVSPost2010Prop40
 90
        0
102
RTVSPost2010PropOp40
 70
     1
102
RTVSPost2010Prop41ColorIndex
 90
       18
102
RTVSPost2010Prop41ColorRGB
 90
        0
102
RTVSPost2010PropOp41
 70
     1
102
RTVSPost2010Prop42
 90
       50
102
RTVSPost2010PropOp42
 70
     1
102
RTVSPost2010Prop43
 90
        3
102
RTVSPost2010PropOp43
 70
     1
102
RTVSPost2010Prop44ColorIndex
 90
        5
102
RTVSPost2010Prop44ColorRGB
 90
      255
102
RTVSPost2010PropOp44
 70
     1
102
RTVSPost2010Prop45
280
     0
102
RTVSPost2010PropOp45
 70
     1
102
RTVSPost2010Prop46
 90
       50
102
RTVSPost2010PropOp46
 70
     1
102
RTVSPost2010Prop47
 90
       50
102
RTVSPost2010PropOp47
 70
     1
102
RTVSPost2010Prop48
 90
       50
102
RTVSPost2010PropOp48
 70
     1
102
RTVSPost2010Prop49
280
     0
102
RTVSPost2010PropOp49
 70
     1
102
RTVSPost2010Prop50
 90
       50
102
RTVSPost2010PropOp50
 70
     1
102
RTVSPost2010Prop51ColorIndex
 90
      256
102
RTVSPost2010Prop51ColorRGB
 90
-16777216
102
RTVSPost2010PropOp51
 70
     0
102
RTVSPost2010Prop52
140
1.0
102
RTVSPost2010PropOp52
 70
     0
102
RTVSPost2010Prop53
 90
        2
102
RTVSPost2010PropOp53
 70
     1
102
RTVSPost2010Prop54
  1
strokes_ogs.tif
102
RTVSPost2010PropOp54
 70
     1
102
RTVSPost2010Prop55
280
     0
102
RTVSPost2010PropOp55
 70
     1
102
RTVSPost2010Prop56
140
1.0
102
RTVSPost2010PropOp56
 70
     1
102
RTVSPost2010Prop57
140
1.0
102
RTVSPost2010PropOp57
 70
     1
102
RTVSPropertyOp0
 70
     1
102
RTVSPropertyOp1
 70
     1
102
RTVSPropertyOp2
 70
     1
102
RTVSPropertyOp3
 70
     1
102
RTVSPropertyOp4
 70
     1
102
RTVSPropertyOp5
 70
     1
102
RTVSPropertyOp6
 70
     1
102
RTVSPropertyOp7
 70
     1
102
RTVSPropertyOp8
 70
     1
102
RTVSPropertyOp9
 70
     1
102
RTVSPropertyOp10
 70
     1
102
RTVSPropertyOp11
 70
     1
102
RTVSPropertyOp12
 70
     1
102
RTVSPropertyOp13
 70
     1
102
RTVSPropertyOp14
 70
     1
102
RTVSPropertyOp15
 70
     1
102
RTVSPropertyOp16
 70
     1
102
RTVSPropertyOp17
 70
     1
102
RTVSPropertyOp18
 70
     1
102
RTVSPropertyOp19
 70
     1
102
RTVSPropertyOp20
 70
     1
102
RTVSPropertyOp21
 70
     1
102
RTVSPropertyOp22
 70
     1
102
RTVSPropertyOp23
 70
     1
102
RTVSPropertyOp24
 70
     1
102
RTVSPropertyOp25
 70
     1
102
RTVSPropertyOp26
 70
     1
102
RTVSPropertyOp27
 70
     1
102
RTVSPropertyOp28
 70
     1
102
RTVSPropertyOp29
 70
     1
102
RTVSPropertyOp30
 70
     1
102
RTVSPropertyOp31
 70
     1
102
RTVSPropertyOp32
 70
     1
102
RTVSPropertyOp33
 70
     1
102
RTVSPropertyOp34
 70
     1
102
RTVSPropertyOp35
 70
     1
102
RTVSPropertyOp36
 70
     1
102
RTVSPropertyOp37
 70
     1
102
RTVSPropertyOp38
 70
     1
102
RTVSPropertyOp39
 70
     1
102
RTVSPropertyOp40
 70
     1
102
RTVSPropertyOp41
 70
     1
102
RTVSPropertyOp42
 70
     1
102
RTVSPropertyOp43
 70
     1
102
RTVSPropertyOp44
 70
     1
102
RTVSPropertyOp45
 70
     1
102
RTVSPropertyOp46
 70
     1
102
RTVSPropertyOp47
 70
     1
102
RTVSPropertyOp48
 70
     1
102
RTVSPropertyOp49
 70
     1
102
RTVSPropertyOp50
 70
     1
102
RTVSPropertyOp51
 70
     0
102
RTVSPropertyOp52
 70
     0
102
RTVSPropertyOp53
 70
     1
102
RTVSPropertyOp54
 70
     1
102
RTVSPropertyOp55
 70
     1
102
RTVSPropertyOp56
 70
     1
102
RTVSPropertyOp57
 70
     1
102
RTVSPropertyOp58
 70
     1
102
RTVSPropertyOp59
 70
     1
102
RTVSPropertyOp60
 70
     1
102
RTVSPropertyOp61
 70
     1
102
RTVSPropertyOp62
 70
     1
  0
XRECORD
  5
6B8
102
{ACAD_REACTORS
330
6B7
102
}
330
6B7
100
AcDbXrecord
280
     1
102
RTVSPost2010Prop28
280
     0
102
RTVSPost2010PropOp28
 70
     1
102
RTVSPost2010Prop29
280
     1
102
RTVSPost2010PropOp29
 70
     1
102
RTVSPost2010Prop30
280
     1
102
RTVSPost2010PropOp30
 70
     1
102
RTVSPost2010Prop31
280
     0
102
RTVSPost2010PropOp31
 70
     1
102
RTVSPost2010Prop32
280
     0
102
RTVSPost2010PropOp32
 70
     1
102
RTVSPost2010Prop33
280
     0
102
RTVSPost2010PropOp33
 70
     1
102
RTVSPost2010Prop34
280
     0
102
RTVSPost2010PropOp34
 70
     1
102
RTVSPost2010Prop35
280
     0
102
RTVSPost2010PropOp35
 70
     1
102
RTVSPost2010Prop36
280
     0
102
RTVSPost2010PropOp36
 70
     1
102
RTVSPost2010Prop37
 90
       50
102
RTVSPost2010PropOp37
 70
     1
102
RTVSPost2010Prop38
140
0.0
102
RTVSPost2010PropOp38
 70
     1
102
RTVSPost2010Prop39
140
1.0
102
RTVSPost2010PropOp39
 70
     1
102
RTVSPost2010Prop40
 90
        0
102
RTVSPost2010PropOp40
 70
     1
102
RTVSPost2010Prop41ColorIndex
 90
       18
102
RTVSPost2010Prop41ColorRGB
 90
        0
102
RTVSPost2010PropOp41
 70
     1
102
RTVSPost2010Prop42
 90
       50
102
RTVSPost2010PropOp42
 70
     1
102
RTVSPost2010Prop43
 90
        3
102
RTVSPost2010PropOp43
 70
     1
102
RTVSPost2010Prop44ColorIndex
 90
        5
102
RTVSPost2010Prop44ColorRGB
 90
      255
102
RTVSPost2010PropOp44
 70
     1
102
RTVSPost2010Prop45
280
     0
102
RTVSPost2010PropOp45
 70
     1
102
RTVSPost2010Prop46
 90
       50
102
RTVSPost2010PropOp46
 70
     1
102
RTVSPost2010Prop47
 90
       50
102
RTVSPost2010PropOp47
 70
     1
102
RTVSPost2010Prop48
 90
       50
102
RTVSPost2010PropOp48
 70
     1
102
RTVSPost2010Prop49
280
     0
102
RTVSPost2010PropOp49
 70
     1
102
RTVSPost2010Prop50
 90
       50
102
RTVSPost2010PropOp50
 70
     1
102
RTVSPost2010Prop51ColorIndex
 90
      256
102
RTVSPost2010Prop51ColorRGB
 90
-16777216
102
RTVSPost2010PropOp51
 70
     0
102
RTVSPost2010Prop52
140
1.0
102
RTVSPost2010PropOp52
 70
     0
102
RTVSPost2010Prop53
 90
        2
102
RTVSPost2010PropOp53
 70
     1
102
RTVSPost2010Prop54
  1
strokes_ogs.tif
102
RTVSPost2010PropOp54
 70
     1
102
RTVSPost2010Prop55
280
     0
102
RTVSPost2010PropOp55
 70
     1
102
RTVSPost2010Prop56
140
1.0
102
RTVSPost2010PropOp56
 70
     1
102
RTVSPost2010Prop57
140
1.0
102
RTVSPost2010PropOp57
 70
     1
102
RTVSPropertyOp0
 70
     1
102
RTVSPropertyOp1
 70
     1
102
RTVSPropertyOp2
 70
     1
102
RTVSPropertyOp3
 70
     1
102
RTVSPropertyOp4
 70
     1
102
RTVSPropertyOp5
 70
     1
102
RTVSPropertyOp6
 70
     1
102
RTVSPropertyOp7
 70
     1
102
RTVSPropertyOp8
 70
     1
102
RTVSPropertyOp9
 70
     1
102
RTVSPropertyOp10
 70
     1
102
RTVSPropertyOp11
 70
     1
102
RTVSPropertyOp12
 70
     1
102
RTVSPropertyOp13
 70
     1
102
RTVSPropertyOp14
 70
     1
102
RTVSPropertyOp15
 70
     1
102
RTVSPropertyOp16
 70
     1
102
RTVSPropertyOp17
 70
     1
102
RTVSPropertyOp18
 70
     1
102
RTVSPropertyOp19
 70
     1
102
RTVSPropertyOp20
 70
     1
102
RTVSPropertyOp21
 70
     1
102
RTVSPropertyOp22
 70
     1
102
RTVSPropertyOp23
 70
     1
102
RTVSPropertyOp24
 70
     1
102
RTVSPropertyOp25
 70
     1
102
RTVSPropertyOp26
 70
     1
102
RTVSPropertyOp27
 70
     1
102
RTVSPropertyOp28
 70
     1
102
RTVSPropertyOp29
 70
     1
102
RTVSPropertyOp30
 70
     1
102
RTVSPropertyOp31
 70
     1
102
RTVSPropertyOp32
 70
     1
102
RTVSPropertyOp33
 70
     1
102
RTVSPropertyOp34
 70
     1
102
RTVSPropertyOp35
 70
     1
102
RTVSPropertyOp36
 70
     1
102
RTVSPropertyOp37
 70
     1
102
RTVSPropertyOp38
 70
     1
102
RTVSPropertyOp39
 70
     1
102
RTVSPropertyOp40
 70
     1
102
RTVSPropertyOp41
 70
     1
102
RTVSPropertyOp42
 70
     1
102
RTVSPropertyOp43
 70
     1
102
RTVSPropertyOp44
 70
     1
102
RTVSPropertyOp45
 70
     1
102
RTVSPropertyOp46
 70
     1
102
RTVSPropertyOp47
 70
     1
102
RTVSPropertyOp48
 70
     1
102
RTVSPropertyOp49
 70
     1
102
RTVSPropertyOp50
 70
     1
102
RTVSPropertyOp51
 70
     0
102
RTVSPropertyOp52
 70
     0
102
RTVSPropertyOp53
 70
     1
102
RTVSPropertyOp54
 70
     1
102
RTVSPropertyOp55
 70
     1
102
RTVSPropertyOp56
 70
     1
102
RTVSPropertyOp57
 70
     1
102
RTVSPropertyOp58
 70
     1
102
RTVSPropertyOp59
 70
     1
102
RTVSPropertyOp60
 70
     1
102
RTVSPropertyOp61
 70
     1
102
RTVSPropertyOp62
 70
     1
  0
XRECORD
  5
6C0
102
{ACAD_REACTORS
330
6BF
102
}
330
6BF
100
AcDbXrecord
280
     1
102
RTVSPost2010Prop28
280
     0
102
RTVSPost2010PropOp28
 70
     1
102
RTVSPost2010Prop29
280
     1
102
RTVSPost2010PropOp29
 70
     1
102
RTVSPost2010Prop30
280
     1
102
RTVSPost2010PropOp30
 70
     1
102
RTVSPost2010Prop31
280
     0
102
RTVSPost2010PropOp31
 70
     1
102
RTVSPost2010Prop32
280
     0
102
RTVSPost2010PropOp32
 70
     1
102
RTVSPost2010Prop33
280
     0
102
RTVSPost2010PropOp33
 70
     1
102
RTVSPost2010Prop34
280
     0
102
RTVSPost2010PropOp34
 70
     1
102
RTVSPost2010Prop35
280
     0
102
RTVSPost2010PropOp35
 70
     1
102
RTVSPost2010Prop36
280
     0
102
RTVSPost2010PropOp36
 70
     1
102
RTVSPost2010Prop37
 90
       50
102
RTVSPost2010PropOp37
 70
     1
102
RTVSPost2010Prop38
140
0.0
102
RTVSPost2010PropOp38
 70
     1
102
RTVSPost2010Prop39
140
1.0
102
RTVSPost2010PropOp39
 70
     1
102
RTVSPost2010Prop40
 90
        0
102
RTVSPost2010PropOp40
 70
     1
102
RTVSPost2010Prop41ColorIndex
 90
       18
102
RTVSPost2010Prop41ColorRGB
 90
        0
102
RTVSPost2010PropOp41
 70
     1
102
RTVSPost2010Prop42
 90
       50
102
RTVSPost2010PropOp42
 70
     1
102
RTVSPost2010Prop43
 90
        3
102
RTVSPost2010PropOp43
 70
     1
102
RTVSPost2010Prop44ColorIndex
 90
        5
102
RTVSPost2010Prop44ColorRGB
 90
      255
102
RTVSPost2010PropOp44
 70
     1
102
RTVSPost2010Prop45
280
     0
102
RTVSPost2010PropOp45
 70
     1
102
RTVSPost2010Prop46
 90
       50
102
RTVSPost2010PropOp46
 70
     1
102
RTVSPost2010Prop47
 90
       50
102
RTVSPost2010PropOp47
 70
     1
102
RTVSPost2010Prop48
 90
       50
102
RTVSPost2010PropOp48
 70
     1
102
RTVSPost2010Prop49
280
     0
102
RTVSPost2010PropOp49
 70
     1
102
RTVSPost2010Prop50
 90
       50
102
RTVSPost2010PropOp50
 70
     1
102
RTVSPost2010Prop51ColorIndex
 90
      256
102
RTVSPost2010Prop51ColorRGB
 90
-16777216
102
RTVSPost2010PropOp51
 70
     0
102
RTVSPost2010Prop52
140
1.0
102
RTVSPost2010PropOp52
 70
     0
102
RTVSPost2010Prop53
 90
        2
102
RTVSPost2010PropOp53
 70
     1
102
RTVSPost2010Prop54
  1
strokes_ogs.tif
102
RTVSPost2010PropOp54
 70
     1
102
RTVSPost2010Prop55
280
     0
102
RTVSPost2010PropOp55
 70
     1
102
RTVSPost2010Prop56
140
1.0
102
RTVSPost2010PropOp56
 70
     1
102
RTVSPost2010Prop57
140
1.0
102
RTVSPost2010PropOp57
 70
     1
102
RTVSPropertyOp0
 70
     1
102
RTVSPropertyOp1
 70
     1
102
RTVSPropertyOp2
 70
     1
102
RTVSPropertyOp3
 70
     1
102
RTVSPropertyOp4
 70
     1
102
RTVSPropertyOp5
 70
     1
102
RTVSPropertyOp6
 70
     1
102
RTVSPropertyOp7
 70
     1
102
RTVSPropertyOp8
 70
     1
102
RTVSPropertyOp9
 70
     1
102
RTVSPropertyOp10
 70
     1
102
RTVSPropertyOp11
 70
     1
102
RTVSPropertyOp12
 70
     1
102
RTVSPropertyOp13
 70
     1
102
RTVSPropertyOp14
 70
     1
102
RTVSPropertyOp15
 70
     1
102
RTVSPropertyOp16
 70
     1
102
RTVSPropertyOp17
 70
     1
102
RTVSPropertyOp18
 70
     1
102
RTVSPropertyOp19
 70
     1
102
RTVSPropertyOp20
 70
     1
102
RTVSPropertyOp21
 70
     1
102
RTVSPropertyOp22
 70
     1
102
RTVSPropertyOp23
 70
     1
102
RTVSPropertyOp24
 70
     1
102
RTVSPropertyOp25
 70
     1
102
RTVSPropertyOp26
 70
     1
102
RTVSPropertyOp27
 70
     1
102
RTVSPropertyOp28
 70
     1
102
RTVSPropertyOp29
 70
     1
102
RTVSPropertyOp30
 70
     1
102
RTVSPropertyOp31
 70
     1
102
RTVSPropertyOp32
 70
     1
102
RTVSPropertyOp33
 70
     1
102
RTVSPropertyOp34
 70
     1
102
RTVSPropertyOp35
 70
     1
102
RTVSPropertyOp36
 70
     1
102
RTVSPropertyOp37
 70
     1
102
RTVSPropertyOp38
 70
     1
102
RTVSPropertyOp39
 70
     1
102
RTVSPropertyOp40
 70
     1
102
RTVSPropertyOp41
 70
     1
102
RTVSPropertyOp42
 70
     1
102
RTVSPropertyOp43
 70
     1
102
RTVSPropertyOp44
 70
     1
102
RTVSPropertyOp45
 70
     1
102
RTVSPropertyOp46
 70
     1
102
RTVSPropertyOp47
 70
     1
102
RTVSPropertyOp48
 70
     1
102
RTVSPropertyOp49
 70
     1
102
RTVSPropertyOp50
 70
     1
102
RTVSPropertyOp51
 70
     0
102
RTVSPropertyOp52
 70
     0
102
RTVSPropertyOp53
 70
     1
102
RTVSPropertyOp54
 70
     1
102
RTVSPropertyOp55
 70
     1
102
RTVSPropertyOp56
 70
     1
102
RTVSPropertyOp57
 70
     1
102
RTVSPropertyOp58
 70
     1
102
RTVSPropertyOp59
 70
     1
102
RTVSPropertyOp60
 70
     1
102
RTVSPropertyOp61
 70
     1
102
RTVSPropertyOp62
 70
     1
  0
ENDSEC
  0
EOF
