  0
SECTION
  2
HEADER
  9
$ACADVER
  1
AC1024
  9
$ACADMAINTVER
 70
   109
  9
$DWGCODEPAGE
  3
ANSI_1252
  9
$LASTSAVEDBY
  1
kaschu
  9
$INSBASE
 10
0.0
 20
0.0
 30
0.0
  9
$EXTMIN
 10
796.6764266125903
 20
1118.998399990817
 30
-0.0000000000000023
  9
$EXTMAX
 10
1919.41226828979
 20
1450.782551803285
 30
0.0000000000000012
  9
$LIMMIN
 10
0.0
 20
0.0
  9
$LIMMAX
 10
12.0
 20
9.0
  9
$ORTHOMODE
 70
     0
  9
$REGENMODE
 70
     1
  9
$FILLMODE
 70
     1
  9
$QTEXTMODE
 70
     0
  9
$MIRRTEXT
 70
     1
  9
$LTSCALE
 40
1.0
  9
$ATTMODE
 70
     1
  9
$TEXTSIZE
 40
0.2
  9
$TRACEWID
 40
0.05
  9
$TEXTSTYLE
  7
STANDARD
  9
$CLAYER
  8
0
  9
$CELTYPE
  6
BYLAYER
  9
$CECOLOR
 62
   256
  9
$CELTSCALE
 40
1.0
  9
$DISPSILH
 70
     0
  9
$DIMSCALE
 40
1.0
  9
$DIMASZ
 40
0.18
  9
$DIMEXO
 40
0.0625
  9
$DIMDLI
 40
0.38
  9
$DIMRND
 40
0.0
  9
$DIMDLE
 40
0.0
  9
$DIMEXE
 40
0.18
  9
$DIMTP
 40
0.0
  9
$DIMTM
 40
0.0
  9
$DIMTXT
 40
0.18
  9
$DIMCEN
 40
0.09
  9
$DIMTSZ
 40
0.0
  9
$DIMTOL
 70
     0
  9
$DIMLIM
 70
     0
  9
$DIMTIH
 70
     1
  9
$DIMTOH
 70
     1
  9
$DIMSE1
 70
     0
  9
$DIMSE2
 70
     0
  9
$DIMTAD
 70
     0
  9
$DIMZIN
 70
     0
  9
$DIMBLK
  1

  9
$DIMASO
 70
     1
  9
$DIMSHO
 70
     1
  9
$DIMPOST
  1

  9
$DIMAPOST
  1

  9
$DIMALT
 70
     0
  9
$DIMALTD
 70
     2
  9
$DIMALTF
 40
25.4
  9
$DIMLFAC
 40
1.0
  9
$DIMTOFL
 70
     0
  9
$DIMTVP
 40
0.0
  9
$DIMTIX
 70
     0
  9
$DIMSOXD
 70
     0
  9
$DIMSAH
 70
     0
  9
$DIMBLK1
  1

  9
$DIMBLK2
  1

  9
$DIMSTYLE
  2
STANDARD
  9
$DIMCLRD
 70
     0
  9
$DIMCLRE
 70
     0
  9
$DIMCLRT
 70
     0
  9
$DIMTFAC
 40
1.0
  9
$DIMGAP
 40
0.09
  9
$DIMJUST
 70
     0
  9
$DIMSD1
 70
     0
  9
$DIMSD2
 70
     0
  9
$DIMTOLJ
 70
     1
  9
$DIMTZIN
 70
     0
  9
$DIMALTZ
 70
     0
  9
$DIMALTTZ
 70
     0
  9
$DIMUPT
 70
     0
  9
$DIMDEC
 70
     4
  9
$DIMTDEC
 70
     4
  9
$DIMALTU
 70
     2
  9
$DIMALTTD
 70
     2
  9
$DIMTXSTY
  7
STANDARD
  9
$DIMAUNIT
 70
     0
  9
$DIMADEC
 70
     0
  9
$DIMALTRND
 40
0.0
  9
$DIMAZIN
 70
     0
  9
$DIMDSEP
 70
    46
  9
$DIMATFIT
 70
     3
  9
$DIMFRAC
 70
     0
  9
$DIMLDRBLK
  1

  9
$DIMLUNIT
 70
     2
  9
$DIMLWD
 70
    -2
  9
$DIMLWE
 70
    -2
  9
$DIMTMOVE
 70
     0
  9
$DIMFXL
 40
1.0
  9
$DIMFXLON
 70
     0
  9
$DIMJOGANG
 40
0.7853981633974483
  9
$DIMTFILL
 70
     0
  9
$DIMTFILLCLR
 70
     0
  9
$DIMARCSYM
 70
     0
  9
$DIMLTYPE
  6

  9
$DIMLTEX1
  6

  9
$DIMLTEX2
  6

  9
$DIMTXTDIRECTION
 70
     0
  9
$LUNITS
 70
     2
  9
$LUPREC
 70
     4
  9
$SKETCHINC
 40
0.1
  9
$FILLETRAD
 40
0.5
  9
$AUNITS
 70
     0
  9
$AUPREC
 70
     0
  9
$MENU
  1
.
  9
$ELEVATION
 40
0.0
  9
$PELEVATION
 40
0.0
  9
$THICKNESS
 40
0.0
  9
$LIMCHECK
 70
     0
  9
$CHAMFERA
 40
0.5
  9
$CHAMFERB
 40
0.5
  9
$CHAMFERC
 40
1.0
  9
$CHAMFERD
 40
0.0
  9
$SKPOLY
 70
     0
  9
$TDCREATE
 40
2451762.415066667
  9
$TDUCREATE
 40
2451762.373400000
  9
$TDUPDATE
 40
2458169.456287708
  9
$TDUUPDATE
 40
2458169.414621042
  9
$TDINDWG
 40
0.1729424190
  9
$TDUSRTIMER
 40
0.1729421644
  9
$USRTIMER
 70
     1
  9
$ANGBASE
 50
0.0
  9
$ANGDIR
 70
     0
  9
$PDMODE
 70
     0
  9
$PDSIZE
 40
0.0
  9
$PLINEWID
 40
0.0
  9
$SPLFRAME
 70
     0
  9
$SPLINETYPE
 70
     6
  9
$SPLINESEGS
 70
     8
  9
$HANDSEED
  5
18E3
  9
$SURFTAB1
 70
     6
  9
$SURFTAB2
 70
     6
  9
$SURFTYPE
 70
     6
  9
$SURFU
 70
     6
  9
$SURFV
 70
     6
  9
$UCSBASE
  2

  9
$UCSNAME
  2

  9
$UCSORG
 10
0.0
 20
0.0
 30
0.0
  9
$UCSXDIR
 10
1.0
 20
0.0
 30
0.0
  9
$UCSYDIR
 10
0.0
 20
1.0
 30
0.0
  9
$UCSORTHOREF
  2

  9
$UCSORTHOVIEW
 70
     0
  9
$UCSORGTOP
 10
0.0
 20
0.0
 30
0.0
  9
$UCSORGBOTTOM
 10
0.0
 20
0.0
 30
0.0
  9
$UCSORGLEFT
 10
0.0
 20
0.0
 30
0.0
  9
$UCSORGRIGHT
 10
0.0
 20
0.0
 30
0.0
  9
$UCSORGFRONT
 10
0.0
 20
0.0
 30
0.0
  9
$UCSORGBACK
 10
0.0
 20
0.0
 30
0.0
  9
$PUCSBASE
  2

  9
$PUCSNAME
  2

  9
$PUCSORG
 10
0.0
 20
0.0
 30
0.0
  9
$PUCSXDIR
 10
1.0
 20
0.0
 30
0.0
  9
$PUCSYDIR
 10
0.0
 20
1.0
 30
0.0
  9
$PUCSORTHOREF
  2

  9
$PUCSORTHOVIEW
 70
     0
  9
$PUCSORGTOP
 10
0.0
 20
0.0
 30
0.0
  9
$PUCSORGBOTTOM
 10
0.0
 20
0.0
 30
0.0
  9
$PUCSORGLEFT
 10
0.0
 20
0.0
 30
0.0
  9
$PUCSORGRIGHT
 10
0.0
 20
0.0
 30
0.0
  9
$PUCSORGFRONT
 10
0.0
 20
0.0
 30
0.0
  9
$PUCSORGBACK
 10
0.0
 20
0.0
 30
0.0
  9
$USERI1
 70
     0
  9
$USERI2
 70
     0
  9
$USERI3
 70
     0
  9
$USERI4
 70
     0
  9
$USERI5
 70
     0
  9
$USERR1
 40
0.0
  9
$USERR2
 40
0.0
  9
$USERR3
 40
0.0
  9
$USERR4
 40
0.0
  9
$USERR5
 40
0.0
  9
$WORLDVIEW
 70
     1
  9
$SHADEDGE
 70
     3
  9
$SHADEDIF
 70
    70
  9
$TILEMODE
 70
     1
  9
$MAXACTVP
 70
    64
  9
$PINSBASE
 10
0.0
 20
0.0
 30
0.0
  9
$PLIMCHECK
 70
     0
  9
$PEXTMIN
 10
1.000000000000000E+20
 20
1.000000000000000E+20
 30
1.000000000000000E+20
  9
$PEXTMAX
 10
-1.000000000000000E+20
 20
-1.000000000000000E+20
 30
-1.000000000000000E+20
  9
$PLIMMIN
 10
0.0
 20
0.0
  9
$PLIMMAX
 10
12.0
 20
9.0
  9
$UNITMODE
 70
     0
  9
$VISRETAIN
 70
     1
  9
$PLINEGEN
 70
     0
  9
$PSLTSCALE
 70
     1
  9
$TREEDEPTH
 70
  3020
  9
$CMLSTYLE
  2
STANDARD
  9
$CMLJUST
 70
     0
  9
$CMLSCALE
 40
1.0
  9
$PROXYGRAPHICS
 70
     1
  9
$MEASUREMENT
 70
     0
  9
$CELWEIGHT
370
    -1
  9
$ENDCAPS
280
     0
  9
$JOINSTYLE
280
     0
  9
$LWDISPLAY
290
     0
  9
$INSUNITS
 70
     0
  9
$HYPERLINKBASE
  1

  9
$STYLESHEET
  1

  9
$XEDIT
290
     1
  9
$CEPSNTYPE
380
     0
  9
$PSTYLEMODE
290
     1
  9
$FINGERPRINTGUID
  2
{A42321FD-4D3B-470A-B3BE-A3689E04D828}
  9
$VERSIONGUID
  2
{44CE5B5B-BFCD-4787-B80B-1292337749F8}
  9
$EXTNAMES
290
     1
  9
$PSVPSCALE
 40
0.0
  9
$OLESTARTUP
290
     0
  9
$SORTENTS
280
   127
  9
$INDEXCTL
280
     0
  9
$HIDETEXT
280
     0
  9
$XCLIPFRAME
280
     2
  9
$HALOGAP
280
     0
  9
$OBSCOLOR
 70
   257
  9
$OBSLTYPE
280
     0
  9
$INTERSECTIONDISPLAY
280
     0
  9
$INTERSECTIONCOLOR
 70
   257
  9
$DIMASSOC
280
     1
  9
$PROJECTNAME
  1

  9
$CAMERADISPLAY
290
     0
  9
$LENSLENGTH
 40
50.0
  9
$CAMERAHEIGHT
 40
0.0
  9
$STEPSPERSEC
 40
2.0
  9
$STEPSIZE
 40
6.0
  9
$3DDWFPREC
 40
2.0
  9
$PSOLWIDTH
 40
0.25
  9
$PSOLHEIGHT
 40
4.0
  9
$LOFTANG1
 40
1.570796326794896
  9
$LOFTANG2
 40
1.570796326794896
  9
$LOFTMAG1
 40
0.0
  9
$LOFTMAG2
 40
0.0
  9
$LOFTPARAM
 70
     7
  9
$LOFTNORMALS
280
     1
  9
$LATITUDE
 40
37.795
  9
$LONGITUDE
 40
-122.394
  9
$NORTHDIRECTION
 40
0.0
  9
$TIMEZONE
 70
 -8000
  9
$LIGHTGLYPHDISPLAY
280
     1
  9
$TILEMODELIGHTSYNCH
280
     1
  9
$CMATERIAL
347
17B
  9
$SOLIDHIST
280
     0
  9
$SHOWHIST
280
     1
  9
$DWFFRAME
280
     2
  9
$DGNFRAME
280
     0
  9
$REALWORLDSCALE
290
     1
  9
$INTERFERECOLOR
 62
     1
  9
$INTERFEREOBJVS
345
19D
  9
$INTERFEREVPVS
346
19A
  9
$CSHADOW
280
     0
  9
$SHADOWPLANELOCATION
 40
0.0
  0
ENDSEC
  0
SECTION
  2
CLASSES
  0
CLASS
  1
ACDBDICTIONARYWDFLT
  2
AcDbDictionaryWithDefault
  3
ObjectDBX Classes
 90
        0
 91
        1
280
     0
281
     0
  0
CLASS
  1
MATERIAL
  2
AcDbMaterial
  3
ObjectDBX Classes
 90
     1153
 91
        3
280
     0
281
     0
  0
CLASS
  1
VISUALSTYLE
  2
AcDbVisualStyle
  3
ObjectDBX Classes
 90
     4095
 91
       24
280
     0
281
     0
  0
CLASS
  1
TABLESTYLE
  2
AcDbTableStyle
  3
ObjectDBX Classes
 90
     4095
 91
        1
280
     0
281
     0
  0
CLASS
  1
SCALE
  2
AcDbScale
  3
ObjectDBX Classes
 90
     1153
 91
       17
280
     0
281
     0
  0
CLASS
  1
MLEADERSTYLE
  2
AcDbMLeaderStyle
  3
ACDB_MLEADERSTYLE_CLASS
 90
     4095
 91
        1
280
     0
281
     0
  0
CLASS
  1
ACDBSECTIONVIEWSTYLE
  2
AcDbSectionViewStyle
  3
ObjectDBX Classes
 90
     1025
 91
        1
280
     0
281
     0
  0
CLASS
  1
ACDBDETAILVIEWSTYLE
  2
AcDbDetailViewStyle
  3
ObjectDBX Classes
 90
     1025
 91
        1
280
     0
281
     0
  0
CLASS
  1
DICTIONARYVAR
  2
AcDbDictionaryVar
  3
ObjectDBX Classes
 90
        0
 91
        9
280
     0
281
     0
  0
CLASS
  1
SORTENTSTABLE
  2
AcDbSortentsTable
  3
ObjectDBX Classes
 90
        0
 91
        1
280
     0
281
     0
  0
CLASS
  1
CELLSTYLEMAP
  2
AcDbCellStyleMap
  3
ObjectDBX Classes
 90
     1152
 91
        1
280
     0
281
     0
  0
ENDSEC
  0
SECTION
  2
TABLES
  0
TABLE
  2
VPORT
  5
8
330
0
100
AcDbSymbolTable
 70
     1
  0
VPORT
  5
155
330
8
100
AcDbSymbolTableRecord
100
AcDbViewportTableRecord
  2
*ACTIVE
 70
     0
 10
0.0
 20
0.0
 11
1.0
 21
1.0
 12
2066.692970972662
 22
1057.590589508028
 13
0.0
 23
0.0
 14
0.5
 24
0.5
 15
0.5
 25
0.5
 16
0.0
 26
0.0
 36
1.0
 17
0.0
 27
0.0
 37
0.0
 40
3683.798366584678
 41
1.875432525951557
 42
50.0
 43
0.0
 44
0.0
 50
0.0
 51
0.0
 71
     0
 72
 10000
 73
     1
 74
     3
 75
     0
 76
     0
 77
     0
 78
     0
281
     0
 65
     1
110
0.0
120
0.0
130
0.0
111
1.0
121
0.0
131
0.0
112
0.0
122
1.0
132
0.0
 79
     0
146
0.0
348
199
 60
     3
 61
     5
292
     1
282
     1
141
0.0
142
0.0
 63
   250
421
  3355443
1001
ACAD_NAV_VCDISPLAY
1070
     3
  0
ENDTAB
  0
TABLE
  2
LTYPE
  5
5
330
0
100
AcDbSymbolTable
 70
     3
  0
LTYPE
  5
14
330
5
100
AcDbSymbolTableRecord
100
AcDbLinetypeTableRecord
  2
BYBLOCK
 70
     0
  3

 72
    65
 73
     0
 40
0.0
  0
LTYPE
  5
15
330
5
100
AcDbSymbolTableRecord
100
AcDbLinetypeTableRecord
  2
BYLAYER
 70
     0
  3

 72
    65
 73
     0
 40
0.0
  0
LTYPE
  5
16
330
5
100
AcDbSymbolTableRecord
100
AcDbLinetypeTableRecord
  2
CONTINUOUS
 70
     0
  3
Solid line
 72
    65
 73
     0
 40
0.0
  0
LTYPE
  5
1C4
330
5
100
AcDbSymbolTableRecord
100
AcDbLinetypeTableRecord
  2
PHANTOM2
 70
     0
  3
___ _ _ ___ _ _ ___ _ _ ___ _ _
 72
    65
 73
     6
 40
1.25
 49
0.625
 74
     0
 49
-0.125
 74
     0
 49
0.125
 74
     0
 49
-0.125
 74
     0
 49
0.125
 74
     0
 49
-0.125
 74
     0
  0
LTYPE
  5
D1E
330
5
100
AcDbSymbolTableRecord
100
AcDbLinetypeTableRecord
  2
IMPORT
 70
     0
  3

 72
    65
 73
     0
 40
0.0
  0
ENDTAB
  0
TABLE
  2
LAYER
  5
2
102
{ACAD_XDICTIONARY
360
1E1
102
}
330
0
100
AcDbSymbolTable
 70
     3
  0
LAYER
  5
10
102
{ACAD_XDICTIONARY
360
1CD
102
}
330
2
100
AcDbSymbolTableRecord
100
AcDbLayerTableRecord
  2
0
 70
     0
 62
     7
  6
CONTINUOUS
370
    -3
390
E0
347
18B
  0
LAYER
  5
296
330
2
100
AcDbSymbolTableRecord
100
AcDbLayerTableRecord
  2
HEWI
 70
     0
 62
     7
  6
CONTINUOUS
370
     9
390
E0
347
18B
1001
AcAecLayerStandard
1000

1000

1001
AcCmTransparency
1071
        0
  0
LAYER
  5
309
330
2
100
AcDbSymbolTableRecord
100
AcDbLayerTableRecord
  2
Defpoints
 70
     0
 62
     7
  6
CONTINUOUS
290
     0
370
    -3
390
E0
347
18B
  0
ENDTAB
  0
TABLE
  2
STYLE
  5
3
330
0
100
AcDbSymbolTable
 70
     1
  0
STYLE
  5
11
330
3
100
AcDbSymbolTableRecord
100
AcDbTextStyleTableRecord
  2
STANDARD
 70
     0
 40
0.0
 41
1.0
 50
0.0
 71
     0
 42
0.2
  3
txt
  4

  0
ENDTAB
  0
TABLE
  2
VIEW
  5
6
330
0
100
AcDbSymbolTable
 70
     0
  0
ENDTAB
  0
TABLE
  2
UCS
  5
7
330
0
100
AcDbSymbolTable
 70
     0
  0
ENDTAB
  0
TABLE
  2
APPID
  5
9
330
0
100
AcDbSymbolTable
 70
     6
  0
APPID
  5
12
330
9
100
AcDbSymbolTableRecord
100
AcDbRegAppTableRecord
  2
ACAD
 70
     0
  0
APPID
  5
1D1
330
9
100
AcDbSymbolTableRecord
100
AcDbRegAppTableRecord
  2
ACAD_NAV_VCDISPLAY
 70
     0
  0
APPID
  5
297
330
9
100
AcDbSymbolTableRecord
100
AcDbRegAppTableRecord
  2
AcAecLayerStandard
 70
     0
  0
APPID
  5
298
330
9
100
AcDbSymbolTableRecord
100
AcDbRegAppTableRecord
  2
AcCmTransparency
 70
     0
  0
APPID
  5
2AA
330
9
100
AcDbSymbolTableRecord
100
AcDbRegAppTableRecord
  2
ACAD_PSEXT
 70
     0
  0
APPID
  5
4A0
330
9
100
AcDbSymbolTableRecord
100
AcDbRegAppTableRecord
  2
ACAD_EXEMPT_FROM_CAD_STANDARDS
 70
     0
  0
ENDTAB
  0
TABLE
  2
DIMSTYLE
  5
A
330
0
100
AcDbSymbolTable
 70
     1
100
AcDbDimStyleTable
 71
     1
340
27
  0
DIMSTYLE
105
27
102
{ACAD_REACTORS
330
CAC
102
}
330
A
100
AcDbSymbolTableRecord
100
AcDbDimStyleTableRecord
  2
STANDARD
 70
     0
340
11
  0
ENDTAB
  0
TABLE
  2
BLOCK_RECORD
  5
1
330
0
100
AcDbSymbolTable
 70
     1
  0
BLOCK_RECORD
  5
1F
102
{ACAD_XDICTIONARY
360
D9
102
}
330
1
100
AcDbSymbolTableRecord
100
AcDbBlockTableRecord
  2
*MODEL_SPACE
340
1C8
 70
     0
280
     1
281
     0
  0
BLOCK_RECORD
  5
1B
102
{ACAD_XDICTIONARY
360
D7
102
}
330
1
100
AcDbSymbolTableRecord
100
AcDbBlockTableRecord
  2
*PAPER_SPACE
340
1C9
 70
     0
280
     1
281
     0
  0
BLOCK_RECORD
  5
CAD
330
1
100
AcDbSymbolTableRecord
100
AcDbBlockTableRecord
  2
*D0
340
0
 70
     0
280
     1
281
     0
  0
ENDTAB
  0
ENDSEC
  0
SECTION
  2
BLOCKS
  0
BLOCK
  5
20
330
1F
100
AcDbEntity
  8
0
100
AcDbBlockBegin
  2
*MODEL_SPACE
 70
     0
 10
0.0
 20
0.0
 30
0.0
  3
*MODEL_SPACE
  1

  0
ENDBLK
  5
21
330
1F
100
AcDbEntity
  8
0
100
AcDbBlockEnd
  0
BLOCK
  5
1C
330
1B
100
AcDbEntity
 67
     1
  8
0
100
AcDbBlockBegin
  2
*PAPER_SPACE
 70
     0
 10
0.0
 20
0.0
 30
0.0
  3
*PAPER_SPACE
  1

  0
ENDBLK
  5
1D
330
1B
100
AcDbEntity
 67
     1
  8
0
100
AcDbBlockEnd
  0
BLOCK
  5
CAE
330
CAD
100
AcDbEntity
  8
0
100
AcDbBlockBegin
  2
*D0
 70
     1
 10
0.0
 20
0.0
 30
0.0
  3
*D0
  1

  0
LINE
  5
17D1
330
CAD
100
AcDbEntity
  8
0
 62
     0
440
 16777216
370
    -2
100
AcDbLine
 10
796.6834986375434
 20
1405.011627816126
 30
0.0
 11
796.6834986375434
 21
1440.962551803285
 31
0.0
  0
LINE
  5
17D2
330
CAD
100
AcDbEntity
  8
0
 62
     0
440
 16777216
370
    -2
100
AcDbLine
 10
1796.683498637543
 20
1402.098534701505
 30
0.0
 11
1796.683498637543
 21
1440.962551803285
 31
0.0
  0
LINE
  5
17D3
330
CAD
100
AcDbEntity
  8
0
 62
     0
440
 16777216
370
    -2
100
AcDbLine
 10
811.6834986375433
 20
1440.782551803285
 30
0.0
 11
1258.35016530421
 21
1440.782551803285
 31
0.0
  0
LINE
  5
17D4
330
CAD
100
AcDbEntity
  8
0
 62
     0
440
 16777216
370
    -2
100
AcDbLine
 10
1781.683498637543
 20
1440.782551803285
 30
0.0
 11
1335.016831970876
 21
1440.782551803285
 31
0.0
  0
SOLID
  5
17D5
330
CAD
100
AcDbEntity
  8
0
 62
     0
440
 16777216
100
AcDbTrace
 10
811.6834986375433
 20
1443.282551803285
 30
0.0
 11
811.6834986375433
 21
1438.282551803285
 31
0.0
 12
796.6834986375434
 22
1440.782551803285
 32
0.0
 13
796.6834986375434
 23
1440.782551803285
 33
0.0
  0
SOLID
  5
17D6
330
CAD
100
AcDbEntity
  8
0
 62
     0
440
 16777216
100
AcDbTrace
 10
1781.683498637543
 20
1443.282551803285
 30
0.0
 11
1781.683498637543
 21
1438.282551803285
 31
0.0
 12
1796.683498637543
 22
1440.782551803285
 32
0.0
 13
1796.683498637543
 23
1440.782551803285
 33
0.0
  0
MTEXT
  5
17D7
330
CAD
100
AcDbEntity
  8
0
 62
     0
440
 16777216
100
AcDbMText
 10
1296.683498637543
 20
1440.782551803285
 30
0.0
 40
20.0
 41
0.0
 46
0.0
 71
     5
 72
     1
  1
\A1;1000
 73
     1
 44
1.0
  0
POINT
  5
17D8
330
CAD
100
AcDbEntity
  8
Defpoints
 62
     0
440
 16777216
100
AcDbPoint
 10
796.6834986375434
 20
1404.949127816126
 30
0.0
  0
POINT
  5
17D9
330
CAD
100
AcDbEntity
  8
Defpoints
 62
     0
440
 16777216
100
AcDbPoint
 10
1796.683498637543
 20
1402.036034701505
 30
0.0
  0
POINT
  5
17DA
330
CAD
100
AcDbEntity
  8
Defpoints
 62
     0
440
 16777216
100
AcDbPoint
 10
1796.683498637543
 20
1440.782551803285
 30
0.0
  0
ENDBLK
  5
CAF
330
CAD
100
AcDbEntity
  8
0
100
AcDbBlockEnd
  0
ENDSEC
  0
SECTION
  2
ENTITIES
  0
LWPOLYLINE
  5
C9C
330
1F
100
AcDbEntity
  8
HEWI
100
AcDbPolyline
 90
        3
 70
     0
 43
0.0
 10
796.6860243607925
 20
1337.01905157765
 10
796.6834986375434
 20
1337.01905157765
 10
796.6834986375434
 20
1324.519051577087
  0
LINE
  5
C9D
330
1F
100
AcDbEntity
  8
HEWI
100
AcDbLine
 10
1785.67642683714
 20
1359.516828226757
 30
0.0
 11
1796.67642661259
 21
1359.519050863171
 31
0.0
  0
LINE
  5
C9E
330
1F
100
AcDbEntity
  8
HEWI
100
AcDbLine
 10
1796.67642661259
 20
1359.519050863171
 30
0.0
 11
1796.690570662496
 21
1289.51905229213
 31
0.0
  0
LINE
  5
C9F
330
1F
100
AcDbEntity
  8
HEWI
100
AcDbLine
 10
1796.690570662496
 20
1289.51905229213
 30
0.0
 11
1785.690570887047
 21
1289.516829655716
 31
0.0
  0
LWPOLYLINE
  5
CA0
330
1F
100
AcDbEntity
  8
HEWI
100
AcDbPolyline
 90
        2
 70
     0
 43
0.0
 10
1784.690368849605
 20
1290.516627577446
 10
1784.67662891541
 20
1358.516626189315
  0
ARC
  5
CA1
330
1F
100
AcDbEntity
  8
HEWI
100
AcDbCircle
 10
1785.676628894997
 20
1358.516828247171
 30
0.0
 40
1.0
100
AcDbArc
 50
90.01157706243693
 51
180.0115770624336
  0
ARC
  5
CA2
330
1F
100
AcDbEntity
  8
HEWI
100
AcDbCircle
 10
1785.690368829191
 20
1290.516829635302
 30
0.0
 40
1.0
100
AcDbArc
 50
180.0115770624336
 51
270.0115770624369
  0
LINE
  5
CA3
330
1F
100
AcDbEntity
  8
HEWI
100
AcDbLine
 10
807.6905704379464
 20
1359.516828226757
 30
0.0
 11
796.6905706624966
 21
1359.519050863171
 31
0.0
  0
LINE
  5
CA4
330
1F
100
AcDbEntity
  8
HEWI
100
AcDbLine
 10
796.6905706624966
 20
1359.519050863171
 30
0.0
 11
796.6764266125903
 21
1289.51905229213
 31
0.0
  0
LINE
  5
CA5
330
1F
100
AcDbEntity
  8
HEWI
100
AcDbLine
 10
796.6764266125903
 20
1289.51905229213
 30
0.0
 11
807.6764263880395
 21
1289.516829655716
 31
0.0
  0
LWPOLYLINE
  5
CA6
330
1F
100
AcDbEntity
  8
HEWI
100
AcDbPolyline
 90
        2
 70
     0
 43
0.0
 10
808.6766284254816
 20
1290.516627577446
 10
808.6903683596766
 20
1358.516626189315
  0
ARC
  5
CA7
330
1F
100
AcDbEntity
  8
HEWI
100
AcDbCircle
 10
807.6903683800894
 20
1358.516828247171
 30
0.0
 40
1.0
100
AcDbArc
 50
359.9884229375663
 51
89.98842293756306
  0
ARC
  5
CA8
330
1F
100
AcDbEntity
  8
HEWI
100
AcDbCircle
 10
807.6766284458953
 20
1290.516829635302
 30
0.0
 40
1.0
100
AcDbArc
 50
269.9884229375631
 51
359.9884229375663
  0
LWPOLYLINE
  5
CA9
330
1F
100
AcDbEntity
  8
HEWI
100
AcDbPolyline
 90
        2
 70
     0
 43
0.0
 10
808.6809731592582
 20
1312.01905157765
 10
869.3459559809403
 20
1312.01905157765
  0
LWPOLYLINE
  5
CAA
330
1F
100
AcDbEntity
  8
HEWI
100
AcDbPolyline
 90
        2
 70
     0
 43
0.0
 10
1784.680972669329
 20
1337.01905157765
 10
1238.08979081857
 20
1337.01905157765
  0
LWPOLYLINE
  5
CAB
330
1F
100
AcDbEntity
  8
HEWI
100
AcDbPolyline
 90
        3
 70
     0
 43
0.0
 10
1796.683498637543
 20
1324.519051577087
 10
1796.683498637543
 20
1337.01905157765
 10
1796.680972914294
 20
1337.01905157765
  0
DIMENSION
  5
CAC
330
1F
100
AcDbEntity
  8
0
100
AcDbDimension
280
     0
  2
*D0
 10
1796.683498637543
 20
1440.782551803285
 30
0.0
 11
1296.683498637543
 21
1440.782551803285
 31
0.0
 70
    32
 71
     5
 42
1000.0
 73
     0
 74
     0
 75
     0
  3
STANDARD
100
AcDbAlignedDimension
 13
796.6834986375434
 23
1404.949127816126
 33
0.0
 14
1796.683498637543
 24
1402.036034701505
 34
0.0
100
AcDbRotatedDimension
1001
ACAD
1000
DSTYLE
1002
{
1070
   271
1070
     0
1070
    41
1040
15.0
1070
   147
1040
10.0
1070
   140
1040
20.0
1002
}
  0
LINE
  5
135C
330
1F
100
AcDbEntity
  8
HEWI
  6
IMPORT
 62
     7
100
AcDbLine
 10
1158.08980299346
 20
1337.01905157765
 30
0.0
 11
1190.602092875166
 21
1337.01905157765
 31
0.0
  0
LINE
  5
135D
330
1F
100
AcDbEntity
  8
HEWI
  6
IMPORT
 62
     7
100
AcDbLine
 10
1118.089804781599
 20
1337.01905157765
 30
0.0
 11
1150.602092875166
 21
1337.01905157765
 31
0.0
  0
LINE
  5
135E
330
1F
100
AcDbEntity
  8
HEWI
  6
IMPORT
 62
     7
100
AcDbLine
 10
1078.089804781599
 20
1337.01905157765
 30
0.0
 11
1110.602092875166
 21
1337.01905157765
 31
0.0
  0
LINE
  5
135F
330
1F
100
AcDbEntity
  8
HEWI
  6
IMPORT
 62
     7
100
AcDbLine
 10
1038.089804781599
 20
1337.01905157765
 30
0.0
 11
1070.602097643538
 21
1337.01905157765
 31
0.0
  0
LINE
  5
1360
330
1F
100
AcDbEntity
  8
HEWI
  6
IMPORT
 62
     7
100
AcDbLine
 10
998.0897952448563
 20
1337.01905157765
 30
0.0
 11
1030.602097643538
 21
1337.01905157765
 31
0.0
  0
LINE
  5
1361
330
1F
100
AcDbEntity
  8
HEWI
  6
IMPORT
 62
     7
100
AcDbLine
 10
958.0897952448562
 20
1337.01905157765
 30
0.0
 11
990.602097643538
 21
1337.01905157765
 31
0.0
  0
LINE
  5
1362
330
1F
100
AcDbEntity
  8
HEWI
  6
IMPORT
 62
     7
100
AcDbLine
 10
918.0897952448562
 20
1337.01905157765
 30
0.0
 11
950.602097643538
 21
1337.01905157765
 31
0.0
  0
LINE
  5
1363
330
1F
100
AcDbEntity
  8
HEWI
  6
IMPORT
 62
     7
100
AcDbLine
 10
878.0897952448563
 20
1337.01905157765
 30
0.0
 11
910.6020976435379
 21
1337.01905157765
 31
0.0
  0
LINE
  5
1373
330
1F
100
AcDbEntity
  8
HEWI
  6
IMPORT
 62
     7
100
AcDbLine
 10
1193.745954168959
 20
1295.241364504896
 30
0.0
 11
1194.94595302455
 21
1295.241364504896
 31
0.0
  0
LINE
  5
1374
330
1F
100
AcDbEntity
  8
HEWI
  6
IMPORT
 62
     7
100
AcDbLine
 10
1153.745952976866
 20
1295.241364504896
 30
0.0
 11
1154.94595302455
 21
1295.241364504896
 31
0.0
  0
LINE
  5
1375
330
1F
100
AcDbEntity
  8
HEWI
  6
IMPORT
 62
     7
100
AcDbLine
 10
1113.745951784773
 20
1295.241364504896
 30
0.0
 11
1114.945955408735
 21
1295.241364504896
 31
0.0
  0
LINE
  5
1376
330
1F
100
AcDbEntity
  8
HEWI
  6
IMPORT
 62
     7
100
AcDbLine
 10
1073.745951784773
 20
1295.241364504896
 30
0.0
 11
1074.945950640364
 21
1295.241364504896
 31
0.0
  0
LINE
  5
1377
330
1F
100
AcDbEntity
  8
HEWI
  6
IMPORT
 62
     7
100
AcDbLine
 10
1033.745951784773
 20
1295.241364504896
 30
0.0
 11
1034.945950640364
 21
1295.241364504896
 31
0.0
  0
LINE
  5
1378
330
1F
100
AcDbEntity
  8
HEWI
  6
IMPORT
 62
     7
100
AcDbLine
 10
993.7459613215164
 20
1295.241364504896
 30
0.0
 11
994.9459506403641
 21
1295.241364504896
 31
0.0
  0
LINE
  5
1379
330
1F
100
AcDbEntity
  8
HEWI
  6
IMPORT
 62
     7
100
AcDbLine
 10
953.7459613215164
 20
1295.241364504896
 30
0.0
 11
954.9459506403641
 21
1295.241364504896
 31
0.0
  0
LINE
  5
137A
330
1F
100
AcDbEntity
  8
HEWI
  6
IMPORT
 62
     7
100
AcDbLine
 10
913.7459613215165
 20
1295.241364504896
 30
0.0
 11
914.9459506403641
 21
1295.241364504896
 31
0.0
  0
LINE
  5
137B
330
1F
100
AcDbEntity
  8
HEWI
  6
IMPORT
 62
     7
100
AcDbLine
 10
873.7459613215165
 20
1295.241364504896
 30
0.0
 11
874.945950640364
 21
1295.241364504896
 31
0.0
  0
LINE
  5
137C
330
1F
100
AcDbEntity
  8
HEWI
  6
IMPORT
 62
     7
100
AcDbLine
 10
1191.845953596754
 20
1289.782074954115
 30
0.0
 11
1196.845953596754
 21
1289.782074954115
 31
0.0
  0
LINE
  5
137D
330
1F
100
AcDbEntity
  8
HEWI
  6
IMPORT
 62
     7
100
AcDbLine
 10
1151.845953596754
 20
1289.782074954115
 30
0.0
 11
1156.845953596754
 21
1289.782074954115
 31
0.0
  0
LINE
  5
137E
330
1F
100
AcDbEntity
  8
HEWI
  6
IMPORT
 62
     7
100
AcDbLine
 10
1111.845951212568
 20
1289.782074954115
 30
0.0
 11
1116.845951212569
 21
1289.782074954115
 31
0.0
  0
LINE
  5
137F
330
1F
100
AcDbEntity
  8
HEWI
  6
IMPORT
 62
     7
100
AcDbLine
 10
1071.84595598094
 20
1289.782074954115
 30
0.0
 11
1076.84595598094
 21
1289.782074954115
 31
0.0
  0
LINE
  5
1380
330
1F
100
AcDbEntity
  8
HEWI
  6
IMPORT
 62
     7
100
AcDbLine
 10
1031.84595598094
 20
1289.782074954115
 30
0.0
 11
1036.84595598094
 21
1289.782074954115
 31
0.0
  0
LINE
  5
1381
330
1F
100
AcDbEntity
  8
HEWI
  6
IMPORT
 62
     7
100
AcDbLine
 10
991.8459559809402
 20
1289.782074954115
 30
0.0
 11
996.8459559809403
 21
1289.782074954115
 31
0.0
  0
LINE
  5
1382
330
1F
100
AcDbEntity
  8
HEWI
  6
IMPORT
 62
     7
100
AcDbLine
 10
951.8459559809402
 20
1289.782074954115
 30
0.0
 11
956.8459559809403
 21
1289.782074954115
 31
0.0
  0
LINE
  5
1383
330
1F
100
AcDbEntity
  8
HEWI
  6
IMPORT
 62
     7
100
AcDbLine
 10
911.8459559809403
 20
1289.782074954115
 30
0.0
 11
916.8459559809402
 21
1289.782074954115
 31
0.0
  0
LINE
  5
1384
330
1F
100
AcDbEntity
  8
HEWI
  6
IMPORT
 62
     7
100
AcDbLine
 10
871.8459559809403
 20
1289.782074954115
 30
0.0
 11
876.8459559809402
 21
1289.782074954115
 31
0.0
  0
LINE
  5
1385
330
1F
100
AcDbEntity
  8
HEWI
  6
IMPORT
 62
     7
100
AcDbLine
 10
1193.745954168959
 20
1346.733063723646
 30
0.0
 11
1195.39101375453
 21
1346.653527285658
 31
0.0
  0
LINE
  5
1386
330
1F
100
AcDbEntity
  8
HEWI
  6
IMPORT
 62
     7
100
AcDbLine
 10
1153.745952976866
 20
1346.733063723646
 30
0.0
 11
1155.391012562437
 21
1346.653527285658
 31
0.0
  0
LINE
  5
1387
330
1F
100
AcDbEntity
  8
HEWI
  6
IMPORT
 62
     7
100
AcDbLine
 10
1113.745951784773
 20
1346.733063723646
 30
0.0
 11
1115.391011370344
 21
1346.653527285658
 31
0.0
  0
LINE
  5
1388
330
1F
100
AcDbEntity
  8
HEWI
  6
IMPORT
 62
     7
100
AcDbLine
 10
1073.745951784773
 20
1346.733063723646
 30
0.0
 11
1075.391011370344
 21
1346.653527285658
 31
0.0
  0
LINE
  5
1389
330
1F
100
AcDbEntity
  8
HEWI
  6
IMPORT
 62
     7
100
AcDbLine
 10
1033.745951784773
 20
1346.733063723646
 30
0.0
 11
1035.391011370344
 21
1346.653527285658
 31
0.0
  0
LINE
  5
138A
330
1F
100
AcDbEntity
  8
HEWI
  6
IMPORT
 62
     7
100
AcDbLine
 10
993.7459613215164
 20
1346.733063723646
 30
0.0
 11
995.3910113703445
 21
1346.653527285658
 31
0.0
  0
LINE
  5
138B
330
1F
100
AcDbEntity
  8
HEWI
  6
IMPORT
 62
     7
100
AcDbLine
 10
953.7459613215164
 20
1346.733063723646
 30
0.0
 11
955.3910113703446
 21
1346.653527285658
 31
0.0
  0
LINE
  5
138C
330
1F
100
AcDbEntity
  8
HEWI
  6
IMPORT
 62
     7
100
AcDbLine
 10
913.7459613215165
 20
1346.733063723646
 30
0.0
 11
915.3910113703446
 21
1346.653527285658
 31
0.0
  0
LINE
  5
138D
330
1F
100
AcDbEntity
  8
HEWI
  6
IMPORT
 62
     7
100
AcDbLine
 10
873.7459613215165
 20
1346.733063723646
 30
0.0
 11
875.3910113703446
 21
1346.653527285658
 31
0.0
  0
LINE
  5
138E
330
1F
100
AcDbEntity
  8
HEWI
  6
IMPORT
 62
     7
100
AcDbLine
 10
1192.06214202754
 20
1346.432045962416
 30
0.0
 11
1192.502143515272
 21
1346.510705020033
 31
0.0
  0
LINE
  5
138F
330
1F
100
AcDbEntity
  8
HEWI
  6
IMPORT
 62
     7
100
AcDbLine
 10
1152.062143219633
 20
1346.432045962416
 30
0.0
 11
1152.502143515272
 21
1346.510705020033
 31
0.0
  0
LINE
  5
1390
330
1F
100
AcDbEntity
  8
HEWI
  6
IMPORT
 62
     7
100
AcDbLine
 10
1112.062144411726
 20
1346.432045962416
 30
0.0
 11
1112.502141131087
 21
1346.510705020033
 31
0.0
  0
LINE
  5
1391
330
1F
100
AcDbEntity
  8
HEWI
  6
IMPORT
 62
     7
100
AcDbLine
 10
1072.062144411726
 20
1346.432045962416
 30
0.0
 11
1072.502141131087
 21
1346.510705020033
 31
0.0
  0
LINE
  5
1392
330
1F
100
AcDbEntity
  8
HEWI
  6
IMPORT
 62
     7
100
AcDbLine
 10
1032.062144411726
 20
1346.432045962416
 30
0.0
 11
1032.502141131087
 21
1346.510705020033
 31
0.0
  0
LINE
  5
1393
330
1F
100
AcDbEntity
  8
HEWI
  6
IMPORT
 62
     7
100
AcDbLine
 10
992.0621348749833
 20
1346.432045962416
 30
0.0
 11
992.5021411310867
 21
1346.510705020033
 31
0.0
  0
LINE
  5
1394
330
1F
100
AcDbEntity
  8
HEWI
  6
IMPORT
 62
     7
100
AcDbLine
 10
952.0621348749832
 20
1346.432045962416
 30
0.0
 11
952.5021411310868
 21
1346.510705020033
 31
0.0
  0
LINE
  5
1395
330
1F
100
AcDbEntity
  8
HEWI
  6
IMPORT
 62
     7
100
AcDbLine
 10
912.0621348749832
 20
1346.432045962416
 30
0.0
 11
912.5021411310868
 21
1346.510705020033
 31
0.0
  0
LINE
  5
1396
330
1F
100
AcDbEntity
  8
HEWI
  6
IMPORT
 62
     7
100
AcDbLine
 10
872.0621348749832
 20
1346.432045962416
 30
0.0
 11
872.5021411310867
 21
1346.510705020033
 31
0.0
  0
LINE
  5
1397
330
1F
100
AcDbEntity
  8
HEWI
  6
IMPORT
 62
     7
100
AcDbLine
 10
1196.152594221754
 20
1338.144806887709
 30
0.0
 11
1196.28146423213
 21
1338.128479983412
 31
0.0
  0
LINE
  5
1398
330
1F
100
AcDbEntity
  8
HEWI
  6
IMPORT
 62
     7
100
AcDbLine
 10
1192.296173704787
 20
1338.079957034193
 30
0.0
 11
1192.410433424635
 21
1338.128479983412
 31
0.0
  0
LINE
  5
1399
330
1F
100
AcDbEntity
  8
HEWI
  6
IMPORT
 62
     7
100
AcDbLine
 10
1156.152593029661
 20
1338.144806887709
 30
0.0
 11
1156.281463040037
 21
1338.128479983412
 31
0.0
  0
LINE
  5
139A
330
1F
100
AcDbEntity
  8
HEWI
  6
IMPORT
 62
     7
100
AcDbLine
 10
1152.296173704786
 20
1338.079957034193
 30
0.0
 11
1152.410433424635
 21
1338.128479983412
 31
0.0
  0
LINE
  5
139B
330
1F
100
AcDbEntity
  8
HEWI
  6
IMPORT
 62
     7
100
AcDbLine
 10
1116.152591837568
 20
1338.144806887709
 30
0.0
 11
1116.281461847944
 21
1338.128479983412
 31
0.0
  0
LINE
  5
139C
330
1F
100
AcDbEntity
  8
HEWI
  6
IMPORT
 62
     7
100
AcDbLine
 10
1112.296171320601
 20
1338.079957034193
 30
0.0
 11
1112.410431040449
 21
1338.128479983412
 31
0.0
  0
LINE
  5
139D
330
1F
100
AcDbEntity
  8
HEWI
  6
IMPORT
 62
     7
100
AcDbLine
 10
1076.15259660594
 20
1338.144806887709
 30
0.0
 11
1076.281466616316
 21
1338.128479983412
 31
0.0
  0
LINE
  5
139E
330
1F
100
AcDbEntity
  8
HEWI
  6
IMPORT
 62
     7
100
AcDbLine
 10
1072.296176088972
 20
1338.079957034193
 30
0.0
 11
1072.410435808821
 21
1338.128479983412
 31
0.0
  0
LINE
  5
139F
330
1F
100
AcDbEntity
  8
HEWI
  6
IMPORT
 62
     7
100
AcDbLine
 10
1036.15259660594
 20
1338.144806887709
 30
0.0
 11
1036.281466616316
 21
1338.128479983412
 31
0.0
  0
LINE
  5
13A0
330
1F
100
AcDbEntity
  8
HEWI
  6
IMPORT
 62
     7
100
AcDbLine
 10
1032.296176088972
 20
1338.079957034193
 30
0.0
 11
1032.410435808821
 21
1338.128479983412
 31
0.0
  0
LINE
  5
13A1
330
1F
100
AcDbEntity
  8
HEWI
  6
IMPORT
 62
     7
100
AcDbLine
 10
996.1525966059403
 20
1338.144806887709
 30
0.0
 11
996.281457079573
 21
1338.128479983412
 31
0.0
  0
LINE
  5
13A2
330
1F
100
AcDbEntity
  8
HEWI
  6
IMPORT
 62
     7
100
AcDbLine
 10
992.2961665522294
 20
1338.079957034193
 30
0.0
 11
992.4104358088211
 21
1338.128479983412
 31
0.0
  0
LINE
  5
13A3
330
1F
100
AcDbEntity
  8
HEWI
  6
IMPORT
 62
     7
100
AcDbLine
 10
956.1525966059402
 20
1338.144806887709
 30
0.0
 11
956.2814570795731
 21
1338.128479983412
 31
0.0
  0
LINE
  5
13A4
330
1F
100
AcDbEntity
  8
HEWI
  6
IMPORT
 62
     7
100
AcDbLine
 10
952.2961665522293
 20
1338.079957034193
 30
0.0
 11
952.410435808821
 21
1338.128479983412
 31
0.0
  0
LINE
  5
13A5
330
1F
100
AcDbEntity
  8
HEWI
  6
IMPORT
 62
     7
100
AcDbLine
 10
916.1525966059402
 20
1338.144806887709
 30
0.0
 11
916.2814570795731
 21
1338.128479983412
 31
0.0
  0
LINE
  5
13A6
330
1F
100
AcDbEntity
  8
HEWI
  6
IMPORT
 62
     7
100
AcDbLine
 10
912.2961665522293
 20
1338.079957034193
 30
0.0
 11
912.4104358088212
 21
1338.128479983412
 31
0.0
  0
LINE
  5
13A7
330
1F
100
AcDbEntity
  8
HEWI
  6
IMPORT
 62
     7
100
AcDbLine
 10
876.1525966059403
 20
1338.144806887709
 30
0.0
 11
876.2814570795731
 21
1338.128479983412
 31
0.0
  0
LINE
  5
13A8
330
1F
100
AcDbEntity
  8
HEWI
  6
IMPORT
 62
     7
100
AcDbLine
 10
872.2961665522293
 20
1338.079957034193
 30
0.0
 11
872.4104358088212
 21
1338.128479983412
 31
0.0
  0
LINE
  5
13A9
330
1F
100
AcDbEntity
  8
HEWI
  6
IMPORT
 62
     7
100
AcDbLine
 10
1193.703792227431
 20
1338.292016055189
 30
0.0
 11
1194.857742918654
 21
1338.308495547377
 31
0.0
  0
LINE
  5
13AA
330
1F
100
AcDbEntity
  8
HEWI
  6
IMPORT
 62
     7
100
AcDbLine
 10
1153.703793419524
 20
1338.292016055189
 30
0.0
 11
1154.857742918654
 21
1338.308495547377
 31
0.0
  0
LINE
  5
13AB
330
1F
100
AcDbEntity
  8
HEWI
  6
IMPORT
 62
     7
100
AcDbLine
 10
1113.703794611616
 20
1338.292016055189
 30
0.0
 11
1114.857745302839
 21
1338.308495547377
 31
0.0
  0
LINE
  5
13AC
330
1F
100
AcDbEntity
  8
HEWI
  6
IMPORT
 62
     7
100
AcDbLine
 10
1073.703789843245
 20
1338.292016055189
 30
0.0
 11
1074.85774530284
 21
1338.308495547377
 31
0.0
  0
LINE
  5
13AD
330
1F
100
AcDbEntity
  8
HEWI
  6
IMPORT
 62
     7
100
AcDbLine
 10
1033.703789843245
 20
1338.292016055189
 30
0.0
 11
1034.85774530284
 21
1338.308495547377
 31
0.0
  0
LINE
  5
13AE
330
1F
100
AcDbEntity
  8
HEWI
  6
IMPORT
 62
     7
100
AcDbLine
 10
993.703789843245
 20
1338.292016055189
 30
0.0
 11
994.8577357660965
 21
1338.308495547377
 31
0.0
  0
LINE
  5
13AF
330
1F
100
AcDbEntity
  8
HEWI
  6
IMPORT
 62
     7
100
AcDbLine
 10
953.7037898432449
 20
1338.292016055189
 30
0.0
 11
954.8577357660965
 21
1338.308495547377
 31
0.0
  0
LINE
  5
13B0
330
1F
100
AcDbEntity
  8
HEWI
  6
IMPORT
 62
     7
100
AcDbLine
 10
913.7037898432449
 20
1338.292016055189
 30
0.0
 11
914.8577357660965
 21
1338.308495547377
 31
0.0
  0
LINE
  5
13B1
330
1F
100
AcDbEntity
  8
HEWI
  6
IMPORT
 62
     7
100
AcDbLine
 10
873.7037898432449
 20
1338.292016055189
 30
0.0
 11
874.8577357660964
 21
1338.308495547377
 31
0.0
  0
LINE
  5
13B2
330
1F
100
AcDbEntity
  8
HEWI
  6
IMPORT
 62
     7
100
AcDbLine
 10
1197.30756296031
 20
1337.69272711476
 30
0.0
 11
1197.418084276838
 21
1337.645806338392
 31
0.0
  0
LINE
  5
13B3
330
1F
100
AcDbEntity
  8
HEWI
  6
IMPORT
 62
     7
100
AcDbLine
 10
1157.30756296031
 20
1337.69272711476
 30
0.0
 11
1157.418083084746
 21
1337.645806338392
 31
0.0
  0
LINE
  5
13B4
330
1F
100
AcDbEntity
  8
HEWI
  6
IMPORT
 62
     7
100
AcDbLine
 10
1117.30756296031
 20
1337.69272711476
 30
0.0
 11
1117.418084276839
 21
1337.645806338392
 31
0.0
  0
LINE
  5
13B5
330
1F
100
AcDbEntity
  8
HEWI
  6
IMPORT
 62
     7
100
AcDbLine
 10
1077.30756296031
 20
1337.69272711476
 30
0.0
 11
1077.418084276839
 21
1337.645806338392
 31
0.0
  0
LINE
  5
13B6
330
1F
100
AcDbEntity
  8
HEWI
  6
IMPORT
 62
     7
100
AcDbLine
 10
1037.30756296031
 20
1337.69272711476
 30
0.0
 11
1037.418084276839
 21
1337.645806338392
 31
0.0
  0
LINE
  5
13B7
330
1F
100
AcDbEntity
  8
HEWI
  6
IMPORT
 62
     7
100
AcDbLine
 10
997.3075724970536
 20
1337.69272711476
 30
0.0
 11
997.4180842768387
 21
1337.645806338392
 31
0.0
  0
LINE
  5
13B8
330
1F
100
AcDbEntity
  8
HEWI
  6
IMPORT
 62
     7
100
AcDbLine
 10
957.3075724970536
 20
1337.69272711476
 30
0.0
 11
957.4180842768386
 21
1337.645806338392
 31
0.0
  0
LINE
  5
13B9
330
1F
100
AcDbEntity
  8
HEWI
  6
IMPORT
 62
     7
100
AcDbLine
 10
917.3075724970535
 20
1337.69272711476
 30
0.0
 11
917.4180842768388
 21
1337.645806338392
 31
0.0
  0
LINE
  5
13BA
330
1F
100
AcDbEntity
  8
HEWI
  6
IMPORT
 62
     7
100
AcDbLine
 10
877.3075724970535
 20
1337.69272711476
 30
0.0
 11
877.4180842768387
 21
1337.645806338392
 31
0.0
  0
LINE
  5
13BB
330
1F
100
AcDbEntity
  8
HEWI
  6
IMPORT
 62
     7
100
AcDbLine
 10
1191.845953596754
 20
1287.053765322767
 30
0.0
 11
1196.845953596754
 21
1287.053765322767
 31
0.0
  0
LINE
  5
13BC
330
1F
100
AcDbEntity
  8
HEWI
  6
IMPORT
 62
     7
100
AcDbLine
 10
1151.845953596754
 20
1287.053765322767
 30
0.0
 11
1156.845953596754
 21
1287.053765322767
 31
0.0
  0
LINE
  5
13BD
330
1F
100
AcDbEntity
  8
HEWI
  6
IMPORT
 62
     7
100
AcDbLine
 10
1111.845951212568
 20
1287.053765322767
 30
0.0
 11
1116.845951212569
 21
1287.053765322767
 31
0.0
  0
LINE
  5
13BE
330
1F
100
AcDbEntity
  8
HEWI
  6
IMPORT
 62
     7
100
AcDbLine
 10
1071.84595598094
 20
1287.053765322767
 30
0.0
 11
1076.84595598094
 21
1287.053765322767
 31
0.0
  0
LINE
  5
13BF
330
1F
100
AcDbEntity
  8
HEWI
  6
IMPORT
 62
     7
100
AcDbLine
 10
1031.84595598094
 20
1287.053765322767
 30
0.0
 11
1036.84595598094
 21
1287.053765322767
 31
0.0
  0
LINE
  5
13C0
330
1F
100
AcDbEntity
  8
HEWI
  6
IMPORT
 62
     7
100
AcDbLine
 10
991.8459559809402
 20
1287.053765322767
 30
0.0
 11
996.8459559809403
 21
1287.053765322767
 31
0.0
  0
LINE
  5
13C1
330
1F
100
AcDbEntity
  8
HEWI
  6
IMPORT
 62
     7
100
AcDbLine
 10
951.8459559809402
 20
1287.053765322767
 30
0.0
 11
956.8459559809403
 21
1287.053765322767
 31
0.0
  0
LINE
  5
13C2
330
1F
100
AcDbEntity
  8
HEWI
  6
IMPORT
 62
     7
100
AcDbLine
 10
911.8459559809403
 20
1287.053765322767
 30
0.0
 11
916.8459559809402
 21
1287.053765322767
 31
0.0
  0
LINE
  5
13C3
330
1F
100
AcDbEntity
  8
HEWI
  6
IMPORT
 62
     7
100
AcDbLine
 10
871.8459559809403
 20
1287.053765322767
 30
0.0
 11
876.8459559809402
 21
1287.053765322767
 31
0.0
  0
LINE
  5
13C4
330
1F
100
AcDbEntity
  8
HEWI
  6
IMPORT
 62
     7
100
AcDbLine
 10
1191.845953596754
 20
1276.733063723646
 30
0.0
 11
1196.845953596754
 21
1276.733063723646
 31
0.0
  0
LINE
  5
13C5
330
1F
100
AcDbEntity
  8
HEWI
  6
IMPORT
 62
     7
100
AcDbLine
 10
1151.845953596754
 20
1276.733063723646
 30
0.0
 11
1156.845953596754
 21
1276.733063723646
 31
0.0
  0
LINE
  5
13C6
330
1F
100
AcDbEntity
  8
HEWI
  6
IMPORT
 62
     7
100
AcDbLine
 10
1111.845951212568
 20
1276.733063723646
 30
0.0
 11
1116.845951212569
 21
1276.733063723646
 31
0.0
  0
LINE
  5
13C7
330
1F
100
AcDbEntity
  8
HEWI
  6
IMPORT
 62
     7
100
AcDbLine
 10
1071.84595598094
 20
1276.733063723646
 30
0.0
 11
1076.84595598094
 21
1276.733063723646
 31
0.0
  0
LINE
  5
13C8
330
1F
100
AcDbEntity
  8
HEWI
  6
IMPORT
 62
     7
100
AcDbLine
 10
1031.84595598094
 20
1276.733063723646
 30
0.0
 11
1036.84595598094
 21
1276.733063723646
 31
0.0
  0
LINE
  5
13C9
330
1F
100
AcDbEntity
  8
HEWI
  6
IMPORT
 62
     7
100
AcDbLine
 10
991.8459559809402
 20
1276.733063723646
 30
0.0
 11
996.8459559809403
 21
1276.733063723646
 31
0.0
  0
LINE
  5
13CA
330
1F
100
AcDbEntity
  8
HEWI
  6
IMPORT
 62
     7
100
AcDbLine
 10
951.8459559809402
 20
1276.733063723646
 30
0.0
 11
956.8459559809403
 21
1276.733063723646
 31
0.0
  0
LINE
  5
13CB
330
1F
100
AcDbEntity
  8
HEWI
  6
IMPORT
 62
     7
100
AcDbLine
 10
911.8459559809403
 20
1276.733063723646
 30
0.0
 11
916.8459559809402
 21
1276.733063723646
 31
0.0
  0
LINE
  5
13CC
330
1F
100
AcDbEntity
  8
HEWI
  6
IMPORT
 62
     7
100
AcDbLine
 10
871.8459559809403
 20
1276.733063723646
 30
0.0
 11
876.8459559809402
 21
1276.733063723646
 31
0.0
  0
LINE
  5
13DC
330
1F
100
AcDbEntity
  8
HEWI
  6
IMPORT
 62
     7
100
AcDbLine
 10
1196.845953596754
 20
1276.733063723646
 30
0.0
 11
1196.845953596754
 21
1295.672272708021
 31
0.0
  0
LINE
  5
13DD
330
1F
100
AcDbEntity
  8
HEWI
  6
IMPORT
 62
     7
100
AcDbLine
 10
1191.845953596754
 20
1276.733063723646
 30
0.0
 11
1191.845953596754
 21
1295.672272708021
 31
0.0
  0
LINE
  5
13DE
330
1F
100
AcDbEntity
  8
HEWI
  6
IMPORT
 62
     7
100
AcDbLine
 10
1189.345953596754
 20
1337.01905157765
 30
0.0
 11
1189.442372454329
 21
1343.213852908216
 31
0.0
  0
LINE
  5
13DF
330
1F
100
AcDbEntity
  8
HEWI
  6
IMPORT
 62
     7
100
AcDbLine
 10
1189.345953596754
 20
1298.319520022474
 30
0.0
 11
1189.345953596754
 21
1334.474267031752
 31
0.0
  0
LINE
  5
13E0
330
1F
100
AcDbEntity
  8
HEWI
  6
IMPORT
 62
     7
100
AcDbLine
 10
1199.345953596754
 20
1337.01905157765
 30
0.0
 11
1199.345953596754
 21
1342.778138186537
 31
0.0
  0
LINE
  5
13E1
330
1F
100
AcDbEntity
  8
HEWI
  6
IMPORT
 62
     7
100
AcDbLine
 10
1199.345953596754
 20
1298.319520022474
 30
0.0
 11
1199.345953596754
 21
1334.474267031752
 31
0.0
  0
LINE
  5
13E2
330
1F
100
AcDbEntity
  8
HEWI
  6
IMPORT
 62
     7
100
AcDbLine
 10
1189.832914007826
 20
1336.144837405287
 30
0.0
 11
1189.89643348567
 21
1336.347817446791
 31
0.0
  0
LINE
  5
13E3
330
1F
100
AcDbEntity
  8
HEWI
  6
IMPORT
 62
     7
100
AcDbLine
 10
1199.058063162489
 20
1335.31853583058
 30
0.0
 11
1199.117581976576
 21
1335.508736636244
 31
0.0
  0
LINE
  5
13F1
330
1F
100
AcDbEntity
  8
HEWI
  6
IMPORT
 62
     7
100
AcDbLine
 10
876.8459559809402
 20
1276.733063723646
 30
0.0
 11
876.8459559809402
 21
1295.672272708021
 31
0.0
  0
LINE
  5
13F2
330
1F
100
AcDbEntity
  8
HEWI
  6
IMPORT
 62
     7
100
AcDbLine
 10
871.8459559809403
 20
1276.733063723646
 30
0.0
 11
871.8459559809403
 21
1295.672272708021
 31
0.0
  0
LINE
  5
13F3
330
1F
100
AcDbEntity
  8
HEWI
  6
IMPORT
 62
     7
100
AcDbLine
 10
869.3459559809403
 20
1337.01905157765
 30
0.0
 11
869.4423724543289
 21
1343.213852908216
 31
0.0
  0
LINE
  5
13F4
330
1F
100
AcDbEntity
  8
HEWI
  6
IMPORT
 62
     7
100
AcDbLine
 10
869.3459559809403
 20
1298.319520022474
 30
0.0
 11
869.3459559809403
 21
1334.474267031752
 31
0.0
  0
LINE
  5
13F5
330
1F
100
AcDbEntity
  8
HEWI
  6
IMPORT
 62
     7
100
AcDbLine
 10
879.3459559809402
 20
1337.01905157765
 30
0.0
 11
879.3459559809402
 21
1342.778138186537
 31
0.0
  0
LINE
  5
13F6
330
1F
100
AcDbEntity
  8
HEWI
  6
IMPORT
 62
     7
100
AcDbLine
 10
879.3459559809402
 20
1298.319520022474
 30
0.0
 11
879.3459559809402
 21
1334.474267031752
 31
0.0
  0
LINE
  5
13F7
330
1F
100
AcDbEntity
  8
HEWI
  6
IMPORT
 62
     7
100
AcDbLine
 10
869.8329211603835
 20
1336.144837405287
 30
0.0
 11
869.8964358698562
 21
1336.347817446791
 31
0.0
  0
LINE
  5
13F8
330
1F
100
AcDbEntity
  8
HEWI
  6
IMPORT
 62
     7
100
AcDbLine
 10
879.0580607783036
 20
1335.31853583058
 30
0.0
 11
879.1175891291336
 21
1335.508736636244
 31
0.0
  0
LINE
  5
13F9
330
1F
100
AcDbEntity
  8
HEWI
  6
IMPORT
 62
     7
100
AcDbLine
 10
916.8459559809402
 20
1276.733063723646
 30
0.0
 11
916.8459559809402
 21
1295.672272708021
 31
0.0
  0
LINE
  5
13FA
330
1F
100
AcDbEntity
  8
HEWI
  6
IMPORT
 62
     7
100
AcDbLine
 10
911.8459559809403
 20
1276.733063723646
 30
0.0
 11
911.8459559809403
 21
1295.672272708021
 31
0.0
  0
LINE
  5
13FB
330
1F
100
AcDbEntity
  8
HEWI
  6
IMPORT
 62
     7
100
AcDbLine
 10
909.3459559809403
 20
1337.01905157765
 30
0.0
 11
909.442372454329
 21
1343.213852908216
 31
0.0
  0
LINE
  5
13FC
330
1F
100
AcDbEntity
  8
HEWI
  6
IMPORT
 62
     7
100
AcDbLine
 10
909.3459559809403
 20
1298.319520022474
 30
0.0
 11
909.3459559809403
 21
1334.474267031752
 31
0.0
  0
LINE
  5
13FD
330
1F
100
AcDbEntity
  8
HEWI
  6
IMPORT
 62
     7
100
AcDbLine
 10
919.3459559809403
 20
1337.01905157765
 30
0.0
 11
919.3459559809403
 21
1342.778138186537
 31
0.0
  0
LINE
  5
13FE
330
1F
100
AcDbEntity
  8
HEWI
  6
IMPORT
 62
     7
100
AcDbLine
 10
919.3459559809403
 20
1298.319520022474
 30
0.0
 11
919.3459559809403
 21
1334.474267031752
 31
0.0
  0
LINE
  5
13FF
330
1F
100
AcDbEntity
  8
HEWI
  6
IMPORT
 62
     7
100
AcDbLine
 10
909.8329211603836
 20
1336.144837405287
 30
0.0
 11
909.8964358698562
 21
1336.347817446791
 31
0.0
  0
LINE
  5
1400
330
1F
100
AcDbEntity
  8
HEWI
  6
IMPORT
 62
     7
100
AcDbLine
 10
919.0580607783035
 20
1335.31853583058
 30
0.0
 11
919.1175891291337
 21
1335.508736636244
 31
0.0
  0
LINE
  5
1401
330
1F
100
AcDbEntity
  8
HEWI
  6
IMPORT
 62
     7
100
AcDbLine
 10
956.8459559809403
 20
1276.733063723646
 30
0.0
 11
956.8459559809403
 21
1295.672272708021
 31
0.0
  0
LINE
  5
1402
330
1F
100
AcDbEntity
  8
HEWI
  6
IMPORT
 62
     7
100
AcDbLine
 10
951.8459559809402
 20
1276.733063723646
 30
0.0
 11
951.8459559809402
 21
1295.672272708021
 31
0.0
  0
LINE
  5
1403
330
1F
100
AcDbEntity
  8
HEWI
  6
IMPORT
 62
     7
100
AcDbLine
 10
949.3459559809403
 20
1337.01905157765
 30
0.0
 11
949.442372454329
 21
1343.213852908216
 31
0.0
  0
LINE
  5
1404
330
1F
100
AcDbEntity
  8
HEWI
  6
IMPORT
 62
     7
100
AcDbLine
 10
949.3459559809403
 20
1298.319520022474
 30
0.0
 11
949.3459559809403
 21
1334.474267031752
 31
0.0
  0
LINE
  5
1405
330
1F
100
AcDbEntity
  8
HEWI
  6
IMPORT
 62
     7
100
AcDbLine
 10
959.3459559809403
 20
1337.01905157765
 30
0.0
 11
959.3459559809403
 21
1342.778138186537
 31
0.0
  0
LINE
  5
1406
330
1F
100
AcDbEntity
  8
HEWI
  6
IMPORT
 62
     7
100
AcDbLine
 10
959.3459559809403
 20
1298.319520022474
 30
0.0
 11
959.3459559809403
 21
1334.474267031752
 31
0.0
  0
LINE
  5
1407
330
1F
100
AcDbEntity
  8
HEWI
  6
IMPORT
 62
     7
100
AcDbLine
 10
949.8329211603836
 20
1336.144837405287
 30
0.0
 11
949.8964358698563
 21
1336.347817446791
 31
0.0
  0
LINE
  5
1408
330
1F
100
AcDbEntity
  8
HEWI
  6
IMPORT
 62
     7
100
AcDbLine
 10
959.0580607783035
 20
1335.31853583058
 30
0.0
 11
959.1175891291337
 21
1335.508736636244
 31
0.0
  0
LINE
  5
1409
330
1F
100
AcDbEntity
  8
HEWI
  6
IMPORT
 62
     7
100
AcDbLine
 10
996.8459559809403
 20
1276.733063723646
 30
0.0
 11
996.8459559809403
 21
1295.672272708021
 31
0.0
  0
LINE
  5
140A
330
1F
100
AcDbEntity
  8
HEWI
  6
IMPORT
 62
     7
100
AcDbLine
 10
991.8459559809402
 20
1276.733063723646
 30
0.0
 11
991.8459559809402
 21
1295.672272708021
 31
0.0
  0
LINE
  5
140B
330
1F
100
AcDbEntity
  8
HEWI
  6
IMPORT
 62
     7
100
AcDbLine
 10
989.3459559809402
 20
1337.01905157765
 30
0.0
 11
989.4423724543289
 21
1343.213852908216
 31
0.0
  0
LINE
  5
140C
330
1F
100
AcDbEntity
  8
HEWI
  6
IMPORT
 62
     7
100
AcDbLine
 10
989.3459559809402
 20
1298.319520022474
 30
0.0
 11
989.3459559809402
 21
1334.474267031752
 31
0.0
  0
LINE
  5
140D
330
1F
100
AcDbEntity
  8
HEWI
  6
IMPORT
 62
     7
100
AcDbLine
 10
999.3459559809403
 20
1337.01905157765
 30
0.0
 11
999.3459559809403
 21
1342.778138186537
 31
0.0
  0
LINE
  5
140E
330
1F
100
AcDbEntity
  8
HEWI
  6
IMPORT
 62
     7
100
AcDbLine
 10
999.3459559809403
 20
1298.319520022474
 30
0.0
 11
999.3459559809403
 21
1334.474267031752
 31
0.0
  0
LINE
  5
140F
330
1F
100
AcDbEntity
  8
HEWI
  6
IMPORT
 62
     7
100
AcDbLine
 10
989.8329211603837
 20
1336.144837405287
 30
0.0
 11
989.8964358698563
 21
1336.347817446791
 31
0.0
  0
LINE
  5
1410
330
1F
100
AcDbEntity
  8
HEWI
  6
IMPORT
 62
     7
100
AcDbLine
 10
999.0580607783035
 20
1335.31853583058
 30
0.0
 11
999.1175891291335
 21
1335.508736636244
 31
0.0
  0
LINE
  5
1411
330
1F
100
AcDbEntity
  8
HEWI
  6
IMPORT
 62
     7
100
AcDbLine
 10
1036.84595598094
 20
1276.733063723646
 30
0.0
 11
1036.84595598094
 21
1295.672272708021
 31
0.0
  0
LINE
  5
1412
330
1F
100
AcDbEntity
  8
HEWI
  6
IMPORT
 62
     7
100
AcDbLine
 10
1031.84595598094
 20
1276.733063723646
 30
0.0
 11
1031.84595598094
 21
1295.672272708021
 31
0.0
  0
LINE
  5
1413
330
1F
100
AcDbEntity
  8
HEWI
  6
IMPORT
 62
     7
100
AcDbLine
 10
1029.34595598094
 20
1337.01905157765
 30
0.0
 11
1029.442372454329
 21
1343.213852908216
 31
0.0
  0
LINE
  5
1414
330
1F
100
AcDbEntity
  8
HEWI
  6
IMPORT
 62
     7
100
AcDbLine
 10
1029.34595598094
 20
1298.319520022474
 30
0.0
 11
1029.34595598094
 21
1334.474267031752
 31
0.0
  0
LINE
  5
1415
330
1F
100
AcDbEntity
  8
HEWI
  6
IMPORT
 62
     7
100
AcDbLine
 10
1039.34595598094
 20
1337.01905157765
 30
0.0
 11
1039.34595598094
 21
1342.778138186537
 31
0.0
  0
LINE
  5
1416
330
1F
100
AcDbEntity
  8
HEWI
  6
IMPORT
 62
     7
100
AcDbLine
 10
1039.34595598094
 20
1298.319520022474
 30
0.0
 11
1039.34595598094
 21
1334.474267031752
 31
0.0
  0
LINE
  5
1417
330
1F
100
AcDbEntity
  8
HEWI
  6
IMPORT
 62
     7
100
AcDbLine
 10
1029.83291162364
 20
1336.144837405287
 30
0.0
 11
1029.896435869856
 21
1336.347817446791
 31
0.0
  0
LINE
  5
1418
330
1F
100
AcDbEntity
  8
HEWI
  6
IMPORT
 62
     7
100
AcDbLine
 10
1039.058060778303
 20
1335.31853583058
 30
0.0
 11
1039.11757959239
 21
1335.508736636244
 31
0.0
  0
LINE
  5
1419
330
1F
100
AcDbEntity
  8
HEWI
  6
IMPORT
 62
     7
100
AcDbLine
 10
1076.84595598094
 20
1276.733063723646
 30
0.0
 11
1076.84595598094
 21
1295.672272708021
 31
0.0
  0
LINE
  5
141A
330
1F
100
AcDbEntity
  8
HEWI
  6
IMPORT
 62
     7
100
AcDbLine
 10
1071.84595598094
 20
1276.733063723646
 30
0.0
 11
1071.84595598094
 21
1295.672272708021
 31
0.0
  0
LINE
  5
141B
330
1F
100
AcDbEntity
  8
HEWI
  6
IMPORT
 62
     7
100
AcDbLine
 10
1069.34595598094
 20
1337.01905157765
 30
0.0
 11
1069.442372454329
 21
1343.213852908216
 31
0.0
  0
LINE
  5
141C
330
1F
100
AcDbEntity
  8
HEWI
  6
IMPORT
 62
     7
100
AcDbLine
 10
1069.34595598094
 20
1298.319520022474
 30
0.0
 11
1069.34595598094
 21
1334.474267031752
 31
0.0
  0
LINE
  5
141D
330
1F
100
AcDbEntity
  8
HEWI
  6
IMPORT
 62
     7
100
AcDbLine
 10
1079.34595598094
 20
1337.01905157765
 30
0.0
 11
1079.34595598094
 21
1342.778138186537
 31
0.0
  0
LINE
  5
141E
330
1F
100
AcDbEntity
  8
HEWI
  6
IMPORT
 62
     7
100
AcDbLine
 10
1079.34595598094
 20
1298.319520022474
 30
0.0
 11
1079.34595598094
 21
1334.474267031752
 31
0.0
  0
LINE
  5
141F
330
1F
100
AcDbEntity
  8
HEWI
  6
IMPORT
 62
     7
100
AcDbLine
 10
1069.83291162364
 20
1336.144837405287
 30
0.0
 11
1069.896435869856
 21
1336.347817446791
 31
0.0
  0
LINE
  5
1420
330
1F
100
AcDbEntity
  8
HEWI
  6
IMPORT
 62
     7
100
AcDbLine
 10
1079.058060778304
 20
1335.31853583058
 30
0.0
 11
1079.11757959239
 21
1335.508736636244
 31
0.0
  0
LINE
  5
1421
330
1F
100
AcDbEntity
  8
HEWI
  6
IMPORT
 62
     7
100
AcDbLine
 10
1116.845951212569
 20
1276.733063723646
 30
0.0
 11
1116.845951212569
 21
1295.672272708021
 31
0.0
  0
LINE
  5
1422
330
1F
100
AcDbEntity
  8
HEWI
  6
IMPORT
 62
     7
100
AcDbLine
 10
1111.845951212568
 20
1276.733063723646
 30
0.0
 11
1111.845951212568
 21
1295.672272708021
 31
0.0
  0
LINE
  5
1423
330
1F
100
AcDbEntity
  8
HEWI
  6
IMPORT
 62
     7
100
AcDbLine
 10
1109.345951212568
 20
1337.01905157765
 30
0.0
 11
1109.442372454329
 21
1343.213852908216
 31
0.0
  0
LINE
  5
1424
330
1F
100
AcDbEntity
  8
HEWI
  6
IMPORT
 62
     7
100
AcDbLine
 10
1109.345951212568
 20
1298.319520022474
 30
0.0
 11
1109.345951212568
 21
1334.474267031752
 31
0.0
  0
LINE
  5
1425
330
1F
100
AcDbEntity
  8
HEWI
  6
IMPORT
 62
     7
100
AcDbLine
 10
1119.345951212568
 20
1337.01905157765
 30
0.0
 11
1119.345951212568
 21
1342.778138186537
 31
0.0
  0
LINE
  5
1426
330
1F
100
AcDbEntity
  8
HEWI
  6
IMPORT
 62
     7
100
AcDbLine
 10
1119.345951212568
 20
1298.319520022474
 30
0.0
 11
1119.345951212568
 21
1334.474267031752
 31
0.0
  0
LINE
  5
1427
330
1F
100
AcDbEntity
  8
HEWI
  6
IMPORT
 62
     7
100
AcDbLine
 10
1109.83291162364
 20
1336.144837405287
 30
0.0
 11
1109.896431101485
 21
1336.347817446791
 31
0.0
  0
LINE
  5
1428
330
1F
100
AcDbEntity
  8
HEWI
  6
IMPORT
 62
     7
100
AcDbLine
 10
1119.058060778303
 20
1335.31853583058
 30
0.0
 11
1119.117584360762
 21
1335.508736636244
 31
0.0
  0
LINE
  5
1429
330
1F
100
AcDbEntity
  8
HEWI
  6
IMPORT
 62
     7
100
AcDbLine
 10
1156.845953596754
 20
1276.733063723646
 30
0.0
 11
1156.845953596754
 21
1295.672272708021
 31
0.0
  0
LINE
  5
142A
330
1F
100
AcDbEntity
  8
HEWI
  6
IMPORT
 62
     7
100
AcDbLine
 10
1151.845953596754
 20
1276.733063723646
 30
0.0
 11
1151.845953596754
 21
1295.672272708021
 31
0.0
  0
LINE
  5
142B
330
1F
100
AcDbEntity
  8
HEWI
  6
IMPORT
 62
     7
100
AcDbLine
 10
1149.345953596754
 20
1337.01905157765
 30
0.0
 11
1149.442373646422
 21
1343.213852908216
 31
0.0
  0
LINE
  5
142C
330
1F
100
AcDbEntity
  8
HEWI
  6
IMPORT
 62
     7
100
AcDbLine
 10
1149.345953596754
 20
1298.319520022474
 30
0.0
 11
1149.345953596754
 21
1334.474267031752
 31
0.0
  0
LINE
  5
142D
330
1F
100
AcDbEntity
  8
HEWI
  6
IMPORT
 62
     7
100
AcDbLine
 10
1159.345953000708
 20
1337.01905157765
 30
0.0
 11
1159.345953000708
 21
1342.778138186537
 31
0.0
  0
LINE
  5
142E
330
1F
100
AcDbEntity
  8
HEWI
  6
IMPORT
 62
     7
100
AcDbLine
 10
1159.345953000708
 20
1298.319520022474
 30
0.0
 11
1159.345953000708
 21
1334.474267031752
 31
0.0
  0
LINE
  5
142F
330
1F
100
AcDbEntity
  8
HEWI
  6
IMPORT
 62
     7
100
AcDbLine
 10
1149.832912815733
 20
1336.144837405287
 30
0.0
 11
1149.89643348567
 21
1336.347817446791
 31
0.0
  0
LINE
  5
1430
330
1F
100
AcDbEntity
  8
HEWI
  6
IMPORT
 62
     7
100
AcDbLine
 10
1159.058063162489
 20
1335.31853583058
 30
0.0
 11
1159.117583168669
 21
1335.508736636244
 31
0.0
  0
LINE
  5
1431
330
1F
100
AcDbEntity
  8
HEWI
  6
IMPORT
 62
     7
100
AcDbLine
 10
1189.89643348567
 20
1336.347817446791
 30
0.0
 11
1190.800783766432
 21
1337.208031680189
 31
0.0
  0
LINE
  5
1433
330
1F
100
AcDbEntity
  8
HEWI
  6
IMPORT
 62
     7
100
AcDbLine
 10
869.8964358698562
 20
1336.347817446791
 30
0.0
 11
870.800786150618
 21
1337.208031680189
 31
0.0
  0
LINE
  5
1434
330
1F
100
AcDbEntity
  8
HEWI
  6
IMPORT
 62
     7
100
AcDbLine
 10
909.8964358698562
 20
1336.347817446791
 30
0.0
 11
910.800786150618
 21
1337.208031680189
 31
0.0
  0
LINE
  5
1435
330
1F
100
AcDbEntity
  8
HEWI
  6
IMPORT
 62
     7
100
AcDbLine
 10
949.8964358698563
 20
1336.347817446791
 30
0.0
 11
950.8007861506181
 21
1337.208031680189
 31
0.0
  0
LINE
  5
1436
330
1F
100
AcDbEntity
  8
HEWI
  6
IMPORT
 62
     7
100
AcDbLine
 10
989.8964358698563
 20
1336.347817446791
 30
0.0
 11
990.8007861506179
 21
1337.208031680189
 31
0.0
  0
LINE
  5
1437
330
1F
100
AcDbEntity
  8
HEWI
  6
IMPORT
 62
     7
100
AcDbLine
 10
1029.896435869856
 20
1336.347817446791
 30
0.0
 11
1030.800786150618
 21
1337.208031680189
 31
0.0
  0
LINE
  5
1438
330
1F
100
AcDbEntity
  8
HEWI
  6
IMPORT
 62
     7
100
AcDbLine
 10
1069.896435869856
 20
1336.347817446791
 30
0.0
 11
1070.800786150618
 21
1337.208031680189
 31
0.0
  0
LINE
  5
1439
330
1F
100
AcDbEntity
  8
HEWI
  6
IMPORT
 62
     7
100
AcDbLine
 10
1109.896431101485
 20
1336.347817446791
 30
0.0
 11
1110.800781382246
 21
1337.208031680189
 31
0.0
  0
LINE
  5
143A
330
1F
100
AcDbEntity
  8
HEWI
  6
IMPORT
 62
     7
100
AcDbLine
 10
1149.89643348567
 20
1336.347817446791
 30
0.0
 11
1150.800782574339
 21
1337.208031680189
 31
0.0
  0
LINE
  5
143B
330
1F
100
AcDbEntity
  8
HEWI
  6
IMPORT
 62
     7
100
AcDbLine
 10
1190.800783766432
 20
1337.208031680189
 30
0.0
 11
1191.27382291667
 21
1337.645806338392
 31
0.0
  0
LINE
  5
143D
330
1F
100
AcDbEntity
  8
HEWI
  6
IMPORT
 62
     7
100
AcDbLine
 10
870.800786150618
 20
1337.208031680189
 30
0.0
 11
871.2738276850418
 21
1337.645806338392
 31
0.0
  0
LINE
  5
143E
330
1F
100
AcDbEntity
  8
HEWI
  6
IMPORT
 62
     7
100
AcDbLine
 10
910.800786150618
 20
1337.208031680189
 30
0.0
 11
911.2738276850418
 21
1337.645806338392
 31
0.0
  0
LINE
  5
143F
330
1F
100
AcDbEntity
  8
HEWI
  6
IMPORT
 62
     7
100
AcDbLine
 10
950.8007861506181
 20
1337.208031680189
 30
0.0
 11
951.2738276850418
 21
1337.645806338392
 31
0.0
  0
LINE
  5
1440
330
1F
100
AcDbEntity
  8
HEWI
  6
IMPORT
 62
     7
100
AcDbLine
 10
990.8007861506179
 20
1337.208031680189
 30
0.0
 11
991.2738276850419
 21
1337.645806338392
 31
0.0
  0
LINE
  5
1441
330
1F
100
AcDbEntity
  8
HEWI
  6
IMPORT
 62
     7
100
AcDbLine
 10
1030.800786150618
 20
1337.208031680189
 30
0.0
 11
1031.273827685042
 21
1337.645806338392
 31
0.0
  0
LINE
  5
1442
330
1F
100
AcDbEntity
  8
HEWI
  6
IMPORT
 62
     7
100
AcDbLine
 10
1070.800786150618
 20
1337.208031680189
 30
0.0
 11
1071.273827685041
 21
1337.645806338392
 31
0.0
  0
LINE
  5
1443
330
1F
100
AcDbEntity
  8
HEWI
  6
IMPORT
 62
     7
100
AcDbLine
 10
1110.800781382246
 20
1337.208031680189
 30
0.0
 11
1111.27382291667
 21
1337.645806338392
 31
0.0
  0
LINE
  5
1444
330
1F
100
AcDbEntity
  8
HEWI
  6
IMPORT
 62
     7
100
AcDbLine
 10
1150.800782574339
 20
1337.208031680189
 30
0.0
 11
1151.27382291667
 21
1337.645806338392
 31
0.0
  0
LINE
  5
1445
330
1F
100
AcDbEntity
  8
HEWI
  6
IMPORT
 62
     7
100
AcDbLine
 10
1189.680884016676
 20
1296.806038882338
 30
0.0
 11
1190.634682310744
 21
1295.522965457045
 31
0.0
  0
LINE
  5
1446
330
1F
100
AcDbEntity
  8
HEWI
  6
IMPORT
 62
     7
100
AcDbLine
 10
1198.057222498579
 20
1345.574692751967
 30
0.0
 11
1199.011023176832
 21
1344.291657473646
 31
0.0
  0
LINE
  5
1449
330
1F
100
AcDbEntity
  8
HEWI
  6
IMPORT
 62
     7
100
AcDbLine
 10
869.6808864008621
 20
1296.806038882338
 30
0.0
 11
870.6346751581863
 21
1295.522965457045
 31
0.0
  0
LINE
  5
144A
330
1F
100
AcDbEntity
  8
HEWI
  6
IMPORT
 62
     7
100
AcDbLine
 10
878.0572177302078
 20
1345.574692751967
 30
0.0
 11
879.0110255610183
 21
1344.291657473646
 31
0.0
  0
LINE
  5
144B
330
1F
100
AcDbEntity
  8
HEWI
  6
IMPORT
 62
     7
100
AcDbLine
 10
909.6808864008622
 20
1296.806038882338
 30
0.0
 11
910.6346751581863
 21
1295.522965457045
 31
0.0
  0
LINE
  5
144C
330
1F
100
AcDbEntity
  8
HEWI
  6
IMPORT
 62
     7
100
AcDbLine
 10
918.0572177302078
 20
1345.574692751967
 30
0.0
 11
919.0110255610184
 21
1344.291657473646
 31
0.0
  0
LINE
  5
144D
330
1F
100
AcDbEntity
  8
HEWI
  6
IMPORT
 62
     7
100
AcDbLine
 10
949.6808864008622
 20
1296.806038882338
 30
0.0
 11
950.6346751581864
 21
1295.522965457045
 31
0.0
  0
LINE
  5
144E
330
1F
100
AcDbEntity
  8
HEWI
  6
IMPORT
 62
     7
100
AcDbLine
 10
958.0572177302078
 20
1345.574692751967
 30
0.0
 11
959.0110255610184
 21
1344.291657473646
 31
0.0
  0
LINE
  5
144F
330
1F
100
AcDbEntity
  8
HEWI
  6
IMPORT
 62
     7
100
AcDbLine
 10
989.6808864008621
 20
1296.806038882338
 30
0.0
 11
990.6346751581864
 21
1295.522965457045
 31
0.0
  0
LINE
  5
1450
330
1F
100
AcDbEntity
  8
HEWI
  6
IMPORT
 62
     7
100
AcDbLine
 10
998.0572177302079
 20
1345.574692751967
 30
0.0
 11
999.0110255610185
 21
1344.291657473646
 31
0.0
  0
LINE
  5
1451
330
1F
100
AcDbEntity
  8
HEWI
  6
IMPORT
 62
     7
100
AcDbLine
 10
1029.680886400862
 20
1296.806038882338
 30
0.0
 11
1030.634684694929
 21
1295.522965457045
 31
0.0
  0
LINE
  5
1452
330
1F
100
AcDbEntity
  8
HEWI
  6
IMPORT
 62
     7
100
AcDbLine
 10
1038.057227266951
 20
1345.574692751967
 30
0.0
 11
1039.011025561018
 21
1344.291657473646
 31
0.0
  0
LINE
  5
1453
330
1F
100
AcDbEntity
  8
HEWI
  6
IMPORT
 62
     7
100
AcDbLine
 10
1069.680886400862
 20
1296.806038882338
 30
0.0
 11
1070.634684694929
 21
1295.522965457045
 31
0.0
  0
LINE
  5
1454
330
1F
100
AcDbEntity
  8
HEWI
  6
IMPORT
 62
     7
100
AcDbLine
 10
1078.057227266951
 20
1345.574692751967
 30
0.0
 11
1079.011025561018
 21
1344.291657473646
 31
0.0
  0
LINE
  5
1455
330
1F
100
AcDbEntity
  8
HEWI
  6
IMPORT
 62
     7
100
AcDbLine
 10
1109.68088163249
 20
1296.806038882338
 30
0.0
 11
1110.634684694929
 21
1295.522965457045
 31
0.0
  0
LINE
  5
1456
330
1F
100
AcDbEntity
  8
HEWI
  6
IMPORT
 62
     7
100
AcDbLine
 10
1118.057222498579
 20
1345.574692751967
 30
0.0
 11
1119.011020792647
 21
1344.291657473646
 31
0.0
  0
LINE
  5
1457
330
1F
100
AcDbEntity
  8
HEWI
  6
IMPORT
 62
     7
100
AcDbLine
 10
1149.680882824583
 20
1296.806038882338
 30
0.0
 11
1150.634683502836
 21
1295.522965457045
 31
0.0
  0
LINE
  5
1458
330
1F
100
AcDbEntity
  8
HEWI
  6
IMPORT
 62
     7
100
AcDbLine
 10
1158.057223094626
 20
1345.574692751967
 30
0.0
 11
1159.011023176832
 21
1344.291657473646
 31
0.0
  0
LINE
  5
1459
330
1F
100
AcDbEntity
  8
HEWI
  6
IMPORT
 62
     7
100
AcDbLine
 10
1196.629753245039
 20
1295.542420413099
 30
0.0
 11
1196.845953596754
 21
1295.672272708021
 31
0.0
  0
LINE
  5
145A
330
1F
100
AcDbEntity
  8
HEWI
  6
IMPORT
 62
     7
100
AcDbLine
 10
1196.845953596754
 20
1294.79550268849
 30
0.0
 11
1198.057222498579
 21
1295.522965457045
 31
0.0
  0
LINE
  5
145B
330
1F
100
AcDbEntity
  8
HEWI
  6
IMPORT
 62
     7
100
AcDbLine
 10
1190.634682310744
 20
1345.574692751967
 30
0.0
 11
1192.06214202754
 21
1346.432045962416
 31
0.0
  0
LINE
  5
145F
330
1F
100
AcDbEntity
  8
HEWI
  6
IMPORT
 62
     7
100
AcDbLine
 10
876.6297580134109
 20
1295.542420413099
 30
0.0
 11
876.8459559809402
 21
1295.672272708021
 31
0.0
  0
LINE
  5
1460
330
1F
100
AcDbEntity
  8
HEWI
  6
IMPORT
 62
     7
100
AcDbLine
 10
876.8459559809402
 20
1294.79550268849
 30
0.0
 11
878.0572177302078
 21
1295.522965457045
 31
0.0
  0
LINE
  5
1461
330
1F
100
AcDbEntity
  8
HEWI
  6
IMPORT
 62
     7
100
AcDbLine
 10
870.6346751581863
 20
1345.574692751967
 30
0.0
 11
872.0621348749832
 21
1346.432045962416
 31
0.0
  0
LINE
  5
1462
330
1F
100
AcDbEntity
  8
HEWI
  6
IMPORT
 62
     7
100
AcDbLine
 10
916.6297580134109
 20
1295.542420413099
 30
0.0
 11
916.8459559809402
 21
1295.672272708021
 31
0.0
  0
LINE
  5
1463
330
1F
100
AcDbEntity
  8
HEWI
  6
IMPORT
 62
     7
100
AcDbLine
 10
916.8459559809402
 20
1294.79550268849
 30
0.0
 11
918.0572177302078
 21
1295.522965457045
 31
0.0
  0
LINE
  5
1464
330
1F
100
AcDbEntity
  8
HEWI
  6
IMPORT
 62
     7
100
AcDbLine
 10
910.6346751581863
 20
1345.574692751967
 30
0.0
 11
912.0621348749832
 21
1346.432045962416
 31
0.0
  0
LINE
  5
1465
330
1F
100
AcDbEntity
  8
HEWI
  6
IMPORT
 62
     7
100
AcDbLine
 10
956.629758013411
 20
1295.542420413099
 30
0.0
 11
956.8459559809403
 21
1295.672272708021
 31
0.0
  0
LINE
  5
1466
330
1F
100
AcDbEntity
  8
HEWI
  6
IMPORT
 62
     7
100
AcDbLine
 10
956.8459559809403
 20
1294.79550268849
 30
0.0
 11
958.0572177302078
 21
1295.522965457045
 31
0.0
  0
LINE
  5
1467
330
1F
100
AcDbEntity
  8
HEWI
  6
IMPORT
 62
     7
100
AcDbLine
 10
950.6346751581864
 20
1345.574692751967
 30
0.0
 11
952.0621348749832
 21
1346.432045962416
 31
0.0
  0
LINE
  5
1468
330
1F
100
AcDbEntity
  8
HEWI
  6
IMPORT
 62
     7
100
AcDbLine
 10
996.629758013411
 20
1295.542420413099
 30
0.0
 11
996.8459559809403
 21
1295.672272708021
 31
0.0
  0
LINE
  5
1469
330
1F
100
AcDbEntity
  8
HEWI
  6
IMPORT
 62
     7
100
AcDbLine
 10
996.8459559809403
 20
1294.79550268849
 30
0.0
 11
998.0572177302079
 21
1295.522965457045
 31
0.0
  0
LINE
  5
146A
330
1F
100
AcDbEntity
  8
HEWI
  6
IMPORT
 62
     7
100
AcDbLine
 10
990.6346751581864
 20
1345.574692751967
 30
0.0
 11
992.0621348749833
 21
1346.432045962416
 31
0.0
  0
LINE
  5
146B
330
1F
100
AcDbEntity
  8
HEWI
  6
IMPORT
 62
     7
100
AcDbLine
 10
1036.629748476668
 20
1295.542420413099
 30
0.0
 11
1036.84595598094
 21
1295.672272708021
 31
0.0
  0
LINE
  5
146C
330
1F
100
AcDbEntity
  8
HEWI
  6
IMPORT
 62
     7
100
AcDbLine
 10
1036.84595598094
 20
1294.79550268849
 30
0.0
 11
1038.057227266951
 21
1295.522965457045
 31
0.0
  0
LINE
  5
146D
330
1F
100
AcDbEntity
  8
HEWI
  6
IMPORT
 62
     7
100
AcDbLine
 10
1030.634684694929
 20
1345.574692751967
 30
0.0
 11
1032.062144411726
 21
1346.432045962416
 31
0.0
  0
LINE
  5
146E
330
1F
100
AcDbEntity
  8
HEWI
  6
IMPORT
 62
     7
100
AcDbLine
 10
1076.629748476668
 20
1295.542420413099
 30
0.0
 11
1076.84595598094
 21
1295.672272708021
 31
0.0
  0
LINE
  5
146F
330
1F
100
AcDbEntity
  8
HEWI
  6
IMPORT
 62
     7
100
AcDbLine
 10
1076.84595598094
 20
1294.79550268849
 30
0.0
 11
1078.057227266951
 21
1295.522965457045
 31
0.0
  0
LINE
  5
1470
330
1F
100
AcDbEntity
  8
HEWI
  6
IMPORT
 62
     7
100
AcDbLine
 10
1070.634684694929
 20
1345.574692751967
 30
0.0
 11
1072.062144411726
 21
1346.432045962416
 31
0.0
  0
LINE
  5
1471
330
1F
100
AcDbEntity
  8
HEWI
  6
IMPORT
 62
     7
100
AcDbLine
 10
1116.629753245039
 20
1295.542420413099
 30
0.0
 11
1116.845951212569
 21
1295.672272708021
 31
0.0
  0
LINE
  5
1472
330
1F
100
AcDbEntity
  8
HEWI
  6
IMPORT
 62
     7
100
AcDbLine
 10
1116.845951212569
 20
1294.79550268849
 30
0.0
 11
1118.057222498579
 21
1295.522965457045
 31
0.0
  0
LINE
  5
1473
330
1F
100
AcDbEntity
  8
HEWI
  6
IMPORT
 62
     7
100
AcDbLine
 10
1110.634684694929
 20
1345.574692751967
 30
0.0
 11
1112.062144411726
 21
1346.432045962416
 31
0.0
  0
LINE
  5
1474
330
1F
100
AcDbEntity
  8
HEWI
  6
IMPORT
 62
     7
100
AcDbLine
 10
1156.629753245039
 20
1295.542420413099
 30
0.0
 11
1156.845953596754
 21
1295.672272708021
 31
0.0
  0
LINE
  5
1475
330
1F
100
AcDbEntity
  8
HEWI
  6
IMPORT
 62
     7
100
AcDbLine
 10
1156.845953596754
 20
1294.79550268849
 30
0.0
 11
1158.057223094626
 21
1295.522965457045
 31
0.0
  0
LINE
  5
1476
330
1F
100
AcDbEntity
  8
HEWI
  6
IMPORT
 62
     7
100
AcDbLine
 10
1150.634683502836
 20
1345.574692751967
 30
0.0
 11
1152.062143219633
 21
1346.432045962416
 31
0.0
  0
LINE
  5
1477
330
1F
100
AcDbEntity
  8
HEWI
  6
IMPORT
 62
     7
100
AcDbLine
 10
1191.27382291667
 20
1337.645806338392
 30
0.0
 11
1192.296173704787
 21
1338.079957034193
 31
0.0
  0
LINE
  5
1479
330
1F
100
AcDbEntity
  8
HEWI
  6
IMPORT
 62
     7
100
AcDbLine
 10
871.2738276850418
 20
1337.645806338392
 30
0.0
 11
872.2961665522293
 21
1338.079957034193
 31
0.0
  0
LINE
  5
147A
330
1F
100
AcDbEntity
  8
HEWI
  6
IMPORT
 62
     7
100
AcDbLine
 10
911.2738276850418
 20
1337.645806338392
 30
0.0
 11
912.2961665522293
 21
1338.079957034193
 31
0.0
  0
LINE
  5
147B
330
1F
100
AcDbEntity
  8
HEWI
  6
IMPORT
 62
     7
100
AcDbLine
 10
951.2738276850418
 20
1337.645806338392
 30
0.0
 11
952.2961665522293
 21
1338.079957034193
 31
0.0
  0
LINE
  5
147C
330
1F
100
AcDbEntity
  8
HEWI
  6
IMPORT
 62
     7
100
AcDbLine
 10
991.2738276850419
 20
1337.645806338392
 30
0.0
 11
992.2961665522294
 21
1338.079957034193
 31
0.0
  0
LINE
  5
147D
330
1F
100
AcDbEntity
  8
HEWI
  6
IMPORT
 62
     7
100
AcDbLine
 10
1031.273827685042
 20
1337.645806338392
 30
0.0
 11
1032.296176088972
 21
1338.079957034193
 31
0.0
  0
LINE
  5
147E
330
1F
100
AcDbEntity
  8
HEWI
  6
IMPORT
 62
     7
100
AcDbLine
 10
1071.273827685041
 20
1337.645806338392
 30
0.0
 11
1072.296176088972
 21
1338.079957034193
 31
0.0
  0
LINE
  5
147F
330
1F
100
AcDbEntity
  8
HEWI
  6
IMPORT
 62
     7
100
AcDbLine
 10
1111.27382291667
 20
1337.645806338392
 30
0.0
 11
1112.296171320601
 21
1338.079957034193
 31
0.0
  0
LINE
  5
1480
330
1F
100
AcDbEntity
  8
HEWI
  6
IMPORT
 62
     7
100
AcDbLine
 10
1151.27382291667
 20
1337.645806338392
 30
0.0
 11
1152.296173704786
 21
1338.079957034193
 31
0.0
  0
LINE
  5
1481
330
1F
100
AcDbEntity
  8
HEWI
  6
IMPORT
 62
     7
100
AcDbLine
 10
1198.795464171095
 20
1336.347817446791
 30
0.0
 11
1199.058063162489
 21
1335.508736636244
 31
0.0
  0
LINE
  5
1483
330
1F
100
AcDbEntity
  8
HEWI
  6
IMPORT
 62
     7
100
AcDbLine
 10
878.7954570185378
 20
1336.347817446791
 30
0.0
 11
879.0580607783036
 21
1335.508736636244
 31
0.0
  0
LINE
  5
1484
330
1F
100
AcDbEntity
  8
HEWI
  6
IMPORT
 62
     7
100
AcDbLine
 10
918.7954570185379
 20
1336.347817446791
 30
0.0
 11
919.0580607783035
 21
1335.508736636244
 31
0.0
  0
LINE
  5
1485
330
1F
100
AcDbEntity
  8
HEWI
  6
IMPORT
 62
     7
100
AcDbLine
 10
958.7954570185379
 20
1336.347817446791
 30
0.0
 11
959.0580607783035
 21
1335.508736636244
 31
0.0
  0
LINE
  5
1486
330
1F
100
AcDbEntity
  8
HEWI
  6
IMPORT
 62
     7
100
AcDbLine
 10
998.795457018538
 20
1336.347817446791
 30
0.0
 11
999.0580607783035
 21
1335.508736636244
 31
0.0
  0
LINE
  5
1487
330
1F
100
AcDbEntity
  8
HEWI
  6
IMPORT
 62
     7
100
AcDbLine
 10
1038.795466555281
 20
1336.347817446791
 30
0.0
 11
1039.058060778303
 21
1335.508736636244
 31
0.0
  0
LINE
  5
1488
330
1F
100
AcDbEntity
  8
HEWI
  6
IMPORT
 62
     7
100
AcDbLine
 10
1078.795466555281
 20
1336.347817446791
 30
0.0
 11
1079.058060778304
 21
1335.508736636244
 31
0.0
  0
LINE
  5
1489
330
1F
100
AcDbEntity
  8
HEWI
  6
IMPORT
 62
     7
100
AcDbLine
 10
1118.795461786909
 20
1336.347817446791
 30
0.0
 11
1119.058060778303
 21
1335.508736636244
 31
0.0
  0
LINE
  5
148A
330
1F
100
AcDbEntity
  8
HEWI
  6
IMPORT
 62
     7
100
AcDbLine
 10
1158.795462979002
 20
1336.347817446791
 30
0.0
 11
1159.058063162489
 21
1335.508736636244
 31
0.0
  0
LINE
  5
148B
330
1F
100
AcDbEntity
  8
HEWI
  6
IMPORT
 62
     7
100
AcDbLine
 10
1199.117581976576
 20
1335.31853583058
 30
0.0
 11
1199.345953596754
 21
1334.474267031752
 31
0.0
  0
LINE
  5
148D
330
1F
100
AcDbEntity
  8
HEWI
  6
IMPORT
 62
     7
100
AcDbLine
 10
879.1175891291336
 20
1335.31853583058
 30
0.0
 11
879.3459559809402
 21
1334.474267031752
 31
0.0
  0
LINE
  5
148E
330
1F
100
AcDbEntity
  8
HEWI
  6
IMPORT
 62
     7
100
AcDbLine
 10
919.1175891291337
 20
1335.31853583058
 30
0.0
 11
919.3459559809403
 21
1334.474267031752
 31
0.0
  0
LINE
  5
148F
330
1F
100
AcDbEntity
  8
HEWI
  6
IMPORT
 62
     7
100
AcDbLine
 10
959.1175891291337
 20
1335.31853583058
 30
0.0
 11
959.3459559809403
 21
1334.474267031752
 31
0.0
  0
LINE
  5
1490
330
1F
100
AcDbEntity
  8
HEWI
  6
IMPORT
 62
     7
100
AcDbLine
 10
999.1175891291335
 20
1335.31853583058
 30
0.0
 11
999.3459559809403
 21
1334.474267031752
 31
0.0
  0
LINE
  5
1491
330
1F
100
AcDbEntity
  8
HEWI
  6
IMPORT
 62
     7
100
AcDbLine
 10
1039.11757959239
 20
1335.31853583058
 30
0.0
 11
1039.34595598094
 21
1334.474267031752
 31
0.0
  0
LINE
  5
1492
330
1F
100
AcDbEntity
  8
HEWI
  6
IMPORT
 62
     7
100
AcDbLine
 10
1079.11757959239
 20
1335.31853583058
 30
0.0
 11
1079.34595598094
 21
1334.474267031752
 31
0.0
  0
LINE
  5
1493
330
1F
100
AcDbEntity
  8
HEWI
  6
IMPORT
 62
     7
100
AcDbLine
 10
1119.117584360762
 20
1335.31853583058
 30
0.0
 11
1119.345951212568
 21
1334.474267031752
 31
0.0
  0
LINE
  5
1494
330
1F
100
AcDbEntity
  8
HEWI
  6
IMPORT
 62
     7
100
AcDbLine
 10
1159.117583168669
 20
1335.31853583058
 30
0.0
 11
1159.345953000708
 21
1334.474267031752
 31
0.0
  0
LINE
  5
1495
330
1F
100
AcDbEntity
  8
HEWI
  6
IMPORT
 62
     7
100
AcDbLine
 10
1189.345953596754
 20
1298.319520022474
 30
0.0
 11
1189.680884016676
 21
1296.806038882338
 31
0.0
  0
LINE
  5
1496
330
1F
100
AcDbEntity
  8
HEWI
  6
IMPORT
 62
     7
100
AcDbLine
 10
1199.011023176832
 20
1344.291657473646
 30
0.0
 11
1199.345953596754
 21
1342.778138186537
 31
0.0
  0
LINE
  5
1499
330
1F
100
AcDbEntity
  8
HEWI
  6
IMPORT
 62
     7
100
AcDbLine
 10
869.3459559809403
 20
1298.319520022474
 30
0.0
 11
869.6808864008621
 21
1296.806038882338
 31
0.0
  0
LINE
  5
149A
330
1F
100
AcDbEntity
  8
HEWI
  6
IMPORT
 62
     7
100
AcDbLine
 10
879.0110255610183
 20
1344.291657473646
 30
0.0
 11
879.3459559809402
 21
1342.778138186537
 31
0.0
  0
LINE
  5
149B
330
1F
100
AcDbEntity
  8
HEWI
  6
IMPORT
 62
     7
100
AcDbLine
 10
909.3459559809403
 20
1298.319520022474
 30
0.0
 11
909.6808864008622
 21
1296.806038882338
 31
0.0
  0
LINE
  5
149C
330
1F
100
AcDbEntity
  8
HEWI
  6
IMPORT
 62
     7
100
AcDbLine
 10
919.0110255610184
 20
1344.291657473646
 30
0.0
 11
919.3459559809403
 21
1342.778138186537
 31
0.0
  0
LINE
  5
149D
330
1F
100
AcDbEntity
  8
HEWI
  6
IMPORT
 62
     7
100
AcDbLine
 10
949.3459559809403
 20
1298.319520022474
 30
0.0
 11
949.6808864008622
 21
1296.806038882338
 31
0.0
  0
LINE
  5
149E
330
1F
100
AcDbEntity
  8
HEWI
  6
IMPORT
 62
     7
100
AcDbLine
 10
959.0110255610184
 20
1344.291657473646
 30
0.0
 11
959.3459559809403
 21
1342.778138186537
 31
0.0
  0
LINE
  5
149F
330
1F
100
AcDbEntity
  8
HEWI
  6
IMPORT
 62
     7
100
AcDbLine
 10
989.3459559809402
 20
1298.319520022474
 30
0.0
 11
989.6808864008621
 21
1296.806038882338
 31
0.0
  0
LINE
  5
14A0
330
1F
100
AcDbEntity
  8
HEWI
  6
IMPORT
 62
     7
100
AcDbLine
 10
999.0110255610185
 20
1344.291657473646
 30
0.0
 11
999.3459559809403
 21
1342.778138186537
 31
0.0
  0
LINE
  5
14A1
330
1F
100
AcDbEntity
  8
HEWI
  6
IMPORT
 62
     7
100
AcDbLine
 10
1029.34595598094
 20
1298.319520022474
 30
0.0
 11
1029.680886400862
 21
1296.806038882338
 31
0.0
  0
LINE
  5
14A2
330
1F
100
AcDbEntity
  8
HEWI
  6
IMPORT
 62
     7
100
AcDbLine
 10
1039.011025561018
 20
1344.291657473646
 30
0.0
 11
1039.34595598094
 21
1342.778138186537
 31
0.0
  0
LINE
  5
14A3
330
1F
100
AcDbEntity
  8
HEWI
  6
IMPORT
 62
     7
100
AcDbLine
 10
1069.34595598094
 20
1298.319520022474
 30
0.0
 11
1069.680886400862
 21
1296.806038882338
 31
0.0
  0
LINE
  5
14A4
330
1F
100
AcDbEntity
  8
HEWI
  6
IMPORT
 62
     7
100
AcDbLine
 10
1079.011025561018
 20
1344.291657473646
 30
0.0
 11
1079.34595598094
 21
1342.778138186537
 31
0.0
  0
LINE
  5
14A5
330
1F
100
AcDbEntity
  8
HEWI
  6
IMPORT
 62
     7
100
AcDbLine
 10
1109.345951212568
 20
1298.319520022474
 30
0.0
 11
1109.68088163249
 21
1296.806038882338
 31
0.0
  0
LINE
  5
14A6
330
1F
100
AcDbEntity
  8
HEWI
  6
IMPORT
 62
     7
100
AcDbLine
 10
1119.011020792647
 20
1344.291657473646
 30
0.0
 11
1119.345951212568
 21
1342.778138186537
 31
0.0
  0
LINE
  5
14A7
330
1F
100
AcDbEntity
  8
HEWI
  6
IMPORT
 62
     7
100
AcDbLine
 10
1149.345953596754
 20
1298.319520022474
 30
0.0
 11
1149.680882824583
 21
1296.806038882338
 31
0.0
  0
LINE
  5
14A8
330
1F
100
AcDbEntity
  8
HEWI
  6
IMPORT
 62
     7
100
AcDbLine
 10
1159.011023176832
 20
1344.291657473646
 30
0.0
 11
1159.345953000708
 21
1342.778138186537
 31
0.0
  0
LINE
  5
14A9
330
1F
100
AcDbEntity
  8
HEWI
  6
IMPORT
 62
     7
100
AcDbLine
 10
1194.94595302455
 20
1295.241364504896
 30
0.0
 11
1196.629753245039
 21
1295.542420413099
 31
0.0
  0
LINE
  5
14AA
330
1F
100
AcDbEntity
  8
HEWI
  6
IMPORT
 62
     7
100
AcDbLine
 10
1192.502143515272
 20
1346.510705020033
 30
0.0
 11
1193.745954168959
 21
1346.733063723646
 31
0.0
  0
LINE
  5
14AD
330
1F
100
AcDbEntity
  8
HEWI
  6
IMPORT
 62
     7
100
AcDbLine
 10
874.945950640364
 20
1295.241364504896
 30
0.0
 11
876.6297580134109
 21
1295.542420413099
 31
0.0
  0
LINE
  5
14AE
330
1F
100
AcDbEntity
  8
HEWI
  6
IMPORT
 62
     7
100
AcDbLine
 10
872.5021411310867
 20
1346.510705020033
 30
0.0
 11
873.7459613215165
 21
1346.733063723646
 31
0.0
  0
LINE
  5
14AF
330
1F
100
AcDbEntity
  8
HEWI
  6
IMPORT
 62
     7
100
AcDbLine
 10
914.9459506403641
 20
1295.241364504896
 30
0.0
 11
916.6297580134109
 21
1295.542420413099
 31
0.0
  0
LINE
  5
14B0
330
1F
100
AcDbEntity
  8
HEWI
  6
IMPORT
 62
     7
100
AcDbLine
 10
912.5021411310868
 20
1346.510705020033
 30
0.0
 11
913.7459613215165
 21
1346.733063723646
 31
0.0
  0
LINE
  5
14B1
330
1F
100
AcDbEntity
  8
HEWI
  6
IMPORT
 62
     7
100
AcDbLine
 10
954.9459506403641
 20
1295.241364504896
 30
0.0
 11
956.629758013411
 21
1295.542420413099
 31
0.0
  0
LINE
  5
14B2
330
1F
100
AcDbEntity
  8
HEWI
  6
IMPORT
 62
     7
100
AcDbLine
 10
952.5021411310868
 20
1346.510705020033
 30
0.0
 11
953.7459613215164
 21
1346.733063723646
 31
0.0
  0
LINE
  5
14B3
330
1F
100
AcDbEntity
  8
HEWI
  6
IMPORT
 62
     7
100
AcDbLine
 10
994.9459506403641
 20
1295.241364504896
 30
0.0
 11
996.629758013411
 21
1295.542420413099
 31
0.0
  0
LINE
  5
14B4
330
1F
100
AcDbEntity
  8
HEWI
  6
IMPORT
 62
     7
100
AcDbLine
 10
992.5021411310867
 20
1346.510705020033
 30
0.0
 11
993.7459613215164
 21
1346.733063723646
 31
0.0
  0
LINE
  5
14B5
330
1F
100
AcDbEntity
  8
HEWI
  6
IMPORT
 62
     7
100
AcDbLine
 10
1034.945950640364
 20
1295.241364504896
 30
0.0
 11
1036.629748476668
 21
1295.542420413099
 31
0.0
  0
LINE
  5
14B6
330
1F
100
AcDbEntity
  8
HEWI
  6
IMPORT
 62
     7
100
AcDbLine
 10
1032.502141131087
 20
1346.510705020033
 30
0.0
 11
1033.745951784773
 21
1346.733063723646
 31
0.0
  0
LINE
  5
14B7
330
1F
100
AcDbEntity
  8
HEWI
  6
IMPORT
 62
     7
100
AcDbLine
 10
1074.945950640364
 20
1295.241364504896
 30
0.0
 11
1076.629748476668
 21
1295.542420413099
 31
0.0
  0
LINE
  5
14B8
330
1F
100
AcDbEntity
  8
HEWI
  6
IMPORT
 62
     7
100
AcDbLine
 10
1072.502141131087
 20
1346.510705020033
 30
0.0
 11
1073.745951784773
 21
1346.733063723646
 31
0.0
  0
LINE
  5
14B9
330
1F
100
AcDbEntity
  8
HEWI
  6
IMPORT
 62
     7
100
AcDbLine
 10
1114.945955408735
 20
1295.241364504896
 30
0.0
 11
1116.629753245039
 21
1295.542420413099
 31
0.0
  0
LINE
  5
14BA
330
1F
100
AcDbEntity
  8
HEWI
  6
IMPORT
 62
     7
100
AcDbLine
 10
1112.502141131087
 20
1346.510705020033
 30
0.0
 11
1113.745951784773
 21
1346.733063723646
 31
0.0
  0
LINE
  5
14BB
330
1F
100
AcDbEntity
  8
HEWI
  6
IMPORT
 62
     7
100
AcDbLine
 10
1154.94595302455
 20
1295.241364504896
 30
0.0
 11
1156.629753245039
 21
1295.542420413099
 31
0.0
  0
LINE
  5
14BC
330
1F
100
AcDbEntity
  8
HEWI
  6
IMPORT
 62
     7
100
AcDbLine
 10
1152.502143515272
 20
1346.510705020033
 30
0.0
 11
1153.745952976866
 21
1346.733063723646
 31
0.0
  0
LINE
  5
14BD
330
1F
100
AcDbEntity
  8
HEWI
  6
IMPORT
 62
     7
100
AcDbLine
 10
1192.410433424635
 20
1338.128479983412
 30
0.0
 11
1193.703792227431
 21
1338.292016055189
 31
0.0
  0
LINE
  5
14BF
330
1F
100
AcDbEntity
  8
HEWI
  6
IMPORT
 62
     7
100
AcDbLine
 10
872.4104358088212
 20
1338.128479983412
 30
0.0
 11
873.7037898432449
 21
1338.292016055189
 31
0.0
  0
LINE
  5
14C0
330
1F
100
AcDbEntity
  8
HEWI
  6
IMPORT
 62
     7
100
AcDbLine
 10
912.4104358088212
 20
1338.128479983412
 30
0.0
 11
913.7037898432449
 21
1338.292016055189
 31
0.0
  0
LINE
  5
14C1
330
1F
100
AcDbEntity
  8
HEWI
  6
IMPORT
 62
     7
100
AcDbLine
 10
952.410435808821
 20
1338.128479983412
 30
0.0
 11
953.7037898432449
 21
1338.292016055189
 31
0.0
  0
LINE
  5
14C2
330
1F
100
AcDbEntity
  8
HEWI
  6
IMPORT
 62
     7
100
AcDbLine
 10
992.4104358088211
 20
1338.128479983412
 30
0.0
 11
993.703789843245
 21
1338.292016055189
 31
0.0
  0
LINE
  5
14C3
330
1F
100
AcDbEntity
  8
HEWI
  6
IMPORT
 62
     7
100
AcDbLine
 10
1032.410435808821
 20
1338.128479983412
 30
0.0
 11
1033.703789843245
 21
1338.292016055189
 31
0.0
  0
LINE
  5
14C4
330
1F
100
AcDbEntity
  8
HEWI
  6
IMPORT
 62
     7
100
AcDbLine
 10
1072.410435808821
 20
1338.128479983412
 30
0.0
 11
1073.703789843245
 21
1338.292016055189
 31
0.0
  0
LINE
  5
14C5
330
1F
100
AcDbEntity
  8
HEWI
  6
IMPORT
 62
     7
100
AcDbLine
 10
1112.410431040449
 20
1338.128479983412
 30
0.0
 11
1113.703794611616
 21
1338.292016055189
 31
0.0
  0
LINE
  5
14C6
330
1F
100
AcDbEntity
  8
HEWI
  6
IMPORT
 62
     7
100
AcDbLine
 10
1152.410433424635
 20
1338.128479983412
 30
0.0
 11
1153.703793419524
 21
1338.292016055189
 31
0.0
  0
LINE
  5
14C7
330
1F
100
AcDbEntity
  8
HEWI
  6
IMPORT
 62
     7
100
AcDbLine
 10
1194.857742918654
 20
1338.308495547377
 30
0.0
 11
1196.152594221754
 21
1338.144806887709
 31
0.0
  0
LINE
  5
14C9
330
1F
100
AcDbEntity
  8
HEWI
  6
IMPORT
 62
     7
100
AcDbLine
 10
874.8577357660964
 20
1338.308495547377
 30
0.0
 11
876.1525966059403
 21
1338.144806887709
 31
0.0
  0
LINE
  5
14CA
330
1F
100
AcDbEntity
  8
HEWI
  6
IMPORT
 62
     7
100
AcDbLine
 10
914.8577357660965
 20
1338.308495547377
 30
0.0
 11
916.1525966059402
 21
1338.144806887709
 31
0.0
  0
LINE
  5
14CB
330
1F
100
AcDbEntity
  8
HEWI
  6
IMPORT
 62
     7
100
AcDbLine
 10
954.8577357660965
 20
1338.308495547377
 30
0.0
 11
956.1525966059402
 21
1338.144806887709
 31
0.0
  0
LINE
  5
14CC
330
1F
100
AcDbEntity
  8
HEWI
  6
IMPORT
 62
     7
100
AcDbLine
 10
994.8577357660965
 20
1338.308495547377
 30
0.0
 11
996.1525966059403
 21
1338.144806887709
 31
0.0
  0
LINE
  5
14CD
330
1F
100
AcDbEntity
  8
HEWI
  6
IMPORT
 62
     7
100
AcDbLine
 10
1034.85774530284
 20
1338.308495547377
 30
0.0
 11
1036.15259660594
 21
1338.144806887709
 31
0.0
  0
LINE
  5
14CE
330
1F
100
AcDbEntity
  8
HEWI
  6
IMPORT
 62
     7
100
AcDbLine
 10
1074.85774530284
 20
1338.308495547377
 30
0.0
 11
1076.15259660594
 21
1338.144806887709
 31
0.0
  0
LINE
  5
14CF
330
1F
100
AcDbEntity
  8
HEWI
  6
IMPORT
 62
     7
100
AcDbLine
 10
1114.857745302839
 20
1338.308495547377
 30
0.0
 11
1116.152591837568
 21
1338.144806887709
 31
0.0
  0
LINE
  5
14D0
330
1F
100
AcDbEntity
  8
HEWI
  6
IMPORT
 62
     7
100
AcDbLine
 10
1154.857742918654
 20
1338.308495547377
 30
0.0
 11
1156.152593029661
 21
1338.144806887709
 31
0.0
  0
LINE
  5
14D1
330
1F
100
AcDbEntity
  8
HEWI
  6
IMPORT
 62
     7
100
AcDbLine
 10
1192.06214202754
 20
1295.542420413099
 30
0.0
 11
1193.745954168959
 21
1295.241364504896
 31
0.0
  0
LINE
  5
14D2
330
1F
100
AcDbEntity
  8
HEWI
  6
IMPORT
 62
     7
100
AcDbLine
 10
1195.39101375453
 20
1346.653527285658
 30
0.0
 11
1196.629753245039
 21
1346.432045962416
 31
0.0
  0
LINE
  5
14D5
330
1F
100
AcDbEntity
  8
HEWI
  6
IMPORT
 62
     7
100
AcDbLine
 10
872.0621348749832
 20
1295.542420413099
 30
0.0
 11
873.7459613215165
 21
1295.241364504896
 31
0.0
  0
LINE
  5
14D6
330
1F
100
AcDbEntity
  8
HEWI
  6
IMPORT
 62
     7
100
AcDbLine
 10
875.3910113703446
 20
1346.653527285658
 30
0.0
 11
876.6297580134109
 21
1346.432045962416
 31
0.0
  0
LINE
  5
14D7
330
1F
100
AcDbEntity
  8
HEWI
  6
IMPORT
 62
     7
100
AcDbLine
 10
912.0621348749832
 20
1295.542420413099
 30
0.0
 11
913.7459613215165
 21
1295.241364504896
 31
0.0
  0
LINE
  5
14D8
330
1F
100
AcDbEntity
  8
HEWI
  6
IMPORT
 62
     7
100
AcDbLine
 10
915.3910113703446
 20
1346.653527285658
 30
0.0
 11
916.6297580134109
 21
1346.432045962416
 31
0.0
  0
LINE
  5
14D9
330
1F
100
AcDbEntity
  8
HEWI
  6
IMPORT
 62
     7
100
AcDbLine
 10
952.0621348749832
 20
1295.542420413099
 30
0.0
 11
953.7459613215164
 21
1295.241364504896
 31
0.0
  0
LINE
  5
14DA
330
1F
100
AcDbEntity
  8
HEWI
  6
IMPORT
 62
     7
100
AcDbLine
 10
955.3910113703446
 20
1346.653527285658
 30
0.0
 11
956.629758013411
 21
1346.432045962416
 31
0.0
  0
LINE
  5
14DB
330
1F
100
AcDbEntity
  8
HEWI
  6
IMPORT
 62
     7
100
AcDbLine
 10
992.0621348749833
 20
1295.542420413099
 30
0.0
 11
993.7459613215164
 21
1295.241364504896
 31
0.0
  0
LINE
  5
14DC
330
1F
100
AcDbEntity
  8
HEWI
  6
IMPORT
 62
     7
100
AcDbLine
 10
995.3910113703445
 20
1346.653527285658
 30
0.0
 11
996.629758013411
 21
1346.432045962416
 31
0.0
  0
LINE
  5
14DD
330
1F
100
AcDbEntity
  8
HEWI
  6
IMPORT
 62
     7
100
AcDbLine
 10
1032.062144411726
 20
1295.542420413099
 30
0.0
 11
1033.745951784773
 21
1295.241364504896
 31
0.0
  0
LINE
  5
14DE
330
1F
100
AcDbEntity
  8
HEWI
  6
IMPORT
 62
     7
100
AcDbLine
 10
1035.391011370344
 20
1346.653527285658
 30
0.0
 11
1036.629748476668
 21
1346.432045962416
 31
0.0
  0
LINE
  5
14DF
330
1F
100
AcDbEntity
  8
HEWI
  6
IMPORT
 62
     7
100
AcDbLine
 10
1072.062144411726
 20
1295.542420413099
 30
0.0
 11
1073.745951784773
 21
1295.241364504896
 31
0.0
  0
LINE
  5
14E0
330
1F
100
AcDbEntity
  8
HEWI
  6
IMPORT
 62
     7
100
AcDbLine
 10
1075.391011370344
 20
1346.653527285658
 30
0.0
 11
1076.629748476668
 21
1346.432045962416
 31
0.0
  0
LINE
  5
14E1
330
1F
100
AcDbEntity
  8
HEWI
  6
IMPORT
 62
     7
100
AcDbLine
 10
1112.062144411726
 20
1295.542420413099
 30
0.0
 11
1113.745951784773
 21
1295.241364504896
 31
0.0
  0
LINE
  5
14E2
330
1F
100
AcDbEntity
  8
HEWI
  6
IMPORT
 62
     7
100
AcDbLine
 10
1115.391011370344
 20
1346.653527285658
 30
0.0
 11
1116.629753245039
 21
1346.432045962416
 31
0.0
  0
LINE
  5
14E3
330
1F
100
AcDbEntity
  8
HEWI
  6
IMPORT
 62
     7
100
AcDbLine
 10
1152.062143219633
 20
1295.542420413099
 30
0.0
 11
1153.745952976866
 21
1295.241364504896
 31
0.0
  0
LINE
  5
14E4
330
1F
100
AcDbEntity
  8
HEWI
  6
IMPORT
 62
     7
100
AcDbLine
 10
1155.391012562437
 20
1346.653527285658
 30
0.0
 11
1156.629753245039
 21
1346.432045962416
 31
0.0
  0
LINE
  5
14E5
330
1F
100
AcDbEntity
  8
HEWI
  6
IMPORT
 62
     7
100
AcDbLine
 10
1199.011023176832
 20
1296.806038882338
 30
0.0
 11
1199.345953596754
 21
1298.319520022474
 31
0.0
  0
LINE
  5
14E6
330
1F
100
AcDbEntity
  8
HEWI
  6
IMPORT
 62
     7
100
AcDbLine
 10
1189.442372454329
 20
1343.213852908216
 30
0.0
 11
1189.680884016676
 21
1344.291657473646
 31
0.0
  0
LINE
  5
14E9
330
1F
100
AcDbEntity
  8
HEWI
  6
IMPORT
 62
     7
100
AcDbLine
 10
879.0110255610183
 20
1296.806038882338
 30
0.0
 11
879.3459559809402
 21
1298.319520022474
 31
0.0
  0
LINE
  5
14EA
330
1F
100
AcDbEntity
  8
HEWI
  6
IMPORT
 62
     7
100
AcDbLine
 10
869.4423724543289
 20
1343.213852908216
 30
0.0
 11
869.6808864008621
 21
1344.291657473646
 31
0.0
  0
LINE
  5
14EB
330
1F
100
AcDbEntity
  8
HEWI
  6
IMPORT
 62
     7
100
AcDbLine
 10
919.0110255610184
 20
1296.806038882338
 30
0.0
 11
919.3459559809403
 21
1298.319520022474
 31
0.0
  0
LINE
  5
14EC
330
1F
100
AcDbEntity
  8
HEWI
  6
IMPORT
 62
     7
100
AcDbLine
 10
909.442372454329
 20
1343.213852908216
 30
0.0
 11
909.6808864008622
 21
1344.291657473646
 31
0.0
  0
LINE
  5
14ED
330
1F
100
AcDbEntity
  8
HEWI
  6
IMPORT
 62
     7
100
AcDbLine
 10
959.0110255610184
 20
1296.806038882338
 30
0.0
 11
959.3459559809403
 21
1298.319520022474
 31
0.0
  0
LINE
  5
14EE
330
1F
100
AcDbEntity
  8
HEWI
  6
IMPORT
 62
     7
100
AcDbLine
 10
949.442372454329
 20
1343.213852908216
 30
0.0
 11
949.6808864008622
 21
1344.291657473646
 31
0.0
  0
LINE
  5
14EF
330
1F
100
AcDbEntity
  8
HEWI
  6
IMPORT
 62
     7
100
AcDbLine
 10
999.0110255610185
 20
1296.806038882338
 30
0.0
 11
999.3459559809403
 21
1298.319520022474
 31
0.0
  0
LINE
  5
14F0
330
1F
100
AcDbEntity
  8
HEWI
  6
IMPORT
 62
     7
100
AcDbLine
 10
989.4423724543289
 20
1343.213852908216
 30
0.0
 11
989.6808864008621
 21
1344.291657473646
 31
0.0
  0
LINE
  5
14F1
330
1F
100
AcDbEntity
  8
HEWI
  6
IMPORT
 62
     7
100
AcDbLine
 10
1039.011025561018
 20
1296.806038882338
 30
0.0
 11
1039.34595598094
 21
1298.319520022474
 31
0.0
  0
LINE
  5
14F2
330
1F
100
AcDbEntity
  8
HEWI
  6
IMPORT
 62
     7
100
AcDbLine
 10
1029.442372454329
 20
1343.213852908216
 30
0.0
 11
1029.680886400862
 21
1344.291657473646
 31
0.0
  0
LINE
  5
14F3
330
1F
100
AcDbEntity
  8
HEWI
  6
IMPORT
 62
     7
100
AcDbLine
 10
1079.011025561018
 20
1296.806038882338
 30
0.0
 11
1079.34595598094
 21
1298.319520022474
 31
0.0
  0
LINE
  5
14F4
330
1F
100
AcDbEntity
  8
HEWI
  6
IMPORT
 62
     7
100
AcDbLine
 10
1069.442372454329
 20
1343.213852908216
 30
0.0
 11
1069.680886400862
 21
1344.291657473646
 31
0.0
  0
LINE
  5
14F5
330
1F
100
AcDbEntity
  8
HEWI
  6
IMPORT
 62
     7
100
AcDbLine
 10
1119.011020792647
 20
1296.806038882338
 30
0.0
 11
1119.345951212568
 21
1298.319520022474
 31
0.0
  0
LINE
  5
14F6
330
1F
100
AcDbEntity
  8
HEWI
  6
IMPORT
 62
     7
100
AcDbLine
 10
1109.442372454329
 20
1343.213852908216
 30
0.0
 11
1109.68088163249
 21
1344.291657473646
 31
0.0
  0
LINE
  5
14F7
330
1F
100
AcDbEntity
  8
HEWI
  6
IMPORT
 62
     7
100
AcDbLine
 10
1159.011023176832
 20
1296.806038882338
 30
0.0
 11
1159.345953000708
 21
1298.319520022474
 31
0.0
  0
LINE
  5
14F8
330
1F
100
AcDbEntity
  8
HEWI
  6
IMPORT
 62
     7
100
AcDbLine
 10
1149.442373646422
 20
1343.213852908216
 30
0.0
 11
1149.680882824583
 21
1344.291657473646
 31
0.0
  0
LINE
  5
14F9
330
1F
100
AcDbEntity
  8
HEWI
  6
IMPORT
 62
     7
100
AcDbLine
 10
1189.345953596754
 20
1334.474267031752
 30
0.0
 11
1189.574313296003
 21
1335.31853583058
 31
0.0
  0
LINE
  5
14FB
330
1F
100
AcDbEntity
  8
HEWI
  6
IMPORT
 62
     7
100
AcDbLine
 10
869.3459559809403
 20
1334.474267031752
 30
0.0
 11
869.5743037592606
 21
1335.31853583058
 31
0.0
  0
LINE
  5
14FC
330
1F
100
AcDbEntity
  8
HEWI
  6
IMPORT
 62
     7
100
AcDbLine
 10
909.3459559809403
 20
1334.474267031752
 30
0.0
 11
909.5743037592606
 21
1335.31853583058
 31
0.0
  0
LINE
  5
14FD
330
1F
100
AcDbEntity
  8
HEWI
  6
IMPORT
 62
     7
100
AcDbLine
 10
949.3459559809403
 20
1334.474267031752
 30
0.0
 11
949.5743037592605
 21
1335.31853583058
 31
0.0
  0
LINE
  5
14FE
330
1F
100
AcDbEntity
  8
HEWI
  6
IMPORT
 62
     7
100
AcDbLine
 10
989.3459559809402
 20
1334.474267031752
 30
0.0
 11
989.5743037592605
 21
1335.31853583058
 31
0.0
  0
LINE
  5
14FF
330
1F
100
AcDbEntity
  8
HEWI
  6
IMPORT
 62
     7
100
AcDbLine
 10
1029.34595598094
 20
1334.474267031752
 30
0.0
 11
1029.574313296004
 21
1335.31853583058
 31
0.0
  0
LINE
  5
1500
330
1F
100
AcDbEntity
  8
HEWI
  6
IMPORT
 62
     7
100
AcDbLine
 10
1069.34595598094
 20
1334.474267031752
 30
0.0
 11
1069.574313296004
 21
1335.31853583058
 31
0.0
  0
LINE
  5
1501
330
1F
100
AcDbEntity
  8
HEWI
  6
IMPORT
 62
     7
100
AcDbLine
 10
1109.345951212568
 20
1334.474267031752
 30
0.0
 11
1109.574313296004
 21
1335.31853583058
 31
0.0
  0
LINE
  5
1502
330
1F
100
AcDbEntity
  8
HEWI
  6
IMPORT
 62
     7
100
AcDbLine
 10
1149.345953596754
 20
1334.474267031752
 30
0.0
 11
1149.574313296004
 21
1335.31853583058
 31
0.0
  0
LINE
  5
1503
330
1F
100
AcDbEntity
  8
HEWI
  6
IMPORT
 62
     7
100
AcDbLine
 10
1189.574313296003
 20
1335.31853583058
 30
0.0
 11
1189.832914007826
 21
1336.144837405287
 31
0.0
  0
LINE
  5
1505
330
1F
100
AcDbEntity
  8
HEWI
  6
IMPORT
 62
     7
100
AcDbLine
 10
869.5743037592606
 20
1335.31853583058
 30
0.0
 11
869.8329211603835
 21
1336.144837405287
 31
0.0
  0
LINE
  5
1506
330
1F
100
AcDbEntity
  8
HEWI
  6
IMPORT
 62
     7
100
AcDbLine
 10
909.5743037592606
 20
1335.31853583058
 30
0.0
 11
909.8329211603836
 21
1336.144837405287
 31
0.0
  0
LINE
  5
1507
330
1F
100
AcDbEntity
  8
HEWI
  6
IMPORT
 62
     7
100
AcDbLine
 10
949.5743037592605
 20
1335.31853583058
 30
0.0
 11
949.8329211603836
 21
1336.144837405287
 31
0.0
  0
LINE
  5
1508
330
1F
100
AcDbEntity
  8
HEWI
  6
IMPORT
 62
     7
100
AcDbLine
 10
989.5743037592605
 20
1335.31853583058
 30
0.0
 11
989.8329211603837
 21
1336.144837405287
 31
0.0
  0
LINE
  5
1509
330
1F
100
AcDbEntity
  8
HEWI
  6
IMPORT
 62
     7
100
AcDbLine
 10
1029.574313296004
 20
1335.31853583058
 30
0.0
 11
1029.83291162364
 21
1336.144837405287
 31
0.0
  0
LINE
  5
150A
330
1F
100
AcDbEntity
  8
HEWI
  6
IMPORT
 62
     7
100
AcDbLine
 10
1069.574313296004
 20
1335.31853583058
 30
0.0
 11
1069.83291162364
 21
1336.144837405287
 31
0.0
  0
LINE
  5
150B
330
1F
100
AcDbEntity
  8
HEWI
  6
IMPORT
 62
     7
100
AcDbLine
 10
1109.574313296004
 20
1335.31853583058
 30
0.0
 11
1109.83291162364
 21
1336.144837405287
 31
0.0
  0
LINE
  5
150C
330
1F
100
AcDbEntity
  8
HEWI
  6
IMPORT
 62
     7
100
AcDbLine
 10
1149.574313296004
 20
1335.31853583058
 30
0.0
 11
1149.832912815733
 21
1336.144837405287
 31
0.0
  0
LINE
  5
150D
330
1F
100
AcDbEntity
  8
HEWI
  6
IMPORT
 62
     7
100
AcDbLine
 10
1196.28146423213
 20
1338.128479983412
 30
0.0
 11
1197.30756296031
 21
1337.69272711476
 31
0.0
  0
LINE
  5
150F
330
1F
100
AcDbEntity
  8
HEWI
  6
IMPORT
 62
     7
100
AcDbLine
 10
876.2814570795731
 20
1338.128479983412
 30
0.0
 11
877.3075724970535
 21
1337.69272711476
 31
0.0
  0
LINE
  5
1510
330
1F
100
AcDbEntity
  8
HEWI
  6
IMPORT
 62
     7
100
AcDbLine
 10
916.2814570795731
 20
1338.128479983412
 30
0.0
 11
917.3075724970535
 21
1337.69272711476
 31
0.0
  0
LINE
  5
1511
330
1F
100
AcDbEntity
  8
HEWI
  6
IMPORT
 62
     7
100
AcDbLine
 10
956.2814570795731
 20
1338.128479983412
 30
0.0
 11
957.3075724970536
 21
1337.69272711476
 31
0.0
  0
LINE
  5
1512
330
1F
100
AcDbEntity
  8
HEWI
  6
IMPORT
 62
     7
100
AcDbLine
 10
996.281457079573
 20
1338.128479983412
 30
0.0
 11
997.3075724970536
 21
1337.69272711476
 31
0.0
  0
LINE
  5
1513
330
1F
100
AcDbEntity
  8
HEWI
  6
IMPORT
 62
     7
100
AcDbLine
 10
1036.281466616316
 20
1338.128479983412
 30
0.0
 11
1037.30756296031
 21
1337.69272711476
 31
0.0
  0
LINE
  5
1514
330
1F
100
AcDbEntity
  8
HEWI
  6
IMPORT
 62
     7
100
AcDbLine
 10
1076.281466616316
 20
1338.128479983412
 30
0.0
 11
1077.30756296031
 21
1337.69272711476
 31
0.0
  0
LINE
  5
1515
330
1F
100
AcDbEntity
  8
HEWI
  6
IMPORT
 62
     7
100
AcDbLine
 10
1116.281461847944
 20
1338.128479983412
 30
0.0
 11
1117.30756296031
 21
1337.69272711476
 31
0.0
  0
LINE
  5
1516
330
1F
100
AcDbEntity
  8
HEWI
  6
IMPORT
 62
     7
100
AcDbLine
 10
1156.281463040037
 20
1338.128479983412
 30
0.0
 11
1157.30756296031
 21
1337.69272711476
 31
0.0
  0
LINE
  5
1517
330
1F
100
AcDbEntity
  8
HEWI
  6
IMPORT
 62
     7
100
AcDbLine
 10
1191.845953596754
 20
1295.672272708021
 30
0.0
 11
1192.06214202754
 21
1295.542420413099
 31
0.0
  0
LINE
  5
1518
330
1F
100
AcDbEntity
  8
HEWI
  6
IMPORT
 62
     7
100
AcDbLine
 10
1190.634682310744
 20
1295.522965457045
 30
0.0
 11
1191.845953596754
 21
1294.79550268849
 31
0.0
  0
LINE
  5
1519
330
1F
100
AcDbEntity
  8
HEWI
  6
IMPORT
 62
     7
100
AcDbLine
 10
1196.629753245039
 20
1346.432045962416
 30
0.0
 11
1198.057222498579
 21
1345.574692751967
 31
0.0
  0
LINE
  5
151D
330
1F
100
AcDbEntity
  8
HEWI
  6
IMPORT
 62
     7
100
AcDbLine
 10
871.8459559809403
 20
1295.672272708021
 30
0.0
 11
872.0621348749832
 21
1295.542420413099
 31
0.0
  0
LINE
  5
151E
330
1F
100
AcDbEntity
  8
HEWI
  6
IMPORT
 62
     7
100
AcDbLine
 10
870.6346751581863
 20
1295.522965457045
 30
0.0
 11
871.8459559809403
 21
1294.79550268849
 31
0.0
  0
LINE
  5
151F
330
1F
100
AcDbEntity
  8
HEWI
  6
IMPORT
 62
     7
100
AcDbLine
 10
876.6297580134109
 20
1346.432045962416
 30
0.0
 11
878.0572177302078
 21
1345.574692751967
 31
0.0
  0
LINE
  5
1520
330
1F
100
AcDbEntity
  8
HEWI
  6
IMPORT
 62
     7
100
AcDbLine
 10
911.8459559809403
 20
1295.672272708021
 30
0.0
 11
912.0621348749832
 21
1295.542420413099
 31
0.0
  0
LINE
  5
1521
330
1F
100
AcDbEntity
  8
HEWI
  6
IMPORT
 62
     7
100
AcDbLine
 10
910.6346751581863
 20
1295.522965457045
 30
0.0
 11
911.8459559809403
 21
1294.79550268849
 31
0.0
  0
LINE
  5
1522
330
1F
100
AcDbEntity
  8
HEWI
  6
IMPORT
 62
     7
100
AcDbLine
 10
916.6297580134109
 20
1346.432045962416
 30
0.0
 11
918.0572177302078
 21
1345.574692751967
 31
0.0
  0
LINE
  5
1523
330
1F
100
AcDbEntity
  8
HEWI
  6
IMPORT
 62
     7
100
AcDbLine
 10
951.8459559809402
 20
1295.672272708021
 30
0.0
 11
952.0621348749832
 21
1295.542420413099
 31
0.0
  0
LINE
  5
1524
330
1F
100
AcDbEntity
  8
HEWI
  6
IMPORT
 62
     7
100
AcDbLine
 10
950.6346751581864
 20
1295.522965457045
 30
0.0
 11
951.8459559809402
 21
1294.79550268849
 31
0.0
  0
LINE
  5
1525
330
1F
100
AcDbEntity
  8
HEWI
  6
IMPORT
 62
     7
100
AcDbLine
 10
956.629758013411
 20
1346.432045962416
 30
0.0
 11
958.0572177302078
 21
1345.574692751967
 31
0.0
  0
LINE
  5
1526
330
1F
100
AcDbEntity
  8
HEWI
  6
IMPORT
 62
     7
100
AcDbLine
 10
991.8459559809402
 20
1295.672272708021
 30
0.0
 11
992.0621348749833
 21
1295.542420413099
 31
0.0
  0
LINE
  5
1527
330
1F
100
AcDbEntity
  8
HEWI
  6
IMPORT
 62
     7
100
AcDbLine
 10
990.6346751581864
 20
1295.522965457045
 30
0.0
 11
991.8459559809402
 21
1294.79550268849
 31
0.0
  0
LINE
  5
1528
330
1F
100
AcDbEntity
  8
HEWI
  6
IMPORT
 62
     7
100
AcDbLine
 10
996.629758013411
 20
1346.432045962416
 30
0.0
 11
998.0572177302079
 21
1345.574692751967
 31
0.0
  0
LINE
  5
1529
330
1F
100
AcDbEntity
  8
HEWI
  6
IMPORT
 62
     7
100
AcDbLine
 10
1031.84595598094
 20
1295.672272708021
 30
0.0
 11
1032.062144411726
 21
1295.542420413099
 31
0.0
  0
LINE
  5
152A
330
1F
100
AcDbEntity
  8
HEWI
  6
IMPORT
 62
     7
100
AcDbLine
 10
1030.634684694929
 20
1295.522965457045
 30
0.0
 11
1031.84595598094
 21
1294.79550268849
 31
0.0
  0
LINE
  5
152B
330
1F
100
AcDbEntity
  8
HEWI
  6
IMPORT
 62
     7
100
AcDbLine
 10
1036.629748476668
 20
1346.432045962416
 30
0.0
 11
1038.057227266951
 21
1345.574692751967
 31
0.0
  0
LINE
  5
152C
330
1F
100
AcDbEntity
  8
HEWI
  6
IMPORT
 62
     7
100
AcDbLine
 10
1071.84595598094
 20
1295.672272708021
 30
0.0
 11
1072.062144411726
 21
1295.542420413099
 31
0.0
  0
LINE
  5
152D
330
1F
100
AcDbEntity
  8
HEWI
  6
IMPORT
 62
     7
100
AcDbLine
 10
1070.634684694929
 20
1295.522965457045
 30
0.0
 11
1071.84595598094
 21
1294.79550268849
 31
0.0
  0
LINE
  5
152E
330
1F
100
AcDbEntity
  8
HEWI
  6
IMPORT
 62
     7
100
AcDbLine
 10
1076.629748476668
 20
1346.432045962416
 30
0.0
 11
1078.057227266951
 21
1345.574692751967
 31
0.0
  0
LINE
  5
152F
330
1F
100
AcDbEntity
  8
HEWI
  6
IMPORT
 62
     7
100
AcDbLine
 10
1111.845951212568
 20
1295.672272708021
 30
0.0
 11
1112.062144411726
 21
1295.542420413099
 31
0.0
  0
LINE
  5
1530
330
1F
100
AcDbEntity
  8
HEWI
  6
IMPORT
 62
     7
100
AcDbLine
 10
1110.634684694929
 20
1295.522965457045
 30
0.0
 11
1111.845951212568
 21
1294.79550268849
 31
0.0
  0
LINE
  5
1531
330
1F
100
AcDbEntity
  8
HEWI
  6
IMPORT
 62
     7
100
AcDbLine
 10
1116.629753245039
 20
1346.432045962416
 30
0.0
 11
1118.057222498579
 21
1345.574692751967
 31
0.0
  0
LINE
  5
1532
330
1F
100
AcDbEntity
  8
HEWI
  6
IMPORT
 62
     7
100
AcDbLine
 10
1151.845953596754
 20
1295.672272708021
 30
0.0
 11
1152.062143219633
 21
1295.542420413099
 31
0.0
  0
LINE
  5
1533
330
1F
100
AcDbEntity
  8
HEWI
  6
IMPORT
 62
     7
100
AcDbLine
 10
1150.634683502836
 20
1295.522965457045
 30
0.0
 11
1151.845953596754
 21
1294.79550268849
 31
0.0
  0
LINE
  5
1534
330
1F
100
AcDbEntity
  8
HEWI
  6
IMPORT
 62
     7
100
AcDbLine
 10
1156.629753245039
 20
1346.432045962416
 30
0.0
 11
1158.057223094626
 21
1345.574692751967
 31
0.0
  0
LINE
  5
1535
330
1F
100
AcDbEntity
  8
HEWI
  6
IMPORT
 62
     7
100
AcDbLine
 10
1198.057222498579
 20
1295.522965457045
 30
0.0
 11
1199.011023176832
 21
1296.806038882338
 31
0.0
  0
LINE
  5
1536
330
1F
100
AcDbEntity
  8
HEWI
  6
IMPORT
 62
     7
100
AcDbLine
 10
1189.680884016676
 20
1344.291657473646
 30
0.0
 11
1190.634682310744
 21
1345.574692751967
 31
0.0
  0
LINE
  5
1539
330
1F
100
AcDbEntity
  8
HEWI
  6
IMPORT
 62
     7
100
AcDbLine
 10
878.0572177302078
 20
1295.522965457045
 30
0.0
 11
879.0110255610183
 21
1296.806038882338
 31
0.0
  0
LINE
  5
153A
330
1F
100
AcDbEntity
  8
HEWI
  6
IMPORT
 62
     7
100
AcDbLine
 10
869.6808864008621
 20
1344.291657473646
 30
0.0
 11
870.6346751581863
 21
1345.574692751967
 31
0.0
  0
LINE
  5
153B
330
1F
100
AcDbEntity
  8
HEWI
  6
IMPORT
 62
     7
100
AcDbLine
 10
918.0572177302078
 20
1295.522965457045
 30
0.0
 11
919.0110255610184
 21
1296.806038882338
 31
0.0
  0
LINE
  5
153C
330
1F
100
AcDbEntity
  8
HEWI
  6
IMPORT
 62
     7
100
AcDbLine
 10
909.6808864008622
 20
1344.291657473646
 30
0.0
 11
910.6346751581863
 21
1345.574692751967
 31
0.0
  0
LINE
  5
153D
330
1F
100
AcDbEntity
  8
HEWI
  6
IMPORT
 62
     7
100
AcDbLine
 10
958.0572177302078
 20
1295.522965457045
 30
0.0
 11
959.0110255610184
 21
1296.806038882338
 31
0.0
  0
LINE
  5
153E
330
1F
100
AcDbEntity
  8
HEWI
  6
IMPORT
 62
     7
100
AcDbLine
 10
949.6808864008622
 20
1344.291657473646
 30
0.0
 11
950.6346751581864
 21
1345.574692751967
 31
0.0
  0
LINE
  5
153F
330
1F
100
AcDbEntity
  8
HEWI
  6
IMPORT
 62
     7
100
AcDbLine
 10
998.0572177302079
 20
1295.522965457045
 30
0.0
 11
999.0110255610185
 21
1296.806038882338
 31
0.0
  0
LINE
  5
1540
330
1F
100
AcDbEntity
  8
HEWI
  6
IMPORT
 62
     7
100
AcDbLine
 10
989.6808864008621
 20
1344.291657473646
 30
0.0
 11
990.6346751581864
 21
1345.574692751967
 31
0.0
  0
LINE
  5
1541
330
1F
100
AcDbEntity
  8
HEWI
  6
IMPORT
 62
     7
100
AcDbLine
 10
1038.057227266951
 20
1295.522965457045
 30
0.0
 11
1039.011025561018
 21
1296.806038882338
 31
0.0
  0
LINE
  5
1542
330
1F
100
AcDbEntity
  8
HEWI
  6
IMPORT
 62
     7
100
AcDbLine
 10
1029.680886400862
 20
1344.291657473646
 30
0.0
 11
1030.634684694929
 21
1345.574692751967
 31
0.0
  0
LINE
  5
1543
330
1F
100
AcDbEntity
  8
HEWI
  6
IMPORT
 62
     7
100
AcDbLine
 10
1078.057227266951
 20
1295.522965457045
 30
0.0
 11
1079.011025561018
 21
1296.806038882338
 31
0.0
  0
LINE
  5
1544
330
1F
100
AcDbEntity
  8
HEWI
  6
IMPORT
 62
     7
100
AcDbLine
 10
1069.680886400862
 20
1344.291657473646
 30
0.0
 11
1070.634684694929
 21
1345.574692751967
 31
0.0
  0
LINE
  5
1545
330
1F
100
AcDbEntity
  8
HEWI
  6
IMPORT
 62
     7
100
AcDbLine
 10
1118.057222498579
 20
1295.522965457045
 30
0.0
 11
1119.011020792647
 21
1296.806038882338
 31
0.0
  0
LINE
  5
1546
330
1F
100
AcDbEntity
  8
HEWI
  6
IMPORT
 62
     7
100
AcDbLine
 10
1109.68088163249
 20
1344.291657473646
 30
0.0
 11
1110.634684694929
 21
1345.574692751967
 31
0.0
  0
LINE
  5
1547
330
1F
100
AcDbEntity
  8
HEWI
  6
IMPORT
 62
     7
100
AcDbLine
 10
1158.057223094626
 20
1295.522965457045
 30
0.0
 11
1159.011023176832
 21
1296.806038882338
 31
0.0
  0
LINE
  5
1548
330
1F
100
AcDbEntity
  8
HEWI
  6
IMPORT
 62
     7
100
AcDbLine
 10
1149.680882824583
 20
1344.291657473646
 30
0.0
 11
1150.634683502836
 21
1345.574692751967
 31
0.0
  0
LINE
  5
1549
330
1F
100
AcDbEntity
  8
HEWI
  6
IMPORT
 62
     7
100
AcDbLine
 10
1197.418084276838
 20
1337.645806338392
 30
0.0
 11
1197.891113890333
 21
1337.208031680189
 31
0.0
  0
LINE
  5
154B
330
1F
100
AcDbEntity
  8
HEWI
  6
IMPORT
 62
     7
100
AcDbLine
 10
877.4180842768387
 20
1337.645806338392
 30
0.0
 11
877.8911067377762
 21
1337.208031680189
 31
0.0
  0
LINE
  5
154C
330
1F
100
AcDbEntity
  8
HEWI
  6
IMPORT
 62
     7
100
AcDbLine
 10
917.4180842768388
 20
1337.645806338392
 30
0.0
 11
917.8911067377763
 21
1337.208031680189
 31
0.0
  0
LINE
  5
154D
330
1F
100
AcDbEntity
  8
HEWI
  6
IMPORT
 62
     7
100
AcDbLine
 10
957.4180842768386
 20
1337.645806338392
 30
0.0
 11
957.8911067377761
 21
1337.208031680189
 31
0.0
  0
LINE
  5
154E
330
1F
100
AcDbEntity
  8
HEWI
  6
IMPORT
 62
     7
100
AcDbLine
 10
997.4180842768387
 20
1337.645806338392
 30
0.0
 11
997.8911067377762
 21
1337.208031680189
 31
0.0
  0
LINE
  5
154F
330
1F
100
AcDbEntity
  8
HEWI
  6
IMPORT
 62
     7
100
AcDbLine
 10
1037.418084276839
 20
1337.645806338392
 30
0.0
 11
1037.891116274519
 21
1337.208031680189
 31
0.0
  0
LINE
  5
1550
330
1F
100
AcDbEntity
  8
HEWI
  6
IMPORT
 62
     7
100
AcDbLine
 10
1077.418084276839
 20
1337.645806338392
 30
0.0
 11
1077.891116274519
 21
1337.208031680189
 31
0.0
  0
LINE
  5
1551
330
1F
100
AcDbEntity
  8
HEWI
  6
IMPORT
 62
     7
100
AcDbLine
 10
1117.418084276839
 20
1337.645806338392
 30
0.0
 11
1117.891111506148
 21
1337.208031680189
 31
0.0
  0
LINE
  5
1552
330
1F
100
AcDbEntity
  8
HEWI
  6
IMPORT
 62
     7
100
AcDbLine
 10
1157.418083084746
 20
1337.645806338392
 30
0.0
 11
1157.89111269824
 21
1337.208031680189
 31
0.0
  0
LINE
  5
1553
330
1F
100
AcDbEntity
  8
HEWI
  6
IMPORT
 62
     7
100
AcDbLine
 10
1197.891113890333
 20
1337.208031680189
 30
0.0
 11
1198.795464171095
 21
1336.347817446791
 31
0.0
  0
LINE
  5
1555
330
1F
100
AcDbEntity
  8
HEWI
  6
IMPORT
 62
     7
100
AcDbLine
 10
877.8911067377762
 20
1337.208031680189
 30
0.0
 11
878.7954570185378
 21
1336.347817446791
 31
0.0
  0
LINE
  5
1556
330
1F
100
AcDbEntity
  8
HEWI
  6
IMPORT
 62
     7
100
AcDbLine
 10
917.8911067377763
 20
1337.208031680189
 30
0.0
 11
918.7954570185379
 21
1336.347817446791
 31
0.0
  0
LINE
  5
1557
330
1F
100
AcDbEntity
  8
HEWI
  6
IMPORT
 62
     7
100
AcDbLine
 10
957.8911067377761
 20
1337.208031680189
 30
0.0
 11
958.7954570185379
 21
1336.347817446791
 31
0.0
  0
LINE
  5
1558
330
1F
100
AcDbEntity
  8
HEWI
  6
IMPORT
 62
     7
100
AcDbLine
 10
997.8911067377762
 20
1337.208031680189
 30
0.0
 11
998.795457018538
 21
1336.347817446791
 31
0.0
  0
LINE
  5
1559
330
1F
100
AcDbEntity
  8
HEWI
  6
IMPORT
 62
     7
100
AcDbLine
 10
1037.891116274519
 20
1337.208031680189
 30
0.0
 11
1038.795466555281
 21
1336.347817446791
 31
0.0
  0
LINE
  5
155A
330
1F
100
AcDbEntity
  8
HEWI
  6
IMPORT
 62
     7
100
AcDbLine
 10
1077.891116274519
 20
1337.208031680189
 30
0.0
 11
1078.795466555281
 21
1336.347817446791
 31
0.0
  0
LINE
  5
155B
330
1F
100
AcDbEntity
  8
HEWI
  6
IMPORT
 62
     7
100
AcDbLine
 10
1117.891111506148
 20
1337.208031680189
 30
0.0
 11
1118.795461786909
 21
1336.347817446791
 31
0.0
  0
LINE
  5
155C
330
1F
100
AcDbEntity
  8
HEWI
  6
IMPORT
 62
     7
100
AcDbLine
 10
1157.89111269824
 20
1337.208031680189
 30
0.0
 11
1158.795462979002
 21
1336.347817446791
 31
0.0
  0
LWPOLYLINE
  5
1577
330
1F
100
AcDbEntity
  8
HEWI
100
AcDbPolyline
 90
        2
 70
     0
 43
0.0
 10
879.3459559809402
 20
1312.01905157765
 10
909.3459559809403
 20
1312.01905157765
  0
LWPOLYLINE
  5
1578
330
1F
100
AcDbEntity
  8
HEWI
100
AcDbPolyline
 90
        2
 70
     0
 43
0.0
 10
919.3459559809403
 20
1312.01905157765
 10
949.3459559809403
 20
1312.01905157765
  0
LWPOLYLINE
  5
1579
330
1F
100
AcDbEntity
  8
HEWI
100
AcDbPolyline
 90
        2
 70
     0
 43
0.0
 10
959.3459559809403
 20
1312.01905157765
 10
989.3459559809402
 20
1312.01905157765
  0
LWPOLYLINE
  5
157A
330
1F
100
AcDbEntity
  8
HEWI
100
AcDbPolyline
 90
        2
 70
     0
 43
0.0
 10
999.3459559809403
 20
1312.01905157765
 10
1029.34595598094
 20
1312.01905157765
  0
LWPOLYLINE
  5
157B
330
1F
100
AcDbEntity
  8
HEWI
100
AcDbPolyline
 90
        2
 70
     0
 43
0.0
 10
1039.34595598094
 20
1312.01905157765
 10
1069.34595598094
 20
1312.01905157765
  0
LWPOLYLINE
  5
157C
330
1F
100
AcDbEntity
  8
HEWI
100
AcDbPolyline
 90
        2
 70
     0
 43
0.0
 10
1079.34595598094
 20
1312.01905157765
 10
1109.345951212568
 20
1312.01905157765
  0
LWPOLYLINE
  5
157D
330
1F
100
AcDbEntity
  8
HEWI
100
AcDbPolyline
 90
        2
 70
     0
 43
0.0
 10
1119.345951212568
 20
1312.01905157765
 10
1149.345953596754
 20
1312.01905157765
  0
LWPOLYLINE
  5
157E
330
1F
100
AcDbEntity
  8
HEWI
100
AcDbPolyline
 90
        2
 70
     0
 43
0.0
 10
1159.345953000708
 20
1312.01905157765
 10
1189.345953596754
 20
1312.01905157765
  0
LWPOLYLINE
  5
157F
330
1F
100
AcDbEntity
  8
HEWI
100
AcDbPolyline
 90
        2
 70
     0
 43
0.0
 10
1199.345953596754
 20
1312.01905157765
 10
1229.345954192801
 20
1312.01905157765
  0
LINE
  5
15B0
330
1F
100
AcDbEntity
  8
HEWI
  6
IMPORT
 62
     7
100
AcDbLine
 10
1233.745954765005
 20
1295.241364504896
 30
0.0
 11
1234.945953620596
 21
1295.241364504896
 31
0.0
  0
LINE
  5
15B1
330
1F
100
AcDbEntity
  8
HEWI
  6
IMPORT
 62
     7
100
AcDbLine
 10
1231.845954192801
 20
1289.782074954115
 30
0.0
 11
1236.845954192801
 21
1289.782074954115
 31
0.0
  0
LINE
  5
15B2
330
1F
100
AcDbEntity
  8
HEWI
  6
IMPORT
 62
     7
100
AcDbLine
 10
1233.745954765005
 20
1346.733063723646
 30
0.0
 11
1235.391014350577
 21
1346.653527285658
 31
0.0
  0
LINE
  5
15B3
330
1F
100
AcDbEntity
  8
HEWI
  6
IMPORT
 62
     7
100
AcDbLine
 10
1232.062142623587
 20
1346.432045962416
 30
0.0
 11
1232.502144111319
 21
1346.510705020033
 31
0.0
  0
LINE
  5
15B4
330
1F
100
AcDbEntity
  8
HEWI
  6
IMPORT
 62
     7
100
AcDbLine
 10
1236.152594817801
 20
1338.144806887709
 30
0.0
 11
1236.281464828177
 21
1338.128479983412
 31
0.0
  0
LINE
  5
15B5
330
1F
100
AcDbEntity
  8
HEWI
  6
IMPORT
 62
     7
100
AcDbLine
 10
1232.296174300833
 20
1338.079957034193
 30
0.0
 11
1232.410434020682
 21
1338.128479983412
 31
0.0
  0
LINE
  5
15B6
330
1F
100
AcDbEntity
  8
HEWI
  6
IMPORT
 62
     7
100
AcDbLine
 10
1233.703792823477
 20
1338.292016055189
 30
0.0
 11
1234.8577435147
 21
1338.308495547377
 31
0.0
  0
LINE
  5
15B7
330
1F
100
AcDbEntity
  8
HEWI
  6
IMPORT
 62
     7
100
AcDbLine
 10
1237.307563556357
 20
1337.69272711476
 30
0.0
 11
1237.418084872885
 21
1337.645806338392
 31
0.0
  0
LINE
  5
15B8
330
1F
100
AcDbEntity
  8
HEWI
  6
IMPORT
 62
     7
100
AcDbLine
 10
1231.845954192801
 20
1287.053765322767
 30
0.0
 11
1236.845954192801
 21
1287.053765322767
 31
0.0
  0
LINE
  5
15B9
330
1F
100
AcDbEntity
  8
HEWI
  6
IMPORT
 62
     7
100
AcDbLine
 10
1231.845954192801
 20
1276.733063723646
 30
0.0
 11
1236.845954192801
 21
1276.733063723646
 31
0.0
  0
LINE
  5
15BA
330
1F
100
AcDbEntity
  8
HEWI
  6
IMPORT
 62
     7
100
AcDbLine
 10
1236.845954192801
 20
1276.733063723646
 30
0.0
 11
1236.845954192801
 21
1295.672272708021
 31
0.0
  0
LINE
  5
15BB
330
1F
100
AcDbEntity
  8
HEWI
  6
IMPORT
 62
     7
100
AcDbLine
 10
1231.845954192801
 20
1276.733063723646
 30
0.0
 11
1231.845954192801
 21
1295.672272708021
 31
0.0
  0
LINE
  5
15BC
330
1F
100
AcDbEntity
  8
HEWI
  6
IMPORT
 62
     7
100
AcDbLine
 10
1229.345954192801
 20
1337.01905157765
 30
0.0
 11
1229.442373050375
 21
1343.213852908216
 31
0.0
  0
LINE
  5
15BD
330
1F
100
AcDbEntity
  8
HEWI
  6
IMPORT
 62
     7
100
AcDbLine
 10
1229.345954192801
 20
1298.319520022474
 30
0.0
 11
1229.345954192801
 21
1334.474267031752
 31
0.0
  0
LINE
  5
15BE
330
1F
100
AcDbEntity
  8
HEWI
  6
IMPORT
 62
     7
100
AcDbLine
 10
1239.345954192801
 20
1337.01905157765
 30
0.0
 11
1239.345954192801
 21
1342.778138186537
 31
0.0
  0
LINE
  5
15BF
330
1F
100
AcDbEntity
  8
HEWI
  6
IMPORT
 62
     7
100
AcDbLine
 10
1239.345954192801
 20
1298.319520022474
 30
0.0
 11
1239.345954192801
 21
1334.474267031752
 31
0.0
  0
LINE
  5
15C0
330
1F
100
AcDbEntity
  8
HEWI
  6
IMPORT
 62
     7
100
AcDbLine
 10
1229.832914603872
 20
1336.144837405287
 30
0.0
 11
1229.896434081717
 21
1336.347817446791
 31
0.0
  0
LINE
  5
15C1
330
1F
100
AcDbEntity
  8
HEWI
  6
IMPORT
 62
     7
100
AcDbLine
 10
1239.058063758536
 20
1335.31853583058
 30
0.0
 11
1239.117582572623
 21
1335.508736636244
 31
0.0
  0
LINE
  5
15C2
330
1F
100
AcDbEntity
  8
HEWI
  6
IMPORT
 62
     7
100
AcDbLine
 10
1229.896434081717
 20
1336.347817446791
 30
0.0
 11
1230.800784362479
 21
1337.208031680189
 31
0.0
  0
LINE
  5
15C3
330
1F
100
AcDbEntity
  8
HEWI
  6
IMPORT
 62
     7
100
AcDbLine
 10
1230.800784362479
 20
1337.208031680189
 30
0.0
 11
1231.273823512716
 21
1337.645806338392
 31
0.0
  0
LINE
  5
15C4
330
1F
100
AcDbEntity
  8
HEWI
  6
IMPORT
 62
     7
100
AcDbLine
 10
1229.680884612723
 20
1296.806038882338
 30
0.0
 11
1230.63468290679
 21
1295.522965457045
 31
0.0
  0
LINE
  5
15C5
330
1F
100
AcDbEntity
  8
HEWI
  6
IMPORT
 62
     7
100
AcDbLine
 10
1238.057223094626
 20
1345.574692751967
 30
0.0
 11
1239.011023772879
 21
1344.291657473646
 31
0.0
  0
LINE
  5
15C6
330
1F
100
AcDbEntity
  8
HEWI
  6
IMPORT
 62
     7
100
AcDbLine
 10
1236.629753841086
 20
1295.542420413099
 30
0.0
 11
1236.845954192801
 21
1295.672272708021
 31
0.0
  0
LINE
  5
15C7
330
1F
100
AcDbEntity
  8
HEWI
  6
IMPORT
 62
     7
100
AcDbLine
 10
1236.845954192801
 20
1294.79550268849
 30
0.0
 11
1238.057223094626
 21
1295.522965457045
 31
0.0
  0
LINE
  5
15C8
330
1F
100
AcDbEntity
  8
HEWI
  6
IMPORT
 62
     7
100
AcDbLine
 10
1230.63468290679
 20
1345.574692751967
 30
0.0
 11
1232.062142623587
 21
1346.432045962416
 31
0.0
  0
LINE
  5
15C9
330
1F
100
AcDbEntity
  8
HEWI
  6
IMPORT
 62
     7
100
AcDbLine
 10
1231.273823512716
 20
1337.645806338392
 30
0.0
 11
1232.296174300833
 21
1338.079957034193
 31
0.0
  0
LINE
  5
15CA
330
1F
100
AcDbEntity
  8
HEWI
  6
IMPORT
 62
     7
100
AcDbLine
 10
1238.795464767141
 20
1336.347817446791
 30
0.0
 11
1239.058063758536
 21
1335.508736636244
 31
0.0
  0
LINE
  5
15CB
330
1F
100
AcDbEntity
  8
HEWI
  6
IMPORT
 62
     7
100
AcDbLine
 10
1239.117582572623
 20
1335.31853583058
 30
0.0
 11
1239.345954192801
 21
1334.474267031752
 31
0.0
  0
LINE
  5
15CC
330
1F
100
AcDbEntity
  8
HEWI
  6
IMPORT
 62
     7
100
AcDbLine
 10
1229.345954192801
 20
1298.319520022474
 30
0.0
 11
1229.680884612723
 21
1296.806038882338
 31
0.0
  0
LINE
  5
15CD
330
1F
100
AcDbEntity
  8
HEWI
  6
IMPORT
 62
     7
100
AcDbLine
 10
1239.011023772879
 20
1344.291657473646
 30
0.0
 11
1239.345954192801
 21
1342.778138186537
 31
0.0
  0
LINE
  5
15CE
330
1F
100
AcDbEntity
  8
HEWI
  6
IMPORT
 62
     7
100
AcDbLine
 10
1234.945953620596
 20
1295.241364504896
 30
0.0
 11
1236.629753841086
 21
1295.542420413099
 31
0.0
  0
LINE
  5
15CF
330
1F
100
AcDbEntity
  8
HEWI
  6
IMPORT
 62
     7
100
AcDbLine
 10
1232.502144111319
 20
1346.510705020033
 30
0.0
 11
1233.745954765005
 21
1346.733063723646
 31
0.0
  0
LINE
  5
15D0
330
1F
100
AcDbEntity
  8
HEWI
  6
IMPORT
 62
     7
100
AcDbLine
 10
1232.410434020682
 20
1338.128479983412
 30
0.0
 11
1233.703792823477
 21
1338.292016055189
 31
0.0
  0
LINE
  5
15D1
330
1F
100
AcDbEntity
  8
HEWI
  6
IMPORT
 62
     7
100
AcDbLine
 10
1234.8577435147
 20
1338.308495547377
 30
0.0
 11
1236.152594817801
 21
1338.144806887709
 31
0.0
  0
LINE
  5
15D2
330
1F
100
AcDbEntity
  8
HEWI
  6
IMPORT
 62
     7
100
AcDbLine
 10
1232.062142623587
 20
1295.542420413099
 30
0.0
 11
1233.745954765005
 21
1295.241364504896
 31
0.0
  0
LINE
  5
15D3
330
1F
100
AcDbEntity
  8
HEWI
  6
IMPORT
 62
     7
100
AcDbLine
 10
1235.391014350577
 20
1346.653527285658
 30
0.0
 11
1236.629753841086
 21
1346.432045962416
 31
0.0
  0
LINE
  5
15D4
330
1F
100
AcDbEntity
  8
HEWI
  6
IMPORT
 62
     7
100
AcDbLine
 10
1239.011023772879
 20
1296.806038882338
 30
0.0
 11
1239.345954192801
 21
1298.319520022474
 31
0.0
  0
LINE
  5
15D5
330
1F
100
AcDbEntity
  8
HEWI
  6
IMPORT
 62
     7
100
AcDbLine
 10
1229.442373050375
 20
1343.213852908216
 30
0.0
 11
1229.680884612723
 21
1344.291657473646
 31
0.0
  0
LINE
  5
15D6
330
1F
100
AcDbEntity
  8
HEWI
  6
IMPORT
 62
     7
100
AcDbLine
 10
1229.345954192801
 20
1334.474267031752
 30
0.0
 11
1229.57431389205
 21
1335.31853583058
 31
0.0
  0
LINE
  5
15D7
330
1F
100
AcDbEntity
  8
HEWI
  6
IMPORT
 62
     7
100
AcDbLine
 10
1229.57431389205
 20
1335.31853583058
 30
0.0
 11
1229.832914603872
 21
1336.144837405287
 31
0.0
  0
LINE
  5
15D8
330
1F
100
AcDbEntity
  8
HEWI
  6
IMPORT
 62
     7
100
AcDbLine
 10
1236.281464828177
 20
1338.128479983412
 30
0.0
 11
1237.307563556357
 21
1337.69272711476
 31
0.0
  0
LINE
  5
15D9
330
1F
100
AcDbEntity
  8
HEWI
  6
IMPORT
 62
     7
100
AcDbLine
 10
1231.845954192801
 20
1295.672272708021
 30
0.0
 11
1232.062142623587
 21
1295.542420413099
 31
0.0
  0
LINE
  5
15DA
330
1F
100
AcDbEntity
  8
HEWI
  6
IMPORT
 62
     7
100
AcDbLine
 10
1230.63468290679
 20
1295.522965457045
 30
0.0
 11
1231.845954192801
 21
1294.79550268849
 31
0.0
  0
LINE
  5
15DB
330
1F
100
AcDbEntity
  8
HEWI
  6
IMPORT
 62
     7
100
AcDbLine
 10
1236.629753841086
 20
1346.432045962416
 30
0.0
 11
1238.057223094626
 21
1345.574692751967
 31
0.0
  0
LINE
  5
15DC
330
1F
100
AcDbEntity
  8
HEWI
  6
IMPORT
 62
     7
100
AcDbLine
 10
1238.057223094626
 20
1295.522965457045
 30
0.0
 11
1239.011023772879
 21
1296.806038882338
 31
0.0
  0
LINE
  5
15DD
330
1F
100
AcDbEntity
  8
HEWI
  6
IMPORT
 62
     7
100
AcDbLine
 10
1229.680884612723
 20
1344.291657473646
 30
0.0
 11
1230.63468290679
 21
1345.574692751967
 31
0.0
  0
LINE
  5
15DE
330
1F
100
AcDbEntity
  8
HEWI
  6
IMPORT
 62
     7
100
AcDbLine
 10
1237.418084872885
 20
1337.645806338392
 30
0.0
 11
1237.89111448638
 21
1337.208031680189
 31
0.0
  0
LINE
  5
15DF
330
1F
100
AcDbEntity
  8
HEWI
  6
IMPORT
 62
     7
100
AcDbLine
 10
1237.89111448638
 20
1337.208031680189
 30
0.0
 11
1238.795464767141
 21
1336.347817446791
 31
0.0
  0
LWPOLYLINE
  5
15E0
330
1F
100
AcDbEntity
  8
HEWI
100
AcDbPolyline
 90
        2
 70
     0
 43
0.0
 10
1239.345954192801
 20
1312.01905157765
 10
1784.686024115828
 20
1312.01905157765
  0
LWPOLYLINE
  5
15E1
330
1F
100
AcDbEntity
  8
HEWI
100
AcDbPolyline
 90
        2
 70
     0
 43
0.0
 10
870.6021098184276
 20
1337.01905157765
 10
808.6860246057566
 20
1337.01905157765
  0
LWPOLYLINE
  5
15E2
330
1F
100
AcDbEntity
  8
HEWI
100
AcDbPolyline
 90
        2
 70
     0
 43
0.0
 10
910.6021098184276
 20
1337.01905157765
 10
878.0897830699666
 20
1337.01905157765
  0
LWPOLYLINE
  5
15E3
330
1F
100
AcDbEntity
  8
HEWI
100
AcDbPolyline
 90
        2
 70
     0
 43
0.0
 10
950.6021098184275
 20
1337.01905157765
 10
918.0897830699667
 20
1337.01905157765
  0
LWPOLYLINE
  5
15E4
330
1F
100
AcDbEntity
  8
HEWI
100
AcDbPolyline
 90
        2
 70
     0
 43
0.0
 10
1030.602109818427
 20
1337.01905157765
 10
998.0897830699666
 20
1337.01905157765
  0
LWPOLYLINE
  5
15E5
330
1F
100
AcDbEntity
  8
HEWI
100
AcDbPolyline
 90
        2
 70
     0
 43
0.0
 10
990.6021098184275
 20
1337.01905157765
 10
958.0897830699667
 20
1337.01905157765
  0
LWPOLYLINE
  5
15E6
330
1F
100
AcDbEntity
  8
HEWI
100
AcDbPolyline
 90
        2
 70
     0
 43
0.0
 10
1070.602109818427
 20
1337.01905157765
 10
1038.08979260671
 20
1337.01905157765
  0
LWPOLYLINE
  5
15E7
330
1F
100
AcDbEntity
  8
HEWI
100
AcDbPolyline
 90
        2
 70
     0
 43
0.0
 10
1110.602105050056
 20
1337.01905157765
 10
1078.08979260671
 20
1337.01905157765
  0
LWPOLYLINE
  5
15E8
330
1F
100
AcDbEntity
  8
HEWI
100
AcDbPolyline
 90
        2
 70
     0
 43
0.0
 10
1150.602106504039
 20
1337.01905157765
 10
1118.089787838338
 20
1337.01905157765
  0
LWPOLYLINE
  5
15E9
330
1F
100
AcDbEntity
  8
HEWI
100
AcDbPolyline
 90
        2
 70
     0
 43
0.0
 10
1190.602107434242
 20
1337.01905157765
 10
1158.089789030431
 20
1337.01905157765
  0
LWPOLYLINE
  5
15EA
330
1F
100
AcDbEntity
  8
HEWI
100
AcDbPolyline
 90
        2
 70
     0
 43
0.0
 10
1230.602108030288
 20
1337.01905157765
 10
1198.089790222524
 20
1337.01905157765
  0
LWPOLYLINE
  5
15EB
330
1F
100
AcDbEntity
  8
HEWI
100
AcDbPolyline
 90
        3
 70
     0
 43
0.0
 10
796.6860243607925
 20
1166.500621933166
 10
796.6834986375434
 20
1166.500621933166
 10
796.6834986375434
 20
1154.000621932603
  0
LWPOLYLINE
  5
15EC
330
1F
100
AcDbEntity
  8
HEWI
100
AcDbPolyline
 90
        2
 70
     0
 43
0.0
 10
808.6809731592582
 20
1141.500621933166
 10
869.3459559809403
 20
1141.500621933166
  0
LWPOLYLINE
  5
15ED
330
1F
100
AcDbEntity
  8
HEWI
100
AcDbPolyline
 90
        2
 70
     0
 43
0.0
 10
869.3459559809403
 20
1141.500621933166
 10
1784.686024115828
 20
1141.500621933166
  0
LWPOLYLINE
  5
15EE
330
1F
100
AcDbEntity
  8
HEWI
100
AcDbPolyline
 90
        3
 70
     0
 43
0.0
 10
1796.683498637543
 20
1154.000621932603
 10
1796.683498637543
 20
1166.500621933166
 10
1796.680972914294
 20
1166.500621933166
  0
LWPOLYLINE
  5
15EF
330
1F
100
AcDbEntity
  8
HEWI
100
AcDbPolyline
 90
        2
 70
     0
 43
0.0
 10
1784.680972669329
 20
1166.500621933166
 10
1238.08979081857
 20
1166.500621933166
  0
LWPOLYLINE
  5
15F0
330
1F
100
AcDbEntity
  8
HEWI
100
AcDbPolyline
 90
        2
 70
     0
 43
0.0
 10
870.6021098184276
 20
1166.500621933166
 10
808.6860246057566
 20
1166.500621933166
  0
LINE
  5
15F1
330
1F
100
AcDbEntity
  8
HEWI
100
AcDbLine
 10
1785.67642683714
 20
1188.998398582272
 30
0.0
 11
1796.67642661259
 21
1189.000621218687
 31
0.0
  0
LINE
  5
15F2
330
1F
100
AcDbEntity
  8
HEWI
100
AcDbLine
 10
1796.67642661259
 20
1189.000621218687
 30
0.0
 11
1796.690570662496
 21
1119.000622647646
 31
0.0
  0
LINE
  5
15F3
330
1F
100
AcDbEntity
  8
HEWI
100
AcDbLine
 10
1796.690570662496
 20
1119.000622647646
 30
0.0
 11
1785.690570887047
 21
1118.998400011232
 31
0.0
  0
LWPOLYLINE
  5
15F4
330
1F
100
AcDbEntity
  8
HEWI
100
AcDbPolyline
 90
        2
 70
     0
 43
0.0
 10
1784.690368849605
 20
1119.998197932962
 10
1784.67662891541
 20
1187.99819654483
  0
ARC
  5
15F5
330
1F
100
AcDbEntity
  8
HEWI
100
AcDbCircle
 10
1785.676628894997
 20
1187.998398602686
 30
0.0
 40
1.0
100
AcDbArc
 50
90.01157706243692
 51
180.0115770624336
  0
ARC
  5
15F6
330
1F
100
AcDbEntity
  8
HEWI
100
AcDbCircle
 10
1785.690368829191
 20
1119.998399990818
 30
0.0
 40
1.0
100
AcDbArc
 50
180.0115770624336
 51
270.0115770624369
  0
LINE
  5
15F7
330
1F
100
AcDbEntity
  8
HEWI
100
AcDbLine
 10
807.6905704379464
 20
1188.998398582272
 30
0.0
 11
796.6905706624966
 21
1189.000621218687
 31
0.0
  0
LINE
  5
15F8
330
1F
100
AcDbEntity
  8
HEWI
100
AcDbLine
 10
796.6905706624966
 20
1189.000621218687
 30
0.0
 11
796.6764266125903
 21
1119.000622647646
 31
0.0
  0
LINE
  5
15F9
330
1F
100
AcDbEntity
  8
HEWI
100
AcDbLine
 10
796.6764266125903
 20
1119.000622647646
 30
0.0
 11
807.6764263880395
 21
1118.998400011232
 31
0.0
  0
LWPOLYLINE
  5
15FA
330
1F
100
AcDbEntity
  8
HEWI
100
AcDbPolyline
 90
        2
 70
     0
 43
0.0
 10
808.6766284254816
 20
1119.998197932962
 10
808.6903683596766
 20
1187.99819654483
  0
ARC
  5
15FB
330
1F
100
AcDbEntity
  8
HEWI
100
AcDbCircle
 10
807.6903683800894
 20
1187.998398602686
 30
0.0
 40
1.0
100
AcDbArc
 50
359.9884229375663
 51
89.98842293756306
  0
ARC
  5
15FC
330
1F
100
AcDbEntity
  8
HEWI
100
AcDbCircle
 10
807.6766284458953
 20
1119.998399990818
 30
0.0
 40
1.0
100
AcDbArc
 50
269.9884229375631
 51
359.9884229375663
  0
LINE
  5
15FD
330
1F
100
AcDbEntity
  8
HEWI
  6
IMPORT
 62
     7
100
AcDbLine
 10
1160.602106838195
 20
1166.500621933166
 30
0.0
 11
1190.602107434242
 21
1166.500621933166
 31
0.0
  0
LINE
  5
15FE
330
1F
100
AcDbEntity
  8
HEWI
  6
IMPORT
 62
     7
100
AcDbLine
 10
1120.602105050056
 20
1166.500621933166
 30
0.0
 11
1150.602107434242
 21
1166.500621933166
 31
0.0
  0
LINE
  5
15FF
330
1F
100
AcDbEntity
  8
HEWI
  6
IMPORT
 62
     7
100
AcDbLine
 10
1080.602109818427
 20
1166.500621933166
 30
0.0
 11
1110.602105050056
 21
1166.500621933166
 31
0.0
  0
LINE
  5
1600
330
1F
100
AcDbEntity
  8
HEWI
  6
IMPORT
 62
     7
100
AcDbLine
 10
1040.602109818427
 20
1166.500621933166
 30
0.0
 11
1070.602109818427
 21
1166.500621933166
 31
0.0
  0
LINE
  5
1601
330
1F
100
AcDbEntity
  8
HEWI
  6
IMPORT
 62
     7
100
AcDbLine
 10
1000.602109818427
 20
1166.500621933166
 30
0.0
 11
1030.602109818427
 21
1166.500621933166
 31
0.0
  0
LINE
  5
1602
330
1F
100
AcDbEntity
  8
HEWI
  6
IMPORT
 62
     7
100
AcDbLine
 10
960.6021098184276
 20
1166.500621933166
 30
0.0
 11
990.6021098184275
 21
1166.500621933166
 31
0.0
  0
LINE
  5
1603
330
1F
100
AcDbEntity
  8
HEWI
  6
IMPORT
 62
     7
100
AcDbLine
 10
920.6021098184276
 20
1166.500621933166
 30
0.0
 11
950.6021098184275
 21
1166.500621933166
 31
0.0
  0
LINE
  5
1604
330
1F
100
AcDbEntity
  8
HEWI
  6
IMPORT
 62
     7
100
AcDbLine
 10
880.6021098184276
 20
1166.500621933166
 30
0.0
 11
910.6021098184276
 21
1166.500621933166
 31
0.0
  0
LINE
  5
1605
330
1F
100
AcDbEntity
  8
HEWI
  6
IMPORT
 62
     7
100
AcDbLine
 10
1193.602106957404
 20
1151.182132858459
 30
0.0
 11
1197.602107911079
 21
1151.182132858459
 31
0.0
  0
LINE
  5
1606
330
1F
100
AcDbEntity
  8
HEWI
  6
IMPORT
 62
     7
100
AcDbLine
 10
1153.602106957404
 20
1151.182132858459
 30
0.0
 11
1157.602106718986
 21
1151.182132858459
 31
0.0
  0
LINE
  5
1607
330
1F
100
AcDbEntity
  8
HEWI
  6
IMPORT
 62
     7
100
AcDbLine
 10
1113.602106957404
 20
1151.182132858459
 30
0.0
 11
1117.602107911079
 21
1151.182132858459
 31
0.0
  0
LINE
  5
1608
330
1F
100
AcDbEntity
  8
HEWI
  6
IMPORT
 62
     7
100
AcDbLine
 10
1073.602111725776
 20
1151.182132858459
 30
0.0
 11
1077.602107911079
 21
1151.182132858459
 31
0.0
  0
LINE
  5
1609
330
1F
100
AcDbEntity
  8
HEWI
  6
IMPORT
 62
     7
100
AcDbLine
 10
1033.602111725776
 20
1151.182132858459
 30
0.0
 11
1037.602107911079
 21
1151.182132858459
 31
0.0
  0
LINE
  5
160A
330
1F
100
AcDbEntity
  8
HEWI
  6
IMPORT
 62
     7
100
AcDbLine
 10
993.6021021890331
 20
1151.182132858459
 30
0.0
 11
997.6020983743358
 21
1151.182132858459
 31
0.0
  0
LINE
  5
160B
330
1F
100
AcDbEntity
  8
HEWI
  6
IMPORT
 62
     7
100
AcDbLine
 10
953.6021021890331
 20
1151.182132858459
 30
0.0
 11
957.6020983743358
 21
1151.182132858459
 31
0.0
  0
LINE
  5
160C
330
1F
100
AcDbEntity
  8
HEWI
  6
IMPORT
 62
     7
100
AcDbLine
 10
913.602102189033
 20
1151.182132858459
 30
0.0
 11
917.6020983743358
 21
1151.182132858459
 31
0.0
  0
LINE
  5
160D
330
1F
100
AcDbEntity
  8
HEWI
  6
IMPORT
 62
     7
100
AcDbLine
 10
873.602102189033
 20
1151.182132858459
 30
0.0
 11
877.6020983743357
 21
1151.182132858459
 31
0.0
  0
LINE
  5
160E
330
1F
100
AcDbEntity
  8
HEWI
  6
IMPORT
 62
     7
100
AcDbLine
 10
1195.002108006446
 20
1176.182132858459
 30
0.0
 11
1196.202106862037
 21
1176.182132858459
 31
0.0
  0
LINE
  5
160F
330
1F
100
AcDbEntity
  8
HEWI
  6
IMPORT
 62
     7
100
AcDbLine
 10
1155.002106814353
 20
1176.182132858459
 30
0.0
 11
1156.202106862037
 21
1176.182132858459
 31
0.0
  0
LINE
  5
1610
330
1F
100
AcDbEntity
  8
HEWI
  6
IMPORT
 62
     7
100
AcDbLine
 10
1115.00210562226
 20
1176.182132858459
 30
0.0
 11
1116.202109246223
 21
1176.182132858459
 31
0.0
  0
LINE
  5
1611
330
1F
100
AcDbEntity
  8
HEWI
  6
IMPORT
 62
     7
100
AcDbLine
 10
1075.00210562226
 20
1176.182132858459
 30
0.0
 11
1076.202104477851
 21
1176.182132858459
 31
0.0
  0
LINE
  5
1612
330
1F
100
AcDbEntity
  8
HEWI
  6
IMPORT
 62
     7
100
AcDbLine
 10
1035.00210562226
 20
1176.182132858459
 30
0.0
 11
1036.202104477851
 21
1176.182132858459
 31
0.0
  0
LINE
  5
1613
330
1F
100
AcDbEntity
  8
HEWI
  6
IMPORT
 62
     7
100
AcDbLine
 10
995.0021151590037
 20
1176.182132858459
 30
0.0
 11
996.2021044778515
 21
1176.182132858459
 31
0.0
  0
LINE
  5
1614
330
1F
100
AcDbEntity
  8
HEWI
  6
IMPORT
 62
     7
100
AcDbLine
 10
955.0021151590037
 20
1176.182132858459
 30
0.0
 11
956.2021044778514
 21
1176.182132858459
 31
0.0
  0
LINE
  5
1615
330
1F
100
AcDbEntity
  8
HEWI
  6
IMPORT
 62
     7
100
AcDbLine
 10
915.0021151590037
 20
1176.182132858459
 30
0.0
 11
916.2021044778514
 21
1176.182132858459
 31
0.0
  0
LINE
  5
1616
330
1F
100
AcDbEntity
  8
HEWI
  6
IMPORT
 62
     7
100
AcDbLine
 10
875.0021151590038
 20
1176.182132858459
 30
0.0
 11
876.2021044778514
 21
1176.182132858459
 31
0.0
  0
LINE
  5
1617
330
1F
100
AcDbEntity
  8
HEWI
  6
IMPORT
 62
     7
100
AcDbLine
 10
1196.264224904138
 20
1125.182109970275
 30
0.0
 11
1197.464223759729
 21
1125.182109970275
 31
0.0
  0
LINE
  5
1618
330
1F
100
AcDbEntity
  8
HEWI
  6
IMPORT
 62
     7
100
AcDbLine
 10
1156.264223712045
 20
1125.182109970275
 30
0.0
 11
1157.464223759729
 21
1125.182109970275
 31
0.0
  0
LINE
  5
1619
330
1F
100
AcDbEntity
  8
HEWI
  6
IMPORT
 62
     7
100
AcDbLine
 10
1116.264222519952
 20
1125.182109970275
 30
0.0
 11
1117.464226143914
 21
1125.182109970275
 31
0.0
  0
LINE
  5
161A
330
1F
100
AcDbEntity
  8
HEWI
  6
IMPORT
 62
     7
100
AcDbLine
 10
1076.264222519952
 20
1125.182109970275
 30
0.0
 11
1077.464221375543
 21
1125.182109970275
 31
0.0
  0
LINE
  5
161B
330
1F
100
AcDbEntity
  8
HEWI
  6
IMPORT
 62
     7
100
AcDbLine
 10
1036.264222519952
 20
1125.182109970275
 30
0.0
 11
1037.464221375543
 21
1125.182109970275
 31
0.0
  0
LINE
  5
161C
330
1F
100
AcDbEntity
  8
HEWI
  6
IMPORT
 62
     7
100
AcDbLine
 10
996.2642320566954
 20
1125.182109970275
 30
0.0
 11
997.464221375543
 21
1125.182109970275
 31
0.0
  0
LINE
  5
161D
330
1F
100
AcDbEntity
  8
HEWI
  6
IMPORT
 62
     7
100
AcDbLine
 10
956.2642320566954
 20
1125.182109970275
 30
0.0
 11
957.464221375543
 21
1125.182109970275
 31
0.0
  0
LINE
  5
161E
330
1F
100
AcDbEntity
  8
HEWI
  6
IMPORT
 62
     7
100
AcDbLine
 10
916.2642320566954
 20
1125.182109970275
 30
0.0
 11
917.4642213755431
 21
1125.182109970275
 31
0.0
  0
LINE
  5
161F
330
1F
100
AcDbEntity
  8
HEWI
  6
IMPORT
 62
     7
100
AcDbLine
 10
876.2642320566953
 20
1125.182109970275
 30
0.0
 11
877.4642213755431
 21
1125.182109970275
 31
0.0
  0
LINE
  5
1620
330
1F
100
AcDbEntity
  8
HEWI
  6
IMPORT
 62
     7
100
AcDbLine
 10
1198.799734967309
 20
1137.294307846252
 30
0.0
 11
1199.057503598291
 21
1137.195087570373
 31
0.0
  0
LINE
  5
1621
330
1F
100
AcDbEntity
  8
HEWI
  6
IMPORT
 62
     7
100
AcDbLine
 10
1194.670933144647
 20
1137.195087570373
 30
0.0
 11
1195.12201394375
 21
1137.317424911682
 31
0.0
  0
LINE
  5
1622
330
1F
100
AcDbEntity
  8
HEWI
  6
IMPORT
 62
     7
100
AcDbLine
 10
1158.799733775216
 20
1137.294307846252
 30
0.0
 11
1159.057503598291
 21
1137.195087570373
 31
0.0
  0
LINE
  5
1623
330
1F
100
AcDbEntity
  8
HEWI
  6
IMPORT
 62
     7
100
AcDbLine
 10
1154.67093433674
 20
1137.195087570373
 30
0.0
 11
1155.12201394375
 21
1137.317424911682
 31
0.0
  0
LINE
  5
1624
330
1F
100
AcDbEntity
  8
HEWI
  6
IMPORT
 62
     7
100
AcDbLine
 10
1118.799732583124
 20
1137.294307846252
 30
0.0
 11
1119.057505982476
 21
1137.195087570373
 31
0.0
  0
LINE
  5
1625
330
1F
100
AcDbEntity
  8
HEWI
  6
IMPORT
 62
     7
100
AcDbLine
 10
1114.670933144647
 20
1137.195087570373
 30
0.0
 11
1115.122011559564
 21
1137.317424911682
 31
0.0
  0
LINE
  5
1626
330
1F
100
AcDbEntity
  8
HEWI
  6
IMPORT
 62
     7
100
AcDbLine
 10
1078.799737351495
 20
1137.294307846252
 30
0.0
 11
1079.057505982476
 21
1137.195087570373
 31
0.0
  0
LINE
  5
1627
330
1F
100
AcDbEntity
  8
HEWI
  6
IMPORT
 62
     7
100
AcDbLine
 10
1074.670937913018
 20
1137.195087570373
 30
0.0
 11
1075.122016327935
 21
1137.317424911682
 31
0.0
  0
LINE
  5
1628
330
1F
100
AcDbEntity
  8
HEWI
  6
IMPORT
 62
     7
100
AcDbLine
 10
1038.799737351495
 20
1137.294307846252
 30
0.0
 11
1039.057505982476
 21
1137.195087570373
 31
0.0
  0
LINE
  5
1629
330
1F
100
AcDbEntity
  8
HEWI
  6
IMPORT
 62
     7
100
AcDbLine
 10
1034.670937913019
 20
1137.195087570373
 30
0.0
 11
1035.122016327935
 21
1137.317424911682
 31
0.0
  0
LINE
  5
162A
330
1F
100
AcDbEntity
  8
HEWI
  6
IMPORT
 62
     7
100
AcDbLine
 10
998.7997278147521
 20
1137.294307846252
 30
0.0
 11
999.0575059824767
 21
1137.195087570373
 31
0.0
  0
LINE
  5
162B
330
1F
100
AcDbEntity
  8
HEWI
  6
IMPORT
 62
     7
100
AcDbLine
 10
994.6709283762755
 20
1137.195087570373
 30
0.0
 11
995.1220163279357
 21
1137.317424911682
 31
0.0
  0
LINE
  5
162C
330
1F
100
AcDbEntity
  8
HEWI
  6
IMPORT
 62
     7
100
AcDbLine
 10
958.799727814752
 20
1137.294307846252
 30
0.0
 11
959.0575059824766
 21
1137.195087570373
 31
0.0
  0
LINE
  5
162D
330
1F
100
AcDbEntity
  8
HEWI
  6
IMPORT
 62
     7
100
AcDbLine
 10
954.6709283762755
 20
1137.195087570373
 30
0.0
 11
955.1220163279356
 21
1137.317424911682
 31
0.0
  0
LINE
  5
162E
330
1F
100
AcDbEntity
  8
HEWI
  6
IMPORT
 62
     7
100
AcDbLine
 10
918.799727814752
 20
1137.294307846252
 30
0.0
 11
919.0575059824766
 21
1137.195087570373
 31
0.0
  0
LINE
  5
162F
330
1F
100
AcDbEntity
  8
HEWI
  6
IMPORT
 62
     7
100
AcDbLine
 10
914.6709283762755
 20
1137.195087570373
 30
0.0
 11
915.1220163279356
 21
1137.317424911682
 31
0.0
  0
LINE
  5
1630
330
1F
100
AcDbEntity
  8
HEWI
  6
IMPORT
 62
     7
100
AcDbLine
 10
878.7997278147519
 20
1137.294307846252
 30
0.0
 11
879.0575059824766
 21
1137.195087570373
 31
0.0
  0
LINE
  5
1631
330
1F
100
AcDbEntity
  8
HEWI
  6
IMPORT
 62
     7
100
AcDbLine
 10
874.6709283762754
 20
1137.195087570373
 30
0.0
 11
875.1220163279356
 21
1137.317424911682
 31
0.0
  0
LINE
  5
1632
330
1F
100
AcDbEntity
  8
HEWI
  6
IMPORT
 62
     7
100
AcDbLine
 10
1196.352423089105
 20
1137.464481491271
 30
0.0
 11
1197.566083329278
 21
1137.441745895569
 31
0.0
  0
LINE
  5
1633
330
1F
100
AcDbEntity
  8
HEWI
  6
IMPORT
 62
     7
100
AcDbLine
 10
1156.352424281198
 20
1137.464481491271
 30
0.0
 11
1157.566083329278
 21
1137.441745895569
 31
0.0
  0
LINE
  5
1634
330
1F
100
AcDbEntity
  8
HEWI
  6
IMPORT
 62
     7
100
AcDbLine
 10
1116.352423089105
 20
1137.464481491271
 30
0.0
 11
1117.566083329278
 21
1137.441745895569
 31
0.0
  0
LINE
  5
1635
330
1F
100
AcDbEntity
  8
HEWI
  6
IMPORT
 62
     7
100
AcDbLine
 10
1076.352427857476
 20
1137.464481491271
 30
0.0
 11
1077.566083329278
 21
1137.441745895569
 31
0.0
  0
LINE
  5
1636
330
1F
100
AcDbEntity
  8
HEWI
  6
IMPORT
 62
     7
100
AcDbLine
 10
1036.352427857476
 20
1137.464481491271
 30
0.0
 11
1037.566083329278
 21
1137.441745895569
 31
0.0
  0
LINE
  5
1637
330
1F
100
AcDbEntity
  8
HEWI
  6
IMPORT
 62
     7
100
AcDbLine
 10
996.3524278574766
 20
1137.464481491271
 30
0.0
 11
997.5660928660216
 21
1137.441745895569
 31
0.0
  0
LINE
  5
1638
330
1F
100
AcDbEntity
  8
HEWI
  6
IMPORT
 62
     7
100
AcDbLine
 10
956.3524278574766
 20
1137.464481491271
 30
0.0
 11
957.5660928660216
 21
1137.441745895569
 31
0.0
  0
LINE
  5
1639
330
1F
100
AcDbEntity
  8
HEWI
  6
IMPORT
 62
     7
100
AcDbLine
 10
916.3524278574767
 20
1137.464481491271
 30
0.0
 11
917.5660928660215
 21
1137.441745895569
 31
0.0
  0
LINE
  5
163A
330
1F
100
AcDbEntity
  8
HEWI
  6
IMPORT
 62
     7
100
AcDbLine
 10
876.3524278574767
 20
1137.464481491271
 30
0.0
 11
877.5660928660215
 21
1137.441745895569
 31
0.0
  0
LINE
  5
163B
330
1F
100
AcDbEntity
  8
HEWI
  6
IMPORT
 62
     7
100
AcDbLine
 10
870.6021098184276
 20
1153.682132858459
 30
0.0
 11
870.6021098184276
 21
1172.443653244201
 31
0.0
  0
LINE
  5
163C
330
1F
100
AcDbEntity
  8
HEWI
  6
IMPORT
 62
     7
100
AcDbLine
 10
871.8642267161191
 20
1128.920627731506
 30
0.0
 11
871.8642267161191
 21
1141.500621933166
 31
0.0
  0
LINE
  5
163D
330
1F
100
AcDbEntity
  8
HEWI
  6
IMPORT
 62
     7
100
AcDbLine
 10
880.6021098184276
 20
1153.682132858459
 30
0.0
 11
880.6021098184276
 21
1172.443653244201
 31
0.0
  0
LINE
  5
163E
330
1F
100
AcDbEntity
  8
HEWI
  6
IMPORT
 62
     7
100
AcDbLine
 10
881.8642267161193
 20
1128.920627731506
 30
0.0
 11
881.8642267161193
 21
1141.500621933166
 31
0.0
  0
LINE
  5
163F
330
1F
100
AcDbEntity
  8
HEWI
  6
IMPORT
 62
     7
100
AcDbLine
 10
910.6021098184276
 20
1153.682132858459
 30
0.0
 11
910.6021098184276
 21
1172.443653244201
 31
0.0
  0
LINE
  5
1640
330
1F
100
AcDbEntity
  8
HEWI
  6
IMPORT
 62
     7
100
AcDbLine
 10
911.8642267161192
 20
1128.920627731506
 30
0.0
 11
911.8642267161192
 21
1141.500621933166
 31
0.0
  0
LINE
  5
1641
330
1F
100
AcDbEntity
  8
HEWI
  6
IMPORT
 62
     7
100
AcDbLine
 10
920.6021098184276
 20
1153.682132858459
 30
0.0
 11
920.6021098184276
 21
1172.443653244201
 31
0.0
  0
LINE
  5
1642
330
1F
100
AcDbEntity
  8
HEWI
  6
IMPORT
 62
     7
100
AcDbLine
 10
921.8642267161191
 20
1128.920627731506
 30
0.0
 11
921.8642267161191
 21
1141.500621933166
 31
0.0
  0
LINE
  5
1643
330
1F
100
AcDbEntity
  8
HEWI
  6
IMPORT
 62
     7
100
AcDbLine
 10
950.6021098184275
 20
1153.682132858459
 30
0.0
 11
950.6021098184275
 21
1172.443653244201
 31
0.0
  0
LINE
  5
1644
330
1F
100
AcDbEntity
  8
HEWI
  6
IMPORT
 62
     7
100
AcDbLine
 10
951.8642267161192
 20
1128.920627731506
 30
0.0
 11
951.8642267161192
 21
1141.500621933166
 31
0.0
  0
LINE
  5
1645
330
1F
100
AcDbEntity
  8
HEWI
  6
IMPORT
 62
     7
100
AcDbLine
 10
960.6021098184276
 20
1153.682132858459
 30
0.0
 11
960.6021098184276
 21
1172.443653244201
 31
0.0
  0
LINE
  5
1646
330
1F
100
AcDbEntity
  8
HEWI
  6
IMPORT
 62
     7
100
AcDbLine
 10
961.8642267161192
 20
1128.920627731506
 30
0.0
 11
961.8642267161192
 21
1141.500621933166
 31
0.0
  0
LINE
  5
1647
330
1F
100
AcDbEntity
  8
HEWI
  6
IMPORT
 62
     7
100
AcDbLine
 10
990.6021098184275
 20
1153.682132858459
 30
0.0
 11
990.6021098184275
 21
1172.443653244201
 31
0.0
  0
LINE
  5
1648
330
1F
100
AcDbEntity
  8
HEWI
  6
IMPORT
 62
     7
100
AcDbLine
 10
991.8642267161192
 20
1128.920627731506
 30
0.0
 11
991.8642267161192
 21
1141.500621933166
 31
0.0
  0
LINE
  5
1649
330
1F
100
AcDbEntity
  8
HEWI
  6
IMPORT
 62
     7
100
AcDbLine
 10
1000.602109818427
 20
1153.682132858459
 30
0.0
 11
1000.602109818427
 21
1172.443653244201
 31
0.0
  0
LINE
  5
164A
330
1F
100
AcDbEntity
  8
HEWI
  6
IMPORT
 62
     7
100
AcDbLine
 10
1001.864226716119
 20
1128.920627731506
 30
0.0
 11
1001.864226716119
 21
1141.500621933166
 31
0.0
  0
LINE
  5
164B
330
1F
100
AcDbEntity
  8
HEWI
  6
IMPORT
 62
     7
100
AcDbLine
 10
1030.602109818427
 20
1153.682132858459
 30
0.0
 11
1030.602109818427
 21
1172.443653244201
 31
0.0
  0
LINE
  5
164C
330
1F
100
AcDbEntity
  8
HEWI
  6
IMPORT
 62
     7
100
AcDbLine
 10
1031.864226716119
 20
1128.920627731506
 30
0.0
 11
1031.864226716119
 21
1141.500621933166
 31
0.0
  0
LINE
  5
164D
330
1F
100
AcDbEntity
  8
HEWI
  6
IMPORT
 62
     7
100
AcDbLine
 10
1040.602109818427
 20
1153.682132858459
 30
0.0
 11
1040.602109818427
 21
1172.443653244201
 31
0.0
  0
LINE
  5
164E
330
1F
100
AcDbEntity
  8
HEWI
  6
IMPORT
 62
     7
100
AcDbLine
 10
1041.864226716119
 20
1128.920627731506
 30
0.0
 11
1041.864226716119
 21
1141.500621933166
 31
0.0
  0
LINE
  5
164F
330
1F
100
AcDbEntity
  8
HEWI
  6
IMPORT
 62
     7
100
AcDbLine
 10
1070.602109818427
 20
1153.682132858459
 30
0.0
 11
1070.602109818427
 21
1172.443653244201
 31
0.0
  0
LINE
  5
1650
330
1F
100
AcDbEntity
  8
HEWI
  6
IMPORT
 62
     7
100
AcDbLine
 10
1071.864226716119
 20
1128.920627731506
 30
0.0
 11
1071.864226716119
 21
1141.500621933166
 31
0.0
  0
LINE
  5
1651
330
1F
100
AcDbEntity
  8
HEWI
  6
IMPORT
 62
     7
100
AcDbLine
 10
1080.602109818427
 20
1153.682132858459
 30
0.0
 11
1080.602109818427
 21
1172.443653244201
 31
0.0
  0
LINE
  5
1652
330
1F
100
AcDbEntity
  8
HEWI
  6
IMPORT
 62
     7
100
AcDbLine
 10
1081.864226716119
 20
1128.920627731506
 30
0.0
 11
1081.864226716119
 21
1141.500621933166
 31
0.0
  0
LINE
  5
1653
330
1F
100
AcDbEntity
  8
HEWI
  6
IMPORT
 62
     7
100
AcDbLine
 10
1110.602105050056
 20
1153.682132858459
 30
0.0
 11
1110.602105050056
 21
1172.443653244201
 31
0.0
  0
LINE
  5
1654
330
1F
100
AcDbEntity
  8
HEWI
  6
IMPORT
 62
     7
100
AcDbLine
 10
1111.864221947747
 20
1128.920627731506
 30
0.0
 11
1111.864221947747
 21
1141.500621933166
 31
0.0
  0
LINE
  5
1655
330
1F
100
AcDbEntity
  8
HEWI
  6
IMPORT
 62
     7
100
AcDbLine
 10
1120.602105050056
 20
1153.682132858459
 30
0.0
 11
1120.602105050056
 21
1172.443653244201
 31
0.0
  0
LINE
  5
1656
330
1F
100
AcDbEntity
  8
HEWI
  6
IMPORT
 62
     7
100
AcDbLine
 10
1121.864221947747
 20
1128.920627731506
 30
0.0
 11
1121.864221947747
 21
1141.500621933166
 31
0.0
  0
LINE
  5
1657
330
1F
100
AcDbEntity
  8
HEWI
  6
IMPORT
 62
     7
100
AcDbLine
 10
1150.602107434242
 20
1153.682132858459
 30
0.0
 11
1150.602107434242
 21
1172.443653244201
 31
0.0
  0
LINE
  5
1658
330
1F
100
AcDbEntity
  8
HEWI
  6
IMPORT
 62
     7
100
AcDbLine
 10
1151.864224331933
 20
1128.920627731506
 30
0.0
 11
1151.864224331933
 21
1141.500621933166
 31
0.0
  0
LINE
  5
1659
330
1F
100
AcDbEntity
  8
HEWI
  6
IMPORT
 62
     7
100
AcDbLine
 10
1160.602106838195
 20
1153.682132858459
 30
0.0
 11
1160.602106838195
 21
1172.443653244201
 31
0.0
  0
LINE
  5
165A
330
1F
100
AcDbEntity
  8
HEWI
  6
IMPORT
 62
     7
100
AcDbLine
 10
1161.864223735887
 20
1128.920627731506
 30
0.0
 11
1161.864223735887
 21
1141.500621933166
 31
0.0
  0
LINE
  5
165B
330
1F
100
AcDbEntity
  8
HEWI
  6
IMPORT
 62
     7
100
AcDbLine
 10
1190.602107434242
 20
1153.682132858459
 30
0.0
 11
1190.602107434242
 21
1172.443653244201
 31
0.0
  0
LINE
  5
165C
330
1F
100
AcDbEntity
  8
HEWI
  6
IMPORT
 62
     7
100
AcDbLine
 10
1191.864224331933
 20
1128.920627731506
 30
0.0
 11
1191.864224331933
 21
1141.500621933166
 31
0.0
  0
LINE
  5
165D
330
1F
100
AcDbEntity
  8
HEWI
  6
IMPORT
 62
     7
100
AcDbLine
 10
1200.602107434242
 20
1153.682132858459
 30
0.0
 11
1200.602107434242
 21
1172.443653244201
 31
0.0
  0
LINE
  5
165E
330
1F
100
AcDbEntity
  8
HEWI
  6
IMPORT
 62
     7
100
AcDbLine
 10
1201.864224331933
 20
1128.920627731506
 30
0.0
 11
1201.864224331933
 21
1141.500621933166
 31
0.0
  0
LINE
  5
165F
330
1F
100
AcDbEntity
  8
HEWI
  6
IMPORT
 62
     7
100
AcDbLine
 10
872.4147066050353
 20
1135.839229721252
 30
0.0
 11
873.3190568857969
 21
1136.652408737365
 31
0.0
  0
LINE
  5
1660
330
1F
100
AcDbEntity
  8
HEWI
  6
IMPORT
 62
     7
100
AcDbLine
 10
912.4147066050353
 20
1135.839229721252
 30
0.0
 11
913.3190568857969
 21
1136.652408737365
 31
0.0
  0
LINE
  5
1661
330
1F
100
AcDbEntity
  8
HEWI
  6
IMPORT
 62
     7
100
AcDbLine
 10
952.4147066050351
 20
1135.839229721252
 30
0.0
 11
953.3190568857969
 21
1136.652408737365
 31
0.0
  0
LINE
  5
1662
330
1F
100
AcDbEntity
  8
HEWI
  6
IMPORT
 62
     7
100
AcDbLine
 10
992.4147066050352
 20
1135.839229721252
 30
0.0
 11
993.319056885797
 21
1136.652408737365
 31
0.0
  0
LINE
  5
1663
330
1F
100
AcDbEntity
  8
HEWI
  6
IMPORT
 62
     7
100
AcDbLine
 10
1032.414706605035
 20
1135.839229721252
 30
0.0
 11
1033.319056885797
 21
1136.652408737365
 31
0.0
  0
LINE
  5
1664
330
1F
100
AcDbEntity
  8
HEWI
  6
IMPORT
 62
     7
100
AcDbLine
 10
1072.414706605035
 20
1135.839229721252
 30
0.0
 11
1073.319056885797
 21
1136.652408737365
 31
0.0
  0
LINE
  5
1665
330
1F
100
AcDbEntity
  8
HEWI
  6
IMPORT
 62
     7
100
AcDbLine
 10
1112.414701836663
 20
1135.839229721252
 30
0.0
 11
1113.319052117425
 21
1136.652408737365
 31
0.0
  0
LINE
  5
1666
330
1F
100
AcDbEntity
  8
HEWI
  6
IMPORT
 62
     7
100
AcDbLine
 10
1152.414704220849
 20
1135.839229721252
 30
0.0
 11
1153.319053309518
 21
1136.652408737365
 31
0.0
  0
LINE
  5
1667
330
1F
100
AcDbEntity
  8
HEWI
  6
IMPORT
 62
     7
100
AcDbLine
 10
1192.414704220849
 20
1135.839229721252
 30
0.0
 11
1193.319054501611
 21
1136.652408737365
 31
0.0
  0
LINE
  5
1668
330
1F
100
AcDbEntity
  8
HEWI
  6
IMPORT
 62
     7
100
AcDbLine
 10
870.8304575967479
 20
1152.725444931213
 30
0.0
 11
871.4807871865916
 21
1151.914363998596
 31
0.0
  0
LINE
  5
1669
330
1F
100
AcDbEntity
  8
HEWI
  6
IMPORT
 62
     7
100
AcDbLine
 10
910.8304575967478
 20
1152.725444931213
 30
0.0
 11
911.4807871865917
 21
1151.914363998596
 31
0.0
  0
LINE
  5
166A
330
1F
100
AcDbEntity
  8
HEWI
  6
IMPORT
 62
     7
100
AcDbLine
 10
950.8304575967478
 20
1152.725444931213
 30
0.0
 11
951.4807871865917
 21
1151.914363998596
 31
0.0
  0
LINE
  5
166B
330
1F
100
AcDbEntity
  8
HEWI
  6
IMPORT
 62
     7
100
AcDbLine
 10
990.8304575967479
 20
1152.725444931213
 30
0.0
 11
991.4807871865916
 21
1151.914363998596
 31
0.0
  0
LINE
  5
166C
330
1F
100
AcDbEntity
  8
HEWI
  6
IMPORT
 62
     7
100
AcDbLine
 10
1030.830467133491
 20
1152.725444931213
 30
0.0
 11
1031.480787186591
 21
1151.914363998596
 31
0.0
  0
LINE
  5
166D
330
1F
100
AcDbEntity
  8
HEWI
  6
IMPORT
 62
     7
100
AcDbLine
 10
1070.830467133491
 20
1152.725444931213
 30
0.0
 11
1071.480787186591
 21
1151.914363998596
 31
0.0
  0
LINE
  5
166E
330
1F
100
AcDbEntity
  8
HEWI
  6
IMPORT
 62
     7
100
AcDbLine
 10
1110.830467133491
 20
1152.725444931213
 30
0.0
 11
1111.480787186591
 21
1151.914363998596
 31
0.0
  0
LINE
  5
166F
330
1F
100
AcDbEntity
  8
HEWI
  6
IMPORT
 62
     7
100
AcDbLine
 10
1150.830467133491
 20
1152.725444931213
 30
0.0
 11
1151.480787186591
 21
1151.914363998596
 31
0.0
  0
LINE
  5
1670
330
1F
100
AcDbEntity
  8
HEWI
  6
IMPORT
 62
     7
100
AcDbLine
 10
1190.830467133491
 20
1152.725444931213
 30
0.0
 11
1191.480787186591
 21
1151.914363998596
 31
0.0
  0
LINE
  5
1671
330
1F
100
AcDbEntity
  8
HEWI
  6
IMPORT
 62
     7
100
AcDbLine
 10
879.3133715676951
 20
1175.087162155334
 30
0.0
 11
880.2671793985057
 21
1173.874317306701
 31
0.0
  0
LINE
  5
1672
330
1F
100
AcDbEntity
  8
HEWI
  6
IMPORT
 62
     7
100
AcDbLine
 10
872.199157136041
 20
1127.489963669006
 30
0.0
 11
873.1529458933653
 21
1126.277118820373
 31
0.0
  0
LINE
  5
1673
330
1F
100
AcDbEntity
  8
HEWI
  6
IMPORT
 62
     7
100
AcDbLine
 10
919.3133715676951
 20
1175.087162155334
 30
0.0
 11
920.2671793985057
 21
1173.874317306701
 31
0.0
  0
LINE
  5
1674
330
1F
100
AcDbEntity
  8
HEWI
  6
IMPORT
 62
     7
100
AcDbLine
 10
912.199157136041
 20
1127.489963669006
 30
0.0
 11
913.1529458933654
 21
1126.277118820373
 31
0.0
  0
LINE
  5
1675
330
1F
100
AcDbEntity
  8
HEWI
  6
IMPORT
 62
     7
100
AcDbLine
 10
959.3133715676952
 20
1175.087162155334
 30
0.0
 11
960.2671793985058
 21
1173.874317306701
 31
0.0
  0
LINE
  5
1676
330
1F
100
AcDbEntity
  8
HEWI
  6
IMPORT
 62
     7
100
AcDbLine
 10
952.1991571360411
 20
1127.489963669006
 30
0.0
 11
953.1529458933652
 21
1126.277118820373
 31
0.0
  0
LINE
  5
1677
330
1F
100
AcDbEntity
  8
HEWI
  6
IMPORT
 62
     7
100
AcDbLine
 10
999.3133715676952
 20
1175.087162155334
 30
0.0
 11
1000.267179398505
 21
1173.874317306701
 31
0.0
  0
LINE
  5
1678
330
1F
100
AcDbEntity
  8
HEWI
  6
IMPORT
 62
     7
100
AcDbLine
 10
992.1991571360411
 20
1127.489963669006
 30
0.0
 11
993.1529458933653
 21
1126.277118820373
 31
0.0
  0
LINE
  5
1679
330
1F
100
AcDbEntity
  8
HEWI
  6
IMPORT
 62
     7
100
AcDbLine
 10
1039.313381104438
 20
1175.087162155334
 30
0.0
 11
1040.267179398505
 21
1173.874317306701
 31
0.0
  0
LINE
  5
167A
330
1F
100
AcDbEntity
  8
HEWI
  6
IMPORT
 62
     7
100
AcDbLine
 10
1032.199157136041
 20
1127.489963669006
 30
0.0
 11
1033.152955430108
 21
1126.277118820373
 31
0.0
  0
LINE
  5
167B
330
1F
100
AcDbEntity
  8
HEWI
  6
IMPORT
 62
     7
100
AcDbLine
 10
1079.313381104438
 20
1175.087162155334
 30
0.0
 11
1080.267179398505
 21
1173.874317306701
 31
0.0
  0
LINE
  5
167C
330
1F
100
AcDbEntity
  8
HEWI
  6
IMPORT
 62
     7
100
AcDbLine
 10
1072.199157136041
 20
1127.489963669006
 30
0.0
 11
1073.152955430108
 21
1126.277118820373
 31
0.0
  0
LINE
  5
167D
330
1F
100
AcDbEntity
  8
HEWI
  6
IMPORT
 62
     7
100
AcDbLine
 10
1119.313376336067
 20
1175.087162155334
 30
0.0
 11
1120.267174630134
 21
1173.874317306701
 31
0.0
  0
LINE
  5
167E
330
1F
100
AcDbEntity
  8
HEWI
  6
IMPORT
 62
     7
100
AcDbLine
 10
1112.199152367669
 20
1127.489963669006
 30
0.0
 11
1113.152955430108
 21
1126.277118820373
 31
0.0
  0
LINE
  5
167F
330
1F
100
AcDbEntity
  8
HEWI
  6
IMPORT
 62
     7
100
AcDbLine
 10
1159.313376932113
 20
1175.087162155334
 30
0.0
 11
1160.26717701432
 21
1173.874317306701
 31
0.0
  0
LINE
  5
1680
330
1F
100
AcDbEntity
  8
HEWI
  6
IMPORT
 62
     7
100
AcDbLine
 10
1152.199153559762
 20
1127.489963669006
 30
0.0
 11
1153.152954238015
 21
1126.277118820373
 31
0.0
  0
LINE
  5
1681
330
1F
100
AcDbEntity
  8
HEWI
  6
IMPORT
 62
     7
100
AcDbLine
 10
1199.313376336067
 20
1175.087162155334
 30
0.0
 11
1200.26717701432
 21
1173.874317306701
 31
0.0
  0
LINE
  5
1682
330
1F
100
AcDbEntity
  8
HEWI
  6
IMPORT
 62
     7
100
AcDbLine
 10
1192.199154751855
 20
1127.489963669006
 30
0.0
 11
1193.152953045923
 21
1126.277118820373
 31
0.0
  0
LINE
  5
1683
330
1F
100
AcDbEntity
  8
HEWI
  6
IMPORT
 62
     7
100
AcDbLine
 10
879.1480287485899
 20
1125.466686386291
 30
0.0
 11
880.5754884653868
 21
1126.277118820373
 31
0.0
  0
LINE
  5
1684
330
1F
100
AcDbEntity
  8
HEWI
  6
IMPORT
 62
     7
100
AcDbLine
 10
871.8908289956736
 20
1175.087162155334
 30
0.0
 11
873.3182887124705
 21
1175.897556442443
 31
0.0
  0
LINE
  5
1685
330
1F
100
AcDbEntity
  8
HEWI
  6
IMPORT
 62
     7
100
AcDbLine
 10
919.14802874859
 20
1125.466686386291
 30
0.0
 11
920.5754884653869
 21
1126.277118820373
 31
0.0
  0
LINE
  5
1686
330
1F
100
AcDbEntity
  8
HEWI
  6
IMPORT
 62
     7
100
AcDbLine
 10
911.8908289956737
 20
1175.087162155334
 30
0.0
 11
913.3182887124705
 21
1175.897556442443
 31
0.0
  0
LINE
  5
1687
330
1F
100
AcDbEntity
  8
HEWI
  6
IMPORT
 62
     7
100
AcDbLine
 10
959.1480287485898
 20
1125.466686386291
 30
0.0
 11
960.5754884653867
 21
1126.277118820373
 31
0.0
  0
LINE
  5
1688
330
1F
100
AcDbEntity
  8
HEWI
  6
IMPORT
 62
     7
100
AcDbLine
 10
951.8908289956737
 20
1175.087162155334
 30
0.0
 11
953.3182887124706
 21
1175.897556442443
 31
0.0
  0
LINE
  5
1689
330
1F
100
AcDbEntity
  8
HEWI
  6
IMPORT
 62
     7
100
AcDbLine
 10
999.1480287485899
 20
1125.466686386291
 30
0.0
 11
1000.575488465387
 21
1126.277118820373
 31
0.0
  0
LINE
  5
168A
330
1F
100
AcDbEntity
  8
HEWI
  6
IMPORT
 62
     7
100
AcDbLine
 10
991.8908289956737
 20
1175.087162155334
 30
0.0
 11
993.3182887124706
 21
1175.897556442443
 31
0.0
  0
LINE
  5
168B
330
1F
100
AcDbEntity
  8
HEWI
  6
IMPORT
 62
     7
100
AcDbLine
 10
1039.148019211847
 20
1125.466686386291
 30
0.0
 11
1040.57549800213
 21
1126.277118820373
 31
0.0
  0
LINE
  5
168C
330
1F
100
AcDbEntity
  8
HEWI
  6
IMPORT
 62
     7
100
AcDbLine
 10
1031.890838532417
 20
1175.087162155334
 30
0.0
 11
1033.318298249214
 21
1175.897556442443
 31
0.0
  0
LINE
  5
168D
330
1F
100
AcDbEntity
  8
HEWI
  6
IMPORT
 62
     7
100
AcDbLine
 10
1079.148019211847
 20
1125.466686386291
 30
0.0
 11
1080.57549800213
 21
1126.277118820373
 31
0.0
  0
LINE
  5
168E
330
1F
100
AcDbEntity
  8
HEWI
  6
IMPORT
 62
     7
100
AcDbLine
 10
1071.890838532417
 20
1175.087162155334
 30
0.0
 11
1073.318298249213
 21
1175.897556442443
 31
0.0
  0
LINE
  5
168F
330
1F
100
AcDbEntity
  8
HEWI
  6
IMPORT
 62
     7
100
AcDbLine
 10
1119.148023980218
 20
1125.466686386291
 30
0.0
 11
1120.575493233758
 21
1126.277118820373
 31
0.0
  0
LINE
  5
1690
330
1F
100
AcDbEntity
  8
HEWI
  6
IMPORT
 62
     7
100
AcDbLine
 10
1111.890838532417
 20
1175.087162155334
 30
0.0
 11
1113.318298249214
 21
1175.897556442443
 31
0.0
  0
LINE
  5
1691
330
1F
100
AcDbEntity
  8
HEWI
  6
IMPORT
 62
     7
100
AcDbLine
 10
1159.148023980218
 20
1125.466686386291
 30
0.0
 11
1160.575493829805
 21
1126.277118820373
 31
0.0
  0
LINE
  5
1692
330
1F
100
AcDbEntity
  8
HEWI
  6
IMPORT
 62
     7
100
AcDbLine
 10
1151.890837340324
 20
1175.087162155334
 30
0.0
 11
1153.318297057121
 21
1175.897556442443
 31
0.0
  0
LINE
  5
1693
330
1F
100
AcDbEntity
  8
HEWI
  6
IMPORT
 62
     7
100
AcDbLine
 10
1199.148023980218
 20
1125.466686386291
 30
0.0
 11
1200.575493233758
 21
1126.277118820373
 31
0.0
  0
LINE
  5
1694
330
1F
100
AcDbEntity
  8
HEWI
  6
IMPORT
 62
     7
100
AcDbLine
 10
1191.890836148231
 20
1175.087162155334
 30
0.0
 11
1193.318295865028
 21
1175.897556442443
 31
0.0
  0
LINE
  5
1695
330
1F
100
AcDbEntity
  8
HEWI
  6
IMPORT
 62
     7
100
AcDbLine
 10
878.750150589912
 20
1151.372448105041
 30
0.0
 11
879.7234324502635
 21
1151.914363998596
 31
0.0
  0
LINE
  5
1696
330
1F
100
AcDbEntity
  8
HEWI
  6
IMPORT
 62
     7
100
AcDbLine
 10
918.7501505899119
 20
1151.372448105041
 30
0.0
 11
919.7234324502636
 21
1151.914363998596
 31
0.0
  0
LINE
  5
1697
330
1F
100
AcDbEntity
  8
HEWI
  6
IMPORT
 62
     7
100
AcDbLine
 10
958.7501505899119
 20
1151.372448105041
 30
0.0
 11
959.7234324502634
 21
1151.914363998596
 31
0.0
  0
LINE
  5
1698
330
1F
100
AcDbEntity
  8
HEWI
  6
IMPORT
 62
     7
100
AcDbLine
 10
998.7501505899119
 20
1151.372448105041
 30
0.0
 11
999.7234324502635
 21
1151.914363998596
 31
0.0
  0
LINE
  5
1699
330
1F
100
AcDbEntity
  8
HEWI
  6
IMPORT
 62
     7
100
AcDbLine
 10
1038.750160126655
 20
1151.372448105041
 30
0.0
 11
1039.72342291352
 21
1151.914363998596
 31
0.0
  0
LINE
  5
169A
330
1F
100
AcDbEntity
  8
HEWI
  6
IMPORT
 62
     7
100
AcDbLine
 10
1078.750160126655
 20
1151.372448105041
 30
0.0
 11
1079.72342291352
 21
1151.914363998596
 31
0.0
  0
LINE
  5
169B
330
1F
100
AcDbEntity
  8
HEWI
  6
IMPORT
 62
     7
100
AcDbLine
 10
1118.750155358283
 20
1151.372448105041
 30
0.0
 11
1119.723427681892
 21
1151.914363998596
 31
0.0
  0
LINE
  5
169C
330
1F
100
AcDbEntity
  8
HEWI
  6
IMPORT
 62
     7
100
AcDbLine
 10
1158.750156550376
 20
1151.372448105041
 30
0.0
 11
1159.723427085845
 21
1151.914363998596
 31
0.0
  0
LINE
  5
169D
330
1F
100
AcDbEntity
  8
HEWI
  6
IMPORT
 62
     7
100
AcDbLine
 10
1198.750157742469
 20
1151.372448105041
 30
0.0
 11
1199.723427681892
 21
1151.914363998596
 31
0.0
  0
LINE
  5
169E
330
1F
100
AcDbEntity
  8
HEWI
  6
IMPORT
 62
     7
100
AcDbLine
 10
881.3137277537169
 20
1135.839229721252
 30
0.0
 11
881.5292962961974
 21
1135.349002975647
 31
0.0
  0
LINE
  5
169F
330
1F
100
AcDbEntity
  8
HEWI
  6
IMPORT
 62
     7
100
AcDbLine
 10
921.3137277537169
 20
1135.839229721252
 30
0.0
 11
921.5292962961973
 21
1135.349002975647
 31
0.0
  0
LINE
  5
16A0
330
1F
100
AcDbEntity
  8
HEWI
  6
IMPORT
 62
     7
100
AcDbLine
 10
961.3137277537168
 20
1135.839229721252
 30
0.0
 11
961.5292962961973
 21
1135.349002975647
 31
0.0
  0
LINE
  5
16A1
330
1F
100
AcDbEntity
  8
HEWI
  6
IMPORT
 62
     7
100
AcDbLine
 10
1001.313727753717
 20
1135.839229721252
 30
0.0
 11
1001.529296296197
 21
1135.349002975647
 31
0.0
  0
LINE
  5
16A2
330
1F
100
AcDbEntity
  8
HEWI
  6
IMPORT
 62
     7
100
AcDbLine
 10
1041.31373729046
 20
1135.839229721252
 30
0.0
 11
1041.529296296197
 21
1135.349002975647
 31
0.0
  0
LINE
  5
16A3
330
1F
100
AcDbEntity
  8
HEWI
  6
IMPORT
 62
     7
100
AcDbLine
 10
1081.31373729046
 20
1135.839229721252
 30
0.0
 11
1081.529296296197
 21
1135.349002975647
 31
0.0
  0
LINE
  5
16A4
330
1F
100
AcDbEntity
  8
HEWI
  6
IMPORT
 62
     7
100
AcDbLine
 10
1121.313732522088
 20
1135.839229721252
 30
0.0
 11
1121.529291527826
 21
1135.349002975647
 31
0.0
  0
LINE
  5
16A5
330
1F
100
AcDbEntity
  8
HEWI
  6
IMPORT
 62
     7
100
AcDbLine
 10
1161.313733714181
 20
1135.839229721252
 30
0.0
 11
1161.529293912011
 21
1135.349002975647
 31
0.0
  0
LINE
  5
16A6
330
1F
100
AcDbEntity
  8
HEWI
  6
IMPORT
 62
     7
100
AcDbLine
 10
1201.313734906274
 20
1135.839229721252
 30
0.0
 11
1201.529293912011
 21
1135.349002975647
 31
0.0
  0
LINE
  5
16A7
330
1F
100
AcDbEntity
  8
HEWI
  6
IMPORT
 62
     7
100
AcDbLine
 10
873.3190568857969
 20
1136.652408737365
 30
0.0
 11
874.6709283762754
 21
1137.195087570373
 31
0.0
  0
LINE
  5
16A8
330
1F
100
AcDbEntity
  8
HEWI
  6
IMPORT
 62
     7
100
AcDbLine
 10
913.3190568857969
 20
1136.652408737365
 30
0.0
 11
914.6709283762755
 21
1137.195087570373
 31
0.0
  0
LINE
  5
16A9
330
1F
100
AcDbEntity
  8
HEWI
  6
IMPORT
 62
     7
100
AcDbLine
 10
953.3190568857969
 20
1136.652408737365
 30
0.0
 11
954.6709283762755
 21
1137.195087570373
 31
0.0
  0
LINE
  5
16AA
330
1F
100
AcDbEntity
  8
HEWI
  6
IMPORT
 62
     7
100
AcDbLine
 10
993.319056885797
 20
1136.652408737365
 30
0.0
 11
994.6709283762755
 21
1137.195087570373
 31
0.0
  0
LINE
  5
16AB
330
1F
100
AcDbEntity
  8
HEWI
  6
IMPORT
 62
     7
100
AcDbLine
 10
1033.319056885797
 20
1136.652408737365
 30
0.0
 11
1034.670937913019
 21
1137.195087570373
 31
0.0
  0
LINE
  5
16AC
330
1F
100
AcDbEntity
  8
HEWI
  6
IMPORT
 62
     7
100
AcDbLine
 10
1073.319056885797
 20
1136.652408737365
 30
0.0
 11
1074.670937913018
 21
1137.195087570373
 31
0.0
  0
LINE
  5
16AD
330
1F
100
AcDbEntity
  8
HEWI
  6
IMPORT
 62
     7
100
AcDbLine
 10
1113.319052117425
 20
1136.652408737365
 30
0.0
 11
1114.670933144647
 21
1137.195087570373
 31
0.0
  0
LINE
  5
16AE
330
1F
100
AcDbEntity
  8
HEWI
  6
IMPORT
 62
     7
100
AcDbLine
 10
1153.319053309518
 20
1136.652408737365
 30
0.0
 11
1154.67093433674
 21
1137.195087570373
 31
0.0
  0
LINE
  5
16AF
330
1F
100
AcDbEntity
  8
HEWI
  6
IMPORT
 62
     7
100
AcDbLine
 10
1193.319054501611
 20
1136.652408737365
 30
0.0
 11
1194.670933144647
 21
1137.195087570373
 31
0.0
  0
LINE
  5
16B0
330
1F
100
AcDbEntity
  8
HEWI
  6
IMPORT
 62
     7
100
AcDbLine
 10
881.5292962961974
 20
1135.349002975647
 30
0.0
 11
881.8642267161193
 21
1134.337345260803
 31
0.0
  0
LINE
  5
16B1
330
1F
100
AcDbEntity
  8
HEWI
  6
IMPORT
 62
     7
100
AcDbLine
 10
921.5292962961973
 20
1135.349002975647
 30
0.0
 11
921.8642267161191
 21
1134.337345260803
 31
0.0
  0
LINE
  5
16B2
330
1F
100
AcDbEntity
  8
HEWI
  6
IMPORT
 62
     7
100
AcDbLine
 10
961.5292962961973
 20
1135.349002975647
 30
0.0
 11
961.8642267161192
 21
1134.337345260803
 31
0.0
  0
LINE
  5
16B3
330
1F
100
AcDbEntity
  8
HEWI
  6
IMPORT
 62
     7
100
AcDbLine
 10
1001.529296296197
 20
1135.349002975647
 30
0.0
 11
1001.864226716119
 21
1134.337345260803
 31
0.0
  0
LINE
  5
16B4
330
1F
100
AcDbEntity
  8
HEWI
  6
IMPORT
 62
     7
100
AcDbLine
 10
1041.529296296197
 20
1135.349002975647
 30
0.0
 11
1041.864226716119
 21
1134.337345260803
 31
0.0
  0
LINE
  5
16B5
330
1F
100
AcDbEntity
  8
HEWI
  6
IMPORT
 62
     7
100
AcDbLine
 10
1081.529296296197
 20
1135.349002975647
 30
0.0
 11
1081.864226716119
 21
1134.337345260803
 31
0.0
  0
LINE
  5
16B6
330
1F
100
AcDbEntity
  8
HEWI
  6
IMPORT
 62
     7
100
AcDbLine
 10
1121.529291527826
 20
1135.349002975647
 30
0.0
 11
1121.864221947747
 21
1134.337345260803
 31
0.0
  0
LINE
  5
16B7
330
1F
100
AcDbEntity
  8
HEWI
  6
IMPORT
 62
     7
100
AcDbLine
 10
1161.529293912011
 20
1135.349002975647
 30
0.0
 11
1161.864223735887
 21
1134.337345260803
 31
0.0
  0
LINE
  5
16B8
330
1F
100
AcDbEntity
  8
HEWI
  6
IMPORT
 62
     7
100
AcDbLine
 10
1201.529293912011
 20
1135.349002975647
 30
0.0
 11
1201.864224331933
 21
1134.337345260803
 31
0.0
  0
LINE
  5
16B9
330
1F
100
AcDbEntity
  8
HEWI
  6
IMPORT
 62
     7
100
AcDbLine
 10
880.2671793985057
 20
1173.874317306701
 30
0.0
 11
880.6021098184276
 21
1172.443653244201
 31
0.0
  0
LINE
  5
16BA
330
1F
100
AcDbEntity
  8
HEWI
  6
IMPORT
 62
     7
100
AcDbLine
 10
871.8642267161191
 20
1128.920627731506
 30
0.0
 11
872.199157136041
 21
1127.489963669006
 31
0.0
  0
LINE
  5
16BB
330
1F
100
AcDbEntity
  8
HEWI
  6
IMPORT
 62
     7
100
AcDbLine
 10
870.6021098184276
 20
1153.682132858459
 30
0.0
 11
870.8304575967479
 21
1152.725444931213
 31
0.0
  0
LINE
  5
16BC
330
1F
100
AcDbEntity
  8
HEWI
  6
IMPORT
 62
     7
100
AcDbLine
 10
920.2671793985057
 20
1173.874317306701
 30
0.0
 11
920.6021098184276
 21
1172.443653244201
 31
0.0
  0
LINE
  5
16BD
330
1F
100
AcDbEntity
  8
HEWI
  6
IMPORT
 62
     7
100
AcDbLine
 10
911.8642267161192
 20
1128.920627731506
 30
0.0
 11
912.199157136041
 21
1127.489963669006
 31
0.0
  0
LINE
  5
16BE
330
1F
100
AcDbEntity
  8
HEWI
  6
IMPORT
 62
     7
100
AcDbLine
 10
910.6021098184276
 20
1153.682132858459
 30
0.0
 11
910.8304575967478
 21
1152.725444931213
 31
0.0
  0
LINE
  5
16BF
330
1F
100
AcDbEntity
  8
HEWI
  6
IMPORT
 62
     7
100
AcDbLine
 10
960.2671793985058
 20
1173.874317306701
 30
0.0
 11
960.6021098184276
 21
1172.443653244201
 31
0.0
  0
LINE
  5
16C0
330
1F
100
AcDbEntity
  8
HEWI
  6
IMPORT
 62
     7
100
AcDbLine
 10
951.8642267161192
 20
1128.920627731506
 30
0.0
 11
952.1991571360411
 21
1127.489963669006
 31
0.0
  0
LINE
  5
16C1
330
1F
100
AcDbEntity
  8
HEWI
  6
IMPORT
 62
     7
100
AcDbLine
 10
950.6021098184275
 20
1153.682132858459
 30
0.0
 11
950.8304575967478
 21
1152.725444931213
 31
0.0
  0
LINE
  5
16C2
330
1F
100
AcDbEntity
  8
HEWI
  6
IMPORT
 62
     7
100
AcDbLine
 10
1000.267179398505
 20
1173.874317306701
 30
0.0
 11
1000.602109818427
 21
1172.443653244201
 31
0.0
  0
LINE
  5
16C3
330
1F
100
AcDbEntity
  8
HEWI
  6
IMPORT
 62
     7
100
AcDbLine
 10
991.8642267161192
 20
1128.920627731506
 30
0.0
 11
992.1991571360411
 21
1127.489963669006
 31
0.0
  0
LINE
  5
16C4
330
1F
100
AcDbEntity
  8
HEWI
  6
IMPORT
 62
     7
100
AcDbLine
 10
990.6021098184275
 20
1153.682132858459
 30
0.0
 11
990.8304575967479
 21
1152.725444931213
 31
0.0
  0
LINE
  5
16C5
330
1F
100
AcDbEntity
  8
HEWI
  6
IMPORT
 62
     7
100
AcDbLine
 10
1040.267179398505
 20
1173.874317306701
 30
0.0
 11
1040.602109818427
 21
1172.443653244201
 31
0.0
  0
LINE
  5
16C6
330
1F
100
AcDbEntity
  8
HEWI
  6
IMPORT
 62
     7
100
AcDbLine
 10
1031.864226716119
 20
1128.920627731506
 30
0.0
 11
1032.199157136041
 21
1127.489963669006
 31
0.0
  0
LINE
  5
16C7
330
1F
100
AcDbEntity
  8
HEWI
  6
IMPORT
 62
     7
100
AcDbLine
 10
1030.602109818427
 20
1153.682132858459
 30
0.0
 11
1030.830467133491
 21
1152.725444931213
 31
0.0
  0
LINE
  5
16C8
330
1F
100
AcDbEntity
  8
HEWI
  6
IMPORT
 62
     7
100
AcDbLine
 10
1080.267179398505
 20
1173.874317306701
 30
0.0
 11
1080.602109818427
 21
1172.443653244201
 31
0.0
  0
LINE
  5
16C9
330
1F
100
AcDbEntity
  8
HEWI
  6
IMPORT
 62
     7
100
AcDbLine
 10
1071.864226716119
 20
1128.920627731506
 30
0.0
 11
1072.199157136041
 21
1127.489963669006
 31
0.0
  0
LINE
  5
16CA
330
1F
100
AcDbEntity
  8
HEWI
  6
IMPORT
 62
     7
100
AcDbLine
 10
1070.602109818427
 20
1153.682132858459
 30
0.0
 11
1070.830467133491
 21
1152.725444931213
 31
0.0
  0
LINE
  5
16CB
330
1F
100
AcDbEntity
  8
HEWI
  6
IMPORT
 62
     7
100
AcDbLine
 10
1120.267174630134
 20
1173.874317306701
 30
0.0
 11
1120.602105050056
 21
1172.443653244201
 31
0.0
  0
LINE
  5
16CC
330
1F
100
AcDbEntity
  8
HEWI
  6
IMPORT
 62
     7
100
AcDbLine
 10
1111.864221947747
 20
1128.920627731506
 30
0.0
 11
1112.199152367669
 21
1127.489963669006
 31
0.0
  0
LINE
  5
16CD
330
1F
100
AcDbEntity
  8
HEWI
  6
IMPORT
 62
     7
100
AcDbLine
 10
1110.602105050056
 20
1153.682132858459
 30
0.0
 11
1110.830467133491
 21
1152.725444931213
 31
0.0
  0
LINE
  5
16CE
330
1F
100
AcDbEntity
  8
HEWI
  6
IMPORT
 62
     7
100
AcDbLine
 10
1160.26717701432
 20
1173.874317306701
 30
0.0
 11
1160.602106838195
 21
1172.443653244201
 31
0.0
  0
LINE
  5
16CF
330
1F
100
AcDbEntity
  8
HEWI
  6
IMPORT
 62
     7
100
AcDbLine
 10
1151.864224331933
 20
1128.920627731506
 30
0.0
 11
1152.199153559762
 21
1127.489963669006
 31
0.0
  0
LINE
  5
16D0
330
1F
100
AcDbEntity
  8
HEWI
  6
IMPORT
 62
     7
100
AcDbLine
 10
1150.602107434242
 20
1153.682132858459
 30
0.0
 11
1150.830467133491
 21
1152.725444931213
 31
0.0
  0
LINE
  5
16D1
330
1F
100
AcDbEntity
  8
HEWI
  6
IMPORT
 62
     7
100
AcDbLine
 10
1200.26717701432
 20
1173.874317306701
 30
0.0
 11
1200.602107434242
 21
1172.443653244201
 31
0.0
  0
LINE
  5
16D2
330
1F
100
AcDbEntity
  8
HEWI
  6
IMPORT
 62
     7
100
AcDbLine
 10
1191.864224331933
 20
1128.920627731506
 30
0.0
 11
1192.199154751855
 21
1127.489963669006
 31
0.0
  0
LINE
  5
16D3
330
1F
100
AcDbEntity
  8
HEWI
  6
IMPORT
 62
     7
100
AcDbLine
 10
1190.602107434242
 20
1153.682132858459
 30
0.0
 11
1190.830467133491
 21
1152.725444931213
 31
0.0
  0
LINE
  5
16D4
330
1F
100
AcDbEntity
  8
HEWI
  6
IMPORT
 62
     7
100
AcDbLine
 10
877.4642213755431
 20
1125.182109970275
 30
0.0
 11
879.1480287485899
 21
1125.466686386291
 31
0.0
  0
LINE
  5
16D5
330
1F
100
AcDbEntity
  8
HEWI
  6
IMPORT
 62
     7
100
AcDbLine
 10
873.3182887124705
 20
1175.897556442443
 30
0.0
 11
875.0021151590038
 21
1176.182132858459
 31
0.0
  0
LINE
  5
16D6
330
1F
100
AcDbEntity
  8
HEWI
  6
IMPORT
 62
     7
100
AcDbLine
 10
877.6020983743357
 20
1151.182132858459
 30
0.0
 11
878.750150589912
 21
1151.372448105041
 31
0.0
  0
LINE
  5
16D7
330
1F
100
AcDbEntity
  8
HEWI
  6
IMPORT
 62
     7
100
AcDbLine
 10
917.4642213755431
 20
1125.182109970275
 30
0.0
 11
919.14802874859
 21
1125.466686386291
 31
0.0
  0
LINE
  5
16D8
330
1F
100
AcDbEntity
  8
HEWI
  6
IMPORT
 62
     7
100
AcDbLine
 10
913.3182887124705
 20
1175.897556442443
 30
0.0
 11
915.0021151590037
 21
1176.182132858459
 31
0.0
  0
LINE
  5
16D9
330
1F
100
AcDbEntity
  8
HEWI
  6
IMPORT
 62
     7
100
AcDbLine
 10
917.6020983743358
 20
1151.182132858459
 30
0.0
 11
918.7501505899119
 21
1151.372448105041
 31
0.0
  0
LINE
  5
16DA
330
1F
100
AcDbEntity
  8
HEWI
  6
IMPORT
 62
     7
100
AcDbLine
 10
957.464221375543
 20
1125.182109970275
 30
0.0
 11
959.1480287485898
 21
1125.466686386291
 31
0.0
  0
LINE
  5
16DB
330
1F
100
AcDbEntity
  8
HEWI
  6
IMPORT
 62
     7
100
AcDbLine
 10
953.3182887124706
 20
1175.897556442443
 30
0.0
 11
955.0021151590037
 21
1176.182132858459
 31
0.0
  0
LINE
  5
16DC
330
1F
100
AcDbEntity
  8
HEWI
  6
IMPORT
 62
     7
100
AcDbLine
 10
957.6020983743358
 20
1151.182132858459
 30
0.0
 11
958.7501505899119
 21
1151.372448105041
 31
0.0
  0
LINE
  5
16DD
330
1F
100
AcDbEntity
  8
HEWI
  6
IMPORT
 62
     7
100
AcDbLine
 10
997.464221375543
 20
1125.182109970275
 30
0.0
 11
999.1480287485899
 21
1125.466686386291
 31
0.0
  0
LINE
  5
16DE
330
1F
100
AcDbEntity
  8
HEWI
  6
IMPORT
 62
     7
100
AcDbLine
 10
993.3182887124706
 20
1175.897556442443
 30
0.0
 11
995.0021151590037
 21
1176.182132858459
 31
0.0
  0
LINE
  5
16DF
330
1F
100
AcDbEntity
  8
HEWI
  6
IMPORT
 62
     7
100
AcDbLine
 10
997.6020983743358
 20
1151.182132858459
 30
0.0
 11
998.7501505899119
 21
1151.372448105041
 31
0.0
  0
LINE
  5
16E0
330
1F
100
AcDbEntity
  8
HEWI
  6
IMPORT
 62
     7
100
AcDbLine
 10
1037.464221375543
 20
1125.182109970275
 30
0.0
 11
1039.148019211847
 21
1125.466686386291
 31
0.0
  0
LINE
  5
16E1
330
1F
100
AcDbEntity
  8
HEWI
  6
IMPORT
 62
     7
100
AcDbLine
 10
1033.318298249214
 20
1175.897556442443
 30
0.0
 11
1035.00210562226
 21
1176.182132858459
 31
0.0
  0
LINE
  5
16E2
330
1F
100
AcDbEntity
  8
HEWI
  6
IMPORT
 62
     7
100
AcDbLine
 10
1037.602107911079
 20
1151.182132858459
 30
0.0
 11
1038.750160126655
 21
1151.372448105041
 31
0.0
  0
LINE
  5
16E3
330
1F
100
AcDbEntity
  8
HEWI
  6
IMPORT
 62
     7
100
AcDbLine
 10
1077.464221375543
 20
1125.182109970275
 30
0.0
 11
1079.148019211847
 21
1125.466686386291
 31
0.0
  0
LINE
  5
16E4
330
1F
100
AcDbEntity
  8
HEWI
  6
IMPORT
 62
     7
100
AcDbLine
 10
1073.318298249213
 20
1175.897556442443
 30
0.0
 11
1075.00210562226
 21
1176.182132858459
 31
0.0
  0
LINE
  5
16E5
330
1F
100
AcDbEntity
  8
HEWI
  6
IMPORT
 62
     7
100
AcDbLine
 10
1077.602107911079
 20
1151.182132858459
 30
0.0
 11
1078.750160126655
 21
1151.372448105041
 31
0.0
  0
LINE
  5
16E6
330
1F
100
AcDbEntity
  8
HEWI
  6
IMPORT
 62
     7
100
AcDbLine
 10
1117.464226143914
 20
1125.182109970275
 30
0.0
 11
1119.148023980218
 21
1125.466686386291
 31
0.0
  0
LINE
  5
16E7
330
1F
100
AcDbEntity
  8
HEWI
  6
IMPORT
 62
     7
100
AcDbLine
 10
1113.318298249214
 20
1175.897556442443
 30
0.0
 11
1115.00210562226
 21
1176.182132858459
 31
0.0
  0
LINE
  5
16E8
330
1F
100
AcDbEntity
  8
HEWI
  6
IMPORT
 62
     7
100
AcDbLine
 10
1117.602107911079
 20
1151.182132858459
 30
0.0
 11
1118.750155358283
 21
1151.372448105041
 31
0.0
  0
LINE
  5
16E9
330
1F
100
AcDbEntity
  8
HEWI
  6
IMPORT
 62
     7
100
AcDbLine
 10
1157.464223759729
 20
1125.182109970275
 30
0.0
 11
1159.148023980218
 21
1125.466686386291
 31
0.0
  0
LINE
  5
16EA
330
1F
100
AcDbEntity
  8
HEWI
  6
IMPORT
 62
     7
100
AcDbLine
 10
1153.318297057121
 20
1175.897556442443
 30
0.0
 11
1155.002106814353
 21
1176.182132858459
 31
0.0
  0
LINE
  5
16EB
330
1F
100
AcDbEntity
  8
HEWI
  6
IMPORT
 62
     7
100
AcDbLine
 10
1157.602106718986
 20
1151.182132858459
 30
0.0
 11
1158.750156550376
 21
1151.372448105041
 31
0.0
  0
LINE
  5
16EC
330
1F
100
AcDbEntity
  8
HEWI
  6
IMPORT
 62
     7
100
AcDbLine
 10
1197.464223759729
 20
1125.182109970275
 30
0.0
 11
1199.148023980218
 21
1125.466686386291
 31
0.0
  0
LINE
  5
16ED
330
1F
100
AcDbEntity
  8
HEWI
  6
IMPORT
 62
     7
100
AcDbLine
 10
1193.318295865028
 20
1175.897556442443
 30
0.0
 11
1195.002108006446
 21
1176.182132858459
 31
0.0
  0
LINE
  5
16EE
330
1F
100
AcDbEntity
  8
HEWI
  6
IMPORT
 62
     7
100
AcDbLine
 10
1197.602107911079
 20
1151.182132858459
 30
0.0
 11
1198.750157742469
 21
1151.372448105041
 31
0.0
  0
LINE
  5
16EF
330
1F
100
AcDbEntity
  8
HEWI
  6
IMPORT
 62
     7
100
AcDbLine
 10
875.1220163279356
 20
1137.317424911682
 30
0.0
 11
876.3524278574767
 21
1137.464481491271
 31
0.0
  0
LINE
  5
16F0
330
1F
100
AcDbEntity
  8
HEWI
  6
IMPORT
 62
     7
100
AcDbLine
 10
915.1220163279356
 20
1137.317424911682
 30
0.0
 11
916.3524278574767
 21
1137.464481491271
 31
0.0
  0
LINE
  5
16F1
330
1F
100
AcDbEntity
  8
HEWI
  6
IMPORT
 62
     7
100
AcDbLine
 10
955.1220163279356
 20
1137.317424911682
 30
0.0
 11
956.3524278574766
 21
1137.464481491271
 31
0.0
  0
LINE
  5
16F2
330
1F
100
AcDbEntity
  8
HEWI
  6
IMPORT
 62
     7
100
AcDbLine
 10
995.1220163279357
 20
1137.317424911682
 30
0.0
 11
996.3524278574766
 21
1137.464481491271
 31
0.0
  0
LINE
  5
16F3
330
1F
100
AcDbEntity
  8
HEWI
  6
IMPORT
 62
     7
100
AcDbLine
 10
1035.122016327935
 20
1137.317424911682
 30
0.0
 11
1036.352427857476
 21
1137.464481491271
 31
0.0
  0
LINE
  5
16F4
330
1F
100
AcDbEntity
  8
HEWI
  6
IMPORT
 62
     7
100
AcDbLine
 10
1075.122016327935
 20
1137.317424911682
 30
0.0
 11
1076.352427857476
 21
1137.464481491271
 31
0.0
  0
LINE
  5
16F5
330
1F
100
AcDbEntity
  8
HEWI
  6
IMPORT
 62
     7
100
AcDbLine
 10
1115.122011559564
 20
1137.317424911682
 30
0.0
 11
1116.352423089105
 21
1137.464481491271
 31
0.0
  0
LINE
  5
16F6
330
1F
100
AcDbEntity
  8
HEWI
  6
IMPORT
 62
     7
100
AcDbLine
 10
1155.12201394375
 20
1137.317424911682
 30
0.0
 11
1156.352424281198
 21
1137.464481491271
 31
0.0
  0
LINE
  5
16F7
330
1F
100
AcDbEntity
  8
HEWI
  6
IMPORT
 62
     7
100
AcDbLine
 10
1195.12201394375
 20
1137.317424911682
 30
0.0
 11
1196.352423089105
 21
1137.464481491271
 31
0.0
  0
LINE
  5
16F8
330
1F
100
AcDbEntity
  8
HEWI
  6
IMPORT
 62
     7
100
AcDbLine
 10
877.5660928660215
 20
1137.441745895569
 30
0.0
 11
878.7997278147519
 21
1137.294307846252
 31
0.0
  0
LINE
  5
16F9
330
1F
100
AcDbEntity
  8
HEWI
  6
IMPORT
 62
     7
100
AcDbLine
 10
917.5660928660215
 20
1137.441745895569
 30
0.0
 11
918.799727814752
 21
1137.294307846252
 31
0.0
  0
LINE
  5
16FA
330
1F
100
AcDbEntity
  8
HEWI
  6
IMPORT
 62
     7
100
AcDbLine
 10
957.5660928660216
 20
1137.441745895569
 30
0.0
 11
958.799727814752
 21
1137.294307846252
 31
0.0
  0
LINE
  5
16FB
330
1F
100
AcDbEntity
  8
HEWI
  6
IMPORT
 62
     7
100
AcDbLine
 10
997.5660928660216
 20
1137.441745895569
 30
0.0
 11
998.7997278147521
 21
1137.294307846252
 31
0.0
  0
LINE
  5
16FC
330
1F
100
AcDbEntity
  8
HEWI
  6
IMPORT
 62
     7
100
AcDbLine
 10
1037.566083329278
 20
1137.441745895569
 30
0.0
 11
1038.799737351495
 21
1137.294307846252
 31
0.0
  0
LINE
  5
16FD
330
1F
100
AcDbEntity
  8
HEWI
  6
IMPORT
 62
     7
100
AcDbLine
 10
1077.566083329278
 20
1137.441745895569
 30
0.0
 11
1078.799737351495
 21
1137.294307846252
 31
0.0
  0
LINE
  5
16FE
330
1F
100
AcDbEntity
  8
HEWI
  6
IMPORT
 62
     7
100
AcDbLine
 10
1117.566083329278
 20
1137.441745895569
 30
0.0
 11
1118.799732583124
 21
1137.294307846252
 31
0.0
  0
LINE
  5
16FF
330
1F
100
AcDbEntity
  8
HEWI
  6
IMPORT
 62
     7
100
AcDbLine
 10
1157.566083329278
 20
1137.441745895569
 30
0.0
 11
1158.799733775216
 21
1137.294307846252
 31
0.0
  0
LINE
  5
1700
330
1F
100
AcDbEntity
  8
HEWI
  6
IMPORT
 62
     7
100
AcDbLine
 10
1197.566083329278
 20
1137.441745895569
 30
0.0
 11
1198.799734967309
 21
1137.294307846252
 31
0.0
  0
LINE
  5
1701
330
1F
100
AcDbEntity
  8
HEWI
  6
IMPORT
 62
     7
100
AcDbLine
 10
876.2021044778514
 20
1176.182132858459
 30
0.0
 11
877.8859118508982
 21
1175.897556442443
 31
0.0
  0
LINE
  5
1702
330
1F
100
AcDbEntity
  8
HEWI
  6
IMPORT
 62
     7
100
AcDbLine
 10
874.5804056101622
 20
1125.466686386291
 30
0.0
 11
876.2642320566953
 21
1125.182109970275
 31
0.0
  0
LINE
  5
1703
330
1F
100
AcDbEntity
  8
HEWI
  6
IMPORT
 62
     7
100
AcDbLine
 10
872.4540499734569
 20
1151.372448105041
 30
0.0
 11
873.602102189033
 21
1151.182132858459
 31
0.0
  0
LINE
  5
1704
330
1F
100
AcDbEntity
  8
HEWI
  6
IMPORT
 62
     7
100
AcDbLine
 10
916.2021044778514
 20
1176.182132858459
 30
0.0
 11
917.8859118508983
 21
1175.897556442443
 31
0.0
  0
LINE
  5
1705
330
1F
100
AcDbEntity
  8
HEWI
  6
IMPORT
 62
     7
100
AcDbLine
 10
914.5804056101622
 20
1125.466686386291
 30
0.0
 11
916.2642320566954
 21
1125.182109970275
 31
0.0
  0
LINE
  5
1706
330
1F
100
AcDbEntity
  8
HEWI
  6
IMPORT
 62
     7
100
AcDbLine
 10
912.4540499734569
 20
1151.372448105041
 30
0.0
 11
913.602102189033
 21
1151.182132858459
 31
0.0
  0
LINE
  5
1707
330
1F
100
AcDbEntity
  8
HEWI
  6
IMPORT
 62
     7
100
AcDbLine
 10
956.2021044778514
 20
1176.182132858459
 30
0.0
 11
957.8859118508983
 21
1175.897556442443
 31
0.0
  0
LINE
  5
1708
330
1F
100
AcDbEntity
  8
HEWI
  6
IMPORT
 62
     7
100
AcDbLine
 10
954.5804056101621
 20
1125.466686386291
 30
0.0
 11
956.2642320566954
 21
1125.182109970275
 31
0.0
  0
LINE
  5
1709
330
1F
100
AcDbEntity
  8
HEWI
  6
IMPORT
 62
     7
100
AcDbLine
 10
952.4540499734568
 20
1151.372448105041
 30
0.0
 11
953.6021021890331
 21
1151.182132858459
 31
0.0
  0
LINE
  5
170A
330
1F
100
AcDbEntity
  8
HEWI
  6
IMPORT
 62
     7
100
AcDbLine
 10
996.2021044778515
 20
1176.182132858459
 30
0.0
 11
997.8859118508983
 21
1175.897556442443
 31
0.0
  0
LINE
  5
170B
330
1F
100
AcDbEntity
  8
HEWI
  6
IMPORT
 62
     7
100
AcDbLine
 10
994.5804056101621
 20
1125.466686386291
 30
0.0
 11
996.2642320566954
 21
1125.182109970275
 31
0.0
  0
LINE
  5
170C
330
1F
100
AcDbEntity
  8
HEWI
  6
IMPORT
 62
     7
100
AcDbLine
 10
992.4540499734568
 20
1151.372448105041
 30
0.0
 11
993.6021021890331
 21
1151.182132858459
 31
0.0
  0
LINE
  5
170D
330
1F
100
AcDbEntity
  8
HEWI
  6
IMPORT
 62
     7
100
AcDbLine
 10
1036.202104477851
 20
1176.182132858459
 30
0.0
 11
1037.885902314155
 21
1175.897556442443
 31
0.0
  0
LINE
  5
170E
330
1F
100
AcDbEntity
  8
HEWI
  6
IMPORT
 62
     7
100
AcDbLine
 10
1034.580415146905
 20
1125.466686386291
 30
0.0
 11
1036.264222519952
 21
1125.182109970275
 31
0.0
  0
LINE
  5
170F
330
1F
100
AcDbEntity
  8
HEWI
  6
IMPORT
 62
     7
100
AcDbLine
 10
1032.4540595102
 20
1151.372448105041
 30
0.0
 11
1033.602111725776
 21
1151.182132858459
 31
0.0
  0
LINE
  5
1710
330
1F
100
AcDbEntity
  8
HEWI
  6
IMPORT
 62
     7
100
AcDbLine
 10
1076.202104477851
 20
1176.182132858459
 30
0.0
 11
1077.885902314155
 21
1175.897556442443
 31
0.0
  0
LINE
  5
1711
330
1F
100
AcDbEntity
  8
HEWI
  6
IMPORT
 62
     7
100
AcDbLine
 10
1074.580415146905
 20
1125.466686386291
 30
0.0
 11
1076.264222519952
 21
1125.182109970275
 31
0.0
  0
LINE
  5
1712
330
1F
100
AcDbEntity
  8
HEWI
  6
IMPORT
 62
     7
100
AcDbLine
 10
1072.4540595102
 20
1151.372448105041
 30
0.0
 11
1073.602111725776
 21
1151.182132858459
 31
0.0
  0
LINE
  5
1713
330
1F
100
AcDbEntity
  8
HEWI
  6
IMPORT
 62
     7
100
AcDbLine
 10
1116.202109246223
 20
1176.182132858459
 30
0.0
 11
1117.885907082526
 21
1175.897556442443
 31
0.0
  0
LINE
  5
1714
330
1F
100
AcDbEntity
  8
HEWI
  6
IMPORT
 62
     7
100
AcDbLine
 10
1114.580415146905
 20
1125.466686386291
 30
0.0
 11
1116.264222519952
 21
1125.182109970275
 31
0.0
  0
LINE
  5
1715
330
1F
100
AcDbEntity
  8
HEWI
  6
IMPORT
 62
     7
100
AcDbLine
 10
1112.454054741828
 20
1151.372448105041
 30
0.0
 11
1113.602106957404
 21
1151.182132858459
 31
0.0
  0
LINE
  5
1716
330
1F
100
AcDbEntity
  8
HEWI
  6
IMPORT
 62
     7
100
AcDbLine
 10
1156.202106862037
 20
1176.182132858459
 30
0.0
 11
1157.885907082526
 21
1175.897556442443
 31
0.0
  0
LINE
  5
1717
330
1F
100
AcDbEntity
  8
HEWI
  6
IMPORT
 62
     7
100
AcDbLine
 10
1154.580413954812
 20
1125.466686386291
 30
0.0
 11
1156.264223712045
 21
1125.182109970275
 31
0.0
  0
LINE
  5
1718
330
1F
100
AcDbEntity
  8
HEWI
  6
IMPORT
 62
     7
100
AcDbLine
 10
1152.454057126014
 20
1151.372448105041
 30
0.0
 11
1153.602106957404
 21
1151.182132858459
 31
0.0
  0
LINE
  5
1719
330
1F
100
AcDbEntity
  8
HEWI
  6
IMPORT
 62
     7
100
AcDbLine
 10
1196.202106862037
 20
1176.182132858459
 30
0.0
 11
1197.885907082526
 21
1175.897556442443
 31
0.0
  0
LINE
  5
171A
330
1F
100
AcDbEntity
  8
HEWI
  6
IMPORT
 62
     7
100
AcDbLine
 10
1194.580412762719
 20
1125.466686386291
 30
0.0
 11
1196.264224904138
 21
1125.182109970275
 31
0.0
  0
LINE
  5
171B
330
1F
100
AcDbEntity
  8
HEWI
  6
IMPORT
 62
     7
100
AcDbLine
 10
1192.454057126014
 20
1151.372448105041
 30
0.0
 11
1193.602106957404
 21
1151.182132858459
 31
0.0
  0
LINE
  5
171C
330
1F
100
AcDbEntity
  8
HEWI
  6
IMPORT
 62
     7
100
AcDbLine
 10
881.5292962961974
 20
1127.489963669006
 30
0.0
 11
881.8642267161193
 21
1128.920627731506
 31
0.0
  0
LINE
  5
171D
330
1F
100
AcDbEntity
  8
HEWI
  6
IMPORT
 62
     7
100
AcDbLine
 10
870.6021098184276
 20
1172.443653244201
 30
0.0
 11
870.9370402383495
 21
1173.874317306701
 31
0.0
  0
LINE
  5
171E
330
1F
100
AcDbEntity
  8
HEWI
  6
IMPORT
 62
     7
100
AcDbLine
 10
880.373742966621
 20
1152.725444931213
 30
0.0
 11
880.6021098184276
 21
1153.682132858459
 31
0.0
  0
LINE
  5
171F
330
1F
100
AcDbEntity
  8
HEWI
  6
IMPORT
 62
     7
100
AcDbLine
 10
921.5292962961973
 20
1127.489963669006
 30
0.0
 11
921.8642267161191
 21
1128.920627731506
 31
0.0
  0
LINE
  5
1720
330
1F
100
AcDbEntity
  8
HEWI
  6
IMPORT
 62
     7
100
AcDbLine
 10
910.6021098184276
 20
1172.443653244201
 30
0.0
 11
910.9370402383495
 21
1173.874317306701
 31
0.0
  0
LINE
  5
1721
330
1F
100
AcDbEntity
  8
HEWI
  6
IMPORT
 62
     7
100
AcDbLine
 10
920.373742966621
 20
1152.725444931213
 30
0.0
 11
920.6021098184276
 21
1153.682132858459
 31
0.0
  0
LINE
  5
1722
330
1F
100
AcDbEntity
  8
HEWI
  6
IMPORT
 62
     7
100
AcDbLine
 10
961.5292962961973
 20
1127.489963669006
 30
0.0
 11
961.8642267161192
 21
1128.920627731506
 31
0.0
  0
LINE
  5
1723
330
1F
100
AcDbEntity
  8
HEWI
  6
IMPORT
 62
     7
100
AcDbLine
 10
950.6021098184275
 20
1172.443653244201
 30
0.0
 11
950.9370402383494
 21
1173.874317306701
 31
0.0
  0
LINE
  5
1724
330
1F
100
AcDbEntity
  8
HEWI
  6
IMPORT
 62
     7
100
AcDbLine
 10
960.3737429666209
 20
1152.725444931213
 30
0.0
 11
960.6021098184276
 21
1153.682132858459
 31
0.0
  0
LINE
  5
1725
330
1F
100
AcDbEntity
  8
HEWI
  6
IMPORT
 62
     7
100
AcDbLine
 10
1001.529296296197
 20
1127.489963669006
 30
0.0
 11
1001.864226716119
 21
1128.920627731506
 31
0.0
  0
LINE
  5
1726
330
1F
100
AcDbEntity
  8
HEWI
  6
IMPORT
 62
     7
100
AcDbLine
 10
990.6021098184275
 20
1172.443653244201
 30
0.0
 11
990.9370402383494
 21
1173.874317306701
 31
0.0
  0
LINE
  5
1727
330
1F
100
AcDbEntity
  8
HEWI
  6
IMPORT
 62
     7
100
AcDbLine
 10
1000.373742966621
 20
1152.725444931213
 30
0.0
 11
1000.602109818427
 21
1153.682132858459
 31
0.0
  0
LINE
  5
1728
330
1F
100
AcDbEntity
  8
HEWI
  6
IMPORT
 62
     7
100
AcDbLine
 10
1041.529296296197
 20
1127.489963669006
 30
0.0
 11
1041.864226716119
 21
1128.920627731506
 31
0.0
  0
LINE
  5
1729
330
1F
100
AcDbEntity
  8
HEWI
  6
IMPORT
 62
     7
100
AcDbLine
 10
1030.602109818427
 20
1172.443653244201
 30
0.0
 11
1030.937040238349
 21
1173.874317306701
 31
0.0
  0
LINE
  5
172A
330
1F
100
AcDbEntity
  8
HEWI
  6
IMPORT
 62
     7
100
AcDbLine
 10
1040.373733429878
 20
1152.725444931213
 30
0.0
 11
1040.602109818427
 21
1153.682132858459
 31
0.0
  0
LINE
  5
172B
330
1F
100
AcDbEntity
  8
HEWI
  6
IMPORT
 62
     7
100
AcDbLine
 10
1081.529296296197
 20
1127.489963669006
 30
0.0
 11
1081.864226716119
 21
1128.920627731506
 31
0.0
  0
LINE
  5
172C
330
1F
100
AcDbEntity
  8
HEWI
  6
IMPORT
 62
     7
100
AcDbLine
 10
1070.602109818427
 20
1172.443653244201
 30
0.0
 11
1070.937040238349
 21
1173.874317306701
 31
0.0
  0
LINE
  5
172D
330
1F
100
AcDbEntity
  8
HEWI
  6
IMPORT
 62
     7
100
AcDbLine
 10
1080.373733429878
 20
1152.725444931213
 30
0.0
 11
1080.602109818427
 21
1153.682132858459
 31
0.0
  0
LINE
  5
172E
330
1F
100
AcDbEntity
  8
HEWI
  6
IMPORT
 62
     7
100
AcDbLine
 10
1121.529291527826
 20
1127.489963669006
 30
0.0
 11
1121.864221947747
 21
1128.920627731506
 31
0.0
  0
LINE
  5
172F
330
1F
100
AcDbEntity
  8
HEWI
  6
IMPORT
 62
     7
100
AcDbLine
 10
1110.602105050056
 20
1172.443653244201
 30
0.0
 11
1110.937035469978
 21
1173.874317306701
 31
0.0
  0
LINE
  5
1730
330
1F
100
AcDbEntity
  8
HEWI
  6
IMPORT
 62
     7
100
AcDbLine
 10
1120.373738198249
 20
1152.725444931213
 30
0.0
 11
1120.602105050056
 21
1153.682132858459
 31
0.0
  0
LINE
  5
1731
330
1F
100
AcDbEntity
  8
HEWI
  6
IMPORT
 62
     7
100
AcDbLine
 10
1161.529293912011
 20
1127.489963669006
 30
0.0
 11
1161.864223735887
 21
1128.920627731506
 31
0.0
  0
LINE
  5
1732
330
1F
100
AcDbEntity
  8
HEWI
  6
IMPORT
 62
     7
100
AcDbLine
 10
1150.602107434242
 20
1172.443653244201
 30
0.0
 11
1150.937036662071
 21
1173.874317306701
 31
0.0
  0
LINE
  5
1733
330
1F
100
AcDbEntity
  8
HEWI
  6
IMPORT
 62
     7
100
AcDbLine
 10
1160.373737006156
 20
1152.725444931213
 30
0.0
 11
1160.602106838195
 21
1153.682132858459
 31
0.0
  0
LINE
  5
1734
330
1F
100
AcDbEntity
  8
HEWI
  6
IMPORT
 62
     7
100
AcDbLine
 10
1201.529293912011
 20
1127.489963669006
 30
0.0
 11
1201.864224331933
 21
1128.920627731506
 31
0.0
  0
LINE
  5
1735
330
1F
100
AcDbEntity
  8
HEWI
  6
IMPORT
 62
     7
100
AcDbLine
 10
1190.602107434242
 20
1172.443653244201
 30
0.0
 11
1190.937037854163
 21
1173.874317306701
 31
0.0
  0
LINE
  5
1736
330
1F
100
AcDbEntity
  8
HEWI
  6
IMPORT
 62
     7
100
AcDbLine
 10
1200.373735814064
 20
1152.725444931213
 30
0.0
 11
1200.602107434242
 21
1153.682132858459
 31
0.0
  0
LINE
  5
1737
330
1F
100
AcDbEntity
  8
HEWI
  6
IMPORT
 62
     7
100
AcDbLine
 10
871.8642267161191
 20
1134.337345260803
 30
0.0
 11
872.199157136041
 21
1135.349002975647
 31
0.0
  0
LINE
  5
1738
330
1F
100
AcDbEntity
  8
HEWI
  6
IMPORT
 62
     7
100
AcDbLine
 10
911.8642267161192
 20
1134.337345260803
 30
0.0
 11
912.199157136041
 21
1135.349002975647
 31
0.0
  0
LINE
  5
1739
330
1F
100
AcDbEntity
  8
HEWI
  6
IMPORT
 62
     7
100
AcDbLine
 10
951.8642267161192
 20
1134.337345260803
 30
0.0
 11
952.1991571360411
 21
1135.349002975647
 31
0.0
  0
LINE
  5
173A
330
1F
100
AcDbEntity
  8
HEWI
  6
IMPORT
 62
     7
100
AcDbLine
 10
991.8642267161192
 20
1134.337345260803
 30
0.0
 11
992.1991571360411
 21
1135.349002975647
 31
0.0
  0
LINE
  5
173B
330
1F
100
AcDbEntity
  8
HEWI
  6
IMPORT
 62
     7
100
AcDbLine
 10
1031.864226716119
 20
1134.337345260803
 30
0.0
 11
1032.199157136041
 21
1135.349002975647
 31
0.0
  0
LINE
  5
173C
330
1F
100
AcDbEntity
  8
HEWI
  6
IMPORT
 62
     7
100
AcDbLine
 10
1071.864226716119
 20
1134.337345260803
 30
0.0
 11
1072.199157136041
 21
1135.349002975647
 31
0.0
  0
LINE
  5
173D
330
1F
100
AcDbEntity
  8
HEWI
  6
IMPORT
 62
     7
100
AcDbLine
 10
1111.864221947747
 20
1134.337345260803
 30
0.0
 11
1112.199152367669
 21
1135.349002975647
 31
0.0
  0
LINE
  5
173E
330
1F
100
AcDbEntity
  8
HEWI
  6
IMPORT
 62
     7
100
AcDbLine
 10
1151.864224331933
 20
1134.337345260803
 30
0.0
 11
1152.199153559762
 21
1135.349002975647
 31
0.0
  0
LINE
  5
173F
330
1F
100
AcDbEntity
  8
HEWI
  6
IMPORT
 62
     7
100
AcDbLine
 10
1191.864224331933
 20
1134.337345260803
 30
0.0
 11
1192.199154751855
 21
1135.349002975647
 31
0.0
  0
LINE
  5
1740
330
1F
100
AcDbEntity
  8
HEWI
  6
IMPORT
 62
     7
100
AcDbLine
 10
879.0575059824766
 20
1137.195087570373
 30
0.0
 11
880.4093774729551
 21
1136.652408737365
 31
0.0
  0
LINE
  5
1741
330
1F
100
AcDbEntity
  8
HEWI
  6
IMPORT
 62
     7
100
AcDbLine
 10
919.0575059824766
 20
1137.195087570373
 30
0.0
 11
920.4093774729551
 21
1136.652408737365
 31
0.0
  0
LINE
  5
1742
330
1F
100
AcDbEntity
  8
HEWI
  6
IMPORT
 62
     7
100
AcDbLine
 10
959.0575059824766
 20
1137.195087570373
 30
0.0
 11
960.4093774729552
 21
1136.652408737365
 31
0.0
  0
LINE
  5
1743
330
1F
100
AcDbEntity
  8
HEWI
  6
IMPORT
 62
     7
100
AcDbLine
 10
999.0575059824767
 20
1137.195087570373
 30
0.0
 11
1000.409377472955
 21
1136.652408737365
 31
0.0
  0
LINE
  5
1744
330
1F
100
AcDbEntity
  8
HEWI
  6
IMPORT
 62
     7
100
AcDbLine
 10
1039.057505982476
 20
1137.195087570373
 30
0.0
 11
1040.409387009698
 21
1136.652408737365
 31
0.0
  0
LINE
  5
1745
330
1F
100
AcDbEntity
  8
HEWI
  6
IMPORT
 62
     7
100
AcDbLine
 10
1079.057505982476
 20
1137.195087570373
 30
0.0
 11
1080.409387009698
 21
1136.652408737365
 31
0.0
  0
LINE
  5
1746
330
1F
100
AcDbEntity
  8
HEWI
  6
IMPORT
 62
     7
100
AcDbLine
 10
1119.057505982476
 20
1137.195087570373
 30
0.0
 11
1120.409382241327
 21
1136.652408737365
 31
0.0
  0
LINE
  5
1747
330
1F
100
AcDbEntity
  8
HEWI
  6
IMPORT
 62
     7
100
AcDbLine
 10
1159.057503598291
 20
1137.195087570373
 30
0.0
 11
1160.409383433419
 21
1136.652408737365
 31
0.0
  0
LINE
  5
1748
330
1F
100
AcDbEntity
  8
HEWI
  6
IMPORT
 62
     7
100
AcDbLine
 10
1199.057503598291
 20
1137.195087570373
 30
0.0
 11
1200.409384625512
 21
1136.652408737365
 31
0.0
  0
LINE
  5
1749
330
1F
100
AcDbEntity
  8
HEWI
  6
IMPORT
 62
     7
100
AcDbLine
 10
872.199157136041
 20
1135.349002975647
 30
0.0
 11
872.4147066050353
 21
1135.839229721252
 31
0.0
  0
LINE
  5
174A
330
1F
100
AcDbEntity
  8
HEWI
  6
IMPORT
 62
     7
100
AcDbLine
 10
912.199157136041
 20
1135.349002975647
 30
0.0
 11
912.4147066050353
 21
1135.839229721252
 31
0.0
  0
LINE
  5
174B
330
1F
100
AcDbEntity
  8
HEWI
  6
IMPORT
 62
     7
100
AcDbLine
 10
952.1991571360411
 20
1135.349002975647
 30
0.0
 11
952.4147066050351
 21
1135.839229721252
 31
0.0
  0
LINE
  5
174C
330
1F
100
AcDbEntity
  8
HEWI
  6
IMPORT
 62
     7
100
AcDbLine
 10
992.1991571360411
 20
1135.349002975647
 30
0.0
 11
992.4147066050352
 21
1135.839229721252
 31
0.0
  0
LINE
  5
174D
330
1F
100
AcDbEntity
  8
HEWI
  6
IMPORT
 62
     7
100
AcDbLine
 10
1032.199157136041
 20
1135.349002975647
 30
0.0
 11
1032.414706605035
 21
1135.839229721252
 31
0.0
  0
LINE
  5
174E
330
1F
100
AcDbEntity
  8
HEWI
  6
IMPORT
 62
     7
100
AcDbLine
 10
1072.199157136041
 20
1135.349002975647
 30
0.0
 11
1072.414706605035
 21
1135.839229721252
 31
0.0
  0
LINE
  5
174F
330
1F
100
AcDbEntity
  8
HEWI
  6
IMPORT
 62
     7
100
AcDbLine
 10
1112.199152367669
 20
1135.349002975647
 30
0.0
 11
1112.414701836663
 21
1135.839229721252
 31
0.0
  0
LINE
  5
1750
330
1F
100
AcDbEntity
  8
HEWI
  6
IMPORT
 62
     7
100
AcDbLine
 10
1152.199153559762
 20
1135.349002975647
 30
0.0
 11
1152.414704220849
 21
1135.839229721252
 31
0.0
  0
LINE
  5
1751
330
1F
100
AcDbEntity
  8
HEWI
  6
IMPORT
 62
     7
100
AcDbLine
 10
1192.199154751855
 20
1135.349002975647
 30
0.0
 11
1192.414704220849
 21
1135.839229721252
 31
0.0
  0
LINE
  5
1752
330
1F
100
AcDbEntity
  8
HEWI
  6
IMPORT
 62
     7
100
AcDbLine
 10
871.4807871865916
 20
1151.914363998596
 30
0.0
 11
872.4540499734569
 21
1151.372448105041
 31
0.0
  0
LINE
  5
1753
330
1F
100
AcDbEntity
  8
HEWI
  6
IMPORT
 62
     7
100
AcDbLine
 10
911.4807871865917
 20
1151.914363998596
 30
0.0
 11
912.4540499734569
 21
1151.372448105041
 31
0.0
  0
LINE
  5
1754
330
1F
100
AcDbEntity
  8
HEWI
  6
IMPORT
 62
     7
100
AcDbLine
 10
951.4807871865917
 20
1151.914363998596
 30
0.0
 11
952.4540499734568
 21
1151.372448105041
 31
0.0
  0
LINE
  5
1755
330
1F
100
AcDbEntity
  8
HEWI
  6
IMPORT
 62
     7
100
AcDbLine
 10
991.4807871865916
 20
1151.914363998596
 30
0.0
 11
992.4540499734568
 21
1151.372448105041
 31
0.0
  0
LINE
  5
1756
330
1F
100
AcDbEntity
  8
HEWI
  6
IMPORT
 62
     7
100
AcDbLine
 10
1031.480787186591
 20
1151.914363998596
 30
0.0
 11
1032.4540595102
 21
1151.372448105041
 31
0.0
  0
LINE
  5
1757
330
1F
100
AcDbEntity
  8
HEWI
  6
IMPORT
 62
     7
100
AcDbLine
 10
1071.480787186591
 20
1151.914363998596
 30
0.0
 11
1072.4540595102
 21
1151.372448105041
 31
0.0
  0
LINE
  5
1758
330
1F
100
AcDbEntity
  8
HEWI
  6
IMPORT
 62
     7
100
AcDbLine
 10
1111.480787186591
 20
1151.914363998596
 30
0.0
 11
1112.454054741828
 21
1151.372448105041
 31
0.0
  0
LINE
  5
1759
330
1F
100
AcDbEntity
  8
HEWI
  6
IMPORT
 62
     7
100
AcDbLine
 10
1151.480787186591
 20
1151.914363998596
 30
0.0
 11
1152.454057126014
 21
1151.372448105041
 31
0.0
  0
LINE
  5
175A
330
1F
100
AcDbEntity
  8
HEWI
  6
IMPORT
 62
     7
100
AcDbLine
 10
1191.480787186591
 20
1151.914363998596
 30
0.0
 11
1192.454057126014
 21
1151.372448105041
 31
0.0
  0
LINE
  5
175B
330
1F
100
AcDbEntity
  8
HEWI
  6
IMPORT
 62
     7
100
AcDbLine
 10
877.8859118508982
 20
1175.897556442443
 30
0.0
 11
879.3133715676951
 21
1175.087162155334
 31
0.0
  0
LINE
  5
175C
330
1F
100
AcDbEntity
  8
HEWI
  6
IMPORT
 62
     7
100
AcDbLine
 10
873.1529458933653
 20
1126.277118820373
 30
0.0
 11
874.5804056101622
 21
1125.466686386291
 31
0.0
  0
LINE
  5
175D
330
1F
100
AcDbEntity
  8
HEWI
  6
IMPORT
 62
     7
100
AcDbLine
 10
917.8859118508983
 20
1175.897556442443
 30
0.0
 11
919.3133715676951
 21
1175.087162155334
 31
0.0
  0
LINE
  5
175E
330
1F
100
AcDbEntity
  8
HEWI
  6
IMPORT
 62
     7
100
AcDbLine
 10
913.1529458933654
 20
1126.277118820373
 30
0.0
 11
914.5804056101622
 21
1125.466686386291
 31
0.0
  0
LINE
  5
175F
330
1F
100
AcDbEntity
  8
HEWI
  6
IMPORT
 62
     7
100
AcDbLine
 10
957.8859118508983
 20
1175.897556442443
 30
0.0
 11
959.3133715676952
 21
1175.087162155334
 31
0.0
  0
LINE
  5
1760
330
1F
100
AcDbEntity
  8
HEWI
  6
IMPORT
 62
     7
100
AcDbLine
 10
953.1529458933652
 20
1126.277118820373
 30
0.0
 11
954.5804056101621
 21
1125.466686386291
 31
0.0
  0
LINE
  5
1761
330
1F
100
AcDbEntity
  8
HEWI
  6
IMPORT
 62
     7
100
AcDbLine
 10
997.8859118508983
 20
1175.897556442443
 30
0.0
 11
999.3133715676952
 21
1175.087162155334
 31
0.0
  0
LINE
  5
1762
330
1F
100
AcDbEntity
  8
HEWI
  6
IMPORT
 62
     7
100
AcDbLine
 10
993.1529458933653
 20
1126.277118820373
 30
0.0
 11
994.5804056101621
 21
1125.466686386291
 31
0.0
  0
LINE
  5
1763
330
1F
100
AcDbEntity
  8
HEWI
  6
IMPORT
 62
     7
100
AcDbLine
 10
1037.885902314155
 20
1175.897556442443
 30
0.0
 11
1039.313381104438
 21
1175.087162155334
 31
0.0
  0
LINE
  5
1764
330
1F
100
AcDbEntity
  8
HEWI
  6
IMPORT
 62
     7
100
AcDbLine
 10
1033.152955430108
 20
1126.277118820373
 30
0.0
 11
1034.580415146905
 21
1125.466686386291
 31
0.0
  0
LINE
  5
1765
330
1F
100
AcDbEntity
  8
HEWI
  6
IMPORT
 62
     7
100
AcDbLine
 10
1077.885902314155
 20
1175.897556442443
 30
0.0
 11
1079.313381104438
 21
1175.087162155334
 31
0.0
  0
LINE
  5
1766
330
1F
100
AcDbEntity
  8
HEWI
  6
IMPORT
 62
     7
100
AcDbLine
 10
1073.152955430108
 20
1126.277118820373
 30
0.0
 11
1074.580415146905
 21
1125.466686386291
 31
0.0
  0
LINE
  5
1767
330
1F
100
AcDbEntity
  8
HEWI
  6
IMPORT
 62
     7
100
AcDbLine
 10
1117.885907082526
 20
1175.897556442443
 30
0.0
 11
1119.313376336067
 21
1175.087162155334
 31
0.0
  0
LINE
  5
1768
330
1F
100
AcDbEntity
  8
HEWI
  6
IMPORT
 62
     7
100
AcDbLine
 10
1113.152955430108
 20
1126.277118820373
 30
0.0
 11
1114.580415146905
 21
1125.466686386291
 31
0.0
  0
LINE
  5
1769
330
1F
100
AcDbEntity
  8
HEWI
  6
IMPORT
 62
     7
100
AcDbLine
 10
1157.885907082526
 20
1175.897556442443
 30
0.0
 11
1159.313376932113
 21
1175.087162155334
 31
0.0
  0
LINE
  5
176A
330
1F
100
AcDbEntity
  8
HEWI
  6
IMPORT
 62
     7
100
AcDbLine
 10
1153.152954238015
 20
1126.277118820373
 30
0.0
 11
1154.580413954812
 21
1125.466686386291
 31
0.0
  0
LINE
  5
176B
330
1F
100
AcDbEntity
  8
HEWI
  6
IMPORT
 62
     7
100
AcDbLine
 10
1197.885907082526
 20
1175.897556442443
 30
0.0
 11
1199.313376336067
 21
1175.087162155334
 31
0.0
  0
LINE
  5
176C
330
1F
100
AcDbEntity
  8
HEWI
  6
IMPORT
 62
     7
100
AcDbLine
 10
1193.152953045923
 20
1126.277118820373
 30
0.0
 11
1194.580412762719
 21
1125.466686386291
 31
0.0
  0
LINE
  5
176D
330
1F
100
AcDbEntity
  8
HEWI
  6
IMPORT
 62
     7
100
AcDbLine
 10
880.5754884653868
 20
1126.277118820373
 30
0.0
 11
881.5292962961974
 21
1127.489963669006
 31
0.0
  0
LINE
  5
176E
330
1F
100
AcDbEntity
  8
HEWI
  6
IMPORT
 62
     7
100
AcDbLine
 10
870.9370402383495
 20
1173.874317306701
 30
0.0
 11
871.8908289956736
 21
1175.087162155334
 31
0.0
  0
LINE
  5
176F
330
1F
100
AcDbEntity
  8
HEWI
  6
IMPORT
 62
     7
100
AcDbLine
 10
920.5754884653869
 20
1126.277118820373
 30
0.0
 11
921.5292962961973
 21
1127.489963669006
 31
0.0
  0
LINE
  5
1770
330
1F
100
AcDbEntity
  8
HEWI
  6
IMPORT
 62
     7
100
AcDbLine
 10
910.9370402383495
 20
1173.874317306701
 30
0.0
 11
911.8908289956737
 21
1175.087162155334
 31
0.0
  0
LINE
  5
1771
330
1F
100
AcDbEntity
  8
HEWI
  6
IMPORT
 62
     7
100
AcDbLine
 10
960.5754884653867
 20
1126.277118820373
 30
0.0
 11
961.5292962961973
 21
1127.489963669006
 31
0.0
  0
LINE
  5
1772
330
1F
100
AcDbEntity
  8
HEWI
  6
IMPORT
 62
     7
100
AcDbLine
 10
950.9370402383494
 20
1173.874317306701
 30
0.0
 11
951.8908289956737
 21
1175.087162155334
 31
0.0
  0
LINE
  5
1773
330
1F
100
AcDbEntity
  8
HEWI
  6
IMPORT
 62
     7
100
AcDbLine
 10
1000.575488465387
 20
1126.277118820373
 30
0.0
 11
1001.529296296197
 21
1127.489963669006
 31
0.0
  0
LINE
  5
1774
330
1F
100
AcDbEntity
  8
HEWI
  6
IMPORT
 62
     7
100
AcDbLine
 10
990.9370402383494
 20
1173.874317306701
 30
0.0
 11
991.8908289956737
 21
1175.087162155334
 31
0.0
  0
LINE
  5
1775
330
1F
100
AcDbEntity
  8
HEWI
  6
IMPORT
 62
     7
100
AcDbLine
 10
1040.57549800213
 20
1126.277118820373
 30
0.0
 11
1041.529296296197
 21
1127.489963669006
 31
0.0
  0
LINE
  5
1776
330
1F
100
AcDbEntity
  8
HEWI
  6
IMPORT
 62
     7
100
AcDbLine
 10
1030.937040238349
 20
1173.874317306701
 30
0.0
 11
1031.890838532417
 21
1175.087162155334
 31
0.0
  0
LINE
  5
1777
330
1F
100
AcDbEntity
  8
HEWI
  6
IMPORT
 62
     7
100
AcDbLine
 10
1080.57549800213
 20
1126.277118820373
 30
0.0
 11
1081.529296296197
 21
1127.489963669006
 31
0.0
  0
LINE
  5
1778
330
1F
100
AcDbEntity
  8
HEWI
  6
IMPORT
 62
     7
100
AcDbLine
 10
1070.937040238349
 20
1173.874317306701
 30
0.0
 11
1071.890838532417
 21
1175.087162155334
 31
0.0
  0
LINE
  5
1779
330
1F
100
AcDbEntity
  8
HEWI
  6
IMPORT
 62
     7
100
AcDbLine
 10
1120.575493233758
 20
1126.277118820373
 30
0.0
 11
1121.529291527826
 21
1127.489963669006
 31
0.0
  0
LINE
  5
177A
330
1F
100
AcDbEntity
  8
HEWI
  6
IMPORT
 62
     7
100
AcDbLine
 10
1110.937035469978
 20
1173.874317306701
 30
0.0
 11
1111.890838532417
 21
1175.087162155334
 31
0.0
  0
LINE
  5
177B
330
1F
100
AcDbEntity
  8
HEWI
  6
IMPORT
 62
     7
100
AcDbLine
 10
1160.575493829805
 20
1126.277118820373
 30
0.0
 11
1161.529293912011
 21
1127.489963669006
 31
0.0
  0
LINE
  5
177C
330
1F
100
AcDbEntity
  8
HEWI
  6
IMPORT
 62
     7
100
AcDbLine
 10
1150.937036662071
 20
1173.874317306701
 30
0.0
 11
1151.890837340324
 21
1175.087162155334
 31
0.0
  0
LINE
  5
177D
330
1F
100
AcDbEntity
  8
HEWI
  6
IMPORT
 62
     7
100
AcDbLine
 10
1200.575493233758
 20
1126.277118820373
 30
0.0
 11
1201.529293912011
 21
1127.489963669006
 31
0.0
  0
LINE
  5
177E
330
1F
100
AcDbEntity
  8
HEWI
  6
IMPORT
 62
     7
100
AcDbLine
 10
1190.937037854163
 20
1173.874317306701
 30
0.0
 11
1191.890836148231
 21
1175.087162155334
 31
0.0
  0
LINE
  5
177F
330
1F
100
AcDbEntity
  8
HEWI
  6
IMPORT
 62
     7
100
AcDbLine
 10
879.7234324502635
 20
1151.914363998596
 30
0.0
 11
880.373742966621
 21
1152.725444931213
 31
0.0
  0
LINE
  5
1780
330
1F
100
AcDbEntity
  8
HEWI
  6
IMPORT
 62
     7
100
AcDbLine
 10
919.7234324502636
 20
1151.914363998596
 30
0.0
 11
920.373742966621
 21
1152.725444931213
 31
0.0
  0
LINE
  5
1781
330
1F
100
AcDbEntity
  8
HEWI
  6
IMPORT
 62
     7
100
AcDbLine
 10
959.7234324502634
 20
1151.914363998596
 30
0.0
 11
960.3737429666209
 21
1152.725444931213
 31
0.0
  0
LINE
  5
1782
330
1F
100
AcDbEntity
  8
HEWI
  6
IMPORT
 62
     7
100
AcDbLine
 10
999.7234324502635
 20
1151.914363998596
 30
0.0
 11
1000.373742966621
 21
1152.725444931213
 31
0.0
  0
LINE
  5
1783
330
1F
100
AcDbEntity
  8
HEWI
  6
IMPORT
 62
     7
100
AcDbLine
 10
1039.72342291352
 20
1151.914363998596
 30
0.0
 11
1040.373733429878
 21
1152.725444931213
 31
0.0
  0
LINE
  5
1784
330
1F
100
AcDbEntity
  8
HEWI
  6
IMPORT
 62
     7
100
AcDbLine
 10
1079.72342291352
 20
1151.914363998596
 30
0.0
 11
1080.373733429878
 21
1152.725444931213
 31
0.0
  0
LINE
  5
1785
330
1F
100
AcDbEntity
  8
HEWI
  6
IMPORT
 62
     7
100
AcDbLine
 10
1119.723427681892
 20
1151.914363998596
 30
0.0
 11
1120.373738198249
 21
1152.725444931213
 31
0.0
  0
LINE
  5
1786
330
1F
100
AcDbEntity
  8
HEWI
  6
IMPORT
 62
     7
100
AcDbLine
 10
1159.723427085845
 20
1151.914363998596
 30
0.0
 11
1160.373737006156
 21
1152.725444931213
 31
0.0
  0
LINE
  5
1787
330
1F
100
AcDbEntity
  8
HEWI
  6
IMPORT
 62
     7
100
AcDbLine
 10
1199.723427681892
 20
1151.914363998596
 30
0.0
 11
1200.373735814064
 21
1152.725444931213
 31
0.0
  0
LINE
  5
1788
330
1F
100
AcDbEntity
  8
HEWI
  6
IMPORT
 62
     7
100
AcDbLine
 10
880.4093774729551
 20
1136.652408737365
 30
0.0
 11
881.3137277537169
 21
1135.839229721252
 31
0.0
  0
LINE
  5
1789
330
1F
100
AcDbEntity
  8
HEWI
  6
IMPORT
 62
     7
100
AcDbLine
 10
920.4093774729551
 20
1136.652408737365
 30
0.0
 11
921.3137277537169
 21
1135.839229721252
 31
0.0
  0
LINE
  5
178A
330
1F
100
AcDbEntity
  8
HEWI
  6
IMPORT
 62
     7
100
AcDbLine
 10
960.4093774729552
 20
1136.652408737365
 30
0.0
 11
961.3137277537168
 21
1135.839229721252
 31
0.0
  0
LINE
  5
178B
330
1F
100
AcDbEntity
  8
HEWI
  6
IMPORT
 62
     7
100
AcDbLine
 10
1000.409377472955
 20
1136.652408737365
 30
0.0
 11
1001.313727753717
 21
1135.839229721252
 31
0.0
  0
LINE
  5
178C
330
1F
100
AcDbEntity
  8
HEWI
  6
IMPORT
 62
     7
100
AcDbLine
 10
1040.409387009698
 20
1136.652408737365
 30
0.0
 11
1041.31373729046
 21
1135.839229721252
 31
0.0
  0
LINE
  5
178D
330
1F
100
AcDbEntity
  8
HEWI
  6
IMPORT
 62
     7
100
AcDbLine
 10
1080.409387009698
 20
1136.652408737365
 30
0.0
 11
1081.31373729046
 21
1135.839229721252
 31
0.0
  0
LINE
  5
178E
330
1F
100
AcDbEntity
  8
HEWI
  6
IMPORT
 62
     7
100
AcDbLine
 10
1120.409382241327
 20
1136.652408737365
 30
0.0
 11
1121.313732522088
 21
1135.839229721252
 31
0.0
  0
LINE
  5
178F
330
1F
100
AcDbEntity
  8
HEWI
  6
IMPORT
 62
     7
100
AcDbLine
 10
1160.409383433419
 20
1136.652408737365
 30
0.0
 11
1161.313733714181
 21
1135.839229721252
 31
0.0
  0
LINE
  5
1790
330
1F
100
AcDbEntity
  8
HEWI
  6
IMPORT
 62
     7
100
AcDbLine
 10
1200.409384625512
 20
1136.652408737365
 30
0.0
 11
1201.313734906274
 21
1135.839229721252
 31
0.0
  0
LINE
  5
1791
330
1F
100
AcDbEntity
  8
HEWI
  6
IMPORT
 62
     7
100
AcDbLine
 10
1231.083836818272
 20
1151.182132858459
 30
0.0
 11
1235.083837771946
 21
1151.182132858459
 31
0.0
  0
LINE
  5
1792
330
1F
100
AcDbEntity
  8
HEWI
  6
IMPORT
 62
     7
100
AcDbLine
 10
1232.483837867314
 20
1176.182132858459
 30
0.0
 11
1233.683836722905
 21
1176.182132858459
 31
0.0
  0
LINE
  5
1793
330
1F
100
AcDbEntity
  8
HEWI
  6
IMPORT
 62
     7
100
AcDbLine
 10
1233.745954765005
 20
1125.182109970275
 30
0.0
 11
1234.945953620596
 21
1125.182109970275
 31
0.0
  0
LINE
  5
1794
330
1F
100
AcDbEntity
  8
HEWI
  6
IMPORT
 62
     7
100
AcDbLine
 10
1236.281464828177
 20
1137.294307846252
 30
0.0
 11
1236.539233459158
 21
1137.195087570373
 31
0.0
  0
LINE
  5
1795
330
1F
100
AcDbEntity
  8
HEWI
  6
IMPORT
 62
     7
100
AcDbLine
 10
1232.152663005514
 20
1137.195087570373
 30
0.0
 11
1232.603743804617
 21
1137.317424911682
 31
0.0
  0
LINE
  5
1796
330
1F
100
AcDbEntity
  8
HEWI
  6
IMPORT
 62
     7
100
AcDbLine
 10
1233.834152949972
 20
1137.464481491271
 30
0.0
 11
1235.047813190146
 21
1137.441745895569
 31
0.0
  0
LINE
  5
1797
330
1F
100
AcDbEntity
  8
HEWI
  6
IMPORT
 62
     7
100
AcDbLine
 10
1228.083837295109
 20
1153.682132858459
 30
0.0
 11
1228.083837295109
 21
1172.443653244201
 31
0.0
  0
LINE
  5
1798
330
1F
100
AcDbEntity
  8
HEWI
  6
IMPORT
 62
     7
100
AcDbLine
 10
1229.345954192801
 20
1128.920627731506
 30
0.0
 11
1229.345954192801
 21
1141.500621933166
 31
0.0
  0
LINE
  5
1799
330
1F
100
AcDbEntity
  8
HEWI
  6
IMPORT
 62
     7
100
AcDbLine
 10
1238.083837295109
 20
1153.682132858459
 30
0.0
 11
1238.083837295109
 21
1172.443653244201
 31
0.0
  0
LINE
  5
179A
330
1F
100
AcDbEntity
  8
HEWI
  6
IMPORT
 62
     7
100
AcDbLine
 10
1239.345954192801
 20
1128.920627731506
 30
0.0
 11
1239.345954192801
 21
1141.500621933166
 31
0.0
  0
LINE
  5
179B
330
1F
100
AcDbEntity
  8
HEWI
  6
IMPORT
 62
     7
100
AcDbLine
 10
1229.896434081717
 20
1135.839229721252
 30
0.0
 11
1230.800784362479
 21
1136.652408737365
 31
0.0
  0
LINE
  5
179C
330
1F
100
AcDbEntity
  8
HEWI
  6
IMPORT
 62
     7
100
AcDbLine
 10
1228.312196994358
 20
1152.725444931213
 30
0.0
 11
1228.962517047459
 21
1151.914363998596
 31
0.0
  0
LINE
  5
179D
330
1F
100
AcDbEntity
  8
HEWI
  6
IMPORT
 62
     7
100
AcDbLine
 10
1236.795106196934
 20
1175.087162155334
 30
0.0
 11
1237.748906875187
 21
1173.874317306701
 31
0.0
  0
LINE
  5
179E
330
1F
100
AcDbEntity
  8
HEWI
  6
IMPORT
 62
     7
100
AcDbLine
 10
1229.680884612723
 20
1127.489963669006
 30
0.0
 11
1230.63468290679
 21
1126.277118820373
 31
0.0
  0
LINE
  5
179F
330
1F
100
AcDbEntity
  8
HEWI
  6
IMPORT
 62
     7
100
AcDbLine
 10
1236.629753841086
 20
1125.466686386291
 30
0.0
 11
1238.057223094626
 21
1126.277118820373
 31
0.0
  0
LINE
  5
17A0
330
1F
100
AcDbEntity
  8
HEWI
  6
IMPORT
 62
     7
100
AcDbLine
 10
1229.372566009099
 20
1175.087162155334
 30
0.0
 11
1230.800025725895
 21
1175.897556442443
 31
0.0
  0
LINE
  5
17A1
330
1F
100
AcDbEntity
  8
HEWI
  6
IMPORT
 62
     7
100
AcDbLine
 10
1236.231887603337
 20
1151.372448105041
 30
0.0
 11
1237.205157542759
 21
1151.914363998596
 31
0.0
  0
LINE
  5
17A2
330
1F
100
AcDbEntity
  8
HEWI
  6
IMPORT
 62
     7
100
AcDbLine
 10
1238.795464767141
 20
1135.839229721252
 30
0.0
 11
1239.011023772879
 21
1135.349002975647
 31
0.0
  0
LINE
  5
17A3
330
1F
100
AcDbEntity
  8
HEWI
  6
IMPORT
 62
     7
100
AcDbLine
 10
1230.800784362479
 20
1136.652408737365
 30
0.0
 11
1232.152663005514
 21
1137.195087570373
 31
0.0
  0
LINE
  5
17A4
330
1F
100
AcDbEntity
  8
HEWI
  6
IMPORT
 62
     7
100
AcDbLine
 10
1239.011023772879
 20
1135.349002975647
 30
0.0
 11
1239.345954192801
 21
1134.337345260803
 31
0.0
  0
LINE
  5
17A5
330
1F
100
AcDbEntity
  8
HEWI
  6
IMPORT
 62
     7
100
AcDbLine
 10
1237.748906875187
 20
1173.874317306701
 30
0.0
 11
1238.083837295109
 21
1172.443653244201
 31
0.0
  0
LINE
  5
17A6
330
1F
100
AcDbEntity
  8
HEWI
  6
IMPORT
 62
     7
100
AcDbLine
 10
1229.345954192801
 20
1128.920627731506
 30
0.0
 11
1229.680884612723
 21
1127.489963669006
 31
0.0
  0
LINE
  5
17A7
330
1F
100
AcDbEntity
  8
HEWI
  6
IMPORT
 62
     7
100
AcDbLine
 10
1228.083837295109
 20
1153.682132858459
 30
0.0
 11
1228.312196994358
 21
1152.725444931213
 31
0.0
  0
LINE
  5
17A8
330
1F
100
AcDbEntity
  8
HEWI
  6
IMPORT
 62
     7
100
AcDbLine
 10
1234.945953620596
 20
1125.182109970275
 30
0.0
 11
1236.629753841086
 21
1125.466686386291
 31
0.0
  0
LINE
  5
17A9
330
1F
100
AcDbEntity
  8
HEWI
  6
IMPORT
 62
     7
100
AcDbLine
 10
1230.800025725895
 20
1175.897556442443
 30
0.0
 11
1232.483837867314
 21
1176.182132858459
 31
0.0
  0
LINE
  5
17AA
330
1F
100
AcDbEntity
  8
HEWI
  6
IMPORT
 62
     7
100
AcDbLine
 10
1235.083837771946
 20
1151.182132858459
 30
0.0
 11
1236.231887603337
 21
1151.372448105041
 31
0.0
  0
LINE
  5
17AB
330
1F
100
AcDbEntity
  8
HEWI
  6
IMPORT
 62
     7
100
AcDbLine
 10
1232.603743804617
 20
1137.317424911682
 30
0.0
 11
1233.834152949972
 21
1137.464481491271
 31
0.0
  0
LINE
  5
17AC
330
1F
100
AcDbEntity
  8
HEWI
  6
IMPORT
 62
     7
100
AcDbLine
 10
1235.047813190146
 20
1137.441745895569
 30
0.0
 11
1236.281464828177
 21
1137.294307846252
 31
0.0
  0
LINE
  5
17AD
330
1F
100
AcDbEntity
  8
HEWI
  6
IMPORT
 62
     7
100
AcDbLine
 10
1233.683836722905
 20
1176.182132858459
 30
0.0
 11
1235.367636943394
 21
1175.897556442443
 31
0.0
  0
LINE
  5
17AE
330
1F
100
AcDbEntity
  8
HEWI
  6
IMPORT
 62
     7
100
AcDbLine
 10
1232.062142623587
 20
1125.466686386291
 30
0.0
 11
1233.745954765005
 21
1125.182109970275
 31
0.0
  0
LINE
  5
17AF
330
1F
100
AcDbEntity
  8
HEWI
  6
IMPORT
 62
     7
100
AcDbLine
 10
1229.935786986882
 20
1151.372448105041
 30
0.0
 11
1231.083836818272
 21
1151.182132858459
 31
0.0
  0
LINE
  5
17B0
330
1F
100
AcDbEntity
  8
HEWI
  6
IMPORT
 62
     7
100
AcDbLine
 10
1239.011023772879
 20
1127.489963669006
 30
0.0
 11
1239.345954192801
 21
1128.920627731506
 31
0.0
  0
LINE
  5
17B1
330
1F
100
AcDbEntity
  8
HEWI
  6
IMPORT
 62
     7
100
AcDbLine
 10
1228.083837295109
 20
1172.443653244201
 30
0.0
 11
1228.418767715031
 21
1173.874317306701
 31
0.0
  0
LINE
  5
17B2
330
1F
100
AcDbEntity
  8
HEWI
  6
IMPORT
 62
     7
100
AcDbLine
 10
1237.855465674931
 20
1152.725444931213
 30
0.0
 11
1238.083837295109
 21
1153.682132858459
 31
0.0
  0
LINE
  5
17B3
330
1F
100
AcDbEntity
  8
HEWI
  6
IMPORT
 62
     7
100
AcDbLine
 10
1229.345954192801
 20
1134.337345260803
 30
0.0
 11
1229.680884612723
 21
1135.349002975647
 31
0.0
  0
LINE
  5
17B4
330
1F
100
AcDbEntity
  8
HEWI
  6
IMPORT
 62
     7
100
AcDbLine
 10
1236.539233459158
 20
1137.195087570373
 30
0.0
 11
1237.89111448638
 21
1136.652408737365
 31
0.0
  0
LINE
  5
17B5
330
1F
100
AcDbEntity
  8
HEWI
  6
IMPORT
 62
     7
100
AcDbLine
 10
1229.680884612723
 20
1135.349002975647
 30
0.0
 11
1229.896434081717
 21
1135.839229721252
 31
0.0
  0
LINE
  5
17B6
330
1F
100
AcDbEntity
  8
HEWI
  6
IMPORT
 62
     7
100
AcDbLine
 10
1228.962517047459
 20
1151.914363998596
 30
0.0
 11
1229.935786986882
 21
1151.372448105041
 31
0.0
  0
LINE
  5
17B7
330
1F
100
AcDbEntity
  8
HEWI
  6
IMPORT
 62
     7
100
AcDbLine
 10
1235.367636943394
 20
1175.897556442443
 30
0.0
 11
1236.795106196934
 21
1175.087162155334
 31
0.0
  0
LINE
  5
17B8
330
1F
100
AcDbEntity
  8
HEWI
  6
IMPORT
 62
     7
100
AcDbLine
 10
1230.63468290679
 20
1126.277118820373
 30
0.0
 11
1232.062142623587
 21
1125.466686386291
 31
0.0
  0
LINE
  5
17B9
330
1F
100
AcDbEntity
  8
HEWI
  6
IMPORT
 62
     7
100
AcDbLine
 10
1238.057223094626
 20
1126.277118820373
 30
0.0
 11
1239.011023772879
 21
1127.489963669006
 31
0.0
  0
LINE
  5
17BA
330
1F
100
AcDbEntity
  8
HEWI
  6
IMPORT
 62
     7
100
AcDbLine
 10
1228.418767715031
 20
1173.874317306701
 30
0.0
 11
1229.372566009099
 21
1175.087162155334
 31
0.0
  0
LINE
  5
17BB
330
1F
100
AcDbEntity
  8
HEWI
  6
IMPORT
 62
     7
100
AcDbLine
 10
1237.205157542759
 20
1151.914363998596
 30
0.0
 11
1237.855465674931
 21
1152.725444931213
 31
0.0
  0
LINE
  5
17BC
330
1F
100
AcDbEntity
  8
HEWI
  6
IMPORT
 62
     7
100
AcDbLine
 10
1237.89111448638
 20
1136.652408737365
 30
0.0
 11
1238.795464767141
 21
1135.839229721252
 31
0.0
  0
LINE
  5
17BD
330
1F
100
AcDbEntity
  8
HEWI
  6
IMPORT
 62
     7
100
AcDbLine
 10
1201.202106862037
 20
1166.500621933166
 30
0.0
 11
1228.083837295109
 21
1166.500621933166
 31
0.0
  0
CIRCLE
  5
187B
330
1F
100
AcDbEntity
  8
HEWI
100
AcDbCircle
 10
1884.41226828979
 20
1325.849346709478
 30
0.0
 40
35.0
  0
CIRCLE
  5
187C
330
1F
100
AcDbEntity
  8
HEWI
100
AcDbCircle
 10
1884.41226828979
 20
1325.849346709478
 30
0.0
 40
12.5
  0
LINE
  5
187D
330
1F
100
AcDbEntity
  8
HEWI
100
AcDbLine
 10
1889.899302183436
 20
1277.152796968207
 30
0.0000000000000005
 11
1889.899302183436
 21
1294.06665203127
 31
0.0000000000000005
210
0.0
220
1.0
230
0.0
  0
ARC
  5
187E
330
1F
100
AcDbEntity
  8
HEWI
100
AcDbCircle
 10
1884.499302183436
 20
1277.152796968207
 30
-0.0000000000000002
 40
5.4
100
AcDbArc
 50
180.0
 51
0.0
  0
LINE
  5
187F
330
1F
100
AcDbEntity
  8
HEWI
100
AcDbLine
 10
1879.099302183436
 20
1277.152796968207
 30
-0.0000000000000008
 11
1879.099302183436
 21
1284.352796968207
 31
-0.0000000000000008
210
0.0
220
1.0
230
0.0
  0
ARC
  5
1880
330
1F
100
AcDbEntity
  8
HEWI
100
AcDbCircle
 10
1879.999302183436
 20
1284.352796968207
 30
-0.0000000000000007
 40
0.9
100
AcDbArc
 50
90.0
 51
180.0
  0
LINE
  5
1881
330
1F
100
AcDbEntity
  8
HEWI
100
AcDbLine
 10
1879.999302183436
 20
1285.252796968207
 30
-0.0000000000000007
 11
1880.514016116062
 21
1285.252796968207
 31
-0.0000000000000006
210
0.0
220
1.0
230
0.0
  0
ARC
  5
1882
330
1F
100
AcDbEntity
  8
HEWI
100
AcDbCircle
 10
1878.226401802008
 20
1281.377642680938
 30
-0.0000000000000009
 40
4.499999999999999
100
AcDbArc
 50
324.1818597325802
 51
59.44543228520297
  0
ARC
  5
1883
330
1F
100
AcDbEntity
  8
HEWI
100
AcDbCircle
 10
1884.060098356494
 20
1277.157704216426
 30
-0.0000000000000002
 40
2.7
100
AcDbArc
 50
144.0143379942838
 51
28.97259099485845
  0
ARC
  5
1884
330
1F
100
AcDbEntity
  8
HEWI
100
AcDbCircle
 10
1890.349302183436
 20
1280.662796968207
 30
0.0000000000000005
 40
4.5
100
AcDbArc
 50
180.0
 51
209.2272521580134
  0
LINE
  5
1885
330
1F
100
AcDbEntity
  8
HEWI
100
AcDbLine
 10
1885.849302183437
 20
1280.662796968207
 30
0.0
 11
1885.849302183437
 21
1293.729087315987
 31
0.0
210
0.0
220
1.0
230
0.0
  0
ARC
  5
1886
330
1F
100
AcDbEntity
  8
HEWI
100
AcDbCircle
 10
1885.669302183436
 20
1320.352796968207
 30
0.0
 40
26.62431812546026
100
AcDbArc
 50
270.3873646202319
 51
279.1417371986831
  0
ARC
  5
1887
330
1F
100
AcDbEntity
  8
HEWI
100
AcDbCircle
 10
1867.118246103312
 20
1333.084973463689
 30
-0.0000000000000023
 40
4.5
100
AcDbArc
 50
325.5369590328066
 51
145.5369590328134
  0
ARC
  5
1888
330
1F
100
AcDbEntity
  8
HEWI
100
AcDbCircle
 10
1895.013105177161
 20
1340.820902537958
 30
0.0000000000000012
 40
4.499999999999999
100
AcDbArc
 50
65.46304096717328
 51
245.4630409671733
  0
ARC
  5
1889
330
1F
100
AcDbEntity
  8
HEWI
100
AcDbCircle
 10
1885.669302183436
 20
1320.352796968207
 30
0.0
 40
18.0
100
AcDbArc
 50
145.5369590328066
 51
304.4115086697687
  0
ARC
  5
188A
330
1F
100
AcDbEntity
  8
HEWI
100
AcDbCircle
 10
1885.669302183436
 20
1320.352796968207
 30
0.0
 40
27.0
100
AcDbArc
 50
145.5369590328134
 51
270.3819746928983
  0
ARC
  5
188B
330
1F
100
AcDbEntity
  8
HEWI
100
AcDbCircle
 10
1885.669302183436
 20
1320.352796968207
 30
0.0
 40
27.0
100
AcDbArc
 50
33.36701296922291
 51
65.46304096717328
  0
ARC
  5
188C
330
1F
100
AcDbEntity
  8
HEWI
100
AcDbCircle
 10
1885.669302183436
 20
1320.352796968207
 30
0.0
 40
27.0
100
AcDbArc
 50
145.5369590328066
 51
270.3819746928983
  0
ARC
  5
188D
330
1F
100
AcDbEntity
  8
HEWI
100
AcDbCircle
 10
1885.669302183436
 20
1320.352796968207
 30
0.0
 40
18.0
100
AcDbArc
 50
145.5369590328066
 51
65.46304096718957
  0
LINE
  5
188E
330
1F
100
AcDbEntity
  8
HEWI
100
AcDbLine
 10
1885.849302183436
 20
1280.662796968207
 30
0.0
 11
1885.849302183436
 21
1293.729087315987
 31
0.0
210
0.0
220
1.0
230
0.0
  0
ARC
  5
188F
330
1F
100
AcDbEntity
  8
HEWI
100
AcDbCircle
 10
1878.226401802008
 20
1281.377642680938
 30
-0.0000000000000009
 40
4.499999999999999
100
AcDbArc
 50
324.1818597325802
 51
59.44543228520489
  0
LINE
  5
1890
330
1F
100
AcDbEntity
  8
HEWI
100
AcDbLine
 10
1879.099302183436
 20
1277.152796968207
 30
-0.0000000000000008
 11
1879.099302183436
 21
1284.352796968207
 31
-0.0000000000000008
210
0.0
220
1.0
230
0.0
  0
LINE
  5
1891
330
1F
100
AcDbEntity
  8
HEWI
100
AcDbLine
 10
1889.899302183436
 20
1277.152796968207
 30
0.0000000000000005
 11
1889.899302183436
 21
1294.066652031269
 31
0.0000000000000005
210
0.0
220
1.0
230
0.0
  0
ARC
  5
1892
330
1F
100
AcDbEntity
  8
HEWI
100
AcDbCircle
 10
1890.349302183436
 20
1280.662796968207
 30
0.0000000000000005
 40
4.5
100
AcDbArc
 50
180.0
 51
209.2272521580134
  0
ARC
  5
1893
330
1F
100
AcDbEntity
  8
HEWI
100
AcDbCircle
 10
1884.060098356493
 20
1277.157704216426
 30
-0.0000000000000002
 40
2.7
100
AcDbArc
 50
144.0143379942838
 51
28.97259099485845
  0
ARC
  5
1894
330
1F
100
AcDbEntity
  8
HEWI
100
AcDbCircle
 10
1884.499302183436
 20
1277.152796968207
 30
-0.0000000000000002
 40
5.4
100
AcDbArc
 50
180.0
 51
0.0
  0
ARC
  5
1895
330
1F
100
AcDbEntity
  8
HEWI
100
AcDbCircle
 10
1885.669302183436
 20
1320.352796968207
 30
0.0
 40
27.0
100
AcDbArc
 50
279.0134702623032
 51
357.2792527369351
  0
ARC
  5
1896
330
1F
100
AcDbEntity
  8
HEWI
100
AcDbCircle
 10
1885.669302183436
 20
1320.352796968207
 30
0.0
 40
26.62431812546026
100
AcDbArc
 50
270.3873646202319
 51
279.1417371986831
  0
LINE
  5
1897
330
1F
100
AcDbEntity
  8
HEWI
100
AcDbLine
 10
1879.999302183436
 20
1285.252796968207
 30
-0.0000000000000007
 11
1880.514016116062
 21
1285.252796968207
 31
-0.0000000000000006
210
0.0
220
1.0
230
0.0
  0
ARC
  5
1898
330
1F
100
AcDbEntity
  8
HEWI
100
AcDbCircle
 10
1879.999302183436
 20
1284.352796968207
 30
-0.0000000000000007
 40
0.9
100
AcDbArc
 50
90.0
 51
180.0
  0
ARC
  5
1899
330
1F
100
AcDbEntity
  8
HEWI
100
AcDbCircle
 10
1885.669302183436
 20
1320.352796968207
 30
0.0
 40
27.0
100
AcDbArc
 50
357.2792527369351
 51
65.46304096717129
  0
ARC
  5
189A
330
1F
100
AcDbEntity
  8
HEWI
100
AcDbCircle
 10
1895.013105177161
 20
1340.820902537958
 30
0.0000000000000012
 40
4.499999999999999
100
AcDbArc
 50
65.46304096717129
 51
245.4630409671713
  0
ARC
  5
189B
330
1F
100
AcDbEntity
  8
HEWI
100
AcDbCircle
 10
1867.118246103312
 20
1333.084973463688
 30
-0.0000000000000023
 40
4.5
100
AcDbArc
 50
325.5369590328066
 51
145.5369590328066
  0
ENDSEC
  0
SECTION
  2
OBJECTS
  0
DICTIONARY
  5
C
330
0
100
AcDbDictionary
281
     1
  3
ACAD_CIP_PREVIOUS_PRODUCT_INFO
350
1CC
  3
ACAD_COLOR
350
1AC
  3
ACAD_DETAILVIEWSTYLE
350
1C6
  3
ACAD_GROUP
350
D
  3
ACAD_LAYOUT
350
1A
  3
ACAD_MATERIAL
350
17A
  3
ACAD_MLEADERSTYLE
350
1C1
  3
ACAD_MLINESTYLE
350
17
  3
ACAD_PLOTSETTINGS
350
19
  3
ACAD_PLOTSTYLENAME
350
DF
  3
ACAD_SCALELIST
350
1AF
  3
ACAD_SECTIONVIEWSTYLE
350
1C3
  3
ACAD_TABLESTYLE
350
1AD
  3
ACAD_VISUALSTYLE
350
193
  3
ACDB_RECOMPOSE_DATA
350
18A9
  3
AcDbVariableDictionary
350
2CB
  3
AcDsDecomposeData
350
18AF
  0
DICTIONARY
  5
1E1
330
2
100
AcDbDictionary
280
     1
281
     1
  3
ACAD_LAYERSTATES
360
1E2
  0
DICTIONARY
  5
1CD
330
10
100
AcDbDictionary
280
     1
281
     1
  3
ADSK_XREC_LAYER_RECONCILED
360
1CE
  0
DICTIONARY
  5
D9
330
1F
100
AcDbDictionary
280
     1
281
     1
  3
ACAD_LAYOUTSELFREF
360
177
  3
ACAD_SORTENTS
360
292
  0
DICTIONARY
  5
D7
330
1B
100
AcDbDictionary
280
     1
281
     1
  3
ACAD_LAYOUTSELFREF
360
176
  0
XRECORD
  5
1CC
102
{ACAD_REACTORS
330
C
102
}
330
C
100
AcDbXrecord
280
     1
300
ACDLT
300
2013
300
ACDLT_F_S
  0
DICTIONARY
  5
1AC
102
{ACAD_REACTORS
330
C
102
}
330
C
100
AcDbDictionary
281
     1
  0
DICTIONARY
  5
1C6
102
{ACAD_REACTORS
330
C
102
}
330
C
100
AcDbDictionary
281
     1
  3
Imperial24
350
1C7
  0
DICTIONARY
  5
D
102
{ACAD_REACTORS
330
C
102
}
330
C
100
AcDbDictionary
281
     1
  0
DICTIONARY
  5
1A
102
{ACAD_REACTORS
330
C
102
}
330
C
100
AcDbDictionary
281
     1
  3
Layout1
350
1C9
  3
Model
350
1C8
  0
DICTIONARY
  5
17A
102
{ACAD_REACTORS
330
C
102
}
330
C
100
AcDbDictionary
281
     1
  3
ByBlock
350
183
  3
ByLayer
350
17B
  3
Global
350
18B
  0
DICTIONARY
  5
1C1
102
{ACAD_REACTORS
330
C
102
}
330
C
100
AcDbDictionary
281
     1
  3
Standard
350
1C2
  0
DICTIONARY
  5
17
102
{ACAD_REACTORS
330
C
102
}
330
C
100
AcDbDictionary
281
     1
  3
STANDARD
350
18
  0
DICTIONARY
  5
19
102
{ACAD_REACTORS
330
C
102
}
330
C
100
AcDbDictionary
281
     1
  0
ACDBDICTIONARYWDFLT
  5
DF
102
{ACAD_REACTORS
330
C
102
}
330
C
100
AcDbDictionary
281
     1
  3
Normal
350
E0
100
AcDbDictionaryWithDefault
340
E0
  0
DICTIONARY
  5
1AF
102
{ACAD_REACTORS
330
C
102
}
330
C
100
AcDbDictionary
281
     1
  3
A0
350
1B0
  3
A1
350
1B1
  3
A2
350
1B2
  3
A3
350
1B3
  3
A4
350
1B4
  3
A5
350
1B5
  3
A6
350
1B6
  3
A7
350
1B7
  3
A8
350
1B8
  3
A9
350
1B9
  3
B0
350
1BA
  3
B1
350
1BB
  3
B2
350
1BC
  3
B3
350
1BD
  3
B4
350
1BE
  3
B5
350
1BF
  3
B6
350
1C0
  0
DICTIONARY
  5
1C3
102
{ACAD_REACTORS
330
C
102
}
330
C
100
AcDbDictionary
281
     1
  3
Imperial24
350
1C5
  0
DICTIONARY
  5
1AD
102
{ACAD_REACTORS
330
C
102
}
330
C
100
AcDbDictionary
281
     1
  3
Standard
350
1AE
  0
DICTIONARY
  5
193
102
{ACAD_REACTORS
330
C
102
}
330
C
100
AcDbDictionary
281
     1
  3
2dWireframe
350
199
  3
Basic
350
198
  3
Brighten
350
19F
  3
ColorChange
350
1A3
  3
Conceptual
350
19C
  3
Dim
350
19E
  3
EdgeColorOff
350
1AB
  3
Facepattern
350
1A2
  3
Flat
350
194
  3
FlatWithEdges
350
195
  3
Gouraud
350
196
  3
GouraudWithEdges
350
197
  3
Hidden
350
19B
  3
JitterOff
350
1A9
  3
Linepattern
350
1A1
  3
OverhangOff
350
1AA
  3
Realistic
350
19D
  3
Shaded
350
1A8
  3
Shaded with edges
350
1A7
  3
Shades of Gray
350
1A4
  3
Sketchy
350
1A5
  3
Thicken
350
1A0
  3
Wireframe
350
19A
  3
X-Ray
350
1A6
  0
XRECORD
  5
18A9
102
{ACAD_REACTORS
330
C
102
}
330
C
100
AcDbXrecord
280
     1
 90
        1
330
1AE
  0
DICTIONARY
  5
2CB
102
{ACAD_REACTORS
330
C
102
}
330
C
100
AcDbDictionary
281
     1
  3
CANNOSCALE
350
2D1
  3
CMLEADERSTYLE
350
2CD
  3
CTABLESTYLE
350
2CC
  3
CVIEWDETAILSTYLE
350
2CE
  3
CVIEWSECTIONSTYLE
350
2CF
  3
LAYEREVAL
350
2D3
  3
LAYERNOTIFY
350
2D4
  3
LIGHTINGUNITS
350
2D2
  3
MSLTSCALE
350
2D0
  0
DICTIONARY
  5
18AF
102
{ACAD_REACTORS
330
C
102
}
330
C
100
AcDbDictionary
281
     1
  3
AcDsRecords
350
18B1
  3
AcDsSchemas
350
18B0
1001
ACAD
1070
     2
  0
DICTIONARY
  5
1E2
102
{ACAD_REACTORS
330
1E1
102
}
330
1E1
100
AcDbDictionary
281
     1
  0
XRECORD
  5
1CE
102
{ACAD_REACTORS
330
1CD
102
}
330
1CD
100
AcDbXrecord
280
     1
290
     1
  0
XRECORD
  5
177
102
{ACAD_REACTORS
330
D9
102
}
330
D9
100
AcDbXrecord
280
     1
340
1F
  0
SORTENTSTABLE
  5
292
102
{ACAD_REACTORS
330
D9
102
}
330
D9
100
AcDbSortentsTable
330
1F
331
135C
  5
1370
331
14DE
  5
14F2
331
1464
  5
1478
331
13E2
  5
13F6
331
139F
  5
13B3
331
13DE
  5
13F2
331
14DA
  5
14EE
331
1460
  5
1474
331
149F
  5
14B3
331
1425
  5
1439
331
139B
  5
13AF
331
1515
  5
1529
331
149B
  5
14AF
331
1421
  5
1435
331
1550
  5
1564
331
15CF
  5
15DA
331
14D6
  5
14EA
331
1511
  5
1525
331
15CB
  5
15D6
331
154C
  5
1560
331
14D2
  5
14E6
331
1458
  5
146C
331
1548
  5
155C
331
1397
  5
13AB
331
CAC
  5
115A
331
141D
  5
1431
331
1393
  5
13A7
331
CA8
  5
1159
331
150D
  5
1521
331
15C7
  5
15D2
331
14CE
  5
14E2
331
1454
  5
1468
331
1493
  5
14A7
331
13CA
  5
13DE
331
1419
  5
142D
331
138F
  5
13A3
331
CA4
  5
1155
331
13C6
  5
13DA
331
1509
  5
151D
331
15C3
  5
15CE
331
1544
  5
1558
331
14CA
  5
14DE
331
1450
  5
1464
331
148F
  5
14A3
331
1415
  5
1429
331
138B
  5
139F
331
CA0
  5
1151
331
1411
  5
1425
331
148B
  5
149F
331
1505
  5
1519
331
1540
  5
1554
331
15BF
  5
15CA
331
14C6
  5
14DA
331
144C
  5
1460
331
13C2
  5
13D6
331
1501
  5
1515
331
15BB
  5
15C6
331
153C
  5
1550
331
14C2
  5
14D6
331
1387
  5
139B
331
C9C
  5
C9C
331
1487
  5
149B
331
13BE
  5
13D2
331
140D
  5
1421
331
1383
  5
1397
331
137F
  5
1393
331
15B7
  5
15C2
331
14FD
  5
1511
331
1444
  5
1458
331
1483
  5
1497
331
13BA
  5
13CE
331
1409
  5
141D
331
147F
  5
1493
331
13B6
  5
13CA
331
1405
  5
1419
331
137B
  5
138F
331
15B3
  5
15BE
331
1534
  5
1548
331
14BA
  5
14CE
331
14F9
  5
150D
331
1440
  5
1454
331
1401
  5
1415
331
1530
  5
1544
331
15EA
  5
CAA
331
157F
  5
CA6
331
14B6
  5
14CA
331
14F5
  5
1509
331
147B
  5
148F
331
13B2
  5
13C6
331
157B
  5
CA2
331
15E6
  5
1148
331
152C
  5
1540
331
14B2
  5
14C6
331
14F1
  5
1505
331
1438
  5
144C
331
15E2
  5
114C
331
1528
  5
153C
331
1377
  5
138B
331
1477
  5
148B
331
13AE
  5
13C2
331
13FD
  5
1411
331
1373
  5
1387
331
14AE
  5
14C2
331
14ED
  5
1501
331
1434
  5
1448
331
1473
  5
1487
331
1577
  5
C9E
331
13AA
  5
13BE
331
13F9
  5
140D
331
146F
  5
1483
331
13A6
  5
13BA
331
13F5
  5
1409
331
1363
  5
1377
331
1524
  5
1538
331
14AA
  5
14BE
331
15DE
  5
15E9
331
14E9
  5
14FD
331
1430
  5
1444
331
1520
  5
1534
331
15DA
  5
15E5
331
14A6
  5
14BA
331
14E5
  5
14F9
331
142C
  5
1440
331
146B
  5
147F
331
13A2
  5
13B6
331
13F1
  5
1405
331
15D6
  5
15E1
331
155B
  5
157D
331
14A2
  5
14B6
331
14E1
  5
14F5
331
1428
  5
143C
331
15D2
  5
15DD
331
1518
  5
152C
331
135F
  5
1373
331
1467
  5
147B
331
1557
  5
1579
331
14DD
  5
14F1
331
1463
  5
1477
331
13E1
  5
13F5
331
139E
  5
13B2
331
13DD
  5
13F1
331
145F
  5
1473
331
1553
  5
1567
331
14D9
  5
14ED
331
149E
  5
14B2
331
1424
  5
1438
331
139A
  5
13AE
331
149A
  5
14AE
331
1420
  5
1434
331
1514
  5
1528
331
15CE
  5
15D9
331
154F
  5
1563
331
14D5
  5
14E9
331
145B
  5
146F
331
1510
  5
1524
331
15CA
  5
15D5
331
154B
  5
155F
331
14D1
  5
14E5
331
1396
  5
13AA
331
CAB
  5
CA8
331
1457
  5
146B
331
1496
  5
14AA
331
141C
  5
1430
331
1392
  5
13A6
331
CA7
  5
1158
331
150C
  5
1520
331
15C6
  5
15D1
331
1547
  5
155B
331
14CD
  5
14E1
331
1453
  5
1467
331
1492
  5
14A6
331
13C9
  5
13DD
331
1418
  5
142C
331
138E
  5
13A2
331
CA3
  5
1154
331
13C5
  5
13D9
331
144F
  5
1463
331
1508
  5
151C
331
15C2
  5
15CD
331
1543
  5
1557
331
14C9
  5
14DD
331
148E
  5
14A2
331
1414
  5
1428
331
138A
  5
139E
331
1410
  5
1424
331
148A
  5
149E
331
15BE
  5
15C9
331
153F
  5
1553
331
14C5
  5
14D9
331
144B
  5
145F
331
13C1
  5
13D5
331
1500
  5
1514
331
15BA
  5
15C5
331
153B
  5
154F
331
14C1
  5
14D5
331
1386
  5
139A
331
C9F
  5
1150
331
1486
  5
149A
331
13BD
  5
13D1
331
140C
  5
1420
331
1382
  5
1396
331
137E
  5
1392
331
15B6
  5
15C1
331
14BD
  5
14D1
331
14FC
  5
1510
331
1443
  5
1457
331
13B9
  5
13CD
331
1408
  5
141C
331
143F
  5
1453
331
147E
  5
1492
331
13B5
  5
13C9
331
1404
  5
1418
331
137A
  5
138E
331
15B2
  5
15BD
331
1533
  5
1547
331
14B9
  5
14CD
331
14F8
  5
150C
331
157E
  5
CA5
331
15E9
  5
CAB
331
152F
  5
1543
331
14B5
  5
14C9
331
14F4
  5
1508
331
143B
  5
144F
331
147A
  5
148E
331
13B1
  5
13C5
331
1400
  5
1414
331
157A
  5
CA1
331
15E5
  5
114A
331
152B
  5
153F
331
14B1
  5
14C5
331
14F0
  5
1504
331
15E1
  5
114D
331
1376
  5
138A
331
1437
  5
144B
331
1476
  5
148A
331
13AD
  5
13C1
331
13FC
  5
1410
331
1527
  5
153B
331
14AD
  5
14C1
331
14EC
  5
1500
331
1433
  5
1447
331
1472
  5
1486
331
13A9
  5
13BD
331
13F8
  5
140C
331
146E
  5
1482
331
13A5
  5
13B9
331
13F4
  5
1408
331
1362
  5
1376
331
1523
  5
1537
331
14A9
  5
14BD
331
15DD
  5
15E8
331
142F
  5
1443
331
15D9
  5
15E4
331
151F
  5
1533
331
14A5
  5
14B9
331
14E4
  5
14F8
331
142B
  5
143F
331
146A
  5
147E
331
13A1
  5
13B5
331
15D5
  5
15E0
331
155A
  5
157C
331
14A1
  5
14B5
331
14E0
  5
14F4
331
15D1
  5
15DC
331
135E
  5
1372
331
1466
  5
147A
331
1556
  5
1578
331
14DC
  5
14F0
331
1462
  5
1476
331
13E0
  5
13F4
331
1427
  5
143B
331
139D
  5
13B1
331
13DC
  5
13F0
331
1517
  5
152B
331
1552
  5
1566
331
14D8
  5
14EC
331
149D
  5
14B1
331
1423
  5
1437
331
1399
  5
13AD
331
1499
  5
14AD
331
1513
  5
1527
331
15CD
  5
15D8
331
154E
  5
1562
331
145A
  5
146E
331
15C9
  5
15D4
331
14D0
  5
14E4
331
1395
  5
13A9
331
141F
  5
1433
331
CAA
  5
CA9
331
150F
  5
1523
331
1456
  5
146A
331
1495
  5
14A9
331
13CC
  5
13E0
331
141B
  5
142F
331
1391
  5
13A5
331
CA6
  5
1157
331
150B
  5
151F
331
15C5
  5
15D0
331
1546
  5
155A
331
14CC
  5
14E0
331
1452
  5
1466
331
1491
  5
14A5
331
13C8
  5
13DC
331
1417
  5
142B
331
138D
  5
13A1
331
CA2
  5
1153
331
13C4
  5
13D8
331
148D
  5
14A1
331
1413
  5
1427
331
1389
  5
139D
331
15C1
  5
15CC
331
1542
  5
1556
331
1507
  5
151B
331
144E
  5
1462
331
1489
  5
149D
331
1503
  5
1517
331
15BD
  5
15C8
331
153E
  5
1552
331
14C4
  5
14D8
331
144A
  5
145E
331
13C0
  5
13D4
331
15B9
  5
15C4
331
153A
  5
154E
331
14C0
  5
14D4
331
1385
  5
1399
331
C9E
  5
114F
331
140F
  5
1423
331
14FF
  5
1513
331
1446
  5
145A
331
1485
  5
1499
331
13BC
  5
13D0
331
140B
  5
141F
331
1381
  5
1395
331
1407
  5
141B
331
137D
  5
1391
331
15B5
  5
15C0
331
1536
  5
154A
331
14BC
  5
14D0
331
14FB
  5
150F
331
1442
  5
1456
331
1481
  5
1495
331
13B8
  5
13CC
331
147D
  5
1491
331
13B4
  5
13C8
331
1403
  5
1417
331
1379
  5
138D
331
15B1
  5
15BC
331
1532
  5
1546
331
14B8
  5
14CC
331
14F7
  5
150B
331
143E
  5
1452
331
157D
  5
CA4
331
15E8
  5
CAC
331
152E
  5
1542
331
14B4
  5
14C8
331
14F3
  5
1507
331
143A
  5
144E
331
1479
  5
148D
331
13B0
  5
13C4
331
1579
  5
CA0
331
15E4
  5
1149
331
152A
  5
153E
331
14B0
  5
14C4
331
15E0
  5
CA7
331
1375
  5
1389
331
13FF
  5
1413
331
14EF
  5
1503
331
1436
  5
144A
331
1475
  5
1489
331
13AC
  5
13C0
331
13FB
  5
140F
331
13F7
  5
140B
331
1526
  5
153A
331
14EB
  5
14FF
331
1471
  5
1485
331
13A8
  5
13BC
331
13A4
  5
13B8
331
13F3
  5
1407
331
1361
  5
1375
331
1522
  5
1536
331
14A8
  5
14BC
331
15DC
  5
15E7
331
142E
  5
1442
331
146D
  5
1481
331
15D8
  5
15E3
331
151E
  5
1532
331
14A4
  5
14B8
331
14E3
  5
14F7
331
142A
  5
143E
331
1469
  5
147D
331
13A0
  5
13B4
331
15D4
  5
15DF
331
1559
  5
157B
331
14A0
  5
14B4
331
15D0
  5
15DB
331
135D
  5
1371
331
14DF
  5
14F3
331
1465
  5
1479
331
13E3
  5
13F7
331
13DF
  5
13F3
331
1555
  5
1577
331
14DB
  5
14EF
331
1461
  5
1475
331
1426
  5
143A
331
139C
  5
13B0
331
1516
  5
152A
331
149C
  5
14B0
331
1422
  5
1436
331
1398
  5
13AC
331
1551
  5
1565
331
14D7
  5
14EB
331
1512
  5
1526
331
15CC
  5
15D7
331
154D
  5
1561
331
1459
  5
146D
331
15C8
  5
15D3
331
1549
  5
155D
331
1394
  5
13A8
331
141E
  5
1432
331
CA9
  5
C9D
331
14CF
  5
14E3
331
1455
  5
1469
331
1494
  5
14A8
331
13CB
  5
13DF
331
141A
  5
142E
331
1390
  5
13A4
331
CA5
  5
1156
331
13C7
  5
13DB
331
150A
  5
151E
331
15C4
  5
15CF
331
1545
  5
1559
331
14CB
  5
14DF
331
1451
  5
1465
331
1490
  5
14A4
331
1416
  5
142A
331
138C
  5
13A0
331
CA1
  5
1152
331
13C3
  5
13D7
331
1412
  5
1426
331
1388
  5
139C
331
1506
  5
151A
331
15C0
  5
15CB
331
1541
  5
1555
331
14C7
  5
14DB
331
144D
  5
1461
331
1488
  5
149C
331
1502
  5
1516
331
15BC
  5
15C7
331
153D
  5
1551
331
14C3
  5
14D7
331
1449
  5
145D
331
15B8
  5
15C3
331
1539
  5
154D
331
C9D
  5
114E
331
13BF
  5
13D3
331
140E
  5
1422
331
1384
  5
1398
331
14BF
  5
14D3
331
14FE
  5
1512
331
1445
  5
1459
331
1484
  5
1498
331
13BB
  5
13CF
331
140A
  5
141E
331
1380
  5
1394
331
13B7
  5
13CB
331
1406
  5
141A
331
137C
  5
1390
331
15B4
  5
15BF
331
1535
  5
1549
331
14BB
  5
14CF
331
1441
  5
1455
331
1480
  5
1494
331
13B3
  5
13C7
331
1402
  5
1416
331
1378
  5
138C
331
15B0
  5
15BB
331
1531
  5
1545
331
14B7
  5
14CB
331
14F6
  5
150A
331
143D
  5
1451
331
147C
  5
1490
331
157C
  5
CA3
331
15E7
  5
1147
331
152D
  5
1541
331
14B3
  5
14C7
331
14F2
  5
1506
331
1439
  5
144D
331
1578
  5
C9F
331
15E3
  5
114B
331
1529
  5
153D
331
13AF
  5
13C3
331
13FE
  5
1412
331
1374
  5
1388
331
14AF
  5
14C3
331
14EE
  5
1502
331
1435
  5
1449
331
1474
  5
1488
331
13AB
  5
13BF
331
13FA
  5
140E
331
13A7
  5
13BB
331
13F6
  5
140A
331
1525
  5
1539
331
15DF
  5
15EA
331
14EA
  5
14FE
331
1431
  5
1445
331
1470
  5
1484
331
13F2
  5
1406
331
1360
  5
1374
331
1521
  5
1535
331
15DB
  5
15E6
331
14A7
  5
14BB
331
14E6
  5
14FA
331
142D
  5
1441
331
146C
  5
1480
331
13A3
  5
13B7
331
15D7
  5
15E2
331
151D
  5
1531
331
155C
  5
157E
331
14A3
  5
14B7
331
14E2
  5
14F6
331
1429
  5
143D
331
1468
  5
147C
331
15D3
  5
15DE
331
1519
  5
152D
331
1558
  5
157A
  0
XRECORD
  5
176
102
{ACAD_REACTORS
330
D7
102
}
330
D7
100
AcDbXrecord
280
     1
340
1B
  0
ACDBDETAILVIEWSTYLE
  5
1C7
102
{ACAD_XDICTIONARY
360
468
102
}
102
{ACAD_REACTORS
330
1C6
102
}
330
1C6
100
AcDbModelDocViewStyle
 70
     0
  3
Imperial24
290
     0
100
AcDbDetailViewStyle
 70
     0
 71
     0
 90
        3
 71
     1
340
11
 62
   256
 40
0.24
340
0
 62
   256
 40
0.24
300

 40
0.36
280
     3
 71
     2
340
16
 90
       25
 62
   256
 71
     3
340
11
 62
   256
 40
0.24
 90
        1
 40
0.75
 90
        1
300
%<\AcVar ViewType \f "%tc1">% %<\AcVar ViewDetailId>%\PVARIA %<\AcVar ViewScale \f "%sn">%
 71
     4
340
16
 90
       25
 62
   256
340
16
 90
       25
 62
   256
280
     0
  0
LAYOUT
  5
1C9
102
{ACAD_REACTORS
330
1A
102
}
330
1A
100
AcDbPlotSettings
  1

  2
\\srvadruck01\MFSA15
  4

  6

 40
0.0
 41
0.0
 42
0.0
 43
0.0
 44
0.0
 45
0.0
 46
0.0
 47
0.0
 48
0.0
 49
0.0
140
0.0
141
0.0
142
1.0
143
1.0
 70
   688
 72
     0
 73
     0
 74
     5
  7

 75
    16
147
1.0
 76
     0
 77
     2
 78
   300
148
0.0
149
0.0
100
AcDbLayout
  1
Layout1
 70
     1
 71
     1
 10
0.0
 20
0.0
 11
12.0
 21
9.0
 12
0.0
 22
0.0
 32
0.0
 14
1.000000000000000E+20
 24
1.000000000000000E+20
 34
1.000000000000000E+20
 15
-1.000000000000000E+20
 25
-1.000000000000000E+20
 35
-1.000000000000000E+20
146
0.0
 13
0.0
 23
0.0
 33
0.0
 16
1.0
 26
0.0
 36
0.0
 17
0.0
 27
1.0
 37
0.0
 76
     0
330
1B
  0
LAYOUT
  5
1C8
102
{ACAD_REACTORS
330
1A
102
}
330
1A
100
AcDbPlotSettings
  1

  2
\\srvadruck01\MFSA15
  4
A4
  6

 40
5.027082920074462
 41
5.027099609375
 42
5.027069091796875
 43
5.027069091796875
 44
209.9733276367186
 45
296.9259948730469
 46
0.0
 47
0.0
 48
0.0
 49
0.0
140
0.0
141
0.0
142
1.0
143
250.9557649309207
 70
 11952
 72
     0
 73
     1
 74
     0
  7

 75
     0
147
0.003984766001591
 76
     0
 77
     2
 78
   300
148
18758.74732672532
149
6385.478578639141
100
AcDbLayout
  1
Model
 70
     1
 71
     0
 10
0.0
 20
0.0
 11
12.0
 21
9.0
 12
0.0
 22
0.0
 32
0.0
 14
0.0
 24
0.0
 34
0.0
 15
0.0
 25
0.0
 35
0.0
146
0.0
 13
0.0
 23
0.0
 33
0.0
 16
1.0
 26
0.0
 36
0.0
 17
0.0
 27
1.0
 37
0.0
 76
     0
330
1F
331
155
1001
ACAD_PSEXT
1000
\\srvadruck01\MFSA15
1000
KONICA MINOLTA C754SeriesPCL
1000
Marketing
1000

1070
     0
  0
MATERIAL
  5
183
102
{ACAD_XDICTIONARY
360
184
102
}
102
{ACAD_REACTORS
330
17A
102
}
330
17A
100
AcDbMaterial
  1
ByBlock
 72
     0
 43
0.0208333333333333
 43
0.0
 43
0.0
 43
0.0
 43
0.0
 43
0.0208333333333333
 43
0.0
 43
0.0
 43
0.0
 43
0.0
 43
1.0
 43
0.0
 43
0.0
 43
0.0
 43
0.0
 43
1.0
 77
     0
 47
0.0208333333333333
 47
0.0
 47
0.0
 47
0.0
 47
0.0
 47
0.0208333333333333
 47
0.0
 47
0.0
 47
0.0
 47
0.0
 47
1.0
 47
0.0
 47
0.0
 47
0.0
 47
0.0
 47
1.0
171
     0
 49
0.0208333333333333
 49
0.0
 49
0.0
 49
0.0
 49
0.0
 49
0.0208333333333333
 49
0.0
 49
0.0
 49
0.0
 49
0.0
 49
1.0
 49
0.0
 49
0.0
 49
0.0
 49
0.0
 49
1.0
175
     0
142
0.0208333333333333
142
0.0
142
0.0
142
0.0
142
0.0
142
0.0208333333333333
142
0.0
142
0.0
142
0.0
142
0.0
142
1.0
142
0.0
142
0.0
142
0.0
142
0.0
142
1.0
179
     0
144
0.0208333333333333
144
0.0
144
0.0
144
0.0
144
0.0
144
0.0208333333333333
144
0.0
144
0.0
144
0.0
144
0.0
144
1.0
144
0.0
144
0.0
144
0.0
144
0.0
144
1.0
147
0.0208333333333333
147
0.0
147
0.0
147
0.0
147
0.0
147
0.0208333333333333
147
0.0
147
0.0
147
0.0
147
0.0
147
1.0
147
0.0
147
0.0
147
0.0
147
0.0
147
1.0
  0
MATERIAL
  5
17B
102
{ACAD_XDICTIONARY
360
17C
102
}
102
{ACAD_REACTORS
330
17A
102
}
330
17A
100
AcDbMaterial
  1
ByLayer
 72
     0
 43
0.0208333333333333
 43
0.0
 43
0.0
 43
0.0
 43
0.0
 43
0.0208333333333333
 43
0.0
 43
0.0
 43
0.0
 43
0.0
 43
1.0
 43
0.0
 43
0.0
 43
0.0
 43
0.0
 43
1.0
 77
     0
 47
0.0208333333333333
 47
0.0
 47
0.0
 47
0.0
 47
0.0
 47
0.0208333333333333
 47
0.0
 47
0.0
 47
0.0
 47
0.0
 47
1.0
 47
0.0
 47
0.0
 47
0.0
 47
0.0
 47
1.0
171
     0
 49
0.0208333333333333
 49
0.0
 49
0.0
 49
0.0
 49
0.0
 49
0.0208333333333333
 49
0.0
 49
0.0
 49
0.0
 49
0.0
 49
1.0
 49
0.0
 49
0.0
 49
0.0
 49
0.0
 49
1.0
175
     0
142
0.0208333333333333
142
0.0
142
0.0
142
0.0
142
0.0
142
0.0208333333333333
142
0.0
142
0.0
142
0.0
142
0.0
142
1.0
142
0.0
142
0.0
142
0.0
142
0.0
142
1.0
179
     0
144
0.0208333333333333
144
0.0
144
0.0
144
0.0
144
0.0
144
0.0208333333333333
144
0.0
144
0.0
144
0.0
144
0.0
144
1.0
144
0.0
144
0.0
144
0.0
144
0.0
144
1.0
147
0.0208333333333333
147
0.0
147
0.0
147
0.0
147
0.0
147
0.0208333333333333
147
0.0
147
0.0
147
0.0
147
0.0
147
1.0
147
0.0
147
0.0
147
0.0
147
0.0
147
1.0
  0
MATERIAL
  5
18B
102
{ACAD_XDICTIONARY
360
18C
102
}
102
{ACAD_REACTORS
330
17A
102
}
330
17A
100
AcDbMaterial
  1
Global
 72
     0
 43
0.0208333333333333
 43
0.0
 43
0.0
 43
0.0
 43
0.0
 43
0.0208333333333333
 43
0.0
 43
0.0
 43
0.0
 43
0.0
 43
1.0
 43
0.0
 43
0.0
 43
0.0
 43
0.0
 43
1.0
 77
     0
 47
0.0208333333333333
 47
0.0
 47
0.0
 47
0.0
 47
0.0
 47
0.0208333333333333
 47
0.0
 47
0.0
 47
0.0
 47
0.0
 47
1.0
 47
0.0
 47
0.0
 47
0.0
 47
0.0
 47
1.0
171
     0
 49
0.0208333333333333
 49
0.0
 49
0.0
 49
0.0
 49
0.0
 49
0.0208333333333333
 49
0.0
 49
0.0
 49
0.0
 49
0.0
 49
1.0
 49
0.0
 49
0.0
 49
0.0
 49
0.0
 49
1.0
175
     0
142
0.0208333333333333
142
0.0
142
0.0
142
0.0
142
0.0
142
0.0208333333333333
142
0.0
142
0.0
142
0.0
142
0.0
142
1.0
142
0.0
142
0.0
142
0.0
142
0.0
142
1.0
179
     0
144
0.0208333333333333
144
0.0
144
0.0
144
0.0
144
0.0
144
0.0208333333333333
144
0.0
144
0.0
144
0.0
144
0.0
144
1.0
144
0.0
144
0.0
144
0.0
144
0.0
144
1.0
147
0.0208333333333333
147
0.0
147
0.0
147
0.0
147
0.0
147
0.0208333333333333
147
0.0
147
0.0
147
0.0
147
0.0
147
1.0
147
0.0
147
0.0
147
0.0
147
0.0
147
1.0
  0
MLEADERSTYLE
  5
1C2
102
{ACAD_REACTORS
330
1C1
102
}
330
1C1
100
AcDbMLeaderStyle
179
     2
170
     2
171
     1
172
     0
 90
        2
 40
0.0
 41
0.0
173
     1
 91
-1056964608
340
14
 92
       -2
290
     1
 42
0.09
291
     1
 43
0.36
  3
Standard
 44
0.18
300

342
11
174
     1
178
     6
175
     1
176
     0
 93
-1056964608
 45
0.18
292
     0
297
     0
 46
0.18
 94
-1056964608
 47
1.0
 49
1.0
140
1.0
293
     1
141
0.0
294
     1
177
     0
142
1.0
295
     0
296
     0
143
0.125
271
     0
272
     9
273
     9
  0
MLINESTYLE
  5
18
102
{ACAD_REACTORS
330
17
102
}
330
17
100
AcDbMlineStyle
  2
STANDARD
 70
     0
  3

 62
   256
 51
90.0
 52
90.0
 71
     2
 49
0.5
 62
   256
  6
BYLAYER
 49
-0.5
 62
   256
  6
BYLAYER
  0
ACDBPLACEHOLDER
  5
E0
102
{ACAD_REACTORS
330
DF
102
}
330
DF
  0
SCALE
  5
1B0
102
{ACAD_REACTORS
330
1AF
102
}
330
1AF
100
AcDbScale
 70
     0
300
1:1
140
1.0
141
1.0
290
     1
  0
SCALE
  5
1B1
102
{ACAD_REACTORS
330
1AF
102
}
330
1AF
100
AcDbScale
 70
     0
300
1/128" = 1'-0"
140
0.0078125
141
12.0
290
     0
  0
SCALE
  5
1B2
102
{ACAD_REACTORS
330
1AF
102
}
330
1AF
100
AcDbScale
 70
     0
300
1/64" = 1'-0"
140
0.015625
141
12.0
290
     0
  0
SCALE
  5
1B3
102
{ACAD_REACTORS
330
1AF
102
}
330
1AF
100
AcDbScale
 70
     0
300
1/32" = 1'-0"
140
0.03125
141
12.0
290
     0
  0
SCALE
  5
1B4
102
{ACAD_REACTORS
330
1AF
102
}
330
1AF
100
AcDbScale
 70
     0
300
1/16" = 1'-0"
140
0.0625
141
12.0
290
     0
  0
SCALE
  5
1B5
102
{ACAD_REACTORS
330
1AF
102
}
330
1AF
100
AcDbScale
 70
     0
300
3/32" = 1'-0"
140
0.09375
141
12.0
290
     0
  0
SCALE
  5
1B6
102
{ACAD_REACTORS
330
1AF
102
}
330
1AF
100
AcDbScale
 70
     0
300
1/8" = 1'-0"
140
0.125
141
12.0
290
     0
  0
SCALE
  5
1B7
102
{ACAD_REACTORS
330
1AF
102
}
330
1AF
100
AcDbScale
 70
     0
300
3/16" = 1'-0"
140
0.1875
141
12.0
290
     0
  0
SCALE
  5
1B8
102
{ACAD_REACTORS
330
1AF
102
}
330
1AF
100
AcDbScale
 70
     0
300
1/4" = 1'-0"
140
0.25
141
12.0
290
     0
  0
SCALE
  5
1B9
102
{ACAD_REACTORS
330
1AF
102
}
330
1AF
100
AcDbScale
 70
     0
300
3/8" = 1'-0"
140
0.375
141
12.0
290
     0
  0
SCALE
  5
1BA
102
{ACAD_REACTORS
330
1AF
102
}
330
1AF
100
AcDbScale
 70
     0
300
1/2" = 1'-0"
140
0.5
141
12.0
290
     0
  0
SCALE
  5
1BB
102
{ACAD_REACTORS
330
1AF
102
}
330
1AF
100
AcDbScale
 70
     0
300
3/4" = 1'-0"
140
0.75
141
12.0
290
     0
  0
SCALE
  5
1BC
102
{ACAD_REACTORS
330
1AF
102
}
330
1AF
100
AcDbScale
 70
     0
300
1" = 1'-0"
140
1.0
141
12.0
290
     0
  0
SCALE
  5
1BD
102
{ACAD_REACTORS
330
1AF
102
}
330
1AF
100
AcDbScale
 70
     0
300
1-1/2" = 1'-0"
140
1.5
141
12.0
290
     0
  0
SCALE
  5
1BE
102
{ACAD_REACTORS
330
1AF
102
}
330
1AF
100
AcDbScale
 70
     0
300
3" = 1'-0"
140
3.0
141
12.0
290
     0
  0
SCALE
  5
1BF
102
{ACAD_REACTORS
330
1AF
102
}
330
1AF
100
AcDbScale
 70
     0
300
6" = 1'-0"
140
6.0
141
12.0
290
     0
  0
SCALE
  5
1C0
102
{ACAD_REACTORS
330
1AF
102
}
330
1AF
100
AcDbScale
 70
     0
300
1'-0" = 1'-0"
140
12.0
141
12.0
290
     0
  0
ACDBSECTIONVIEWSTYLE
  5
1C5
102
{ACAD_XDICTIONARY
360
466
102
}
102
{ACAD_REACTORS
330
1C3
102
}
330
1C3
100
AcDbModelDocViewStyle
 70
     0
  3
Imperial24
290
     0
100
AcDbSectionViewStyle
 70
     0
 71
     0
 90
       78
 71
     1
340
11
 62
   256
 40
0.24
340
0
340
0
 62
   256
 40
0.24
300
I, O, Q, S, X, Z
 40
0.48
 90
        3
 40
0.18
 90
        1
 71
     2
340
1C4
 90
       25
 62
   256
340
16
 90
       50
 62
   256
 40
0.24
 40
0.0
 40
0.24
 71
     3
340
11
 62
   256
 40
0.24
 90
        1
 40
0.75
 90
        1
300
%<\AcVar ViewType \f "%tc1">% %<\AcVar ViewSectionStartId>%-%<\AcVar ViewSectionEndId>%\PVARIA %<\AcVar ViewScale \f "%sn">%
 71
     4
 62
   256
 62
   257
300
ANSI31
 40
1.0
 90
        0
290
     0
290
     0
 90
        6
 40
0.0
 40
1.570796326794896
 40
0.2617993877991494
 40
1.308996938995747
 40
-0.2617993877991494
 40
1.832595714594044
  0
TABLESTYLE
  5
1AE
102
{ACAD_XDICTIONARY
360
35F
102
}
102
{ACAD_REACTORS
330
1AD
102
}
330
1AD
100
AcDbTableStyle
280
     0
  3
Standard
 70
     0
 71
     0
 40
0.06
 41
0.06
280
     0
281
     0
  7
STANDARD
140
0.18
170
     2
 62
     0
 63
     7
283
     0
 90
      512
 91
        0
  1

274
    -2
284
     1
 64
     0
275
    -2
285
     1
 65
     0
276
    -2
286
     1
 66
     0
277
    -2
287
     1
 67
     0
278
    -2
288
     1
 68
     0
279
    -2
289
     1
 69
     0
  7
STANDARD
140
0.25
170
     5
 62
     0
 63
     7
283
     0
 90
      512
 91
        0
  1

274
    -2
284
     1
 64
     0
275
    -2
285
     1
 65
     0
276
    -2
286
     1
 66
     0
277
    -2
287
     1
 67
     0
278
    -2
288
     1
 68
     0
279
    -2
289
     1
 69
     0
  7
STANDARD
140
0.18
170
     5
 62
     0
 63
     7
283
     0
 90
      512
 91
        0
  1

274
    -2
284
     1
 64
     0
275
    -2
285
     1
 65
     0
276
    -2
286
     1
 66
     0
277
    -2
287
     1
 67
     0
278
    -2
288
     1
 68
     0
279
    -2
289
     1
 69
     0
  0
VISUALSTYLE
  5
199
102
{ACAD_XDICTIONARY
360
18BC
102
}
102
{ACAD_REACTORS
330
193
102
}
330
193
100
AcDbVisualStyle
  2
2dWireframe
 70
     4
177
     2
291
     0
 71
     0
176
     1
 72
     2
176
     1
 73
     0
176
     1
 90
        0
176
     1
 40
0.6
176
     1
 41
30.0
176
     1
 63
     7
421
 16777215
176
     1
 74
     1
176
     1
 91
        4
176
     1
 64
     7
176
     1
 65
   257
176
     1
 75
     1
176
     1
175
     1
176
     1
 42
1.0
176
     1
 92
        0
176
     1
 66
   257
176
     1
 43
1.0
176
     1
 76
     1
176
     1
 77
     6
176
     1
 78
     2
176
     1
 67
     7
176
     1
 79
     5
176
     1
170
     0
176
     1
171
     0
176
     1
290
     0
176
     1
 93
        1
176
     1
 44
0.0
176
     1
173
     0
176
     1
1001
ACAD
1000
AcDbSavedByObjectVersion
1070
     0
  0
VISUALSTYLE
  5
198
102
{ACAD_XDICTIONARY
360
18BA
102
}
102
{ACAD_REACTORS
330
193
102
}
330
193
100
AcDbVisualStyle
  2
Basic
 70
     7
177
     2
291
     1
 71
     1
176
     1
 72
     0
176
     1
 73
     1
176
     1
 90
        0
176
     1
 40
0.6
176
     1
 41
30.0
176
     1
 63
     7
421
 16777215
176
     1
 74
     0
176
     1
 91
        4
176
     1
 64
     7
176
     1
 65
   257
176
     1
 75
     1
176
     1
175
     1
176
     1
 42
1.0
176
     1
 92
        8
176
     1
 66
     7
176
     1
 43
1.0
176
     1
 76
     1
176
     1
 77
     6
176
     1
 78
     2
176
     1
 67
     7
176
     1
 79
     5
176
     1
170
     0
176
     1
171
     0
176
     1
290
     0
176
     1
 93
        1
176
     1
 44
0.0
176
     1
173
     0
176
     1
1001
ACAD
1000
AcDbSavedByObjectVersion
1070
     0
  0
VISUALSTYLE
  5
19F
102
{ACAD_XDICTIONARY
360
18C8
102
}
102
{ACAD_REACTORS
330
193
102
}
330
193
100
AcDbVisualStyle
  2
Brighten
 70
    12
177
     2
291
     1
 71
     2
176
     1
 72
     2
176
     1
 73
     0
176
     1
 90
        0
176
     1
 40
0.6
176
     1
 41
30.0
176
     1
 63
     7
421
 16777215
176
     1
 74
     1
176
     1
 91
        4
176
     1
 64
     7
176
     1
 65
   257
176
     1
 75
     1
176
     1
175
     1
176
     1
 42
1.0
176
     1
 92
        8
176
     1
 66
     7
176
     1
 43
1.0
176
     1
 76
     1
176
     1
 77
     6
176
     1
 78
     2
176
     1
 67
     7
176
     1
 79
     5
176
     1
170
     0
176
     1
171
     0
176
     1
290
     0
176
     1
 93
        1
176
     1
 44
50.0
176
     1
173
     0
176
     1
1001
ACAD
1000
AcDbSavedByObjectVersion
1070
     0
  0
VISUALSTYLE
  5
1A3
102
{ACAD_XDICTIONARY
360
18D0
102
}
102
{ACAD_REACTORS
330
193
102
}
330
193
100
AcDbVisualStyle
  2
ColorChange
 70
    16
177
     2
291
     1
 71
     2
176
     1
 72
     2
176
     1
 73
     3
176
     1
 90
        0
176
     1
 40
0.6
176
     1
 41
30.0
176
     1
 63
     8
421
  8421504
176
     1
 74
     1
176
     1
 91
        4
176
     1
 64
     7
176
     1
 65
   257
176
     1
 75
     1
176
     1
175
     1
176
     1
 42
1.0
176
     1
 92
        8
176
     1
 66
     8
424
  8421504
176
     1
 43
1.0
176
     1
 76
     1
176
     1
 77
     6
176
     1
 78
     2
176
     1
 67
     7
176
     1
 79
     5
176
     1
170
     0
176
     1
171
     0
176
     1
290
     0
176
     1
 93
        1
176
     1
 44
0.0
176
     1
173
     0
176
     1
1001
ACAD
1000
AcDbSavedByObjectVersion
1070
     0
  0
VISUALSTYLE
  5
19C
102
{ACAD_XDICTIONARY
360
18C2
102
}
102
{ACAD_REACTORS
330
193
102
}
330
193
100
AcDbVisualStyle
  2
Conceptual
 70
     9
177
     2
291
     0
 71
     3
176
     1
 72
     2
176
     1
 73
     0
176
     1
 90
        0
176
     1
 40
0.6
176
     1
 41
30.0
176
     1
 63
     7
421
 16777215
176
     1
 74
     2
176
     1
 91
        2
176
     1
 64
     7
176
     1
 65
   257
176
     1
 75
     1
176
     1
175
     1
176
     1
 42
179.0
176
     1
 92
        8
176
     1
 66
     7
176
     1
 43
1.0
176
     1
 76
     1
176
     1
 77
     6
176
     1
 78
     2
176
     1
 67
     7
176
     1
 79
     3
176
     1
170
     0
176
     1
171
     0
176
     1
290
     0
176
     1
 93
        1
176
     1
 44
0.0
176
     1
173
     0
176
     1
1001
ACAD
1000
AcDbSavedByObjectVersion
1070
     0
  0
VISUALSTYLE
  5
19E
102
{ACAD_XDICTIONARY
360
18C6
102
}
102
{ACAD_REACTORS
330
193
102
}
330
193
100
AcDbVisualStyle
  2
Dim
 70
    11
177
     2
291
     1
 71
     2
176
     1
 72
     2
176
     1
 73
     0
176
     1
 90
        0
176
     1
 40
0.6
176
     1
 41
30.0
176
     1
 63
     7
421
 16777215
176
     1
 74
     1
176
     1
 91
        4
176
     1
 64
     7
176
     1
 65
   257
176
     1
 75
     1
176
     1
175
     1
176
     1
 42
1.0
176
     1
 92
        8
176
     1
 66
     7
176
     1
 43
1.0
176
     1
 76
     1
176
     1
 77
     6
176
     1
 78
     2
176
     1
 67
     7
176
     1
 79
     5
176
     1
170
     0
176
     1
171
     0
176
     1
290
     0
176
     1
 93
        1
176
     1
 44
-50.0
176
     1
173
     0
176
     1
1001
ACAD
1000
AcDbSavedByObjectVersion
1070
     0
  0
VISUALSTYLE
  5
1AB
102
{ACAD_XDICTIONARY
360
18E0
102
}
102
{ACAD_REACTORS
330
193
102
}
330
193
100
AcDbVisualStyle
  2
EdgeColorOff
 70
    22
177
     2
291
     1
 71
     2
176
     0
 72
     2
176
     0
 73
     0
176
     0
 90
        0
176
     0
 40
0.6
176
     0
 41
30.0
176
     0
 63
     7
421
 16777215
176
     0
 74
     1
176
     0
 91
        4
176
     0
 64
     7
176
     0
 65
   257
176
     0
 75
     1
176
     0
175
     1
176
     0
 42
1.0
176
     0
 92
        8
176
     2
 66
     7
176
     0
 43
1.0
176
     0
 76
     1
176
     0
 77
     6
176
     0
 78
     2
176
     0
 67
     7
176
     0
 79
     5
176
     0
170
     0
176
     0
171
     0
176
     0
290
     0
176
     0
 93
        1
176
     0
 44
0.0
176
     0
173
     0
176
     0
1001
ACAD
1000
AcDbSavedByObjectVersion
1070
     0
  0
VISUALSTYLE
  5
1A2
102
{ACAD_XDICTIONARY
360
18CE
102
}
102
{ACAD_REACTORS
330
193
102
}
330
193
100
AcDbVisualStyle
  2
Facepattern
 70
    15
177
     2
291
     1
 71
     2
176
     1
 72
     2
176
     1
 73
     0
176
     1
 90
        0
176
     1
 40
0.6
176
     1
 41
30.0
176
     1
 63
     7
421
 16777215
176
     1
 74
     1
176
     1
 91
        4
176
     1
 64
     7
176
     1
 65
   257
176
     1
 75
     1
176
     1
175
     1
176
     1
 42
1.0
176
     1
 92
        8
176
     1
 66
     7
176
     1
 43
1.0
176
     1
 76
     1
176
     1
 77
     6
176
     1
 78
     2
176
     1
 67
     7
176
     1
 79
     5
176
     1
170
     0
176
     1
171
     0
176
     1
290
     0
176
     1
 93
        1
176
     1
 44
0.0
176
     1
173
     0
176
     1
1001
ACAD
1000
AcDbSavedByObjectVersion
1070
     0
  0
VISUALSTYLE
  5
194
102
{ACAD_XDICTIONARY
360
18B2
102
}
102
{ACAD_REACTORS
330
193
102
}
330
193
100
AcDbVisualStyle
  2
Flat
 70
     0
177
     2
291
     1
 71
     2
176
     1
 72
     1
176
     1
 73
     1
176
     1
 90
        2
176
     1
 40
0.6
176
     1
 41
30.0
176
     1
 63
     7
421
 16777215
176
     1
 74
     0
176
     1
 91
        0
176
     1
 64
     7
176
     1
 65
   257
176
     1
 75
     1
176
     1
175
     1
176
     1
 42
1.0
176
     1
 92
        8
176
     1
 66
     7
176
     1
 43
1.0
176
     1
 76
     1
176
     1
 77
     6
176
     1
 78
     2
176
     1
 67
     7
176
     1
 79
     5
176
     1
170
     0
176
     1
171
     0
176
     1
290
     0
176
     1
 93
       13
176
     1
 44
0.0
176
     1
173
     0
176
     1
1001
ACAD
1000
AcDbSavedByObjectVersion
1070
     0
  0
VISUALSTYLE
  5
195
102
{ACAD_XDICTIONARY
360
18B4
102
}
102
{ACAD_REACTORS
330
193
102
}
330
193
100
AcDbVisualStyle
  2
FlatWithEdges
 70
     1
177
     2
291
     1
 71
     2
176
     1
 72
     1
176
     1
 73
     1
176
     1
 90
        2
176
     1
 40
0.6
176
     1
 41
30.0
176
     1
 63
     7
421
 16777215
176
     1
 74
     1
176
     1
 91
        0
176
     1
 64
     7
176
     1
 65
   257
176
     1
 75
     1
176
     1
175
     1
176
     1
 42
1.0
176
     1
 92
        0
176
     1
 66
   257
176
     1
 43
1.0
176
     1
 76
     1
176
     1
 77
     6
176
     1
 78
     2
176
     1
 67
     7
176
     1
 79
     5
176
     1
170
     0
176
     1
171
     0
176
     1
290
     0
176
     1
 93
       13
176
     1
 44
0.0
176
     1
173
     0
176
     1
1001
ACAD
1000
AcDbSavedByObjectVersion
1070
     0
  0
VISUALSTYLE
  5
196
102
{ACAD_XDICTIONARY
360
18B6
102
}
102
{ACAD_REACTORS
330
193
102
}
330
193
100
AcDbVisualStyle
  2
Gouraud
 70
     2
177
     2
291
     1
 71
     2
176
     1
 72
     2
176
     1
 73
     1
176
     1
 90
        2
176
     1
 40
0.6
176
     1
 41
30.0
176
     1
 63
     7
421
 16777215
176
     1
 74
     0
176
     1
 91
        0
176
     1
 64
     7
176
     1
 65
   257
176
     1
 75
     1
176
     1
175
     1
176
     1
 42
1.0
176
     1
 92
        0
176
     1
 66
     7
176
     1
 43
1.0
176
     1
 76
     1
176
     1
 77
     6
176
     1
 78
     2
176
     1
 67
     7
176
     1
 79
     5
176
     1
170
     0
176
     1
171
     0
176
     1
290
     0
176
     1
 93
       13
176
     1
 44
0.0
176
     1
173
     0
176
     1
1001
ACAD
1000
AcDbSavedByObjectVersion
1070
     0
  0
VISUALSTYLE
  5
197
102
{ACAD_XDICTIONARY
360
18B8
102
}
102
{ACAD_REACTORS
330
193
102
}
330
193
100
AcDbVisualStyle
  2
GouraudWithEdges
 70
     3
177
     2
291
     1
 71
     2
176
     1
 72
     2
176
     1
 73
     1
176
     1
 90
        2
176
     1
 40
0.6
176
     1
 41
30.0
176
     1
 63
     7
421
 16777215
176
     1
 74
     1
176
     1
 91
        0
176
     1
 64
     7
176
     1
 65
   257
176
     1
 75
     1
176
     1
175
     1
176
     1
 42
1.0
176
     1
 92
        0
176
     1
 66
   257
176
     1
 43
1.0
176
     1
 76
     1
176
     1
 77
     6
176
     1
 78
     2
176
     1
 67
     7
176
     1
 79
     5
176
     1
170
     0
176
     1
171
     0
176
     1
290
     0
176
     1
 93
       13
176
     1
 44
0.0
176
     1
173
     0
176
     1
1001
ACAD
1000
AcDbSavedByObjectVersion
1070
     0
  0
VISUALSTYLE
  5
19B
102
{ACAD_XDICTIONARY
360
18C0
102
}
102
{ACAD_REACTORS
330
193
102
}
330
193
100
AcDbVisualStyle
  2
Hidden
 70
     6
177
     2
291
     0
 71
     1
176
     1
 72
     2
176
     1
 73
     2
176
     1
 90
        0
176
     1
 40
0.6
176
     1
 41
30.0
176
     1
 63
     7
421
 16777215
176
     1
 74
     2
176
     1
 91
        2
176
     1
 64
     7
176
     1
 65
   257
176
     1
 75
     2
176
     1
175
     1
176
     1
 42
40.0
176
     1
 92
        0
176
     1
 66
   257
176
     1
 43
1.0
176
     1
 76
     1
176
     1
 77
     6
176
     1
 78
     2
176
     1
 67
     7
176
     1
 79
     3
176
     1
170
     0
176
     1
171
     0
176
     1
290
     0
176
     1
 93
        1
176
     1
 44
0.0
176
     1
173
     0
176
     1
1001
ACAD
1000
AcDbSavedByObjectVersion
1070
     0
  0
VISUALSTYLE
  5
1A9
102
{ACAD_XDICTIONARY
360
18DC
102
}
102
{ACAD_REACTORS
330
193
102
}
330
193
100
AcDbVisualStyle
  2
JitterOff
 70
    20
177
     2
291
     1
 71
     2
176
     0
 72
     2
176
     0
 73
     0
176
     0
 90
        0
176
     0
 40
0.6
176
     0
 41
30.0
176
     0
 63
     7
421
 16777215
176
     0
 74
     1
176
     0
 91
        4
176
     0
 64
     7
176
     0
 65
   257
176
     0
 75
     1
176
     0
175
     1
176
     0
 42
1.0
176
     0
 92
       10
176
     2
 66
     7
176
     0
 43
1.0
176
     0
 76
     1
176
     0
 77
     6
176
     0
 78
     2
176
     0
 67
     7
176
     0
 79
     5
176
     0
170
     0
176
     0
171
     0
176
     0
290
     0
176
     0
 93
        1
176
     0
 44
0.0
176
     0
173
     0
176
     0
1001
ACAD
1000
AcDbSavedByObjectVersion
1070
     0
  0
VISUALSTYLE
  5
1A1
102
{ACAD_XDICTIONARY
360
18CC
102
}
102
{ACAD_REACTORS
330
193
102
}
330
193
100
AcDbVisualStyle
  2
Linepattern
 70
    14
177
     2
291
     1
 71
     2
176
     1
 72
     2
176
     1
 73
     0
176
     1
 90
        0
176
     1
 40
0.6
176
     1
 41
30.0
176
     1
 63
     7
421
 16777215
176
     1
 74
     1
176
     1
 91
        4
176
     1
 64
     7
176
     1
 65
   257
176
     1
 75
     7
176
     1
175
     7
176
     1
 42
1.0
176
     1
 92
        8
176
     1
 66
     7
176
     1
 43
1.0
176
     1
 76
     1
176
     1
 77
     6
176
     1
 78
     2
176
     1
 67
     7
176
     1
 79
     5
176
     1
170
     0
176
     1
171
     0
176
     1
290
     0
176
     1
 93
        1
176
     1
 44
0.0
176
     1
173
     0
176
     1
1001
ACAD
1000
AcDbSavedByObjectVersion
1070
     0
  0
VISUALSTYLE
  5
1AA
102
{ACAD_XDICTIONARY
360
18DE
102
}
102
{ACAD_REACTORS
330
193
102
}
330
193
100
AcDbVisualStyle
  2
OverhangOff
 70
    21
177
     2
291
     1
 71
     2
176
     0
 72
     2
176
     0
 73
     0
176
     0
 90
        0
176
     0
 40
0.6
176
     0
 41
30.0
176
     0
 63
     7
421
 16777215
176
     0
 74
     1
176
     0
 91
        4
176
     0
 64
     7
176
     0
 65
   257
176
     0
 75
     1
176
     0
175
     1
176
     0
 42
1.0
176
     0
 92
        9
176
     2
 66
     7
176
     0
 43
1.0
176
     0
 76
     1
176
     0
 77
     6
176
     0
 78
     2
176
     0
 67
     7
176
     0
 79
     5
176
     0
170
     0
176
     0
171
     0
176
     0
290
     0
176
     0
 93
        1
176
     0
 44
0.0
176
     0
173
     0
176
     0
1001
ACAD
1000
AcDbSavedByObjectVersion
1070
     0
  0
VISUALSTYLE
  5
19D
102
{ACAD_XDICTIONARY
360
18C4
102
}
102
{ACAD_REACTORS
330
193
102
}
330
193
100
AcDbVisualStyle
  2
Realistic
 70
     8
177
     2
291
     0
 71
     2
176
     1
 72
     3
176
     1
 73
     0
176
     1
 90
        2
176
     1
 40
0.6
176
     1
 41
30.0
176
     1
 63
     7
421
 16777215
176
     1
 74
     0
176
     1
 91
        0
176
     1
 64
     7
176
     1
 65
   257
176
     1
 75
     1
176
     1
175
     1
176
     1
 42
1.0
176
     1
 92
        8
176
     1
 66
   257
176
     1
 43
1.0
176
     1
 76
     1
176
     1
 77
     6
176
     1
 78
     2
176
     1
 67
     7
176
     1
 79
     3
176
     1
170
     0
176
     1
171
     0
176
     1
290
     0
176
     1
 93
       13
176
     1
 44
0.0
176
     1
173
     0
176
     1
1001
ACAD
1000
AcDbSavedByObjectVersion
1070
     0
  0
VISUALSTYLE
  5
1A8
102
{ACAD_XDICTIONARY
360
18DA
102
}
102
{ACAD_REACTORS
330
193
102
}
330
193
100
AcDbVisualStyle
  2
Shaded
 70
    27
177
     2
291
     0
 71
     2
176
     1
 72
     2
176
     1
 73
     1
176
     1
 90
        2
176
     1
 40
0.6
176
     1
 41
30.0
176
     1
 63
     7
421
 16777215
176
     1
 74
     0
176
     1
 91
        4
176
     1
 64
     7
176
     1
 65
   257
176
     1
 75
     1
176
     1
175
     1
176
     1
 42
1.0
176
     1
 92
        8
176
     1
 66
   257
176
     1
 43
1.0
176
     1
 76
     1
176
     1
 77
     6
176
     1
 78
     2
176
     1
 67
     8
425
  7895160
176
     1
 79
     3
176
     1
170
     0
176
     1
171
     0
176
     1
290
     0
176
     1
 93
        5
176
     1
 44
0.0
176
     1
173
     0
176
     1
1001
ACAD
1000
AcDbSavedByObjectVersion
1070
     0
  0
VISUALSTYLE
  5
1A7
102
{ACAD_XDICTIONARY
360
18D8
102
}
102
{ACAD_REACTORS
330
193
102
}
330
193
100
AcDbVisualStyle
  2
Shaded with edges
 70
    26
177
     2
291
     0
 71
     2
176
     1
 72
     2
176
     1
 73
     1
176
     1
 90
        2
176
     1
 40
0.6
176
     1
 41
30.0
176
     1
 63
     7
421
 16777215
176
     1
 74
     1
176
     1
 91
        2
176
     1
 64
     7
176
     1
 65
   257
176
     1
 75
     2
176
     1
175
     1
176
     1
 42
1.0
176
     1
 92
        8
176
     1
 66
   257
176
     1
 43
1.0
176
     1
 76
     1
176
     1
 77
     6
176
     1
 78
     2
176
     1
 67
     7
176
     1
 79
     3
176
     1
170
     0
176
     1
171
     0
176
     1
290
     0
176
     1
 93
        5
176
     1
 44
0.0
176
     1
173
     0
176
     1
1001
ACAD
1000
AcDbSavedByObjectVersion
1070
     0
  0
VISUALSTYLE
  5
1A4
102
{ACAD_XDICTIONARY
360
18D2
102
}
102
{ACAD_REACTORS
330
193
102
}
330
193
100
AcDbVisualStyle
  2
Shades of Gray
 70
    23
177
     2
291
     0
 71
     2
176
     1
 72
     2
176
     1
 73
     3
176
     1
 90
        0
176
     1
 40
0.6
176
     1
 41
30.0
176
     1
 63
     7
421
 16777215
176
     1
 74
     2
176
     1
 91
        2
176
     1
 64
     7
176
     1
 65
     7
176
     1
 75
     1
176
     1
175
     1
176
     1
 42
40.0
176
     1
 92
        8
176
     1
 66
     7
176
     1
 43
1.0
176
     1
 76
     1
176
     1
 77
     6
176
     1
 78
     2
176
     1
 67
     7
176
     1
 79
     3
176
     1
170
     0
176
     1
171
     0
176
     1
290
     0
176
     1
 93
        1
176
     1
 44
0.0
176
     1
173
     0
176
     1
1001
ACAD
1000
AcDbSavedByObjectVersion
1070
     0
  0
VISUALSTYLE
  5
1A5
102
{ACAD_XDICTIONARY
360
18D4
102
}
102
{ACAD_REACTORS
330
193
102
}
330
193
100
AcDbVisualStyle
  2
Sketchy
 70
    24
177
     2
291
     0
 71
     1
176
     1
 72
     2
176
     1
 73
     2
176
     1
 90
        0
176
     1
 40
0.6
176
     1
 41
30.0
176
     1
 63
     7
421
 16777215
176
     1
 74
     2
176
     1
 91
        2
176
     1
 64
     7
176
     1
 65
     7
176
     1
 75
     1
176
     1
175
     1
176
     1
 42
40.0
176
     1
 92
       11
176
     1
 66
     7
176
     1
 43
1.0
176
     1
 76
     1
176
     1
 77
     6
176
     1
 78
     2
176
     1
 67
     7
176
     1
 79
     6
176
     1
170
     0
176
     1
171
     0
176
     1
290
     0
176
     1
 93
        1
176
     1
 44
0.0
176
     1
173
     0
176
     1
1001
ACAD
1000
AcDbSavedByObjectVersion
1070
     0
  0
VISUALSTYLE
  5
1A0
102
{ACAD_XDICTIONARY
360
18CA
102
}
102
{ACAD_REACTORS
330
193
102
}
330
193
100
AcDbVisualStyle
  2
Thicken
 70
    13
177
     2
291
     1
 71
     2
176
     1
 72
     2
176
     1
 73
     0
176
     1
 90
        0
176
     1
 40
0.6
176
     1
 41
30.0
176
     1
 63
     7
421
 16777215
176
     1
 74
     1
176
     1
 91
        4
176
     1
 64
     7
176
     1
 65
   257
176
     1
 75
     1
176
     1
175
     1
176
     1
 42
1.0
176
     1
 92
       12
176
     1
 66
     7
176
     1
 43
1.0
176
     1
 76
     1
176
     1
 77
     6
176
     1
 78
     2
176
     1
 67
     7
176
     1
 79
     5
176
     1
170
     0
176
     1
171
     0
176
     1
290
     0
176
     1
 93
        1
176
     1
 44
0.0
176
     1
173
     0
176
     1
1001
ACAD
1000
AcDbSavedByObjectVersion
1070
     0
  0
VISUALSTYLE
  5
19A
102
{ACAD_XDICTIONARY
360
18BE
102
}
102
{ACAD_REACTORS
330
193
102
}
330
193
100
AcDbVisualStyle
  2
Wireframe
 70
     5
177
     2
291
     0
 71
     0
176
     1
 72
     2
176
     1
 73
     0
176
     1
 90
        0
176
     1
 40
0.6
176
     1
 41
30.0
176
     1
 63
     7
421
 16777215
176
     1
 74
     1
176
     1
 91
        4
176
     1
 64
     7
176
     1
 65
   257
176
     1
 75
     1
176
     1
175
     1
176
     1
 42
1.0
176
     1
 92
        0
176
     1
 66
   257
176
     1
 43
1.0
176
     1
 76
     1
176
     1
 77
     6
176
     1
 78
     2
176
     1
 67
     7
176
     1
 79
     3
176
     1
170
     0
176
     1
171
     0
176
     1
290
     0
176
     1
 93
        1
176
     1
 44
0.0
176
     1
173
     0
176
     1
1001
ACAD
1000
AcDbSavedByObjectVersion
1070
     0
  0
VISUALSTYLE
  5
1A6
102
{ACAD_XDICTIONARY
360
18D6
102
}
102
{ACAD_REACTORS
330
193
102
}
330
193
100
AcDbVisualStyle
  2
X-Ray
 70
    25
177
     2
291
     0
 71
     2
176
     1
 72
     2
176
     1
 73
     1
176
     1
 90
        1
176
     1
 40
0.5
176
     1
 41
30.0
176
     1
 63
     7
421
 16777215
176
     1
 74
     1
176
     1
 91
        0
176
     1
 64
     7
176
     1
 65
   257
176
     1
 75
     1
176
     1
175
     1
176
     1
 42
1.0
176
     1
 92
        8
176
     1
 66
     7
176
     1
 43
1.0
176
     1
 76
     1
176
     1
 77
     6
176
     1
 78
     2
176
     1
 67
     7
176
     1
 79
     3
176
     1
170
     0
176
     1
171
     0
176
     1
290
     0
176
     1
 93
       13
176
     1
 44
0.0
176
     1
173
     0
176
     1
1001
ACAD
1000
AcDbSavedByObjectVersion
1070
     0
  0
DICTIONARYVAR
  5
2D1
102
{ACAD_REACTORS
330
2CB
102
}
330
2CB
100
DictionaryVariables
280
     0
  1
1:1
  0
DICTIONARYVAR
  5
2CD
102
{ACAD_REACTORS
330
2CB
102
}
330
2CB
100
DictionaryVariables
280
     0
  1
STANDARD
  0
DICTIONARYVAR
  5
2CC
102
{ACAD_REACTORS
330
2CB
102
}
330
2CB
100
DictionaryVariables
280
     0
  1
STANDARD
  0
DICTIONARYVAR
  5
2CE
102
{ACAD_REACTORS
330
2CB
102
}
330
2CB
100
DictionaryVariables
280
     0
  1
Imperial24
  0
DICTIONARYVAR
  5
2CF
102
{ACAD_REACTORS
330
2CB
102
}
330
2CB
100
DictionaryVariables
280
     0
  1
Imperial24
  0
DICTIONARYVAR
  5
2D3
102
{ACAD_REACTORS
330
2CB
102
}
330
2CB
100
DictionaryVariables
280
     0
  1
1
  0
DICTIONARYVAR
  5
2D4
102
{ACAD_REACTORS
330
2CB
102
}
330
2CB
100
DictionaryVariables
280
     0
  1
15
  0
DICTIONARYVAR
  5
2D2
102
{ACAD_REACTORS
330
2CB
102
}
330
2CB
100
DictionaryVariables
280
     0
  1
0
  0
DICTIONARYVAR
  5
2D0
102
{ACAD_REACTORS
330
2CB
102
}
330
2CB
100
DictionaryVariables
280
     0
  1
0
  0
DICTIONARY
  5
18B1
102
{ACAD_REACTORS
330
18AF
102
}
330
18AF
100
AcDbDictionary
281
     1
  0
DICTIONARY
  5
18B0
102
{ACAD_REACTORS
330
18AF
102
}
330
18AF
100
AcDbDictionary
281
     1
  3
8796083627296
350
18AA
  3
8796083627312
350
18AB
  3
8796083627328
350
18AC
  3
8796083627344
350
18AD
  3
8796083627360
350
18AE
  0
DICTIONARY
  5
468
330
1C7
100
AcDbDictionary
280
     1
281
     1
  3
ACAD_XREC_ROUNDTRIP
360
469
  0
DICTIONARY
  5
184
330
183
100
AcDbDictionary
280
     1
281
     1
  3
BUMPTILE
360
186
  3
DIFFUSETILE
360
185
  3
OPACITYTILE
360
189
  3
REFLECTIONTILE
360
188
  3
REFRACTIONTILE
360
18A
  3
SPECULARTILE
360
187
  0
DICTIONARY
  5
17C
330
17B
100
AcDbDictionary
280
     1
281
     1
  3
BUMPTILE
360
17E
  3
DIFFUSETILE
360
17D
  3
OPACITYTILE
360
181
  3
REFLECTIONTILE
360
180
  3
REFRACTIONTILE
360
182
  3
SPECULARTILE
360
17F
  0
DICTIONARY
  5
18C
330
18B
100
AcDbDictionary
280
     1
281
     1
  3
BUMPTILE
360
18E
  3
DIFFUSETILE
360
18D
  3
OPACITYTILE
360
191
  3
REFLECTIONTILE
360
190
  3
REFRACTIONTILE
360
192
  3
SPECULARTILE
360
18F
  0
DICTIONARY
  5
466
330
1C5
100
AcDbDictionary
280
     1
281
     1
  3
ACAD_XREC_ROUNDTRIP
360
467
  0
DICTIONARY
  5
35F
330
1AE
100
AcDbDictionary
280
     1
281
     1
  3
ACAD_ROUNDTRIP_2008_TABLESTYLE_CELLSTYLEMAP
360
18A8
  0
DICTIONARY
  5
18BC
330
199
100
AcDbDictionary
280
     1
281
     1
  3
ACAD_XREC_ROUNDTRIP
360
18BD
  0
DICTIONARY
  5
18BA
330
198
100
AcDbDictionary
280
     1
281
     1
  3
ACAD_XREC_ROUNDTRIP
360
18BB
  0
DICTIONARY
  5
18C8
330
19F
100
AcDbDictionary
280
     1
281
     1
  3
ACAD_XREC_ROUNDTRIP
360
18C9
  0
DICTIONARY
  5
18D0
330
1A3
100
AcDbDictionary
280
     1
281
     1
  3
ACAD_XREC_ROUNDTRIP
360
18D1
  0
DICTIONARY
  5
18C2
330
19C
100
AcDbDictionary
280
     1
281
     1
  3
ACAD_XREC_ROUNDTRIP
360
18C3
  0
DICTIONARY
  5
18C6
330
19E
100
AcDbDictionary
280
     1
281
     1
  3
ACAD_XREC_ROUNDTRIP
360
18C7
  0
DICTIONARY
  5
18E0
330
1AB
100
AcDbDictionary
280
     1
281
     1
  3
ACAD_XREC_ROUNDTRIP
360
18E1
  0
DICTIONARY
  5
18CE
330
1A2
100
AcDbDictionary
280
     1
281
     1
  3
ACAD_XREC_ROUNDTRIP
360
18CF
  0
DICTIONARY
  5
18B2
330
194
100
AcDbDictionary
280
     1
281
     1
  3
ACAD_XREC_ROUNDTRIP
360
18B3
  0
DICTIONARY
  5
18B4
330
195
100
AcDbDictionary
280
     1
281
     1
  3
ACAD_XREC_ROUNDTRIP
360
18B5
  0
DICTIONARY
  5
18B6
330
196
100
AcDbDictionary
280
     1
281
     1
  3
ACAD_XREC_ROUNDTRIP
360
18B7
  0
DICTIONARY
  5
18B8
330
197
100
AcDbDictionary
280
     1
281
     1
  3
ACAD_XREC_ROUNDTRIP
360
18B9
  0
DICTIONARY
  5
18C0
330
19B
100
AcDbDictionary
280
     1
281
     1
  3
ACAD_XREC_ROUNDTRIP
360
18C1
  0
DICTIONARY
  5
18DC
330
1A9
100
AcDbDictionary
280
     1
281
     1
  3
ACAD_XREC_ROUNDTRIP
360
18DD
  0
DICTIONARY
  5
18CC
330
1A1
100
AcDbDictionary
280
     1
281
     1
  3
ACAD_XREC_ROUNDTRIP
360
18CD
  0
DICTIONARY
  5
18DE
330
1AA
100
AcDbDictionary
280
     1
281
     1
  3
ACAD_XREC_ROUNDTRIP
360
18DF
  0
DICTIONARY
  5
18C4
330
19D
100
AcDbDictionary
280
     1
281
     1
  3
ACAD_XREC_ROUNDTRIP
360
18C5
  0
DICTIONARY
  5
18DA
330
1A8
100
AcDbDictionary
280
     1
281
     1
  3
ACAD_XREC_ROUNDTRIP
360
18DB
  0
DICTIONARY
  5
18D8
330
1A7
100
AcDbDictionary
280
     1
281
     1
  3
ACAD_XREC_ROUNDTRIP
360
18D9
  0
DICTIONARY
  5
18D2
330
1A4
100
AcDbDictionary
280
     1
281
     1
  3
ACAD_XREC_ROUNDTRIP
360
18D3
  0
DICTIONARY
  5
18D4
330
1A5
100
AcDbDictionary
280
     1
281
     1
  3
ACAD_XREC_ROUNDTRIP
360
18D5
  0
DICTIONARY
  5
18CA
330
1A0
100
AcDbDictionary
280
     1
281
     1
  3
ACAD_XREC_ROUNDTRIP
360
18CB
  0
DICTIONARY
  5
18BE
330
19A
100
AcDbDictionary
280
     1
281
     1
  3
ACAD_XREC_ROUNDTRIP
360
18BF
  0
DICTIONARY
  5
18D6
330
1A6
100
AcDbDictionary
280
     1
281
     1
  3
ACAD_XREC_ROUNDTRIP
360
18D7
  0
XRECORD
  5
18AA
102
{ACAD_REACTORS
330
18B0
102
}
330
18B0
100
AcDbXrecord
280
     1
  1
AcDb_Thumbnail_Schema
102
{ATTRRECORD
341
18AB
  2
AcDbDs::TreatedAsObjectData
280
     1
291
     1
102
ATTRRECORD}
102
{ATTRRECORD
341
18AC
  2
AcDbDs::Legacy
280
     1
291
     1
102
ATTRRECORD}
  2
AcDbDs::ID
280
    10
 91
        8
102
{ATTRRECORD
341
18AD
  2
AcDs:Indexable
280
     1
291
     1
102
ATTRRECORD}
102
{ATTRRECORD
341
18AE
  2
AcDbDs::HandleAttribute
280
     7
282
     1
102
ATTRRECORD}
  2
Thumbnail_Data
280
    15
 91
        0
  0
XRECORD
  5
18AB
102
{ACAD_REACTORS
330
18B0
102
}
330
18B0
100
AcDbXrecord
280
     1
  1
AcDbDs::TreatedAsObjectDataSchema
  2
AcDbDs::TreatedAsObjectData
280
     1
 91
        0
  0
XRECORD
  5
18AC
102
{ACAD_REACTORS
330
18B0
102
}
330
18B0
100
AcDbXrecord
280
     1
  1
AcDbDs::LegacySchema
  2
AcDbDs::Legacy
280
     1
 91
        0
  0
XRECORD
  5
18AD
102
{ACAD_REACTORS
330
18B0
102
}
330
18B0
100
AcDbXrecord
280
     1
  1
AcDbDs::IndexedPropertySchema
  2
AcDs:Indexable
280
     1
 91
        0
  0
XRECORD
  5
18AE
102
{ACAD_REACTORS
330
18B0
102
}
330
18B0
100
AcDbXrecord
280
     1
  1
AcDbDs::HandleAttributeSchema
  2
AcDbDs::HandleAttribute
280
     7
 91
        1
284
     1
  0
XRECORD
  5
469
102
{ACAD_REACTORS
330
468
102
}
330
468
100
AcDbXrecord
280
     1
102
DISPLAYNAME
  1
Imperial24
102
FLAGS
 90
        0
  0
XRECORD
  5
186
102
{ACAD_REACTORS
330
184
102
}
330
184
100
AcDbXrecord
280
     1
270
     1
271
     1
  0
XRECORD
  5
185
102
{ACAD_REACTORS
330
184
102
}
330
184
100
AcDbXrecord
280
     1
270
     1
271
     1
  0
XRECORD
  5
189
102
{ACAD_REACTORS
330
184
102
}
330
184
100
AcDbXrecord
280
     1
270
     1
271
     1
  0
XRECORD
  5
188
102
{ACAD_REACTORS
330
184
102
}
330
184
100
AcDbXrecord
280
     1
270
     1
271
     1
  0
XRECORD
  5
18A
102
{ACAD_REACTORS
330
184
102
}
330
184
100
AcDbXrecord
280
     1
270
     1
271
     1
  0
XRECORD
  5
187
102
{ACAD_REACTORS
330
184
102
}
330
184
100
AcDbXrecord
280
     1
270
     1
271
     1
  0
XRECORD
  5
17E
102
{ACAD_REACTORS
330
17C
102
}
330
17C
100
AcDbXrecord
280
     1
270
     1
271
     1
  0
XRECORD
  5
17D
102
{ACAD_REACTORS
330
17C
102
}
330
17C
100
AcDbXrecord
280
     1
270
     1
271
     1
  0
XRECORD
  5
181
102
{ACAD_REACTORS
330
17C
102
}
330
17C
100
AcDbXrecord
280
     1
270
     1
271
     1
  0
XRECORD
  5
180
102
{ACAD_REACTORS
330
17C
102
}
330
17C
100
AcDbXrecord
280
     1
270
     1
271
     1
  0
XRECORD
  5
182
102
{ACAD_REACTORS
330
17C
102
}
330
17C
100
AcDbXrecord
280
     1
270
     1
271
     1
  0
XRECORD
  5
17F
102
{ACAD_REACTORS
330
17C
102
}
330
17C
100
AcDbXrecord
280
     1
270
     1
271
     1
  0
XRECORD
  5
18E
102
{ACAD_REACTORS
330
18C
102
}
330
18C
100
AcDbXrecord
280
     1
270
     1
271
     1
  0
XRECORD
  5
18D
102
{ACAD_REACTORS
330
18C
102
}
330
18C
100
AcDbXrecord
280
     1
270
     1
271
     1
  0
XRECORD
  5
191
102
{ACAD_REACTORS
330
18C
102
}
330
18C
100
AcDbXrecord
280
     1
270
     1
271
     1
  0
XRECORD
  5
190
102
{ACAD_REACTORS
330
18C
102
}
330
18C
100
AcDbXrecord
280
     1
270
     1
271
     1
  0
XRECORD
  5
192
102
{ACAD_REACTORS
330
18C
102
}
330
18C
100
AcDbXrecord
280
     1
270
     1
271
     1
  0
XRECORD
  5
18F
102
{ACAD_REACTORS
330
18C
102
}
330
18C
100
AcDbXrecord
280
     1
270
     1
271
     1
  0
XRECORD
  5
467
102
{ACAD_REACTORS
330
466
102
}
330
466
100
AcDbXrecord
280
     1
102
DISPLAYNAME
  1
Imperial24
102
FLAGS
 90
        0
  0
CELLSTYLEMAP
  5
18A8
102
{ACAD_REACTORS
330
35F
102
}
330
35F
100
AcDbCellStyleMap
 90
        3
300
CELLSTYLE
  1
TABLEFORMAT_BEGIN
 90
        5
170
     1
 91
        0
 92
    32768
 62
   257
 93
        1
300
CONTENTFORMAT
  1
CONTENTFORMAT_BEGIN
 90
        0
 91
        0
 92
      512
 93
        0
300

 40
0.0
140
1.0
 94
        5
 62
     0
340
11
144
0.25
309
CONTENTFORMAT_END
171
     1
301
MARGIN
  1
CELLMARGIN_BEGIN
 40
0.06
 40
0.06
 40
0.06
 40
0.06
 40
0.18
 40
0.18
309
CELLMARGIN_END
 94
        6
 95
        1
302
GRIDFORMAT
  1
GRIDFORMAT_BEGIN
 90
        0
 91
        1
 62
     0
 92
       -2
340
0
 93
        0
 40
0.045
309
GRIDFORMAT_END
 95
        2
302
GRIDFORMAT
  1
GRIDFORMAT_BEGIN
 90
        0
 91
        1
 62
     0
 92
       -2
340
0
 93
        0
 40
0.045
309
GRIDFORMAT_END
 95
        4
302
GRIDFORMAT
  1
GRIDFORMAT_BEGIN
 90
        0
 91
        1
 62
     0
 92
       -2
340
0
 93
        0
 40
0.045
309
GRIDFORMAT_END
 95
        8
302
GRIDFORMAT
  1
GRIDFORMAT_BEGIN
 90
        0
 91
        1
 62
     0
 92
       -2
340
0
 93
        0
 40
0.045
309
GRIDFORMAT_END
 95
       16
302
GRIDFORMAT
  1
GRIDFORMAT_BEGIN
 90
        0
 91
        1
 62
     0
 92
       -2
340
0
 93
        0
 40
0.045
309
GRIDFORMAT_END
 95
       32
302
GRIDFORMAT
  1
GRIDFORMAT_BEGIN
 90
        0
 91
        1
 62
     0
 92
       -2
340
0
 93
        0
 40
0.045
309
GRIDFORMAT_END
309
TABLEFORMAT_END
  1
CELLSTYLE_BEGIN
 90
        1
 91
        1
300
_TITLE
309
CELLSTYLE_END
300
CELLSTYLE
  1
TABLEFORMAT_BEGIN
 90
        5
170
     1
 91
        0
 92
        0
 62
   257
 93
        1
300
CONTENTFORMAT
  1
CONTENTFORMAT_BEGIN
 90
        0
 91
        0
 92
      512
 93
        0
300

 40
0.0
140
1.0
 94
        5
 62
     0
340
11
144
0.18
309
CONTENTFORMAT_END
171
     1
301
MARGIN
  1
CELLMARGIN_BEGIN
 40
0.06
 40
0.06
 40
0.06
 40
0.06
 40
0.18
 40
0.18
309
CELLMARGIN_END
 94
        6
 95
        1
302
GRIDFORMAT
  1
GRIDFORMAT_BEGIN
 90
        0
 91
        1
 62
     0
 92
       -2
340
0
 93
        0
 40
0.045
309
GRIDFORMAT_END
 95
        2
302
GRIDFORMAT
  1
GRIDFORMAT_BEGIN
 90
        0
 91
        1
 62
     0
 92
       -2
340
0
 93
        0
 40
0.045
309
GRIDFORMAT_END
 95
        4
302
GRIDFORMAT
  1
GRIDFORMAT_BEGIN
 90
        0
 91
        1
 62
     0
 92
       -2
340
0
 93
        0
 40
0.045
309
GRIDFORMAT_END
 95
        8
302
GRIDFORMAT
  1
GRIDFORMAT_BEGIN
 90
        0
 91
        1
 62
     0
 92
       -2
340
0
 93
        0
 40
0.045
309
GRIDFORMAT_END
 95
       16
302
GRIDFORMAT
  1
GRIDFORMAT_BEGIN
 90
        0
 91
        1
 62
     0
 92
       -2
340
0
 93
        0
 40
0.045
309
GRIDFORMAT_END
 95
       32
302
GRIDFORMAT
  1
GRIDFORMAT_BEGIN
 90
        0
 91
        1
 62
     0
 92
       -2
340
0
 93
        0
 40
0.045
309
GRIDFORMAT_END
309
TABLEFORMAT_END
  1
CELLSTYLE_BEGIN
 90
        2
 91
        1
300
_HEADER
309
CELLSTYLE_END
300
CELLSTYLE
  1
TABLEFORMAT_BEGIN
 90
        5
170
     1
 91
        0
 92
        0
 62
   257
 93
        1
300
CONTENTFORMAT
  1
CONTENTFORMAT_BEGIN
 90
        0
 91
        0
 92
      512
 93
        0
300

 40
0.0
140
1.0
 94
        2
 62
     0
340
11
144
0.18
309
CONTENTFORMAT_END
171
     1
301
MARGIN
  1
CELLMARGIN_BEGIN
 40
0.06
 40
0.06
 40
0.06
 40
0.06
 40
0.18
 40
0.18
309
CELLMARGIN_END
 94
        6
 95
        1
302
GRIDFORMAT
  1
GRIDFORMAT_BEGIN
 90
        0
 91
        1
 62
     0
 92
       -2
340
0
 93
        0
 40
0.045
309
GRIDFORMAT_END
 95
        2
302
GRIDFORMAT
  1
GRIDFORMAT_BEGIN
 90
        0
 91
        1
 62
     0
 92
       -2
340
0
 93
        0
 40
0.045
309
GRIDFORMAT_END
 95
        4
302
GRIDFORMAT
  1
GRIDFORMAT_BEGIN
 90
        0
 91
        1
 62
     0
 92
       -2
340
0
 93
        0
 40
0.045
309
GRIDFORMAT_END
 95
        8
302
GRIDFORMAT
  1
GRIDFORMAT_BEGIN
 90
        0
 91
        1
 62
     0
 92
       -2
340
0
 93
        0
 40
0.045
309
GRIDFORMAT_END
 95
       16
302
GRIDFORMAT
  1
GRIDFORMAT_BEGIN
 90
        0
 91
        1
 62
     0
 92
       -2
340
0
 93
        0
 40
0.045
309
GRIDFORMAT_END
 95
       32
302
GRIDFORMAT
  1
GRIDFORMAT_BEGIN
 90
        0
 91
        1
 62
     0
 92
       -2
340
0
 93
        0
 40
0.045
309
GRIDFORMAT_END
309
TABLEFORMAT_END
  1
CELLSTYLE_BEGIN
 90
        3
 91
        2
300
_DATA
309
CELLSTYLE_END
  0
XRECORD
  5
18BD
102
{ACAD_REACTORS
330
18BC
102
}
330
18BC
100
AcDbXrecord
280
     1
102
RTVSPost2010Prop28
280
     1
102
RTVSPost2010PropOp28
 70
     1
102
RTVSPost2010Prop29
280
     1
102
RTVSPost2010PropOp29
 70
     1
102
RTVSPost2010Prop30
280
     0
102
RTVSPost2010PropOp30
 70
     1
102
RTVSPost2010Prop31
280
     0
102
RTVSPost2010PropOp31
 70
     1
102
RTVSPost2010Prop32
280
     0
102
RTVSPost2010PropOp32
 70
     1
102
RTVSPost2010Prop33
280
     0
102
RTVSPost2010PropOp33
 70
     1
102
RTVSPost2010Prop34
280
     0
102
RTVSPost2010PropOp34
 70
     1
102
RTVSPost2010Prop35
280
     0
102
RTVSPost2010PropOp35
 70
     1
102
RTVSPost2010Prop36
280
     0
102
RTVSPost2010PropOp36
 70
     1
102
RTVSPost2010Prop37
 90
       50
102
RTVSPost2010PropOp37
 70
     1
102
RTVSPost2010Prop38
140
0.0
102
RTVSPost2010PropOp38
 70
     1
102
RTVSPost2010Prop39
140
1.0
102
RTVSPost2010PropOp39
 70
     1
102
RTVSPost2010Prop40
 90
        0
102
RTVSPost2010PropOp40
 70
     1
102
RTVSPost2010Prop41ColorIndex
 90
       18
102
RTVSPost2010Prop41ColorRGB
 90
        0
102
RTVSPost2010PropOp41
 70
     1
102
RTVSPost2010Prop42
 90
       50
102
RTVSPost2010PropOp42
 70
     1
102
RTVSPost2010Prop43
 90
        3
102
RTVSPost2010PropOp43
 70
     1
102
RTVSPost2010Prop44ColorIndex
 90
        5
102
RTVSPost2010Prop44ColorRGB
 90
      255
102
RTVSPost2010PropOp44
 70
     1
102
RTVSPost2010Prop45
280
     0
102
RTVSPost2010PropOp45
 70
     1
102
RTVSPost2010Prop46
 90
       50
102
RTVSPost2010PropOp46
 70
     1
102
RTVSPost2010Prop47
 90
       50
102
RTVSPost2010PropOp47
 70
     1
102
RTVSPost2010Prop48
 90
       50
102
RTVSPost2010PropOp48
 70
     1
102
RTVSPost2010Prop49
280
     0
102
RTVSPost2010PropOp49
 70
     1
102
RTVSPost2010Prop50
 90
       50
102
RTVSPost2010PropOp50
 70
     1
102
RTVSPost2010Prop51ColorIndex
 90
      256
102
RTVSPost2010Prop51ColorRGB
 90
-16777216
102
RTVSPost2010PropOp51
 70
     0
102
RTVSPost2010Prop52
140
1.0
102
RTVSPost2010PropOp52
 70
     0
102
RTVSPost2010Prop53
 90
        2
102
RTVSPost2010PropOp53
 70
     1
102
RTVSPost2010Prop54
  1
strokes_ogs.tif
102
RTVSPost2010PropOp54
 70
     1
102
RTVSPost2010Prop55
280
     0
102
RTVSPost2010PropOp55
 70
     1
102
RTVSPost2010Prop56
140
1.0
102
RTVSPost2010PropOp56
 70
     1
102
RTVSPost2010Prop57
140
1.0
102
RTVSPost2010PropOp57
 70
     1
  0
XRECORD
  5
18BB
102
{ACAD_REACTORS
330
18BA
102
}
330
18BA
100
AcDbXrecord
280
     1
102
RTVSPost2010Prop28
280
     0
102
RTVSPost2010PropOp28
 70
     1
102
RTVSPost2010Prop29
280
     1
102
RTVSPost2010PropOp29
 70
     1
102
RTVSPost2010Prop30
280
     1
102
RTVSPost2010PropOp30
 70
     1
102
RTVSPost2010Prop31
280
     0
102
RTVSPost2010PropOp31
 70
     1
102
RTVSPost2010Prop32
280
     0
102
RTVSPost2010PropOp32
 70
     1
102
RTVSPost2010Prop33
280
     0
102
RTVSPost2010PropOp33
 70
     1
102
RTVSPost2010Prop34
280
     0
102
RTVSPost2010PropOp34
 70
     1
102
RTVSPost2010Prop35
280
     0
102
RTVSPost2010PropOp35
 70
     1
102
RTVSPost2010Prop36
280
     0
102
RTVSPost2010PropOp36
 70
     1
102
RTVSPost2010Prop37
 90
       50
102
RTVSPost2010PropOp37
 70
     1
102
RTVSPost2010Prop38
140
0.0
102
RTVSPost2010PropOp38
 70
     1
102
RTVSPost2010Prop39
140
1.0
102
RTVSPost2010PropOp39
 70
     1
102
RTVSPost2010Prop40
 90
        0
102
RTVSPost2010PropOp40
 70
     1
102
RTVSPost2010Prop41ColorIndex
 90
       18
102
RTVSPost2010Prop41ColorRGB
 90
        0
102
RTVSPost2010PropOp41
 70
     1
102
RTVSPost2010Prop42
 90
       50
102
RTVSPost2010PropOp42
 70
     1
102
RTVSPost2010Prop43
 90
        3
102
RTVSPost2010PropOp43
 70
     1
102
RTVSPost2010Prop44ColorIndex
 90
        5
102
RTVSPost2010Prop44ColorRGB
 90
      255
102
RTVSPost2010PropOp44
 70
     1
102
RTVSPost2010Prop45
280
     0
102
RTVSPost2010PropOp45
 70
     1
102
RTVSPost2010Prop46
 90
       50
102
RTVSPost2010PropOp46
 70
     1
102
RTVSPost2010Prop47
 90
       50
102
RTVSPost2010PropOp47
 70
     1
102
RTVSPost2010Prop48
 90
       50
102
RTVSPost2010PropOp48
 70
     1
102
RTVSPost2010Prop49
280
     0
102
RTVSPost2010PropOp49
 70
     1
102
RTVSPost2010Prop50
 90
       50
102
RTVSPost2010PropOp50
 70
     1
102
RTVSPost2010Prop51ColorIndex
 90
      256
102
RTVSPost2010Prop51ColorRGB
 90
-16777216
102
RTVSPost2010PropOp51
 70
     0
102
RTVSPost2010Prop52
140
1.0
102
RTVSPost2010PropOp52
 70
     0
102
RTVSPost2010Prop53
 90
        2
102
RTVSPost2010PropOp53
 70
     1
102
RTVSPost2010Prop54
  1
strokes_ogs.tif
102
RTVSPost2010PropOp54
 70
     1
102
RTVSPost2010Prop55
280
     0
102
RTVSPost2010PropOp55
 70
     1
102
RTVSPost2010Prop56
140
1.0
102
RTVSPost2010PropOp56
 70
     1
102
RTVSPost2010Prop57
140
1.0
102
RTVSPost2010PropOp57
 70
     1
  0
XRECORD
  5
18C9
102
{ACAD_REACTORS
330
18C8
102
}
330
18C8
100
AcDbXrecord
280
     1
102
RTVSPost2010Prop28
280
     0
102
RTVSPost2010PropOp28
 70
     1
102
RTVSPost2010Prop29
280
     1
102
RTVSPost2010PropOp29
 70
     1
102
RTVSPost2010Prop30
280
     1
102
RTVSPost2010PropOp30
 70
     1
102
RTVSPost2010Prop31
280
     0
102
RTVSPost2010PropOp31
 70
     1
102
RTVSPost2010Prop32
280
     0
102
RTVSPost2010PropOp32
 70
     1
102
RTVSPost2010Prop33
280
     0
102
RTVSPost2010PropOp33
 70
     1
102
RTVSPost2010Prop34
280
     0
102
RTVSPost2010PropOp34
 70
     1
102
RTVSPost2010Prop35
280
     0
102
RTVSPost2010PropOp35
 70
     1
102
RTVSPost2010Prop36
280
     0
102
RTVSPost2010PropOp36
 70
     1
102
RTVSPost2010Prop37
 90
       50
102
RTVSPost2010PropOp37
 70
     1
102
RTVSPost2010Prop38
140
0.0
102
RTVSPost2010PropOp38
 70
     1
102
RTVSPost2010Prop39
140
1.0
102
RTVSPost2010PropOp39
 70
     1
102
RTVSPost2010Prop40
 90
        0
102
RTVSPost2010PropOp40
 70
     1
102
RTVSPost2010Prop41ColorIndex
 90
       18
102
RTVSPost2010Prop41ColorRGB
 90
        0
102
RTVSPost2010PropOp41
 70
     1
102
RTVSPost2010Prop42
 90
       50
102
RTVSPost2010PropOp42
 70
     1
102
RTVSPost2010Prop43
 90
        3
102
RTVSPost2010PropOp43
 70
     1
102
RTVSPost2010Prop44ColorIndex
 90
        5
102
RTVSPost2010Prop44ColorRGB
 90
      255
102
RTVSPost2010PropOp44
 70
     1
102
RTVSPost2010Prop45
280
     0
102
RTVSPost2010PropOp45
 70
     1
102
RTVSPost2010Prop46
 90
       50
102
RTVSPost2010PropOp46
 70
     1
102
RTVSPost2010Prop47
 90
       50
102
RTVSPost2010PropOp47
 70
     1
102
RTVSPost2010Prop48
 90
       50
102
RTVSPost2010PropOp48
 70
     1
102
RTVSPost2010Prop49
280
     0
102
RTVSPost2010PropOp49
 70
     1
102
RTVSPost2010Prop50
 90
       50
102
RTVSPost2010PropOp50
 70
     1
102
RTVSPost2010Prop51ColorIndex
 90
      256
102
RTVSPost2010Prop51ColorRGB
 90
-16777216
102
RTVSPost2010PropOp51
 70
     0
102
RTVSPost2010Prop52
140
1.0
102
RTVSPost2010PropOp52
 70
     0
102
RTVSPost2010Prop53
 90
        2
102
RTVSPost2010PropOp53
 70
     1
102
RTVSPost2010Prop54
  1
strokes_ogs.tif
102
RTVSPost2010PropOp54
 70
     1
102
RTVSPost2010Prop55
280
     0
102
RTVSPost2010PropOp55
 70
     1
102
RTVSPost2010Prop56
140
1.0
102
RTVSPost2010PropOp56
 70
     1
102
RTVSPost2010Prop57
140
1.0
102
RTVSPost2010PropOp57
 70
     1
  0
XRECORD
  5
18D1
102
{ACAD_REACTORS
330
18D0
102
}
330
18D0
100
AcDbXrecord
280
     1
102
RTVSPost2010Prop28
280
     0
102
RTVSPost2010PropOp28
 70
     1
102
RTVSPost2010Prop29
280
     1
102
RTVSPost2010PropOp29
 70
     1
102
RTVSPost2010Prop30
280
     1
102
RTVSPost2010PropOp30
 70
     1
102
RTVSPost2010Prop31
280
     0
102
RTVSPost2010PropOp31
 70
     1
102
RTVSPost2010Prop32
280
     0
102
RTVSPost2010PropOp32
 70
     1
102
RTVSPost2010Prop33
280
     0
102
RTVSPost2010PropOp33
 70
     1
102
RTVSPost2010Prop34
280
     0
102
RTVSPost2010PropOp34
 70
     1
102
RTVSPost2010Prop35
280
     0
102
RTVSPost2010PropOp35
 70
     1
102
RTVSPost2010Prop36
280
     0
102
RTVSPost2010PropOp36
 70
     1
102
RTVSPost2010Prop37
 90
       50
102
RTVSPost2010PropOp37
 70
     1
102
RTVSPost2010Prop38
140
0.0
102
RTVSPost2010PropOp38
 70
     1
102
RTVSPost2010Prop39
140
1.0
102
RTVSPost2010PropOp39
 70
     1
102
RTVSPost2010Prop40
 90
        0
102
RTVSPost2010PropOp40
 70
     1
102
RTVSPost2010Prop41ColorIndex
 90
       18
102
RTVSPost2010Prop41ColorRGB
 90
        0
102
RTVSPost2010PropOp41
 70
     1
102
RTVSPost2010Prop42
 90
       50
102
RTVSPost2010PropOp42
 70
     1
102
RTVSPost2010Prop43
 90
        3
102
RTVSPost2010PropOp43
 70
     1
102
RTVSPost2010Prop44ColorIndex
 90
        5
102
RTVSPost2010Prop44ColorRGB
 90
      255
102
RTVSPost2010PropOp44
 70
     1
102
RTVSPost2010Prop45
280
     0
102
RTVSPost2010PropOp45
 70
     1
102
RTVSPost2010Prop46
 90
       50
102
RTVSPost2010PropOp46
 70
     1
102
RTVSPost2010Prop47
 90
       50
102
RTVSPost2010PropOp47
 70
     1
102
RTVSPost2010Prop48
 90
       50
102
RTVSPost2010PropOp48
 70
     1
102
RTVSPost2010Prop49
280
     0
102
RTVSPost2010PropOp49
 70
     1
102
RTVSPost2010Prop50
 90
       50
102
RTVSPost2010PropOp50
 70
     1
102
RTVSPost2010Prop51ColorIndex
 90
      256
102
RTVSPost2010Prop51ColorRGB
 90
-16777216
102
RTVSPost2010PropOp51
 70
     0
102
RTVSPost2010Prop52
140
1.0
102
RTVSPost2010PropOp52
 70
     0
102
RTVSPost2010Prop53
 90
        2
102
RTVSPost2010PropOp53
 70
     1
102
RTVSPost2010Prop54
  1
strokes_ogs.tif
102
RTVSPost2010PropOp54
 70
     1
102
RTVSPost2010Prop55
280
     0
102
RTVSPost2010PropOp55
 70
     1
102
RTVSPost2010Prop56
140
1.0
102
RTVSPost2010PropOp56
 70
     1
102
RTVSPost2010Prop57
140
1.0
102
RTVSPost2010PropOp57
 70
     1
  0
XRECORD
  5
18C3
102
{ACAD_REACTORS
330
18C2
102
}
330
18C2
100
AcDbXrecord
280
     1
102
RTVSPost2010Prop28
280
     0
102
RTVSPost2010PropOp28
 70
     1
102
RTVSPost2010Prop29
280
     1
102
RTVSPost2010PropOp29
 70
     1
102
RTVSPost2010Prop30
280
     1
102
RTVSPost2010PropOp30
 70
     1
102
RTVSPost2010Prop31
280
     0
102
RTVSPost2010PropOp31
 70
     1
102
RTVSPost2010Prop32
280
     0
102
RTVSPost2010PropOp32
 70
     1
102
RTVSPost2010Prop33
280
     0
102
RTVSPost2010PropOp33
 70
     1
102
RTVSPost2010Prop34
280
     0
102
RTVSPost2010PropOp34
 70
     1
102
RTVSPost2010Prop35
280
     0
102
RTVSPost2010PropOp35
 70
     1
102
RTVSPost2010Prop36
280
     0
102
RTVSPost2010PropOp36
 70
     1
102
RTVSPost2010Prop37
 90
       50
102
RTVSPost2010PropOp37
 70
     1
102
RTVSPost2010Prop38
140
0.0
102
RTVSPost2010PropOp38
 70
     1
102
RTVSPost2010Prop39
140
1.0
102
RTVSPost2010PropOp39
 70
     1
102
RTVSPost2010Prop40
 90
        0
102
RTVSPost2010PropOp40
 70
     1
102
RTVSPost2010Prop41ColorIndex
 90
       18
102
RTVSPost2010Prop41ColorRGB
 90
        0
102
RTVSPost2010PropOp41
 70
     1
102
RTVSPost2010Prop42
 90
       50
102
RTVSPost2010PropOp42
 70
     1
102
RTVSPost2010Prop43
 90
        3
102
RTVSPost2010PropOp43
 70
     1
102
RTVSPost2010Prop44ColorIndex
 90
        5
102
RTVSPost2010Prop44ColorRGB
 90
      255
102
RTVSPost2010PropOp44
 70
     1
102
RTVSPost2010Prop45
280
     0
102
RTVSPost2010PropOp45
 70
     1
102
RTVSPost2010Prop46
 90
       50
102
RTVSPost2010PropOp46
 70
     1
102
RTVSPost2010Prop47
 90
       50
102
RTVSPost2010PropOp47
 70
     1
102
RTVSPost2010Prop48
 90
       50
102
RTVSPost2010PropOp48
 70
     1
102
RTVSPost2010Prop49
280
     0
102
RTVSPost2010PropOp49
 70
     1
102
RTVSPost2010Prop50
 90
       50
102
RTVSPost2010PropOp50
 70
     1
102
RTVSPost2010Prop51ColorIndex
 90
      256
102
RTVSPost2010Prop51ColorRGB
 90
-16777216
102
RTVSPost2010PropOp51
 70
     0
102
RTVSPost2010Prop52
140
1.0
102
RTVSPost2010PropOp52
 70
     0
102
RTVSPost2010Prop53
 90
        2
102
RTVSPost2010PropOp53
 70
     1
102
RTVSPost2010Prop54
  1
strokes_ogs.tif
102
RTVSPost2010PropOp54
 70
     1
102
RTVSPost2010Prop55
280
     0
102
RTVSPost2010PropOp55
 70
     1
102
RTVSPost2010Prop56
140
1.0
102
RTVSPost2010PropOp56
 70
     1
102
RTVSPost2010Prop57
140
1.0
102
RTVSPost2010PropOp57
 70
     1
  0
XRECORD
  5
18C7
102
{ACAD_REACTORS
330
18C6
102
}
330
18C6
100
AcDbXrecord
280
     1
102
RTVSPost2010Prop28
280
     0
102
RTVSPost2010PropOp28
 70
     1
102
RTVSPost2010Prop29
280
     1
102
RTVSPost2010PropOp29
 70
     1
102
RTVSPost2010Prop30
280
     1
102
RTVSPost2010PropOp30
 70
     1
102
RTVSPost2010Prop31
280
     0
102
RTVSPost2010PropOp31
 70
     1
102
RTVSPost2010Prop32
280
     0
102
RTVSPost2010PropOp32
 70
     1
102
RTVSPost2010Prop33
280
     0
102
RTVSPost2010PropOp33
 70
     1
102
RTVSPost2010Prop34
280
     0
102
RTVSPost2010PropOp34
 70
     1
102
RTVSPost2010Prop35
280
     0
102
RTVSPost2010PropOp35
 70
     1
102
RTVSPost2010Prop36
280
     0
102
RTVSPost2010PropOp36
 70
     1
102
RTVSPost2010Prop37
 90
       50
102
RTVSPost2010PropOp37
 70
     1
102
RTVSPost2010Prop38
140
0.0
102
RTVSPost2010PropOp38
 70
     1
102
RTVSPost2010Prop39
140
1.0
102
RTVSPost2010PropOp39
 70
     1
102
RTVSPost2010Prop40
 90
        0
102
RTVSPost2010PropOp40
 70
     1
102
RTVSPost2010Prop41ColorIndex
 90
       18
102
RTVSPost2010Prop41ColorRGB
 90
        0
102
RTVSPost2010PropOp41
 70
     1
102
RTVSPost2010Prop42
 90
       50
102
RTVSPost2010PropOp42
 70
     1
102
RTVSPost2010Prop43
 90
        3
102
RTVSPost2010PropOp43
 70
     1
102
RTVSPost2010Prop44ColorIndex
 90
        5
102
RTVSPost2010Prop44ColorRGB
 90
      255
102
RTVSPost2010PropOp44
 70
     1
102
RTVSPost2010Prop45
280
     0
102
RTVSPost2010PropOp45
 70
     1
102
RTVSPost2010Prop46
 90
       50
102
RTVSPost2010PropOp46
 70
     1
102
RTVSPost2010Prop47
 90
       50
102
RTVSPost2010PropOp47
 70
     1
102
RTVSPost2010Prop48
 90
       50
102
RTVSPost2010PropOp48
 70
     1
102
RTVSPost2010Prop49
280
     0
102
RTVSPost2010PropOp49
 70
     1
102
RTVSPost2010Prop50
 90
       50
102
RTVSPost2010PropOp50
 70
     1
102
RTVSPost2010Prop51ColorIndex
 90
      256
102
RTVSPost2010Prop51ColorRGB
 90
-16777216
102
RTVSPost2010PropOp51
 70
     0
102
RTVSPost2010Prop52
140
1.0
102
RTVSPost2010PropOp52
 70
     0
102
RTVSPost2010Prop53
 90
        2
102
RTVSPost2010PropOp53
 70
     1
102
RTVSPost2010Prop54
  1
strokes_ogs.tif
102
RTVSPost2010PropOp54
 70
     1
102
RTVSPost2010Prop55
280
     0
102
RTVSPost2010PropOp55
 70
     1
102
RTVSPost2010Prop56
140
1.0
102
RTVSPost2010PropOp56
 70
     1
102
RTVSPost2010Prop57
140
1.0
102
RTVSPost2010PropOp57
 70
     1
  0
XRECORD
  5
18E1
102
{ACAD_REACTORS
330
18E0
102
}
330
18E0
100
AcDbXrecord
280
     1
102
RTVSPost2010Prop28
280
     0
102
RTVSPost2010PropOp28
 70
     1
102
RTVSPost2010Prop29
280
     1
102
RTVSPost2010PropOp29
 70
     1
102
RTVSPost2010Prop30
280
     1
102
RTVSPost2010PropOp30
 70
     1
102
RTVSPost2010Prop31
280
     0
102
RTVSPost2010PropOp31
 70
     1
102
RTVSPost2010Prop32
280
     0
102
RTVSPost2010PropOp32
 70
     1
102
RTVSPost2010Prop33
280
     0
102
RTVSPost2010PropOp33
 70
     1
102
RTVSPost2010Prop34
280
     0
102
RTVSPost2010PropOp34
 70
     1
102
RTVSPost2010Prop35
280
     0
102
RTVSPost2010PropOp35
 70
     1
102
RTVSPost2010Prop36
280
     0
102
RTVSPost2010PropOp36
 70
     1
102
RTVSPost2010Prop37
 90
       50
102
RTVSPost2010PropOp37
 70
     0
102
RTVSPost2010Prop38
140
0.0
102
RTVSPost2010PropOp38
 70
     0
102
RTVSPost2010Prop39
140
1.0
102
RTVSPost2010PropOp39
 70
     0
102
RTVSPost2010Prop40
 90
        0
102
RTVSPost2010PropOp40
 70
     0
102
RTVSPost2010Prop41ColorIndex
 90
       18
102
RTVSPost2010Prop41ColorRGB
 90
        0
102
RTVSPost2010PropOp41
 70
     0
102
RTVSPost2010Prop42
 90
       50
102
RTVSPost2010PropOp42
 70
     0
102
RTVSPost2010Prop43
 90
        3
102
RTVSPost2010PropOp43
 70
     0
102
RTVSPost2010Prop44ColorIndex
 90
        5
102
RTVSPost2010Prop44ColorRGB
 90
      255
102
RTVSPost2010PropOp44
 70
     0
102
RTVSPost2010Prop45
280
     0
102
RTVSPost2010PropOp45
 70
     1
102
RTVSPost2010Prop46
 90
       50
102
RTVSPost2010PropOp46
 70
     0
102
RTVSPost2010Prop47
 90
       50
102
RTVSPost2010PropOp47
 70
     0
102
RTVSPost2010Prop48
 90
       50
102
RTVSPost2010PropOp48
 70
     0
102
RTVSPost2010Prop49
280
     0
102
RTVSPost2010PropOp49
 70
     1
102
RTVSPost2010Prop50
 90
       50
102
RTVSPost2010PropOp50
 70
     0
102
RTVSPost2010Prop51ColorIndex
 90
      256
102
RTVSPost2010Prop51ColorRGB
 90
-16777216
102
RTVSPost2010PropOp51
 70
     0
102
RTVSPost2010Prop52
140
1.0
102
RTVSPost2010PropOp52
 70
     0
102
RTVSPost2010Prop53
 90
        2
102
RTVSPost2010PropOp53
 70
     0
102
RTVSPost2010Prop54
  1
strokes_ogs.tif
102
RTVSPost2010PropOp54
 70
     0
102
RTVSPost2010Prop55
280
     0
102
RTVSPost2010PropOp55
 70
     1
102
RTVSPost2010Prop56
140
1.0
102
RTVSPost2010PropOp56
 70
     0
102
RTVSPost2010Prop57
140
1.0
102
RTVSPost2010PropOp57
 70
     0
  0
XRECORD
  5
18CF
102
{ACAD_REACTORS
330
18CE
102
}
330
18CE
100
AcDbXrecord
280
     1
102
RTVSPost2010Prop28
280
     0
102
RTVSPost2010PropOp28
 70
     1
102
RTVSPost2010Prop29
280
     1
102
RTVSPost2010PropOp29
 70
     1
102
RTVSPost2010Prop30
280
     1
102
RTVSPost2010PropOp30
 70
     1
102
RTVSPost2010Prop31
280
     0
102
RTVSPost2010PropOp31
 70
     1
102
RTVSPost2010Prop32
280
     0
102
RTVSPost2010PropOp32
 70
     1
102
RTVSPost2010Prop33
280
     0
102
RTVSPost2010PropOp33
 70
     1
102
RTVSPost2010Prop34
280
     0
102
RTVSPost2010PropOp34
 70
     1
102
RTVSPost2010Prop35
280
     0
102
RTVSPost2010PropOp35
 70
     1
102
RTVSPost2010Prop36
280
     0
102
RTVSPost2010PropOp36
 70
     1
102
RTVSPost2010Prop37
 90
       50
102
RTVSPost2010PropOp37
 70
     1
102
RTVSPost2010Prop38
140
0.0
102
RTVSPost2010PropOp38
 70
     1
102
RTVSPost2010Prop39
140
1.0
102
RTVSPost2010PropOp39
 70
     1
102
RTVSPost2010Prop40
 90
        0
102
RTVSPost2010PropOp40
 70
     1
102
RTVSPost2010Prop41ColorIndex
 90
       18
102
RTVSPost2010Prop41ColorRGB
 90
        0
102
RTVSPost2010PropOp41
 70
     1
102
RTVSPost2010Prop42
 90
       50
102
RTVSPost2010PropOp42
 70
     1
102
RTVSPost2010Prop43
 90
        3
102
RTVSPost2010PropOp43
 70
     1
102
RTVSPost2010Prop44ColorIndex
 90
        5
102
RTVSPost2010Prop44ColorRGB
 90
      255
102
RTVSPost2010PropOp44
 70
     1
102
RTVSPost2010Prop45
280
     0
102
RTVSPost2010PropOp45
 70
     1
102
RTVSPost2010Prop46
 90
       50
102
RTVSPost2010PropOp46
 70
     1
102
RTVSPost2010Prop47
 90
       50
102
RTVSPost2010PropOp47
 70
     1
102
RTVSPost2010Prop48
 90
       50
102
RTVSPost2010PropOp48
 70
     1
102
RTVSPost2010Prop49
280
     0
102
RTVSPost2010PropOp49
 70
     1
102
RTVSPost2010Prop50
 90
       50
102
RTVSPost2010PropOp50
 70
     1
102
RTVSPost2010Prop51ColorIndex
 90
      256
102
RTVSPost2010Prop51ColorRGB
 90
-16777216
102
RTVSPost2010PropOp51
 70
     0
102
RTVSPost2010Prop52
140
1.0
102
RTVSPost2010PropOp52
 70
     0
102
RTVSPost2010Prop53
 90
        2
102
RTVSPost2010PropOp53
 70
     1
102
RTVSPost2010Prop54
  1
strokes_ogs.tif
102
RTVSPost2010PropOp54
 70
     1
102
RTVSPost2010Prop55
280
     0
102
RTVSPost2010PropOp55
 70
     1
102
RTVSPost2010Prop56
140
1.0
102
RTVSPost2010PropOp56
 70
     1
102
RTVSPost2010Prop57
140
1.0
102
RTVSPost2010PropOp57
 70
     1
  0
XRECORD
  5
18B3
102
{ACAD_REACTORS
330
18B2
102
}
330
18B2
100
AcDbXrecord
280
     1
102
RTVSPost2010Prop28
280
     0
102
RTVSPost2010PropOp28
 70
     1
102
RTVSPost2010Prop29
280
     1
102
RTVSPost2010PropOp29
 70
     1
102
RTVSPost2010Prop30
280
     1
102
RTVSPost2010PropOp30
 70
     1
102
RTVSPost2010Prop31
280
     0
102
RTVSPost2010PropOp31
 70
     1
102
RTVSPost2010Prop32
280
     0
102
RTVSPost2010PropOp32
 70
     1
102
RTVSPost2010Prop33
280
     0
102
RTVSPost2010PropOp33
 70
     1
102
RTVSPost2010Prop34
280
     0
102
RTVSPost2010PropOp34
 70
     1
102
RTVSPost2010Prop35
280
     0
102
RTVSPost2010PropOp35
 70
     1
102
RTVSPost2010Prop36
280
     0
102
RTVSPost2010PropOp36
 70
     1
102
RTVSPost2010Prop37
 90
       50
102
RTVSPost2010PropOp37
 70
     1
102
RTVSPost2010Prop38
140
0.0
102
RTVSPost2010PropOp38
 70
     1
102
RTVSPost2010Prop39
140
1.0
102
RTVSPost2010PropOp39
 70
     1
102
RTVSPost2010Prop40
 90
        0
102
RTVSPost2010PropOp40
 70
     1
102
RTVSPost2010Prop41ColorIndex
 90
       18
102
RTVSPost2010Prop41ColorRGB
 90
        0
102
RTVSPost2010PropOp41
 70
     1
102
RTVSPost2010Prop42
 90
       50
102
RTVSPost2010PropOp42
 70
     1
102
RTVSPost2010Prop43
 90
        3
102
RTVSPost2010PropOp43
 70
     1
102
RTVSPost2010Prop44ColorIndex
 90
        5
102
RTVSPost2010Prop44ColorRGB
 90
      255
102
RTVSPost2010PropOp44
 70
     1
102
RTVSPost2010Prop45
280
     0
102
RTVSPost2010PropOp45
 70
     1
102
RTVSPost2010Prop46
 90
       50
102
RTVSPost2010PropOp46
 70
     1
102
RTVSPost2010Prop47
 90
       50
102
RTVSPost2010PropOp47
 70
     1
102
RTVSPost2010Prop48
 90
       50
102
RTVSPost2010PropOp48
 70
     1
102
RTVSPost2010Prop49
280
     0
102
RTVSPost2010PropOp49
 70
     1
102
RTVSPost2010Prop50
 90
       50
102
RTVSPost2010PropOp50
 70
     1
102
RTVSPost2010Prop51ColorIndex
 90
      256
102
RTVSPost2010Prop51ColorRGB
 90
-16777216
102
RTVSPost2010PropOp51
 70
     0
102
RTVSPost2010Prop52
140
1.0
102
RTVSPost2010PropOp52
 70
     0
102
RTVSPost2010Prop53
 90
        2
102
RTVSPost2010PropOp53
 70
     1
102
RTVSPost2010Prop54
  1
strokes_ogs.tif
102
RTVSPost2010PropOp54
 70
     1
102
RTVSPost2010Prop55
280
     0
102
RTVSPost2010PropOp55
 70
     1
102
RTVSPost2010Prop56
140
1.0
102
RTVSPost2010PropOp56
 70
     1
102
RTVSPost2010Prop57
140
1.0
102
RTVSPost2010PropOp57
 70
     1
  0
XRECORD
  5
18B5
102
{ACAD_REACTORS
330
18B4
102
}
330
18B4
100
AcDbXrecord
280
     1
102
RTVSPost2010Prop28
280
     0
102
RTVSPost2010PropOp28
 70
     1
102
RTVSPost2010Prop29
280
     1
102
RTVSPost2010PropOp29
 70
     1
102
RTVSPost2010Prop30
280
     1
102
RTVSPost2010PropOp30
 70
     1
102
RTVSPost2010Prop31
280
     0
102
RTVSPost2010PropOp31
 70
     1
102
RTVSPost2010Prop32
280
     0
102
RTVSPost2010PropOp32
 70
     1
102
RTVSPost2010Prop33
280
     0
102
RTVSPost2010PropOp33
 70
     1
102
RTVSPost2010Prop34
280
     0
102
RTVSPost2010PropOp34
 70
     1
102
RTVSPost2010Prop35
280
     0
102
RTVSPost2010PropOp35
 70
     1
102
RTVSPost2010Prop36
280
     0
102
RTVSPost2010PropOp36
 70
     1
102
RTVSPost2010Prop37
 90
       50
102
RTVSPost2010PropOp37
 70
     1
102
RTVSPost2010Prop38
140
0.0
102
RTVSPost2010PropOp38
 70
     1
102
RTVSPost2010Prop39
140
1.0
102
RTVSPost2010PropOp39
 70
     1
102
RTVSPost2010Prop40
 90
        0
102
RTVSPost2010PropOp40
 70
     1
102
RTVSPost2010Prop41ColorIndex
 90
       18
102
RTVSPost2010Prop41ColorRGB
 90
        0
102
RTVSPost2010PropOp41
 70
     1
102
RTVSPost2010Prop42
 90
       50
102
RTVSPost2010PropOp42
 70
     1
102
RTVSPost2010Prop43
 90
        3
102
RTVSPost2010PropOp43
 70
     1
102
RTVSPost2010Prop44ColorIndex
 90
        5
102
RTVSPost2010Prop44ColorRGB
 90
      255
102
RTVSPost2010PropOp44
 70
     1
102
RTVSPost2010Prop45
280
     0
102
RTVSPost2010PropOp45
 70
     1
102
RTVSPost2010Prop46
 90
       50
102
RTVSPost2010PropOp46
 70
     1
102
RTVSPost2010Prop47
 90
       50
102
RTVSPost2010PropOp47
 70
     1
102
RTVSPost2010Prop48
 90
       50
102
RTVSPost2010PropOp48
 70
     1
102
RTVSPost2010Prop49
280
     0
102
RTVSPost2010PropOp49
 70
     1
102
RTVSPost2010Prop50
 90
       50
102
RTVSPost2010PropOp50
 70
     1
102
RTVSPost2010Prop51ColorIndex
 90
      256
102
RTVSPost2010Prop51ColorRGB
 90
-16777216
102
RTVSPost2010PropOp51
 70
     0
102
RTVSPost2010Prop52
140
1.0
102
RTVSPost2010PropOp52
 70
     0
102
RTVSPost2010Prop53
 90
        2
102
RTVSPost2010PropOp53
 70
     1
102
RTVSPost2010Prop54
  1
strokes_ogs.tif
102
RTVSPost2010PropOp54
 70
     1
102
RTVSPost2010Prop55
280
     0
102
RTVSPost2010PropOp55
 70
     1
102
RTVSPost2010Prop56
140
1.0
102
RTVSPost2010PropOp56
 70
     1
102
RTVSPost2010Prop57
140
1.0
102
RTVSPost2010PropOp57
 70
     1
  0
XRECORD
  5
18B7
102
{ACAD_REACTORS
330
18B6
102
}
330
18B6
100
AcDbXrecord
280
     1
102
RTVSPost2010Prop28
280
     0
102
RTVSPost2010PropOp28
 70
     1
102
RTVSPost2010Prop29
280
     1
102
RTVSPost2010PropOp29
 70
     1
102
RTVSPost2010Prop30
280
     1
102
RTVSPost2010PropOp30
 70
     1
102
RTVSPost2010Prop31
280
     0
102
RTVSPost2010PropOp31
 70
     1
102
RTVSPost2010Prop32
280
     0
102
RTVSPost2010PropOp32
 70
     1
102
RTVSPost2010Prop33
280
     0
102
RTVSPost2010PropOp33
 70
     1
102
RTVSPost2010Prop34
280
     0
102
RTVSPost2010PropOp34
 70
     1
102
RTVSPost2010Prop35
280
     0
102
RTVSPost2010PropOp35
 70
     1
102
RTVSPost2010Prop36
280
     0
102
RTVSPost2010PropOp36
 70
     1
102
RTVSPost2010Prop37
 90
       50
102
RTVSPost2010PropOp37
 70
     1
102
RTVSPost2010Prop38
140
0.0
102
RTVSPost2010PropOp38
 70
     1
102
RTVSPost2010Prop39
140
1.0
102
RTVSPost2010PropOp39
 70
     1
102
RTVSPost2010Prop40
 90
        0
102
RTVSPost2010PropOp40
 70
     1
102
RTVSPost2010Prop41ColorIndex
 90
       18
102
RTVSPost2010Prop41ColorRGB
 90
        0
102
RTVSPost2010PropOp41
 70
     1
102
RTVSPost2010Prop42
 90
       50
102
RTVSPost2010PropOp42
 70
     1
102
RTVSPost2010Prop43
 90
        3
102
RTVSPost2010PropOp43
 70
     1
102
RTVSPost2010Prop44ColorIndex
 90
        5
102
RTVSPost2010Prop44ColorRGB
 90
      255
102
RTVSPost2010PropOp44
 70
     1
102
RTVSPost2010Prop45
280
     0
102
RTVSPost2010PropOp45
 70
     1
102
RTVSPost2010Prop46
 90
       50
102
RTVSPost2010PropOp46
 70
     1
102
RTVSPost2010Prop47
 90
       50
102
RTVSPost2010PropOp47
 70
     1
102
RTVSPost2010Prop48
 90
       50
102
RTVSPost2010PropOp48
 70
     1
102
RTVSPost2010Prop49
280
     0
102
RTVSPost2010PropOp49
 70
     1
102
RTVSPost2010Prop50
 90
       50
102
RTVSPost2010PropOp50
 70
     1
102
RTVSPost2010Prop51ColorIndex
 90
      256
102
RTVSPost2010Prop51ColorRGB
 90
-16777216
102
RTVSPost2010PropOp51
 70
     0
102
RTVSPost2010Prop52
140
1.0
102
RTVSPost2010PropOp52
 70
     0
102
RTVSPost2010Prop53
 90
        2
102
RTVSPost2010PropOp53
 70
     1
102
RTVSPost2010Prop54
  1
strokes_ogs.tif
102
RTVSPost2010PropOp54
 70
     1
102
RTVSPost2010Prop55
280
     0
102
RTVSPost2010PropOp55
 70
     1
102
RTVSPost2010Prop56
140
1.0
102
RTVSPost2010PropOp56
 70
     1
102
RTVSPost2010Prop57
140
1.0
102
RTVSPost2010PropOp57
 70
     1
  0
XRECORD
  5
18B9
102
{ACAD_REACTORS
330
18B8
102
}
330
18B8
100
AcDbXrecord
280
     1
102
RTVSPost2010Prop28
280
     0
102
RTVSPost2010PropOp28
 70
     1
102
RTVSPost2010Prop29
280
     1
102
RTVSPost2010PropOp29
 70
     1
102
RTVSPost2010Prop30
280
     1
102
RTVSPost2010PropOp30
 70
     1
102
RTVSPost2010Prop31
280
     0
102
RTVSPost2010PropOp31
 70
     1
102
RTVSPost2010Prop32
280
     0
102
RTVSPost2010PropOp32
 70
     1
102
RTVSPost2010Prop33
280
     0
102
RTVSPost2010PropOp33
 70
     1
102
RTVSPost2010Prop34
280
     0
102
RTVSPost2010PropOp34
 70
     1
102
RTVSPost2010Prop35
280
     0
102
RTVSPost2010PropOp35
 70
     1
102
RTVSPost2010Prop36
280
     0
102
RTVSPost2010PropOp36
 70
     1
102
RTVSPost2010Prop37
 90
       50
102
RTVSPost2010PropOp37
 70
     1
102
RTVSPost2010Prop38
140
0.0
102
RTVSPost2010PropOp38
 70
     1
102
RTVSPost2010Prop39
140
1.0
102
RTVSPost2010PropOp39
 70
     1
102
RTVSPost2010Prop40
 90
        0
102
RTVSPost2010PropOp40
 70
     1
102
RTVSPost2010Prop41ColorIndex
 90
       18
102
RTVSPost2010Prop41ColorRGB
 90
        0
102
RTVSPost2010PropOp41
 70
     1
102
RTVSPost2010Prop42
 90
       50
102
RTVSPost2010PropOp42
 70
     1
102
RTVSPost2010Prop43
 90
        3
102
RTVSPost2010PropOp43
 70
     1
102
RTVSPost2010Prop44ColorIndex
 90
        5
102
RTVSPost2010Prop44ColorRGB
 90
      255
102
RTVSPost2010PropOp44
 70
     1
102
RTVSPost2010Prop45
280
     0
102
RTVSPost2010PropOp45
 70
     1
102
RTVSPost2010Prop46
 90
       50
102
RTVSPost2010PropOp46
 70
     1
102
RTVSPost2010Prop47
 90
       50
102
RTVSPost2010PropOp47
 70
     1
102
RTVSPost2010Prop48
 90
       50
102
RTVSPost2010PropOp48
 70
     1
102
RTVSPost2010Prop49
280
     0
102
RTVSPost2010PropOp49
 70
     1
102
RTVSPost2010Prop50
 90
       50
102
RTVSPost2010PropOp50
 70
     1
102
RTVSPost2010Prop51ColorIndex
 90
      256
102
RTVSPost2010Prop51ColorRGB
 90
-16777216
102
RTVSPost2010PropOp51
 70
     0
102
RTVSPost2010Prop52
140
1.0
102
RTVSPost2010PropOp52
 70
     0
102
RTVSPost2010Prop53
 90
        2
102
RTVSPost2010PropOp53
 70
     1
102
RTVSPost2010Prop54
  1
strokes_ogs.tif
102
RTVSPost2010PropOp54
 70
     1
102
RTVSPost2010Prop55
280
     0
102
RTVSPost2010PropOp55
 70
     1
102
RTVSPost2010Prop56
140
1.0
102
RTVSPost2010PropOp56
 70
     1
102
RTVSPost2010Prop57
140
1.0
102
RTVSPost2010PropOp57
 70
     1
  0
XRECORD
  5
18C1
102
{ACAD_REACTORS
330
18C0
102
}
330
18C0
100
AcDbXrecord
280
     1
102
RTVSPost2010Prop28
280
     0
102
RTVSPost2010PropOp28
 70
     1
102
RTVSPost2010Prop29
280
     1
102
RTVSPost2010PropOp29
 70
     1
102
RTVSPost2010Prop30
280
     1
102
RTVSPost2010PropOp30
 70
     1
102
RTVSPost2010Prop31
280
     0
102
RTVSPost2010PropOp31
 70
     1
102
RTVSPost2010Prop32
280
     0
102
RTVSPost2010PropOp32
 70
     1
102
RTVSPost2010Prop33
280
     0
102
RTVSPost2010PropOp33
 70
     1
102
RTVSPost2010Prop34
280
     0
102
RTVSPost2010PropOp34
 70
     1
102
RTVSPost2010Prop35
280
     0
102
RTVSPost2010PropOp35
 70
     1
102
RTVSPost2010Prop36
280
     0
102
RTVSPost2010PropOp36
 70
     1
102
RTVSPost2010Prop37
 90
       50
102
RTVSPost2010PropOp37
 70
     1
102
RTVSPost2010Prop38
140
0.0
102
RTVSPost2010PropOp38
 70
     1
102
RTVSPost2010Prop39
140
1.0
102
RTVSPost2010PropOp39
 70
     1
102
RTVSPost2010Prop40
 90
        0
102
RTVSPost2010PropOp40
 70
     1
102
RTVSPost2010Prop41ColorIndex
 90
       18
102
RTVSPost2010Prop41ColorRGB
 90
        0
102
RTVSPost2010PropOp41
 70
     1
102
RTVSPost2010Prop42
 90
       50
102
RTVSPost2010PropOp42
 70
     1
102
RTVSPost2010Prop43
 90
        3
102
RTVSPost2010PropOp43
 70
     1
102
RTVSPost2010Prop44ColorIndex
 90
        5
102
RTVSPost2010Prop44ColorRGB
 90
      255
102
RTVSPost2010PropOp44
 70
     1
102
RTVSPost2010Prop45
280
     0
102
RTVSPost2010PropOp45
 70
     1
102
RTVSPost2010Prop46
 90
       50
102
RTVSPost2010PropOp46
 70
     1
102
RTVSPost2010Prop47
 90
       50
102
RTVSPost2010PropOp47
 70
     1
102
RTVSPost2010Prop48
 90
       50
102
RTVSPost2010PropOp48
 70
     1
102
RTVSPost2010Prop49
280
     0
102
RTVSPost2010PropOp49
 70
     1
102
RTVSPost2010Prop50
 90
       50
102
RTVSPost2010PropOp50
 70
     1
102
RTVSPost2010Prop51ColorIndex
 90
      256
102
RTVSPost2010Prop51ColorRGB
 90
-16777216
102
RTVSPost2010PropOp51
 70
     0
102
RTVSPost2010Prop52
140
1.0
102
RTVSPost2010PropOp52
 70
     0
102
RTVSPost2010Prop53
 90
        2
102
RTVSPost2010PropOp53
 70
     1
102
RTVSPost2010Prop54
  1
strokes_ogs.tif
102
RTVSPost2010PropOp54
 70
     1
102
RTVSPost2010Prop55
280
     0
102
RTVSPost2010PropOp55
 70
     1
102
RTVSPost2010Prop56
140
1.0
102
RTVSPost2010PropOp56
 70
     1
102
RTVSPost2010Prop57
140
1.0
102
RTVSPost2010PropOp57
 70
     1
  0
XRECORD
  5
18DD
102
{ACAD_REACTORS
330
18DC
102
}
330
18DC
100
AcDbXrecord
280
     1
102
RTVSPost2010Prop28
280
     0
102
RTVSPost2010PropOp28
 70
     1
102
RTVSPost2010Prop29
280
     1
102
RTVSPost2010PropOp29
 70
     1
102
RTVSPost2010Prop30
280
     1
102
RTVSPost2010PropOp30
 70
     1
102
RTVSPost2010Prop31
280
     0
102
RTVSPost2010PropOp31
 70
     1
102
RTVSPost2010Prop32
280
     0
102
RTVSPost2010PropOp32
 70
     1
102
RTVSPost2010Prop33
280
     0
102
RTVSPost2010PropOp33
 70
     1
102
RTVSPost2010Prop34
280
     0
102
RTVSPost2010PropOp34
 70
     1
102
RTVSPost2010Prop35
280
     0
102
RTVSPost2010PropOp35
 70
     1
102
RTVSPost2010Prop36
280
     0
102
RTVSPost2010PropOp36
 70
     1
102
RTVSPost2010Prop37
 90
       50
102
RTVSPost2010PropOp37
 70
     0
102
RTVSPost2010Prop38
140
0.0
102
RTVSPost2010PropOp38
 70
     0
102
RTVSPost2010Prop39
140
1.0
102
RTVSPost2010PropOp39
 70
     0
102
RTVSPost2010Prop40
 90
        0
102
RTVSPost2010PropOp40
 70
     0
102
RTVSPost2010Prop41ColorIndex
 90
       18
102
RTVSPost2010Prop41ColorRGB
 90
        0
102
RTVSPost2010PropOp41
 70
     0
102
RTVSPost2010Prop42
 90
       50
102
RTVSPost2010PropOp42
 70
     0
102
RTVSPost2010Prop43
 90
        3
102
RTVSPost2010PropOp43
 70
     0
102
RTVSPost2010Prop44ColorIndex
 90
        5
102
RTVSPost2010Prop44ColorRGB
 90
      255
102
RTVSPost2010PropOp44
 70
     0
102
RTVSPost2010Prop45
280
     0
102
RTVSPost2010PropOp45
 70
     1
102
RTVSPost2010Prop46
 90
       50
102
RTVSPost2010PropOp46
 70
     0
102
RTVSPost2010Prop47
 90
       50
102
RTVSPost2010PropOp47
 70
     0
102
RTVSPost2010Prop48
 90
       50
102
RTVSPost2010PropOp48
 70
     0
102
RTVSPost2010Prop49
280
     0
102
RTVSPost2010PropOp49
 70
     1
102
RTVSPost2010Prop50
 90
       50
102
RTVSPost2010PropOp50
 70
     0
102
RTVSPost2010Prop51ColorIndex
 90
      256
102
RTVSPost2010Prop51ColorRGB
 90
-16777216
102
RTVSPost2010PropOp51
 70
     0
102
RTVSPost2010Prop52
140
1.0
102
RTVSPost2010PropOp52
 70
     0
102
RTVSPost2010Prop53
 90
        2
102
RTVSPost2010PropOp53
 70
     0
102
RTVSPost2010Prop54
  1
strokes_ogs.tif
102
RTVSPost2010PropOp54
 70
     0
102
RTVSPost2010Prop55
280
     0
102
RTVSPost2010PropOp55
 70
     1
102
RTVSPost2010Prop56
140
1.0
102
RTVSPost2010PropOp56
 70
     0
102
RTVSPost2010Prop57
140
1.0
102
RTVSPost2010PropOp57
 70
     0
  0
XRECORD
  5
18CD
102
{ACAD_REACTORS
330
18CC
102
}
330
18CC
100
AcDbXrecord
280
     1
102
RTVSPost2010Prop28
280
     0
102
RTVSPost2010PropOp28
 70
     1
102
RTVSPost2010Prop29
280
     1
102
RTVSPost2010PropOp29
 70
     1
102
RTVSPost2010Prop30
280
     1
102
RTVSPost2010PropOp30
 70
     1
102
RTVSPost2010Prop31
280
     0
102
RTVSPost2010PropOp31
 70
     1
102
RTVSPost2010Prop32
280
     0
102
RTVSPost2010PropOp32
 70
     1
102
RTVSPost2010Prop33
280
     0
102
RTVSPost2010PropOp33
 70
     1
102
RTVSPost2010Prop34
280
     0
102
RTVSPost2010PropOp34
 70
     1
102
RTVSPost2010Prop35
280
     0
102
RTVSPost2010PropOp35
 70
     1
102
RTVSPost2010Prop36
280
     0
102
RTVSPost2010PropOp36
 70
     1
102
RTVSPost2010Prop37
 90
       50
102
RTVSPost2010PropOp37
 70
     1
102
RTVSPost2010Prop38
140
0.0
102
RTVSPost2010PropOp38
 70
     1
102
RTVSPost2010Prop39
140
1.0
102
RTVSPost2010PropOp39
 70
     1
102
RTVSPost2010Prop40
 90
        0
102
RTVSPost2010PropOp40
 70
     1
102
RTVSPost2010Prop41ColorIndex
 90
       18
102
RTVSPost2010Prop41ColorRGB
 90
        0
102
RTVSPost2010PropOp41
 70
     1
102
RTVSPost2010Prop42
 90
       50
102
RTVSPost2010PropOp42
 70
     1
102
RTVSPost2010Prop43
 90
        3
102
RTVSPost2010PropOp43
 70
     1
102
RTVSPost2010Prop44ColorIndex
 90
        5
102
RTVSPost2010Prop44ColorRGB
 90
      255
102
RTVSPost2010PropOp44
 70
     1
102
RTVSPost2010Prop45
280
     0
102
RTVSPost2010PropOp45
 70
     1
102
RTVSPost2010Prop46
 90
       50
102
RTVSPost2010PropOp46
 70
     1
102
RTVSPost2010Prop47
 90
       50
102
RTVSPost2010PropOp47
 70
     1
102
RTVSPost2010Prop48
 90
       50
102
RTVSPost2010PropOp48
 70
     1
102
RTVSPost2010Prop49
280
     0
102
RTVSPost2010PropOp49
 70
     1
102
RTVSPost2010Prop50
 90
       50
102
RTVSPost2010PropOp50
 70
     1
102
RTVSPost2010Prop51ColorIndex
 90
      256
102
RTVSPost2010Prop51ColorRGB
 90
-16777216
102
RTVSPost2010PropOp51
 70
     0
102
RTVSPost2010Prop52
140
1.0
102
RTVSPost2010PropOp52
 70
     0
102
RTVSPost2010Prop53
 90
        2
102
RTVSPost2010PropOp53
 70
     1
102
RTVSPost2010Prop54
  1
strokes_ogs.tif
102
RTVSPost2010PropOp54
 70
     1
102
RTVSPost2010Prop55
280
     0
102
RTVSPost2010PropOp55
 70
     1
102
RTVSPost2010Prop56
140
1.0
102
RTVSPost2010PropOp56
 70
     1
102
RTVSPost2010Prop57
140
1.0
102
RTVSPost2010PropOp57
 70
     1
  0
XRECORD
  5
18DF
102
{ACAD_REACTORS
330
18DE
102
}
330
18DE
100
AcDbXrecord
280
     1
102
RTVSPost2010Prop28
280
     0
102
RTVSPost2010PropOp28
 70
     1
102
RTVSPost2010Prop29
280
     1
102
RTVSPost2010PropOp29
 70
     1
102
RTVSPost2010Prop30
280
     1
102
RTVSPost2010PropOp30
 70
     1
102
RTVSPost2010Prop31
280
     0
102
RTVSPost2010PropOp31
 70
     1
102
RTVSPost2010Prop32
280
     0
102
RTVSPost2010PropOp32
 70
     1
102
RTVSPost2010Prop33
280
     0
102
RTVSPost2010PropOp33
 70
     1
102
RTVSPost2010Prop34
280
     0
102
RTVSPost2010PropOp34
 70
     1
102
RTVSPost2010Prop35
280
     0
102
RTVSPost2010PropOp35
 70
     1
102
RTVSPost2010Prop36
280
     0
102
RTVSPost2010PropOp36
 70
     1
102
RTVSPost2010Prop37
 90
       50
102
RTVSPost2010PropOp37
 70
     0
102
RTVSPost2010Prop38
140
0.0
102
RTVSPost2010PropOp38
 70
     0
102
RTVSPost2010Prop39
140
1.0
102
RTVSPost2010PropOp39
 70
     0
102
RTVSPost2010Prop40
 90
        0
102
RTVSPost2010PropOp40
 70
     0
102
RTVSPost2010Prop41ColorIndex
 90
       18
102
RTVSPost2010Prop41ColorRGB
 90
        0
102
RTVSPost2010PropOp41
 70
     0
102
RTVSPost2010Prop42
 90
       50
102
RTVSPost2010PropOp42
 70
     0
102
RTVSPost2010Prop43
 90
        3
102
RTVSPost2010PropOp43
 70
     0
102
RTVSPost2010Prop44ColorIndex
 90
        5
102
RTVSPost2010Prop44ColorRGB
 90
      255
102
RTVSPost2010PropOp44
 70
     0
102
RTVSPost2010Prop45
280
     0
102
RTVSPost2010PropOp45
 70
     1
102
RTVSPost2010Prop46
 90
       50
102
RTVSPost2010PropOp46
 70
     0
102
RTVSPost2010Prop47
 90
       50
102
RTVSPost2010PropOp47
 70
     0
102
RTVSPost2010Prop48
 90
       50
102
RTVSPost2010PropOp48
 70
     0
102
RTVSPost2010Prop49
280
     0
102
RTVSPost2010PropOp49
 70
     1
102
RTVSPost2010Prop50
 90
       50
102
RTVSPost2010PropOp50
 70
     0
102
RTVSPost2010Prop51ColorIndex
 90
      256
102
RTVSPost2010Prop51ColorRGB
 90
-16777216
102
RTVSPost2010PropOp51
 70
     0
102
RTVSPost2010Prop52
140
1.0
102
RTVSPost2010PropOp52
 70
     0
102
RTVSPost2010Prop53
 90
        2
102
RTVSPost2010PropOp53
 70
     0
102
RTVSPost2010Prop54
  1
strokes_ogs.tif
102
RTVSPost2010PropOp54
 70
     0
102
RTVSPost2010Prop55
280
     0
102
RTVSPost2010PropOp55
 70
     1
102
RTVSPost2010Prop56
140
1.0
102
RTVSPost2010PropOp56
 70
     0
102
RTVSPost2010Prop57
140
1.0
102
RTVSPost2010PropOp57
 70
     0
  0
XRECORD
  5
18C5
102
{ACAD_REACTORS
330
18C4
102
}
330
18C4
100
AcDbXrecord
280
     1
102
RTVSPost2010Prop28
280
     0
102
RTVSPost2010PropOp28
 70
     1
102
RTVSPost2010Prop29
280
     1
102
RTVSPost2010PropOp29
 70
     1
102
RTVSPost2010Prop30
280
     1
102
RTVSPost2010PropOp30
 70
     1
102
RTVSPost2010Prop31
280
     0
102
RTVSPost2010PropOp31
 70
     1
102
RTVSPost2010Prop32
280
     0
102
RTVSPost2010PropOp32
 70
     1
102
RTVSPost2010Prop33
280
     0
102
RTVSPost2010PropOp33
 70
     1
102
RTVSPost2010Prop34
280
     0
102
RTVSPost2010PropOp34
 70
     1
102
RTVSPost2010Prop35
280
     0
102
RTVSPost2010PropOp35
 70
     1
102
RTVSPost2010Prop36
280
     0
102
RTVSPost2010PropOp36
 70
     1
102
RTVSPost2010Prop37
 90
       50
102
RTVSPost2010PropOp37
 70
     1
102
RTVSPost2010Prop38
140
0.0
102
RTVSPost2010PropOp38
 70
     1
102
RTVSPost2010Prop39
140
1.0
102
RTVSPost2010PropOp39
 70
     1
102
RTVSPost2010Prop40
 90
        0
102
RTVSPost2010PropOp40
 70
     1
102
RTVSPost2010Prop41ColorIndex
 90
       18
102
RTVSPost2010Prop41ColorRGB
 90
        0
102
RTVSPost2010PropOp41
 70
     1
102
RTVSPost2010Prop42
 90
       50
102
RTVSPost2010PropOp42
 70
     1
102
RTVSPost2010Prop43
 90
        3
102
RTVSPost2010PropOp43
 70
     1
102
RTVSPost2010Prop44ColorIndex
 90
        5
102
RTVSPost2010Prop44ColorRGB
 90
      255
102
RTVSPost2010PropOp44
 70
     1
102
RTVSPost2010Prop45
280
     0
102
RTVSPost2010PropOp45
 70
     1
102
RTVSPost2010Prop46
 90
       50
102
RTVSPost2010PropOp46
 70
     1
102
RTVSPost2010Prop47
 90
       50
102
RTVSPost2010PropOp47
 70
     1
102
RTVSPost2010Prop48
 90
       50
102
RTVSPost2010PropOp48
 70
     1
102
RTVSPost2010Prop49
280
     0
102
RTVSPost2010PropOp49
 70
     1
102
RTVSPost2010Prop50
 90
       50
102
RTVSPost2010PropOp50
 70
     1
102
RTVSPost2010Prop51ColorIndex
 90
      256
102
RTVSPost2010Prop51ColorRGB
 90
-16777216
102
RTVSPost2010PropOp51
 70
     0
102
RTVSPost2010Prop52
140
1.0
102
RTVSPost2010PropOp52
 70
     0
102
RTVSPost2010Prop53
 90
        2
102
RTVSPost2010PropOp53
 70
     1
102
RTVSPost2010Prop54
  1
strokes_ogs.tif
102
RTVSPost2010PropOp54
 70
     1
102
RTVSPost2010Prop55
280
     0
102
RTVSPost2010PropOp55
 70
     1
102
RTVSPost2010Prop56
140
1.0
102
RTVSPost2010PropOp56
 70
     1
102
RTVSPost2010Prop57
140
1.0
102
RTVSPost2010PropOp57
 70
     1
  0
XRECORD
  5
18DB
102
{ACAD_REACTORS
330
18DA
102
}
330
18DA
100
AcDbXrecord
280
     1
102
RTVSPost2010Prop28
280
     0
102
RTVSPost2010PropOp28
 70
     1
102
RTVSPost2010Prop29
280
     1
102
RTVSPost2010PropOp29
 70
     1
102
RTVSPost2010Prop30
280
     1
102
RTVSPost2010PropOp30
 70
     1
102
RTVSPost2010Prop31
280
     0
102
RTVSPost2010PropOp31
 70
     1
102
RTVSPost2010Prop32
280
     0
102
RTVSPost2010PropOp32
 70
     1
102
RTVSPost2010Prop33
280
     0
102
RTVSPost2010PropOp33
 70
     1
102
RTVSPost2010Prop34
280
     0
102
RTVSPost2010PropOp34
 70
     1
102
RTVSPost2010Prop35
280
     0
102
RTVSPost2010PropOp35
 70
     1
102
RTVSPost2010Prop36
280
     0
102
RTVSPost2010PropOp36
 70
     1
102
RTVSPost2010Prop37
 90
       50
102
RTVSPost2010PropOp37
 70
     1
102
RTVSPost2010Prop38
140
0.0
102
RTVSPost2010PropOp38
 70
     1
102
RTVSPost2010Prop39
140
1.0
102
RTVSPost2010PropOp39
 70
     1
102
RTVSPost2010Prop40
 90
        0
102
RTVSPost2010PropOp40
 70
     1
102
RTVSPost2010Prop41ColorIndex
 90
       18
102
RTVSPost2010Prop41ColorRGB
 90
        0
102
RTVSPost2010PropOp41
 70
     1
102
RTVSPost2010Prop42
 90
       50
102
RTVSPost2010PropOp42
 70
     1
102
RTVSPost2010Prop43
 90
        3
102
RTVSPost2010PropOp43
 70
     1
102
RTVSPost2010Prop44ColorIndex
 90
        5
102
RTVSPost2010Prop44ColorRGB
 90
      255
102
RTVSPost2010PropOp44
 70
     1
102
RTVSPost2010Prop45
280
     0
102
RTVSPost2010PropOp45
 70
     1
102
RTVSPost2010Prop46
 90
       50
102
RTVSPost2010PropOp46
 70
     1
102
RTVSPost2010Prop47
 90
       50
102
RTVSPost2010PropOp47
 70
     1
102
RTVSPost2010Prop48
 90
       50
102
RTVSPost2010PropOp48
 70
     1
102
RTVSPost2010Prop49
280
     0
102
RTVSPost2010PropOp49
 70
     1
102
RTVSPost2010Prop50
 90
       50
102
RTVSPost2010PropOp50
 70
     1
102
RTVSPost2010Prop51ColorIndex
 90
      256
102
RTVSPost2010Prop51ColorRGB
 90
-16777216
102
RTVSPost2010PropOp51
 70
     0
102
RTVSPost2010Prop52
140
1.0
102
RTVSPost2010PropOp52
 70
     0
102
RTVSPost2010Prop53
 90
        2
102
RTVSPost2010PropOp53
 70
     1
102
RTVSPost2010Prop54
  1
strokes_ogs.tif
102
RTVSPost2010PropOp54
 70
     1
102
RTVSPost2010Prop55
280
     0
102
RTVSPost2010PropOp55
 70
     1
102
RTVSPost2010Prop56
140
1.0
102
RTVSPost2010PropOp56
 70
     1
102
RTVSPost2010Prop57
140
1.0
102
RTVSPost2010PropOp57
 70
     1
  0
XRECORD
  5
18D9
102
{ACAD_REACTORS
330
18D8
102
}
330
18D8
100
AcDbXrecord
280
     1
102
RTVSPost2010Prop28
280
     0
102
RTVSPost2010PropOp28
 70
     1
102
RTVSPost2010Prop29
280
     1
102
RTVSPost2010PropOp29
 70
     1
102
RTVSPost2010Prop30
280
     1
102
RTVSPost2010PropOp30
 70
     1
102
RTVSPost2010Prop31
280
     0
102
RTVSPost2010PropOp31
 70
     1
102
RTVSPost2010Prop32
280
     0
102
RTVSPost2010PropOp32
 70
     1
102
RTVSPost2010Prop33
280
     0
102
RTVSPost2010PropOp33
 70
     1
102
RTVSPost2010Prop34
280
     0
102
RTVSPost2010PropOp34
 70
     1
102
RTVSPost2010Prop35
280
     0
102
RTVSPost2010PropOp35
 70
     1
102
RTVSPost2010Prop36
280
     0
102
RTVSPost2010PropOp36
 70
     1
102
RTVSPost2010Prop37
 90
       50
102
RTVSPost2010PropOp37
 70
     1
102
RTVSPost2010Prop38
140
0.0
102
RTVSPost2010PropOp38
 70
     1
102
RTVSPost2010Prop39
140
1.0
102
RTVSPost2010PropOp39
 70
     1
102
RTVSPost2010Prop40
 90
        0
102
RTVSPost2010PropOp40
 70
     1
102
RTVSPost2010Prop41ColorIndex
 90
       18
102
RTVSPost2010Prop41ColorRGB
 90
        0
102
RTVSPost2010PropOp41
 70
     1
102
RTVSPost2010Prop42
 90
       50
102
RTVSPost2010PropOp42
 70
     1
102
RTVSPost2010Prop43
 90
        3
102
RTVSPost2010PropOp43
 70
     1
102
RTVSPost2010Prop44ColorIndex
 90
        5
102
RTVSPost2010Prop44ColorRGB
 90
      255
102
RTVSPost2010PropOp44
 70
     1
102
RTVSPost2010Prop45
280
     0
102
RTVSPost2010PropOp45
 70
     1
102
RTVSPost2010Prop46
 90
       50
102
RTVSPost2010PropOp46
 70
     1
102
RTVSPost2010Prop47
 90
       50
102
RTVSPost2010PropOp47
 70
     1
102
RTVSPost2010Prop48
 90
       50
102
RTVSPost2010PropOp48
 70
     1
102
RTVSPost2010Prop49
280
     0
102
RTVSPost2010PropOp49
 70
     1
102
RTVSPost2010Prop50
 90
       50
102
RTVSPost2010PropOp50
 70
     1
102
RTVSPost2010Prop51ColorIndex
 90
      256
102
RTVSPost2010Prop51ColorRGB
 90
-16777216
102
RTVSPost2010PropOp51
 70
     0
102
RTVSPost2010Prop52
140
1.0
102
RTVSPost2010PropOp52
 70
     0
102
RTVSPost2010Prop53
 90
        2
102
RTVSPost2010PropOp53
 70
     1
102
RTVSPost2010Prop54
  1
strokes_ogs.tif
102
RTVSPost2010PropOp54
 70
     1
102
RTVSPost2010Prop55
280
     0
102
RTVSPost2010PropOp55
 70
     1
102
RTVSPost2010Prop56
140
1.0
102
RTVSPost2010PropOp56
 70
     1
102
RTVSPost2010Prop57
140
1.0
102
RTVSPost2010PropOp57
 70
     1
  0
XRECORD
  5
18D3
102
{ACAD_REACTORS
330
18D2
102
}
330
18D2
100
AcDbXrecord
280
     1
102
RTVSPost2010Prop28
280
     0
102
RTVSPost2010PropOp28
 70
     1
102
RTVSPost2010Prop29
280
     1
102
RTVSPost2010PropOp29
 70
     1
102
RTVSPost2010Prop30
280
     1
102
RTVSPost2010PropOp30
 70
     1
102
RTVSPost2010Prop31
280
     0
102
RTVSPost2010PropOp31
 70
     1
102
RTVSPost2010Prop32
280
     0
102
RTVSPost2010PropOp32
 70
     1
102
RTVSPost2010Prop33
280
     0
102
RTVSPost2010PropOp33
 70
     1
102
RTVSPost2010Prop34
280
     0
102
RTVSPost2010PropOp34
 70
     1
102
RTVSPost2010Prop35
280
     0
102
RTVSPost2010PropOp35
 70
     1
102
RTVSPost2010Prop36
280
     0
102
RTVSPost2010PropOp36
 70
     1
102
RTVSPost2010Prop37
 90
       50
102
RTVSPost2010PropOp37
 70
     1
102
RTVSPost2010Prop38
140
0.0
102
RTVSPost2010PropOp38
 70
     1
102
RTVSPost2010Prop39
140
1.0
102
RTVSPost2010PropOp39
 70
     1
102
RTVSPost2010Prop40
 90
        0
102
RTVSPost2010PropOp40
 70
     1
102
RTVSPost2010Prop41ColorIndex
 90
       18
102
RTVSPost2010Prop41ColorRGB
 90
        0
102
RTVSPost2010PropOp41
 70
     1
102
RTVSPost2010Prop42
 90
       50
102
RTVSPost2010PropOp42
 70
     1
102
RTVSPost2010Prop43
 90
        3
102
RTVSPost2010PropOp43
 70
     1
102
RTVSPost2010Prop44ColorIndex
 90
        5
102
RTVSPost2010Prop44ColorRGB
 90
      255
102
RTVSPost2010PropOp44
 70
     1
102
RTVSPost2010Prop45
280
     0
102
RTVSPost2010PropOp45
 70
     1
102
RTVSPost2010Prop46
 90
       50
102
RTVSPost2010PropOp46
 70
     1
102
RTVSPost2010Prop47
 90
       50
102
RTVSPost2010PropOp47
 70
     1
102
RTVSPost2010Prop48
 90
       50
102
RTVSPost2010PropOp48
 70
     1
102
RTVSPost2010Prop49
280
     0
102
RTVSPost2010PropOp49
 70
     1
102
RTVSPost2010Prop50
 90
       50
102
RTVSPost2010PropOp50
 70
     1
102
RTVSPost2010Prop51ColorIndex
 90
      256
102
RTVSPost2010Prop51ColorRGB
 90
-16777216
102
RTVSPost2010PropOp51
 70
     0
102
RTVSPost2010Prop52
140
1.0
102
RTVSPost2010PropOp52
 70
     0
102
RTVSPost2010Prop53
 90
        2
102
RTVSPost2010PropOp53
 70
     1
102
RTVSPost2010Prop54
  1
strokes_ogs.tif
102
RTVSPost2010PropOp54
 70
     1
102
RTVSPost2010Prop55
280
     0
102
RTVSPost2010PropOp55
 70
     1
102
RTVSPost2010Prop56
140
1.0
102
RTVSPost2010PropOp56
 70
     1
102
RTVSPost2010Prop57
140
1.0
102
RTVSPost2010PropOp57
 70
     1
  0
XRECORD
  5
18D5
102
{ACAD_REACTORS
330
18D4
102
}
330
18D4
100
AcDbXrecord
280
     1
102
RTVSPost2010Prop28
280
     0
102
RTVSPost2010PropOp28
 70
     1
102
RTVSPost2010Prop29
280
     1
102
RTVSPost2010PropOp29
 70
     1
102
RTVSPost2010Prop30
280
     1
102
RTVSPost2010PropOp30
 70
     1
102
RTVSPost2010Prop31
280
     0
102
RTVSPost2010PropOp31
 70
     1
102
RTVSPost2010Prop32
280
     0
102
RTVSPost2010PropOp32
 70
     1
102
RTVSPost2010Prop33
280
     0
102
RTVSPost2010PropOp33
 70
     1
102
RTVSPost2010Prop34
280
     0
102
RTVSPost2010PropOp34
 70
     1
102
RTVSPost2010Prop35
280
     0
102
RTVSPost2010PropOp35
 70
     1
102
RTVSPost2010Prop36
280
     0
102
RTVSPost2010PropOp36
 70
     1
102
RTVSPost2010Prop37
 90
       50
102
RTVSPost2010PropOp37
 70
     1
102
RTVSPost2010Prop38
140
0.0
102
RTVSPost2010PropOp38
 70
     1
102
RTVSPost2010Prop39
140
1.0
102
RTVSPost2010PropOp39
 70
     1
102
RTVSPost2010Prop40
 90
        0
102
RTVSPost2010PropOp40
 70
     1
102
RTVSPost2010Prop41ColorIndex
 90
       18
102
RTVSPost2010Prop41ColorRGB
 90
        0
102
RTVSPost2010PropOp41
 70
     1
102
RTVSPost2010Prop42
 90
       50
102
RTVSPost2010PropOp42
 70
     1
102
RTVSPost2010Prop43
 90
        3
102
RTVSPost2010PropOp43
 70
     1
102
RTVSPost2010Prop44ColorIndex
 90
        5
102
RTVSPost2010Prop44ColorRGB
 90
      255
102
RTVSPost2010PropOp44
 70
     1
102
RTVSPost2010Prop45
280
     0
102
RTVSPost2010PropOp45
 70
     1
102
RTVSPost2010Prop46
 90
       50
102
RTVSPost2010PropOp46
 70
     1
102
RTVSPost2010Prop47
 90
       50
102
RTVSPost2010PropOp47
 70
     1
102
RTVSPost2010Prop48
 90
       50
102
RTVSPost2010PropOp48
 70
     1
102
RTVSPost2010Prop49
280
     0
102
RTVSPost2010PropOp49
 70
     1
102
RTVSPost2010Prop50
 90
       50
102
RTVSPost2010PropOp50
 70
     1
102
RTVSPost2010Prop51ColorIndex
 90
      256
102
RTVSPost2010Prop51ColorRGB
 90
-16777216
102
RTVSPost2010PropOp51
 70
     0
102
RTVSPost2010Prop52
140
1.0
102
RTVSPost2010PropOp52
 70
     0
102
RTVSPost2010Prop53
 90
        2
102
RTVSPost2010PropOp53
 70
     1
102
RTVSPost2010Prop54
  1
strokes_ogs.tif
102
RTVSPost2010PropOp54
 70
     1
102
RTVSPost2010Prop55
280
     0
102
RTVSPost2010PropOp55
 70
     1
102
RTVSPost2010Prop56
140
1.0
102
RTVSPost2010PropOp56
 70
     1
102
RTVSPost2010Prop57
140
1.0
102
RTVSPost2010PropOp57
 70
     1
  0
XRECORD
  5
18CB
102
{ACAD_REACTORS
330
18CA
102
}
330
18CA
100
AcDbXrecord
280
     1
102
RTVSPost2010Prop28
280
     0
102
RTVSPost2010PropOp28
 70
     1
102
RTVSPost2010Prop29
280
     1
102
RTVSPost2010PropOp29
 70
     1
102
RTVSPost2010Prop30
280
     1
102
RTVSPost2010PropOp30
 70
     1
102
RTVSPost2010Prop31
280
     0
102
RTVSPost2010PropOp31
 70
     1
102
RTVSPost2010Prop32
280
     0
102
RTVSPost2010PropOp32
 70
     1
102
RTVSPost2010Prop33
280
     0
102
RTVSPost2010PropOp33
 70
     1
102
RTVSPost2010Prop34
280
     0
102
RTVSPost2010PropOp34
 70
     1
102
RTVSPost2010Prop35
280
     0
102
RTVSPost2010PropOp35
 70
     1
102
RTVSPost2010Prop36
280
     0
102
RTVSPost2010PropOp36
 70
     1
102
RTVSPost2010Prop37
 90
       50
102
RTVSPost2010PropOp37
 70
     1
102
RTVSPost2010Prop38
140
0.0
102
RTVSPost2010PropOp38
 70
     1
102
RTVSPost2010Prop39
140
1.0
102
RTVSPost2010PropOp39
 70
     1
102
RTVSPost2010Prop40
 90
        0
102
RTVSPost2010PropOp40
 70
     1
102
RTVSPost2010Prop41ColorIndex
 90
       18
102
RTVSPost2010Prop41ColorRGB
 90
        0
102
RTVSPost2010PropOp41
 70
     1
102
RTVSPost2010Prop42
 90
       50
102
RTVSPost2010PropOp42
 70
     1
102
RTVSPost2010Prop43
 90
        3
102
RTVSPost2010PropOp43
 70
     1
102
RTVSPost2010Prop44ColorIndex
 90
        5
102
RTVSPost2010Prop44ColorRGB
 90
      255
102
RTVSPost2010PropOp44
 70
     1
102
RTVSPost2010Prop45
280
     0
102
RTVSPost2010PropOp45
 70
     1
102
RTVSPost2010Prop46
 90
       50
102
RTVSPost2010PropOp46
 70
     1
102
RTVSPost2010Prop47
 90
       50
102
RTVSPost2010PropOp47
 70
     1
102
RTVSPost2010Prop48
 90
       50
102
RTVSPost2010PropOp48
 70
     1
102
RTVSPost2010Prop49
280
     0
102
RTVSPost2010PropOp49
 70
     1
102
RTVSPost2010Prop50
 90
       50
102
RTVSPost2010PropOp50
 70
     1
102
RTVSPost2010Prop51ColorIndex
 90
      256
102
RTVSPost2010Prop51ColorRGB
 90
-16777216
102
RTVSPost2010PropOp51
 70
     0
102
RTVSPost2010Prop52
140
1.0
102
RTVSPost2010PropOp52
 70
     0
102
RTVSPost2010Prop53
 90
        2
102
RTVSPost2010PropOp53
 70
     1
102
RTVSPost2010Prop54
  1
strokes_ogs.tif
102
RTVSPost2010PropOp54
 70
     1
102
RTVSPost2010Prop55
280
     0
102
RTVSPost2010PropOp55
 70
     1
102
RTVSPost2010Prop56
140
1.0
102
RTVSPost2010PropOp56
 70
     1
102
RTVSPost2010Prop57
140
1.0
102
RTVSPost2010PropOp57
 70
     1
  0
XRECORD
  5
18BF
102
{ACAD_REACTORS
330
18BE
102
}
330
18BE
100
AcDbXrecord
280
     1
102
RTVSPost2010Prop28
280
     0
102
RTVSPost2010PropOp28
 70
     1
102
RTVSPost2010Prop29
280
     1
102
RTVSPost2010PropOp29
 70
     1
102
RTVSPost2010Prop30
280
     1
102
RTVSPost2010PropOp30
 70
     1
102
RTVSPost2010Prop31
280
     0
102
RTVSPost2010PropOp31
 70
     1
102
RTVSPost2010Prop32
280
     0
102
RTVSPost2010PropOp32
 70
     1
102
RTVSPost2010Prop33
280
     0
102
RTVSPost2010PropOp33
 70
     1
102
RTVSPost2010Prop34
280
     0
102
RTVSPost2010PropOp34
 70
     1
102
RTVSPost2010Prop35
280
     0
102
RTVSPost2010PropOp35
 70
     1
102
RTVSPost2010Prop36
280
     0
102
RTVSPost2010PropOp36
 70
     1
102
RTVSPost2010Prop37
 90
       50
102
RTVSPost2010PropOp37
 70
     1
102
RTVSPost2010Prop38
140
0.0
102
RTVSPost2010PropOp38
 70
     1
102
RTVSPost2010Prop39
140
1.0
102
RTVSPost2010PropOp39
 70
     1
102
RTVSPost2010Prop40
 90
        0
102
RTVSPost2010PropOp40
 70
     1
102
RTVSPost2010Prop41ColorIndex
 90
       18
102
RTVSPost2010Prop41ColorRGB
 90
        0
102
RTVSPost2010PropOp41
 70
     1
102
RTVSPost2010Prop42
 90
       50
102
RTVSPost2010PropOp42
 70
     1
102
RTVSPost2010Prop43
 90
        3
102
RTVSPost2010PropOp43
 70
     1
102
RTVSPost2010Prop44ColorIndex
 90
        5
102
RTVSPost2010Prop44ColorRGB
 90
      255
102
RTVSPost2010PropOp44
 70
     1
102
RTVSPost2010Prop45
280
     0
102
RTVSPost2010PropOp45
 70
     1
102
RTVSPost2010Prop46
 90
       50
102
RTVSPost2010PropOp46
 70
     1
102
RTVSPost2010Prop47
 90
       50
102
RTVSPost2010PropOp47
 70
     1
102
RTVSPost2010Prop48
 90
       50
102
RTVSPost2010PropOp48
 70
     1
102
RTVSPost2010Prop49
280
     0
102
RTVSPost2010PropOp49
 70
     1
102
RTVSPost2010Prop50
 90
       50
102
RTVSPost2010PropOp50
 70
     1
102
RTVSPost2010Prop51ColorIndex
 90
      256
102
RTVSPost2010Prop51ColorRGB
 90
-16777216
102
RTVSPost2010PropOp51
 70
     0
102
RTVSPost2010Prop52
140
1.0
102
RTVSPost2010PropOp52
 70
     0
102
RTVSPost2010Prop53
 90
        2
102
RTVSPost2010PropOp53
 70
     1
102
RTVSPost2010Prop54
  1
strokes_ogs.tif
102
RTVSPost2010PropOp54
 70
     1
102
RTVSPost2010Prop55
280
     0
102
RTVSPost2010PropOp55
 70
     1
102
RTVSPost2010Prop56
140
1.0
102
RTVSPost2010PropOp56
 70
     1
102
RTVSPost2010Prop57
140
1.0
102
RTVSPost2010PropOp57
 70
     1
  0
XRECORD
  5
18D7
102
{ACAD_REACTORS
330
18D6
102
}
330
18D6
100
AcDbXrecord
280
     1
102
RTVSPost2010Prop28
280
     0
102
RTVSPost2010PropOp28
 70
     1
102
RTVSPost2010Prop29
280
     1
102
RTVSPost2010PropOp29
 70
     1
102
RTVSPost2010Prop30
280
     1
102
RTVSPost2010PropOp30
 70
     1
102
RTVSPost2010Prop31
280
     0
102
RTVSPost2010PropOp31
 70
     1
102
RTVSPost2010Prop32
280
     0
102
RTVSPost2010PropOp32
 70
     1
102
RTVSPost2010Prop33
280
     0
102
RTVSPost2010PropOp33
 70
     1
102
RTVSPost2010Prop34
280
     0
102
RTVSPost2010PropOp34
 70
     1
102
RTVSPost2010Prop35
280
     0
102
RTVSPost2010PropOp35
 70
     1
102
RTVSPost2010Prop36
280
     0
102
RTVSPost2010PropOp36
 70
     1
102
RTVSPost2010Prop37
 90
       50
102
RTVSPost2010PropOp37
 70
     1
102
RTVSPost2010Prop38
140
0.0
102
RTVSPost2010PropOp38
 70
     1
102
RTVSPost2010Prop39
140
1.0
102
RTVSPost2010PropOp39
 70
     1
102
RTVSPost2010Prop40
 90
        0
102
RTVSPost2010PropOp40
 70
     1
102
RTVSPost2010Prop41ColorIndex
 90
       18
102
RTVSPost2010Prop41ColorRGB
 90
        0
102
RTVSPost2010PropOp41
 70
     1
102
RTVSPost2010Prop42
 90
       50
102
RTVSPost2010PropOp42
 70
     1
102
RTVSPost2010Prop43
 90
        3
102
RTVSPost2010PropOp43
 70
     1
102
RTVSPost2010Prop44ColorIndex
 90
        5
102
RTVSPost2010Prop44ColorRGB
 90
      255
102
RTVSPost2010PropOp44
 70
     1
102
RTVSPost2010Prop45
280
     0
102
RTVSPost2010PropOp45
 70
     1
102
RTVSPost2010Prop46
 90
       50
102
RTVSPost2010PropOp46
 70
     1
102
RTVSPost2010Prop47
 90
       50
102
RTVSPost2010PropOp47
 70
     1
102
RTVSPost2010Prop48
 90
       50
102
RTVSPost2010PropOp48
 70
     1
102
RTVSPost2010Prop49
280
     0
102
RTVSPost2010PropOp49
 70
     1
102
RTVSPost2010Prop50
 90
       50
102
RTVSPost2010PropOp50
 70
     1
102
RTVSPost2010Prop51ColorIndex
 90
      256
102
RTVSPost2010Prop51ColorRGB
 90
-16777216
102
RTVSPost2010PropOp51
 70
     0
102
RTVSPost2010Prop52
140
1.0
102
RTVSPost2010PropOp52
 70
     0
102
RTVSPost2010Prop53
 90
        2
102
RTVSPost2010PropOp53
 70
     1
102
RTVSPost2010Prop54
  1
strokes_ogs.tif
102
RTVSPost2010PropOp54
 70
     1
102
RTVSPost2010Prop55
280
     0
102
RTVSPost2010PropOp55
 70
     1
102
RTVSPost2010Prop56
140
1.0
102
RTVSPost2010PropOp56
 70
     1
102
RTVSPost2010Prop57
140
1.0
102
RTVSPost2010PropOp57
 70
     1
  0
ENDSEC
  0
EOF
