  0
SECTION
  2
HEADER
  9
$ACADVER
  1
AC1024
  9
$ACADMAINTVER
 70
   109
  9
$DWGCODEPAGE
  3
ANSI_1252
  9
$LASTSAVEDBY
  1
kaschu
  9
$INSBASE
 10
0.0
 20
0.0
 30
0.0
  9
$EXTMIN
 10
507.7274849679326
 20
-211.4828770787504
 30
0.0
  9
$EXTMAX
 10
2962.826616189759
 20
1700.392225878892
 30
0.0
  9
$LIMMIN
 10
0.0
 20
0.0
  9
$LIMMAX
 10
12.0
 20
9.0
  9
$ORTHOMODE
 70
     1
  9
$REGENMODE
 70
     1
  9
$FILLMODE
 70
     1
  9
$QTEXTMODE
 70
     0
  9
$MIRRTEXT
 70
     1
  9
$LTSCALE
 40
1.0
  9
$ATTMODE
 70
     1
  9
$TEXTSIZE
 40
0.2
  9
$TRACEWID
 40
0.05
  9
$TEXTSTYLE
  7
STANDARD
  9
$CLAYER
  8
0
  9
$CELTYPE
  6
BYLAYER
  9
$CECOLOR
 62
   256
  9
$CELTSCALE
 40
1.0
  9
$DISPSILH
 70
     0
  9
$DIMSCALE
 40
1.0
  9
$DIMASZ
 40
0.18
  9
$DIMEXO
 40
0.0625
  9
$DIMDLI
 40
0.38
  9
$DIMRND
 40
0.0
  9
$DIMDLE
 40
0.0
  9
$DIMEXE
 40
0.18
  9
$DIMTP
 40
0.0
  9
$DIMTM
 40
0.0
  9
$DIMTXT
 40
0.18
  9
$DIMCEN
 40
0.09
  9
$DIMTSZ
 40
0.0
  9
$DIMTOL
 70
     0
  9
$DIMLIM
 70
     0
  9
$DIMTIH
 70
     1
  9
$DIMTOH
 70
     1
  9
$DIMSE1
 70
     0
  9
$DIMSE2
 70
     0
  9
$DIMTAD
 70
     0
  9
$DIMZIN
 70
     0
  9
$DIMBLK
  1

  9
$DIMASO
 70
     1
  9
$DIMSHO
 70
     1
  9
$DIMPOST
  1

  9
$DIMAPOST
  1

  9
$DIMALT
 70
     0
  9
$DIMALTD
 70
     2
  9
$DIMALTF
 40
25.4
  9
$DIMLFAC
 40
1.0
  9
$DIMTOFL
 70
     0
  9
$DIMTVP
 40
0.0
  9
$DIMTIX
 70
     0
  9
$DIMSOXD
 70
     0
  9
$DIMSAH
 70
     0
  9
$DIMBLK1
  1

  9
$DIMBLK2
  1

  9
$DIMSTYLE
  2
STANDARD
  9
$DIMCLRD
 70
     0
  9
$DIMCLRE
 70
     0
  9
$DIMCLRT
 70
     0
  9
$DIMTFAC
 40
1.0
  9
$DIMGAP
 40
0.09
  9
$DIMJUST
 70
     0
  9
$DIMSD1
 70
     0
  9
$DIMSD2
 70
     0
  9
$DIMTOLJ
 70
     1
  9
$DIMTZIN
 70
     0
  9
$DIMALTZ
 70
     0
  9
$DIMALTTZ
 70
     0
  9
$DIMUPT
 70
     0
  9
$DIMDEC
 70
     4
  9
$DIMTDEC
 70
     4
  9
$DIMALTU
 70
     2
  9
$DIMALTTD
 70
     2
  9
$DIMTXSTY
  7
STANDARD
  9
$DIMAUNIT
 70
     0
  9
$DIMADEC
 70
     0
  9
$DIMALTRND
 40
0.0
  9
$DIMAZIN
 70
     0
  9
$DIMDSEP
 70
    46
  9
$DIMATFIT
 70
     3
  9
$DIMFRAC
 70
     0
  9
$DIMLDRBLK
  1

  9
$DIMLUNIT
 70
     2
  9
$DIMLWD
 70
    -2
  9
$DIMLWE
 70
    -2
  9
$DIMTMOVE
 70
     0
  9
$DIMFXL
 40
1.0
  9
$DIMFXLON
 70
     0
  9
$DIMJOGANG
 40
0.7853981633974483
  9
$DIMTFILL
 70
     0
  9
$DIMTFILLCLR
 70
     0
  9
$DIMARCSYM
 70
     0
  9
$DIMLTYPE
  6

  9
$DIMLTEX1
  6

  9
$DIMLTEX2
  6

  9
$DIMTXTDIRECTION
 70
     0
  9
$LUNITS
 70
     2
  9
$LUPREC
 70
     4
  9
$SKETCHINC
 40
0.1
  9
$FILLETRAD
 40
0.5
  9
$AUNITS
 70
     0
  9
$AUPREC
 70
     0
  9
$MENU
  1
.
  9
$ELEVATION
 40
0.0
  9
$PELEVATION
 40
0.0
  9
$THICKNESS
 40
0.0
  9
$LIMCHECK
 70
     0
  9
$CHAMFERA
 40
0.5
  9
$CHAMFERB
 40
0.5
  9
$CHAMFERC
 40
1.0
  9
$CHAMFERD
 40
0.0
  9
$SKPOLY
 70
     0
  9
$TDCREATE
 40
2451762.415066667
  9
$TDUCREATE
 40
2451762.373400000
  9
$TDUPDATE
 40
2458166.575868611
  9
$TDUUPDATE
 40
2458166.534201944
  9
$TDINDWG
 40
0.1677822569
  9
$TDUSRTIMER
 40
0.1677820602
  9
$USRTIMER
 70
     1
  9
$ANGBASE
 50
0.0
  9
$ANGDIR
 70
     0
  9
$PDMODE
 70
     0
  9
$PDSIZE
 40
0.0
  9
$PLINEWID
 40
0.0
  9
$SPLFRAME
 70
     0
  9
$SPLINETYPE
 70
     6
  9
$SPLINESEGS
 70
     8
  9
$HANDSEED
  5
DA3
  9
$SURFTAB1
 70
     6
  9
$SURFTAB2
 70
     6
  9
$SURFTYPE
 70
     6
  9
$SURFU
 70
     6
  9
$SURFV
 70
     6
  9
$UCSBASE
  2

  9
$UCSNAME
  2

  9
$UCSORG
 10
0.0
 20
0.0
 30
0.0
  9
$UCSXDIR
 10
1.0
 20
0.0
 30
0.0
  9
$UCSYDIR
 10
0.0
 20
1.0
 30
0.0
  9
$UCSORTHOREF
  2

  9
$UCSORTHOVIEW
 70
     0
  9
$UCSORGTOP
 10
0.0
 20
0.0
 30
0.0
  9
$UCSORGBOTTOM
 10
0.0
 20
0.0
 30
0.0
  9
$UCSORGLEFT
 10
0.0
 20
0.0
 30
0.0
  9
$UCSORGRIGHT
 10
0.0
 20
0.0
 30
0.0
  9
$UCSORGFRONT
 10
0.0
 20
0.0
 30
0.0
  9
$UCSORGBACK
 10
0.0
 20
0.0
 30
0.0
  9
$PUCSBASE
  2

  9
$PUCSNAME
  2

  9
$PUCSORG
 10
0.0
 20
0.0
 30
0.0
  9
$PUCSXDIR
 10
1.0
 20
0.0
 30
0.0
  9
$PUCSYDIR
 10
0.0
 20
1.0
 30
0.0
  9
$PUCSORTHOREF
  2

  9
$PUCSORTHOVIEW
 70
     0
  9
$PUCSORGTOP
 10
0.0
 20
0.0
 30
0.0
  9
$PUCSORGBOTTOM
 10
0.0
 20
0.0
 30
0.0
  9
$PUCSORGLEFT
 10
0.0
 20
0.0
 30
0.0
  9
$PUCSORGRIGHT
 10
0.0
 20
0.0
 30
0.0
  9
$PUCSORGFRONT
 10
0.0
 20
0.0
 30
0.0
  9
$PUCSORGBACK
 10
0.0
 20
0.0
 30
0.0
  9
$USERI1
 70
     0
  9
$USERI2
 70
     0
  9
$USERI3
 70
     0
  9
$USERI4
 70
     0
  9
$USERI5
 70
     0
  9
$USERR1
 40
0.0
  9
$USERR2
 40
0.0
  9
$USERR3
 40
0.0
  9
$USERR4
 40
0.0
  9
$USERR5
 40
0.0
  9
$WORLDVIEW
 70
     1
  9
$SHADEDGE
 70
     3
  9
$SHADEDIF
 70
    70
  9
$TILEMODE
 70
     1
  9
$MAXACTVP
 70
    64
  9
$PINSBASE
 10
0.0
 20
0.0
 30
0.0
  9
$PLIMCHECK
 70
     0
  9
$PEXTMIN
 10
1.000000000000000E+20
 20
1.000000000000000E+20
 30
1.000000000000000E+20
  9
$PEXTMAX
 10
-1.000000000000000E+20
 20
-1.000000000000000E+20
 30
-1.000000000000000E+20
  9
$PLIMMIN
 10
0.0
 20
0.0
  9
$PLIMMAX
 10
12.0
 20
9.0
  9
$UNITMODE
 70
     0
  9
$VISRETAIN
 70
     1
  9
$PLINEGEN
 70
     0
  9
$PSLTSCALE
 70
     1
  9
$TREEDEPTH
 70
  3020
  9
$CMLSTYLE
  2
STANDARD
  9
$CMLJUST
 70
     0
  9
$CMLSCALE
 40
1.0
  9
$PROXYGRAPHICS
 70
     1
  9
$MEASUREMENT
 70
     0
  9
$CELWEIGHT
370
    -1
  9
$ENDCAPS
280
     0
  9
$JOINSTYLE
280
     0
  9
$LWDISPLAY
290
     0
  9
$INSUNITS
 70
     0
  9
$HYPERLINKBASE
  1

  9
$STYLESHEET
  1

  9
$XEDIT
290
     1
  9
$CEPSNTYPE
380
     0
  9
$PSTYLEMODE
290
     1
  9
$FINGERPRINTGUID
  2
{A42321FD-4D3B-470A-B3BE-A3689E04D828}
  9
$VERSIONGUID
  2
{0BC4B973-5440-4D25-B6C4-A7E24698FE79}
  9
$EXTNAMES
290
     1
  9
$PSVPSCALE
 40
0.0
  9
$OLESTARTUP
290
     0
  9
$SORTENTS
280
   127
  9
$INDEXCTL
280
     0
  9
$HIDETEXT
280
     0
  9
$XCLIPFRAME
280
     2
  9
$HALOGAP
280
     0
  9
$OBSCOLOR
 70
   257
  9
$OBSLTYPE
280
     0
  9
$INTERSECTIONDISPLAY
280
     0
  9
$INTERSECTIONCOLOR
 70
   257
  9
$DIMASSOC
280
     1
  9
$PROJECTNAME
  1

  9
$CAMERADISPLAY
290
     0
  9
$LENSLENGTH
 40
50.0
  9
$CAMERAHEIGHT
 40
0.0
  9
$STEPSPERSEC
 40
2.0
  9
$STEPSIZE
 40
6.0
  9
$3DDWFPREC
 40
2.0
  9
$PSOLWIDTH
 40
0.25
  9
$PSOLHEIGHT
 40
4.0
  9
$LOFTANG1
 40
1.570796326794896
  9
$LOFTANG2
 40
1.570796326794896
  9
$LOFTMAG1
 40
0.0
  9
$LOFTMAG2
 40
0.0
  9
$LOFTPARAM
 70
     7
  9
$LOFTNORMALS
280
     1
  9
$LATITUDE
 40
37.795
  9
$LONGITUDE
 40
-122.394
  9
$NORTHDIRECTION
 40
0.0
  9
$TIMEZONE
 70
 -8000
  9
$LIGHTGLYPHDISPLAY
280
     1
  9
$TILEMODELIGHTSYNCH
280
     1
  9
$CMATERIAL
347
17B
  9
$SOLIDHIST
280
     0
  9
$SHOWHIST
280
     1
  9
$DWFFRAME
280
     2
  9
$DGNFRAME
280
     0
  9
$REALWORLDSCALE
290
     1
  9
$INTERFERECOLOR
 62
     1
  9
$INTERFEREOBJVS
345
19D
  9
$INTERFEREVPVS
346
19A
  9
$CSHADOW
280
     0
  9
$SHADOWPLANELOCATION
 40
0.0
  0
ENDSEC
  0
SECTION
  2
CLASSES
  0
CLASS
  1
ACDBDICTIONARYWDFLT
  2
AcDbDictionaryWithDefault
  3
ObjectDBX Classes
 90
        0
 91
        1
280
     0
281
     0
  0
CLASS
  1
MATERIAL
  2
AcDbMaterial
  3
ObjectDBX Classes
 90
     1153
 91
        3
280
     0
281
     0
  0
CLASS
  1
VISUALSTYLE
  2
AcDbVisualStyle
  3
ObjectDBX Classes
 90
     4095
 91
       24
280
     0
281
     0
  0
CLASS
  1
TABLESTYLE
  2
AcDbTableStyle
  3
ObjectDBX Classes
 90
     4095
 91
        1
280
     0
281
     0
  0
CLASS
  1
SCALE
  2
AcDbScale
  3
ObjectDBX Classes
 90
     1153
 91
       17
280
     0
281
     0
  0
CLASS
  1
MLEADERSTYLE
  2
AcDbMLeaderStyle
  3
ACDB_MLEADERSTYLE_CLASS
 90
     4095
 91
        1
280
     0
281
     0
  0
CLASS
  1
ACDBSECTIONVIEWSTYLE
  2
AcDbSectionViewStyle
  3
ObjectDBX Classes
 90
     1025
 91
        1
280
     0
281
     0
  0
CLASS
  1
ACDBDETAILVIEWSTYLE
  2
AcDbDetailViewStyle
  3
ObjectDBX Classes
 90
     1025
 91
        1
280
     0
281
     0
  0
CLASS
  1
DICTIONARYVAR
  2
AcDbDictionaryVar
  3
ObjectDBX Classes
 90
        0
 91
        9
280
     0
281
     0
  0
CLASS
  1
SORTENTSTABLE
  2
AcDbSortentsTable
  3
ObjectDBX Classes
 90
        0
 91
        1
280
     0
281
     0
  0
CLASS
  1
CELLSTYLEMAP
  2
AcDbCellStyleMap
  3
ObjectDBX Classes
 90
     1152
 91
        5
280
     0
281
     0
  0
ENDSEC
  0
SECTION
  2
TABLES
  0
TABLE
  2
VPORT
  5
8
330
0
100
AcDbSymbolTable
 70
     1
  0
VPORT
  5
155
330
8
100
AcDbSymbolTableRecord
100
AcDbViewportTableRecord
  2
*ACTIVE
 70
     0
 10
0.0
 20
0.0
 11
1.0
 21
1.0
 12
1825.860353447838
 22
-104.4526109296439
 13
0.0
 23
0.0
 14
0.5
 24
0.5
 15
0.5
 25
0.5
 16
0.0
 26
0.0
 36
1.0
 17
0.0
 27
0.0
 37
0.0
 40
4665.720292034431
 41
1.846597462514417
 42
50.0
 43
0.0
 44
0.0
 50
0.0
 51
0.0
 71
     0
 72
 10000
 73
     1
 74
     3
 75
     0
 76
     0
 77
     0
 78
     0
281
     0
 65
     1
110
0.0
120
0.0
130
0.0
111
1.0
121
0.0
131
0.0
112
0.0
122
1.0
132
0.0
 79
     0
146
0.0
348
199
 60
     3
 61
     5
292
     1
282
     1
141
0.0
142
0.0
 63
   250
421
  3355443
1001
ACAD_NAV_VCDISPLAY
1070
     3
  0
ENDTAB
  0
TABLE
  2
LTYPE
  5
5
330
0
100
AcDbSymbolTable
 70
     3
  0
LTYPE
  5
14
330
5
100
AcDbSymbolTableRecord
100
AcDbLinetypeTableRecord
  2
BYBLOCK
 70
     0
  3

 72
    65
 73
     0
 40
0.0
  0
LTYPE
  5
15
330
5
100
AcDbSymbolTableRecord
100
AcDbLinetypeTableRecord
  2
BYLAYER
 70
     0
  3

 72
    65
 73
     0
 40
0.0
  0
LTYPE
  5
16
330
5
100
AcDbSymbolTableRecord
100
AcDbLinetypeTableRecord
  2
CONTINUOUS
 70
     0
  3
Solid line
 72
    65
 73
     0
 40
0.0
  0
LTYPE
  5
1C4
330
5
100
AcDbSymbolTableRecord
100
AcDbLinetypeTableRecord
  2
PHANTOM2
 70
     0
  3
___ _ _ ___ _ _ ___ _ _ ___ _ _
 72
    65
 73
     6
 40
1.25
 49
0.625
 74
     0
 49
-0.125
 74
     0
 49
0.125
 74
     0
 49
-0.125
 74
     0
 49
0.125
 74
     0
 49
-0.125
 74
     0
  0
ENDTAB
  0
TABLE
  2
LAYER
  5
2
102
{ACAD_XDICTIONARY
360
1E1
102
}
330
0
100
AcDbSymbolTable
 70
     3
  0
LAYER
  5
10
102
{ACAD_XDICTIONARY
360
1CD
102
}
330
2
100
AcDbSymbolTableRecord
100
AcDbLayerTableRecord
  2
0
 70
     0
 62
     7
  6
CONTINUOUS
370
    -3
390
E0
347
18B
  0
LAYER
  5
296
330
2
100
AcDbSymbolTableRecord
100
AcDbLayerTableRecord
  2
HEWI
 70
     0
 62
     7
  6
CONTINUOUS
370
     9
390
E0
347
18B
1001
AcAecLayerStandard
1000

1000

1001
AcCmTransparency
1071
        0
  0
LAYER
  5
309
330
2
100
AcDbSymbolTableRecord
100
AcDbLayerTableRecord
  2
Defpoints
 70
     0
 62
     7
  6
CONTINUOUS
290
     0
370
    -3
390
E0
347
18B
  0
ENDTAB
  0
TABLE
  2
STYLE
  5
3
330
0
100
AcDbSymbolTable
 70
     1
  0
STYLE
  5
11
330
3
100
AcDbSymbolTableRecord
100
AcDbTextStyleTableRecord
  2
STANDARD
 70
     0
 40
0.0
 41
1.0
 50
0.0
 71
     0
 42
0.2
  3
txt
  4

  0
ENDTAB
  0
TABLE
  2
VIEW
  5
6
330
0
100
AcDbSymbolTable
 70
     1
  0
ENDTAB
  0
TABLE
  2
UCS
  5
7
330
0
100
AcDbSymbolTable
 70
     0
  0
ENDTAB
  0
TABLE
  2
APPID
  5
9
330
0
100
AcDbSymbolTable
 70
     6
  0
APPID
  5
12
330
9
100
AcDbSymbolTableRecord
100
AcDbRegAppTableRecord
  2
ACAD
 70
     0
  0
APPID
  5
1D1
330
9
100
AcDbSymbolTableRecord
100
AcDbRegAppTableRecord
  2
ACAD_NAV_VCDISPLAY
 70
     0
  0
APPID
  5
297
330
9
100
AcDbSymbolTableRecord
100
AcDbRegAppTableRecord
  2
AcAecLayerStandard
 70
     0
  0
APPID
  5
298
330
9
100
AcDbSymbolTableRecord
100
AcDbRegAppTableRecord
  2
AcCmTransparency
 70
     0
  0
APPID
  5
2AA
330
9
100
AcDbSymbolTableRecord
100
AcDbRegAppTableRecord
  2
ACAD_PSEXT
 70
     0
  0
APPID
  5
4A0
330
9
100
AcDbSymbolTableRecord
100
AcDbRegAppTableRecord
  2
ACAD_EXEMPT_FROM_CAD_STANDARDS
 70
     0
  0
ENDTAB
  0
TABLE
  2
DIMSTYLE
  5
A
330
0
100
AcDbSymbolTable
 70
     2
100
AcDbDimStyleTable
 71
     1
340
27
  0
DIMSTYLE
105
27
102
{ACAD_REACTORS
330
870
330
8D9
102
}
330
A
100
AcDbSymbolTableRecord
100
AcDbDimStyleTableRecord
  2
STANDARD
 70
     0
340
11
  0
ENDTAB
  0
TABLE
  2
BLOCK_RECORD
  5
1
330
0
100
AcDbSymbolTable
 70
    48
  0
BLOCK_RECORD
  5
1F
102
{ACAD_XDICTIONARY
360
D9
102
}
330
1
100
AcDbSymbolTableRecord
100
AcDbBlockTableRecord
  2
*MODEL_SPACE
340
1C8
 70
     0
280
     1
281
     0
  0
BLOCK_RECORD
  5
1B
102
{ACAD_XDICTIONARY
360
D7
102
}
330
1
100
AcDbSymbolTableRecord
100
AcDbBlockTableRecord
  2
*PAPER_SPACE
340
1C9
 70
     0
280
     1
281
     0
  0
BLOCK_RECORD
  5
3A3
330
1
100
AcDbSymbolTableRecord
100
AcDbBlockTableRecord
  2
*D0
340
0
 70
     0
280
     1
281
     0
  0
BLOCK_RECORD
  5
3B1
330
1
100
AcDbSymbolTableRecord
100
AcDbBlockTableRecord
  2
*D1
340
0
 70
     0
280
     1
281
     0
  0
BLOCK_RECORD
  5
3BF
330
1
100
AcDbSymbolTableRecord
100
AcDbBlockTableRecord
  2
*D2
340
0
 70
     0
280
     1
281
     0
  0
BLOCK_RECORD
  5
3CD
330
1
100
AcDbSymbolTableRecord
100
AcDbBlockTableRecord
  2
*D3
340
0
 70
     0
280
     1
281
     0
  0
BLOCK_RECORD
  5
3DD
330
1
100
AcDbSymbolTableRecord
100
AcDbBlockTableRecord
  2
*D4
340
0
 70
     0
280
     1
281
     0
  0
BLOCK_RECORD
  5
427
330
1
100
AcDbSymbolTableRecord
100
AcDbBlockTableRecord
  2
*D5
340
0
 70
     0
280
     1
281
     0
  0
BLOCK_RECORD
  5
5DF
330
1
100
AcDbSymbolTableRecord
100
AcDbBlockTableRecord
  2
*D6
340
0
 70
     0
280
     1
281
     0
  0
BLOCK_RECORD
  5
5ED
330
1
100
AcDbSymbolTableRecord
100
AcDbBlockTableRecord
  2
*D7
340
0
 70
     0
280
     1
281
     0
  0
BLOCK_RECORD
  5
5FB
330
1
100
AcDbSymbolTableRecord
100
AcDbBlockTableRecord
  2
*D8
340
0
 70
     0
280
     1
281
     0
  0
BLOCK_RECORD
  5
666
330
1
100
AcDbSymbolTableRecord
100
AcDbBlockTableRecord
  2
*D9
340
0
 70
     0
280
     1
281
     0
  0
BLOCK_RECORD
  5
692
330
1
100
AcDbSymbolTableRecord
100
AcDbBlockTableRecord
  2
*D10
340
0
 70
     0
280
     1
281
     0
  0
BLOCK_RECORD
  5
7F2
330
1
100
AcDbSymbolTableRecord
100
AcDbBlockTableRecord
  2
*D11
340
0
 70
     0
280
     1
281
     0
  0
BLOCK_RECORD
  5
85D
330
1
100
AcDbSymbolTableRecord
100
AcDbBlockTableRecord
  2
*D12
340
0
 70
     0
280
     1
281
     0
  0
BLOCK_RECORD
  5
871
330
1
100
AcDbSymbolTableRecord
100
AcDbBlockTableRecord
  2
*D13
340
0
 70
     0
280
     1
281
     0
  0
BLOCK_RECORD
  5
8DA
330
1
100
AcDbSymbolTableRecord
100
AcDbBlockTableRecord
  2
*D14
340
0
 70
     0
280
     1
281
     0
  0
BLOCK_RECORD
  5
9CE
330
1
100
AcDbSymbolTableRecord
100
AcDbBlockTableRecord
  2
*D15
340
0
 70
     0
280
     1
281
     0
  0
BLOCK_RECORD
  5
A2B
330
1
100
AcDbSymbolTableRecord
100
AcDbBlockTableRecord
  2
*D16
340
0
 70
     0
280
     1
281
     0
  0
BLOCK_RECORD
  5
A39
330
1
100
AcDbSymbolTableRecord
100
AcDbBlockTableRecord
  2
*D17
340
0
 70
     0
280
     1
281
     0
  0
BLOCK_RECORD
  5
A47
330
1
100
AcDbSymbolTableRecord
100
AcDbBlockTableRecord
  2
*D18
340
0
 70
     0
280
     1
281
     0
  0
BLOCK_RECORD
  5
A55
330
1
100
AcDbSymbolTableRecord
100
AcDbBlockTableRecord
  2
*D19
340
0
 70
     0
280
     1
281
     0
  0
BLOCK_RECORD
  5
A6A
330
1
100
AcDbSymbolTableRecord
100
AcDbBlockTableRecord
  2
*D20
340
0
 70
     0
280
     1
281
     0
  0
BLOCK_RECORD
  5
A79
330
1
100
AcDbSymbolTableRecord
100
AcDbBlockTableRecord
  2
*D21
340
0
 70
     0
280
     1
281
     0
  0
BLOCK_RECORD
  5
A87
330
1
100
AcDbSymbolTableRecord
100
AcDbBlockTableRecord
  2
*D22
340
0
 70
     0
280
     1
281
     0
  0
BLOCK_RECORD
  5
A9C
330
1
100
AcDbSymbolTableRecord
100
AcDbBlockTableRecord
  2
*D23
340
0
 70
     0
280
     1
281
     0
  0
BLOCK_RECORD
  5
AAA
330
1
100
AcDbSymbolTableRecord
100
AcDbBlockTableRecord
  2
*D24
340
0
 70
     0
280
     1
281
     0
  0
BLOCK_RECORD
  5
AB8
330
1
100
AcDbSymbolTableRecord
100
AcDbBlockTableRecord
  2
*D25
340
0
 70
     0
280
     1
281
     0
  0
BLOCK_RECORD
  5
ACB
330
1
100
AcDbSymbolTableRecord
100
AcDbBlockTableRecord
  2
*D26
340
0
 70
     0
280
     1
281
     0
  0
BLOCK_RECORD
  5
ADD
330
1
100
AcDbSymbolTableRecord
100
AcDbBlockTableRecord
  2
*D27
340
0
 70
     0
280
     1
281
     0
  0
BLOCK_RECORD
  5
AED
330
1
100
AcDbSymbolTableRecord
100
AcDbBlockTableRecord
  2
*D28
340
0
 70
     0
280
     1
281
     0
  0
BLOCK_RECORD
  5
B00
330
1
100
AcDbSymbolTableRecord
100
AcDbBlockTableRecord
  2
*D29
340
0
 70
     0
280
     1
281
     0
  0
BLOCK_RECORD
  5
B12
330
1
100
AcDbSymbolTableRecord
100
AcDbBlockTableRecord
  2
*D30
340
0
 70
     0
280
     1
281
     0
  0
BLOCK_RECORD
  5
B25
330
1
100
AcDbSymbolTableRecord
100
AcDbBlockTableRecord
  2
*D31
340
0
 70
     0
280
     1
281
     0
  0
BLOCK_RECORD
  5
B66
330
1
100
AcDbSymbolTableRecord
100
AcDbBlockTableRecord
  2
*D32
340
0
 70
     0
280
     1
281
     0
  0
BLOCK_RECORD
  5
B74
330
1
100
AcDbSymbolTableRecord
100
AcDbBlockTableRecord
  2
*D33
340
0
 70
     0
280
     1
281
     0
  0
BLOCK_RECORD
  5
BCC
330
1
100
AcDbSymbolTableRecord
100
AcDbBlockTableRecord
  2
*D35
340
0
 70
     0
280
     1
281
     0
  0
BLOCK_RECORD
  5
BDA
330
1
100
AcDbSymbolTableRecord
100
AcDbBlockTableRecord
  2
*D36
340
0
 70
     0
280
     1
281
     0
  0
BLOCK_RECORD
  5
BE8
330
1
100
AcDbSymbolTableRecord
100
AcDbBlockTableRecord
  2
*D37
340
0
 70
     0
280
     1
281
     0
  0
BLOCK_RECORD
  5
BF6
330
1
100
AcDbSymbolTableRecord
100
AcDbBlockTableRecord
  2
*D38
340
0
 70
     0
280
     1
281
     0
  0
BLOCK_RECORD
  5
C05
330
1
100
AcDbSymbolTableRecord
100
AcDbBlockTableRecord
  2
*D39
340
0
 70
     0
280
     1
281
     0
  0
BLOCK_RECORD
  5
C13
330
1
100
AcDbSymbolTableRecord
100
AcDbBlockTableRecord
  2
*D40
340
0
 70
     0
280
     1
281
     0
  0
BLOCK_RECORD
  5
C21
330
1
100
AcDbSymbolTableRecord
100
AcDbBlockTableRecord
  2
*D41
340
0
 70
     0
280
     1
281
     0
  0
BLOCK_RECORD
  5
C3B
330
1
100
AcDbSymbolTableRecord
100
AcDbBlockTableRecord
  2
*D42
340
0
 70
     0
280
     1
281
     0
  0
BLOCK_RECORD
  5
C4A
330
1
100
AcDbSymbolTableRecord
100
AcDbBlockTableRecord
  2
*D43
340
0
 70
     0
280
     1
281
     0
  0
BLOCK_RECORD
  5
C58
330
1
100
AcDbSymbolTableRecord
100
AcDbBlockTableRecord
  2
*D44
340
0
 70
     0
280
     1
281
     0
  0
BLOCK_RECORD
  5
CDF
330
1
100
AcDbSymbolTableRecord
100
AcDbBlockTableRecord
  2
*D45
340
0
 70
     0
280
     1
281
     0
  0
BLOCK_RECORD
  5
D47
330
1
100
AcDbSymbolTableRecord
100
AcDbBlockTableRecord
  2
*D46
340
0
 70
     0
280
     1
281
     0
  0
BLOCK_RECORD
  5
D55
330
1
100
AcDbSymbolTableRecord
100
AcDbBlockTableRecord
  2
*D47
340
0
 70
     0
280
     1
281
     0
  0
ENDTAB
  0
ENDSEC
  0
SECTION
  2
BLOCKS
  0
BLOCK
  5
20
330
1F
100
AcDbEntity
  8
0
100
AcDbBlockBegin
  2
*MODEL_SPACE
 70
     0
 10
0.0
 20
0.0
 30
0.0
  3
*MODEL_SPACE
  1

  0
ENDBLK
  5
21
330
1F
100
AcDbEntity
  8
0
100
AcDbBlockEnd
  0
BLOCK
  5
1C
330
1B
100
AcDbEntity
 67
     1
  8
0
100
AcDbBlockBegin
  2
*PAPER_SPACE
 70
     0
 10
0.0
 20
0.0
 30
0.0
  3
*PAPER_SPACE
  1

  0
ENDBLK
  5
1D
330
1B
100
AcDbEntity
 67
     1
  8
0
100
AcDbBlockEnd
  0
BLOCK
  5
3A4
330
3A3
100
AcDbEntity
  8
0
100
AcDbBlockBegin
  2
*D0
 70
     1
 10
0.0
 20
0.0
 30
0.0
  3
*D0
  1

  0
LINE
  5
3A6
330
3A3
100
AcDbEntity
  8
0
 62
     0
440
 16777216
370
    -2
100
AcDbLine
 10
162.7999304362201
 20
320.0712994837768
 30
0.0
 11
162.7999304362201
 21
272.7421345327825
 31
0.0
  0
LINE
  5
3A7
330
3A3
100
AcDbEntity
  8
0
 62
     0
440
 16777216
370
    -2
100
AcDbLine
 10
456.7999304362201
 20
320.0712994837768
 30
0.0
 11
456.7999304362201
 21
272.7421345327825
 31
0.0
  0
LINE
  5
3A8
330
3A3
100
AcDbEntity
  8
0
 62
     0
440
 16777216
370
    -2
100
AcDbLine
 10
162.9799304362201
 20
272.9221345327825
 30
0.0
 11
309.1399304362202
 21
272.9221345327825
 31
0.0
  0
LINE
  5
3A9
330
3A3
100
AcDbEntity
  8
0
 62
     0
440
 16777216
370
    -2
100
AcDbLine
 10
456.6199304362201
 20
272.9221345327825
 30
0.0
 11
310.4599304362201
 21
272.9221345327825
 31
0.0
  0
SOLID
  5
3AA
330
3A3
100
AcDbEntity
  8
0
 62
     0
440
 16777216
100
AcDbTrace
 10
162.9799304362201
 20
272.9521345327825
 30
0.0
 11
162.9799304362201
 21
272.8921345327825
 31
0.0
 12
162.7999304362201
 22
272.9221345327825
 32
0.0
 13
162.7999304362201
 23
272.9221345327825
 33
0.0
  0
SOLID
  5
3AB
330
3A3
100
AcDbEntity
  8
0
 62
     0
440
 16777216
100
AcDbTrace
 10
456.6199304362201
 20
272.9521345327825
 30
0.0
 11
456.6199304362201
 21
272.8921345327825
 31
0.0
 12
456.7999304362201
 22
272.9221345327825
 32
0.0
 13
456.7999304362201
 23
272.9221345327825
 33
0.0
  0
MTEXT
  5
3AC
330
3A3
100
AcDbEntity
  8
0
 62
     0
440
 16777216
100
AcDbMText
 10
309.7999304362201
 20
272.9221345327825
 30
0.0
 40
0.18
 41
0.0
 46
0.0
 71
     5
 72
     1
  1
\A1;294.0000
 73
     1
 44
1.0
  0
POINT
  5
3AD
330
3A3
100
AcDbEntity
  8
Defpoints
 62
     0
440
 16777216
100
AcDbPoint
 10
162.7999304362201
 20
320.1337994837768
 30
0.0
  0
POINT
  5
3AE
330
3A3
100
AcDbEntity
  8
Defpoints
 62
     0
440
 16777216
100
AcDbPoint
 10
456.7999304362201
 20
320.1337994837768
 30
0.0
  0
POINT
  5
3AF
330
3A3
100
AcDbEntity
  8
Defpoints
 62
     0
440
 16777216
100
AcDbPoint
 10
456.7999304362201
 20
272.9221345327825
 30
0.0
  0
ENDBLK
  5
3A5
330
3A3
100
AcDbEntity
  8
0
100
AcDbBlockEnd
  0
BLOCK
  5
3B2
330
3B1
100
AcDbEntity
  8
0
100
AcDbBlockBegin
  2
*D1
 70
     1
 10
0.0
 20
0.0
 30
0.0
  3
*D1
  1

  0
LINE
  5
3B4
330
3B1
100
AcDbEntity
  8
0
 62
     0
440
 16777216
370
    -2
100
AcDbLine
 10
156.7999304362201
 20
320.0712994837768
 30
0.0
 11
156.7999304362201
 21
264.6018721529912
 31
0.0
  0
LINE
  5
3B5
330
3B1
100
AcDbEntity
  8
0
 62
     0
440
 16777216
370
    -2
100
AcDbLine
 10
462.7999304362202
 20
320.0712994837768
 30
0.0
 11
462.7999304362202
 21
264.6018721529912
 31
0.0
  0
LINE
  5
3B6
330
3B1
100
AcDbEntity
  8
0
 62
     0
440
 16777216
370
    -2
100
AcDbLine
 10
156.9799304362201
 20
264.7818721529912
 30
0.0
 11
309.1549304362201
 21
264.7818721529912
 31
0.0
  0
LINE
  5
3B7
330
3B1
100
AcDbEntity
  8
0
 62
     0
440
 16777216
370
    -2
100
AcDbLine
 10
462.61993043622
 20
264.7818721529912
 30
0.0
 11
310.4449304362201
 21
264.7818721529912
 31
0.0
  0
SOLID
  5
3B8
330
3B1
100
AcDbEntity
  8
0
 62
     0
440
 16777216
100
AcDbTrace
 10
156.9799304362201
 20
264.8118721529912
 30
0.0
 11
156.9799304362201
 21
264.7518721529912
 31
0.0
 12
156.7999304362201
 22
264.7818721529912
 32
0.0
 13
156.7999304362201
 23
264.7818721529912
 33
0.0
  0
SOLID
  5
3B9
330
3B1
100
AcDbEntity
  8
0
 62
     0
440
 16777216
100
AcDbTrace
 10
462.61993043622
 20
264.8118721529912
 30
0.0
 11
462.61993043622
 21
264.7518721529912
 31
0.0
 12
462.7999304362202
 22
264.7818721529912
 32
0.0
 13
462.7999304362202
 23
264.7818721529912
 33
0.0
  0
MTEXT
  5
3BA
330
3B1
100
AcDbEntity
  8
0
 62
     0
440
 16777216
100
AcDbMText
 10
309.7999304362201
 20
264.7818721529912
 30
0.0
 40
0.18
 41
0.0
 46
0.0
 71
     5
 72
     1
  1
\A1;306.0000
 73
     1
 44
1.0
  0
POINT
  5
3BB
330
3B1
100
AcDbEntity
  8
Defpoints
 62
     0
440
 16777216
100
AcDbPoint
 10
156.7999304362201
 20
320.1337994837768
 30
0.0
  0
POINT
  5
3BC
330
3B1
100
AcDbEntity
  8
Defpoints
 62
     0
440
 16777216
100
AcDbPoint
 10
462.7999304362202
 20
320.1337994837768
 30
0.0
  0
POINT
  5
3BD
330
3B1
100
AcDbEntity
  8
Defpoints
 62
     0
440
 16777216
100
AcDbPoint
 10
462.7999304362202
 20
264.7818721529912
 30
0.0
  0
ENDBLK
  5
3B3
330
3B1
100
AcDbEntity
  8
0
100
AcDbBlockEnd
  0
BLOCK
  5
3C0
330
3BF
100
AcDbEntity
  8
0
100
AcDbBlockBegin
  2
*D2
 70
     1
 10
0.0
 20
0.0
 30
0.0
  3
*D2
  1

  0
LINE
  5
3C2
330
3BF
100
AcDbEntity
  8
0
 62
     0
440
 16777216
370
    -2
100
AcDbLine
 10
156.7999304362201
 20
320.0712994837768
 30
0.0
 11
156.7999304362201
 21
256.4616106061355
 31
0.0
  0
LINE
  5
3C3
330
3BF
100
AcDbEntity
  8
0
 62
     0
440
 16777216
370
    -2
100
AcDbLine
 10
462.7999304362202
 20
320.0712994837768
 30
0.0
 11
462.7999304362202
 21
256.4616106061355
 31
0.0
  0
LINE
  5
3C4
330
3BF
100
AcDbEntity
  8
0
 62
     0
440
 16777216
370
    -2
100
AcDbLine
 10
156.9799304362201
 20
256.6416106061355
 30
0.0
 11
309.1549304362201
 21
256.6416106061355
 31
0.0
  0
LINE
  5
3C5
330
3BF
100
AcDbEntity
  8
0
 62
     0
440
 16777216
370
    -2
100
AcDbLine
 10
462.61993043622
 20
256.6416106061355
 30
0.0
 11
310.4449304362201
 21
256.6416106061355
 31
0.0
  0
SOLID
  5
3C6
330
3BF
100
AcDbEntity
  8
0
 62
     0
440
 16777216
100
AcDbTrace
 10
156.9799304362201
 20
256.6716106061355
 30
0.0
 11
156.9799304362201
 21
256.6116106061354
 31
0.0
 12
156.7999304362201
 22
256.6416106061355
 32
0.0
 13
156.7999304362201
 23
256.6416106061355
 33
0.0
  0
SOLID
  5
3C7
330
3BF
100
AcDbEntity
  8
0
 62
     0
440
 16777216
100
AcDbTrace
 10
462.61993043622
 20
256.6716106061355
 30
0.0
 11
462.61993043622
 21
256.6116106061354
 31
0.0
 12
462.7999304362202
 22
256.6416106061355
 32
0.0
 13
462.7999304362202
 23
256.6416106061355
 33
0.0
  0
MTEXT
  5
3C8
330
3BF
100
AcDbEntity
  8
0
 62
     0
440
 16777216
100
AcDbMText
 10
309.7999304362201
 20
256.6416106061355
 30
0.0
 40
0.18
 41
0.0
 46
0.0
 71
     5
 72
     1
  1
\A1;306.0000
 73
     1
 44
1.0
  0
POINT
  5
3C9
330
3BF
100
AcDbEntity
  8
Defpoints
 62
     0
440
 16777216
100
AcDbPoint
 10
156.7999304362201
 20
320.1337994837768
 30
0.0
  0
POINT
  5
3CA
330
3BF
100
AcDbEntity
  8
Defpoints
 62
     0
440
 16777216
100
AcDbPoint
 10
462.7999304362202
 20
320.1337994837768
 30
0.0
  0
POINT
  5
3CB
330
3BF
100
AcDbEntity
  8
Defpoints
 62
     0
440
 16777216
100
AcDbPoint
 10
462.7999304362202
 20
256.6416106061355
 30
0.0
  0
ENDBLK
  5
3C1
330
3BF
100
AcDbEntity
  8
0
100
AcDbBlockEnd
  0
BLOCK
  5
3CE
330
3CD
100
AcDbEntity
  8
0
100
AcDbBlockBegin
  2
*D3
 70
     1
 10
0.0
 20
0.0
 30
0.0
  3
*D3
  1

  0
LINE
  5
3D0
330
3CD
100
AcDbEntity
  8
0
 62
     0
440
 16777216
370
    -2
100
AcDbLine
 10
159.7999304362199
 20
108.0474958923746
 30
0.0
 11
159.7999304362199
 21
61.52375887453111
 31
0.0
  0
LINE
  5
3D1
330
3CD
100
AcDbEntity
  8
0
 62
     0
440
 16777216
370
    -2
100
AcDbLine
 10
459.7999304362199
 20
108.0474958923746
 30
0.0
 11
459.7999304362199
 21
61.52375887453111
 31
0.0
  0
LINE
  5
3D2
330
3CD
100
AcDbEntity
  8
0
 62
     0
440
 16777216
370
    -2
100
AcDbLine
 10
159.9799304362199
 20
61.7037588745311
 30
0.0
 11
309.1699304362199
 21
61.7037588745311
 31
0.0
  0
LINE
  5
3D3
330
3CD
100
AcDbEntity
  8
0
 62
     0
440
 16777216
370
    -2
100
AcDbLine
 10
459.6199304362198
 20
61.7037588745311
 30
0.0
 11
310.4299304362199
 21
61.7037588745311
 31
0.0
  0
SOLID
  5
3D4
330
3CD
100
AcDbEntity
  8
0
 62
     0
440
 16777216
100
AcDbTrace
 10
159.9799304362199
 20
61.73375887453111
 30
0.0
 11
159.9799304362199
 21
61.67375887453109
 31
0.0
 12
159.7999304362199
 22
61.7037588745311
 32
0.0
 13
159.7999304362199
 23
61.7037588745311
 33
0.0
  0
SOLID
  5
3D5
330
3CD
100
AcDbEntity
  8
0
 62
     0
440
 16777216
100
AcDbTrace
 10
459.6199304362198
 20
61.73375887453111
 30
0.0
 11
459.6199304362198
 21
61.67375887453109
 31
0.0
 12
459.7999304362199
 22
61.7037588745311
 32
0.0
 13
459.7999304362199
 23
61.7037588745311
 33
0.0
  0
MTEXT
  5
3D6
330
3CD
100
AcDbEntity
  8
0
 62
     0
440
 16777216
100
AcDbMText
 10
309.7999304362199
 20
61.7037588745311
 30
0.0
 40
0.18
 41
0.0
 46
0.0
 71
     5
 72
     1
  1
\A1;300.0000
 73
     1
 44
1.0
  0
POINT
  5
3D7
330
3CD
100
AcDbEntity
  8
Defpoints
 62
     0
440
 16777216
100
AcDbPoint
 10
159.7999304362199
 20
108.1099958923746
 30
0.0
  0
POINT
  5
3D8
330
3CD
100
AcDbEntity
  8
Defpoints
 62
     0
440
 16777216
100
AcDbPoint
 10
459.7999304362199
 20
108.1099958923746
 30
0.0
  0
POINT
  5
3D9
330
3CD
100
AcDbEntity
  8
Defpoints
 62
     0
440
 16777216
100
AcDbPoint
 10
459.7999304362199
 20
61.7037588745311
 30
0.0
  0
ENDBLK
  5
3CF
330
3CD
100
AcDbEntity
  8
0
100
AcDbBlockEnd
  0
BLOCK
  5
3DE
330
3DD
100
AcDbEntity
  8
0
100
AcDbBlockBegin
  2
*D4
 70
     1
 10
0.0
 20
0.0
 30
0.0
  3
*D4
  1

  0
LINE
  5
3E0
330
3DD
100
AcDbEntity
  8
0
 62
     0
440
 16777216
370
    -2
100
AcDbLine
 10
159.7999304362199
 20
268.1468510935842
 30
0.0
 11
159.7999304362199
 21
241.0379566228707
 31
0.0
  0
LINE
  5
3E1
330
3DD
100
AcDbEntity
  8
0
 62
     0
440
 16777216
370
    -2
100
AcDbLine
 10
459.7999304362199
 20
268.1468510935842
 30
0.0
 11
459.7999304362199
 21
241.0379566228707
 31
0.0
  0
LINE
  5
3E2
330
3DD
100
AcDbEntity
  8
0
 62
     0
440
 16777216
370
    -2
100
AcDbLine
 10
159.9799304362199
 20
241.2179566228707
 30
0.0
 11
309.16993043622
 21
241.2179566228707
 31
0.0
  0
LINE
  5
3E3
330
3DD
100
AcDbEntity
  8
0
 62
     0
440
 16777216
370
    -2
100
AcDbLine
 10
459.6199304362198
 20
241.2179566228707
 30
0.0
 11
310.42993043622
 21
241.2179566228707
 31
0.0
  0
SOLID
  5
3E4
330
3DD
100
AcDbEntity
  8
0
 62
     0
440
 16777216
100
AcDbTrace
 10
159.9799304362199
 20
241.2479566228707
 30
0.0
 11
159.9799304362199
 21
241.1879566228707
 31
0.0
 12
159.7999304362199
 22
241.2179566228707
 32
0.0
 13
159.7999304362199
 23
241.2179566228707
 33
0.0
  0
SOLID
  5
3E5
330
3DD
100
AcDbEntity
  8
0
 62
     0
440
 16777216
100
AcDbTrace
 10
459.6199304362198
 20
241.2479566228707
 30
0.0
 11
459.6199304362198
 21
241.1879566228707
 31
0.0
 12
459.7999304362199
 22
241.2179566228707
 32
0.0
 13
459.7999304362199
 23
241.2179566228707
 33
0.0
  0
MTEXT
  5
3E6
330
3DD
100
AcDbEntity
  8
0
 62
     0
440
 16777216
100
AcDbMText
 10
309.79993043622
 20
241.2179566228707
 30
0.0
 40
0.18
 41
0.0
 46
0.0
 71
     5
 72
     1
  1
\A1;300.0000
 73
     1
 44
1.0
  0
POINT
  5
3E7
330
3DD
100
AcDbEntity
  8
Defpoints
 62
     0
440
 16777216
100
AcDbPoint
 10
159.7999304362199
 20
268.2093510935842
 30
0.0
  0
POINT
  5
3E8
330
3DD
100
AcDbEntity
  8
Defpoints
 62
     0
440
 16777216
100
AcDbPoint
 10
459.7999304362199
 20
268.2093510935842
 30
0.0
  0
POINT
  5
3E9
330
3DD
100
AcDbEntity
  8
Defpoints
 62
     0
440
 16777216
100
AcDbPoint
 10
459.7999304362199
 20
241.2179566228707
 30
0.0
  0
ENDBLK
  5
3DF
330
3DD
100
AcDbEntity
  8
0
100
AcDbBlockEnd
  0
BLOCK
  5
428
330
427
100
AcDbEntity
  8
0
100
AcDbBlockBegin
  2
*D5
 70
     1
 10
0.0
 20
0.0
 30
0.0
  3
*D5
  1

  0
LINE
  5
42A
330
427
100
AcDbEntity
  8
0
 62
     0
440
 16777216
370
    -2
100
AcDbLine
 10
159.7999304362201
 20
336.1962994837768
 30
0.0
 11
159.7999304362201
 21
388.3783131516943
 31
0.0
  0
LINE
  5
42B
330
427
100
AcDbEntity
  8
0
 62
     0
440
 16777216
370
    -2
100
AcDbLine
 10
459.79993043622
 20
336.1962994837768
 30
0.0
 11
459.79993043622
 21
388.3783131516943
 31
0.0
  0
LINE
  5
42C
330
427
100
AcDbEntity
  8
0
 62
     0
440
 16777216
370
    -2
100
AcDbLine
 10
159.9799304362201
 20
388.1983131516943
 30
0.0
 11
309.1699304362201
 21
388.1983131516943
 31
0.0
  0
LINE
  5
42D
330
427
100
AcDbEntity
  8
0
 62
     0
440
 16777216
370
    -2
100
AcDbLine
 10
459.6199304362198
 20
388.1983131516943
 30
0.0
 11
310.4299304362201
 21
388.1983131516943
 31
0.0
  0
SOLID
  5
42E
330
427
100
AcDbEntity
  8
0
 62
     0
440
 16777216
100
AcDbTrace
 10
159.9799304362201
 20
388.2283131516942
 30
0.0
 11
159.9799304362201
 21
388.1683131516944
 31
0.0
 12
159.7999304362201
 22
388.1983131516943
 32
0.0
 13
159.7999304362201
 23
388.1983131516943
 33
0.0
  0
SOLID
  5
42F
330
427
100
AcDbEntity
  8
0
 62
     0
440
 16777216
100
AcDbTrace
 10
459.6199304362198
 20
388.2283131516942
 30
0.0
 11
459.6199304362198
 21
388.1683131516944
 31
0.0
 12
459.79993043622
 22
388.1983131516943
 32
0.0
 13
459.79993043622
 23
388.1983131516943
 33
0.0
  0
MTEXT
  5
430
330
427
100
AcDbEntity
  8
0
 62
     0
440
 16777216
100
AcDbMText
 10
309.7999304362201
 20
388.1983131516943
 30
0.0
 40
0.18
 41
0.0
 46
0.0
 71
     5
 72
     1
  1
\A1;300.0000
 73
     1
 44
1.0
  0
POINT
  5
431
330
427
100
AcDbEntity
  8
Defpoints
 62
     0
440
 16777216
100
AcDbPoint
 10
159.7999304362201
 20
336.1337994837768
 30
0.0
  0
POINT
  5
432
330
427
100
AcDbEntity
  8
Defpoints
 62
     0
440
 16777216
100
AcDbPoint
 10
459.79993043622
 20
336.1337994837768
 30
0.0
  0
POINT
  5
433
330
427
100
AcDbEntity
  8
Defpoints
 62
     0
440
 16777216
100
AcDbPoint
 10
459.79993043622
 20
388.1983131516943
 30
0.0
  0
ENDBLK
  5
429
330
427
100
AcDbEntity
  8
0
100
AcDbBlockEnd
  0
BLOCK
  5
5E0
330
5DF
100
AcDbEntity
  8
0
100
AcDbBlockBegin
  2
*D6
 70
     1
 10
0.0
 20
0.0
 30
0.0
  3
*D6
  1

  0
LINE
  5
5E2
330
5DF
100
AcDbEntity
  8
0
 62
     0
440
 16777216
370
    -2
100
AcDbLine
 10
217.3919115869405
 20
1314.370014676655
 30
0.0
 11
-42.02463988325183
 21
1314.370014676655
 31
0.0
  0
LINE
  5
5E3
330
5DF
100
AcDbEntity
  8
0
 62
     0
440
 16777216
370
    -2
100
AcDbLine
 10
217.3919115869397
 20
211.3700146766557
 30
0.0
 11
-42.02463988325209
 21
211.3700146766558
 31
0.0
  0
LINE
  5
5E4
330
5DF
100
AcDbEntity
  8
0
 62
     0
440
 16777216
370
    -2
100
AcDbLine
 10
-41.84463988325182
 20
1314.190014676655
 30
0.0
 11
-41.84463988325194
 21
763.0500146766554
 31
0.0
  0
LINE
  5
5E5
330
5DF
100
AcDbEntity
  8
0
 62
     0
440
 16777216
370
    -2
100
AcDbLine
 10
-41.84463988325206
 20
211.5500146766558
 30
0.0
 11
-41.84463988325194
 21
762.6900146766558
 31
0.0
  0
SOLID
  5
5E6
330
5DF
100
AcDbEntity
  8
0
 62
     0
440
 16777216
100
AcDbTrace
 10
-41.87463988325181
 20
1314.190014676655
 30
0.0
 11
-41.81463988325182
 21
1314.190014676655
 31
0.0
 12
-41.84463988325182
 22
1314.370014676655
 32
0.0
 13
-41.84463988325182
 23
1314.370014676655
 33
0.0
  0
SOLID
  5
5E7
330
5DF
100
AcDbEntity
  8
0
 62
     0
440
 16777216
100
AcDbTrace
 10
-41.87463988325206
 20
211.5500146766558
 30
0.0
 11
-41.81463988325206
 21
211.5500146766558
 31
0.0
 12
-41.84463988325206
 22
211.3700146766558
 32
0.0
 13
-41.84463988325206
 23
211.3700146766558
 33
0.0
  0
MTEXT
  5
5E8
330
5DF
100
AcDbEntity
  8
0
 62
     0
440
 16777216
100
AcDbMText
 10
-41.84463988325206
 20
762.8700146766556
 30
0.0
 40
0.18
 41
0.0
 46
0.0
 71
     5
 72
     1
  1
\A1;1103.0000
 73
     1
 44
1.0
  0
POINT
  5
5E9
330
5DF
100
AcDbEntity
  8
Defpoints
 62
     0
440
 16777216
100
AcDbPoint
 10
217.4544115869405
 20
1314.370014676655
 30
0.0
  0
POINT
  5
5EA
330
5DF
100
AcDbEntity
  8
Defpoints
 62
     0
440
 16777216
100
AcDbPoint
 10
217.4544115869397
 20
211.3700146766557
 30
0.0
  0
POINT
  5
5EB
330
5DF
100
AcDbEntity
  8
Defpoints
 62
     0
440
 16777216
100
AcDbPoint
 10
-41.84463988325206
 20
211.3700146766558
 30
0.0
  0
ENDBLK
  5
5E1
330
5DF
100
AcDbEntity
  8
0
100
AcDbBlockEnd
  0
BLOCK
  5
5EE
330
5ED
100
AcDbEntity
  8
0
100
AcDbBlockBegin
  2
*D7
 70
     1
 10
0.0
 20
0.0
 30
0.0
  3
*D7
  1

  0
LINE
  5
5F0
330
5ED
100
AcDbEntity
  8
0
 62
     0
440
 16777216
370
    -2
100
AcDbLine
 10
273.4544115869407
 20
1076.159844572901
 30
0.0
 11
273.4544115869407
 21
1004.035440115677
 31
0.0
  0
LINE
  5
5F1
330
5ED
100
AcDbEntity
  8
0
 62
     0
440
 16777216
370
    -2
100
AcDbLine
 10
305.4544115869407
 20
1076.159844572901
 30
0.0
 11
305.4544115869407
 21
1004.035440115677
 31
0.0
  0
LINE
  5
5F2
330
5ED
100
AcDbEntity
  8
0
 62
     0
440
 16777216
370
    -2
100
AcDbLine
 10
273.6344115869408
 20
1004.215440115677
 30
0.0
 11
288.8844115869408
 21
1004.215440115677
 31
0.0
  0
LINE
  5
5F3
330
5ED
100
AcDbEntity
  8
0
 62
     0
440
 16777216
370
    -2
100
AcDbLine
 10
305.2744115869407
 20
1004.215440115677
 30
0.0
 11
290.0244115869408
 21
1004.215440115677
 31
0.0
  0
SOLID
  5
5F4
330
5ED
100
AcDbEntity
  8
0
 62
     0
440
 16777216
100
AcDbTrace
 10
273.6344115869408
 20
1004.245440115677
 30
0.0
 11
273.6344115869408
 21
1004.185440115676
 31
0.0
 12
273.4544115869407
 22
1004.215440115677
 32
0.0
 13
273.4544115869407
 23
1004.215440115677
 33
0.0
  0
SOLID
  5
5F5
330
5ED
100
AcDbEntity
  8
0
 62
     0
440
 16777216
100
AcDbTrace
 10
305.2744115869407
 20
1004.245440115677
 30
0.0
 11
305.2744115869407
 21
1004.185440115676
 31
0.0
 12
305.4544115869407
 22
1004.215440115677
 32
0.0
 13
305.4544115869407
 23
1004.215440115677
 33
0.0
  0
MTEXT
  5
5F6
330
5ED
100
AcDbEntity
  8
0
 62
     0
440
 16777216
100
AcDbMText
 10
289.4544115869408
 20
1004.215440115677
 30
0.0
 40
0.18
 41
0.0
 46
0.0
 71
     5
 72
     1
  1
\A1;32.0000
 73
     1
 44
1.0
  0
POINT
  5
5F7
330
5ED
100
AcDbEntity
  8
Defpoints
 62
     0
440
 16777216
100
AcDbPoint
 10
273.4544115869407
 20
1076.222344572901
 30
0.0
  0
POINT
  5
5F8
330
5ED
100
AcDbEntity
  8
Defpoints
 62
     0
440
 16777216
100
AcDbPoint
 10
305.4544115869407
 20
1076.222344572901
 30
0.0
  0
POINT
  5
5F9
330
5ED
100
AcDbEntity
  8
Defpoints
 62
     0
440
 16777216
100
AcDbPoint
 10
305.4544115869407
 20
1004.215440115677
 30
0.0
  0
ENDBLK
  5
5EF
330
5ED
100
AcDbEntity
  8
0
100
AcDbBlockEnd
  0
BLOCK
  5
5FC
330
5FB
100
AcDbEntity
  8
0
100
AcDbBlockBegin
  2
*D8
 70
     1
 10
0.0
 20
0.0
 30
0.0
  3
*D8
  1

  0
LINE
  5
5FE
330
5FB
100
AcDbEntity
  8
0
 62
     0
440
 16777216
370
    -2
100
AcDbLine
 10
217.3919115869405
 20
1314.370014676655
 30
0.0
 11
-27.92874984723715
 21
1314.370014676655
 31
0.0
  0
LINE
  5
5FF
330
5FB
100
AcDbEntity
  8
0
 62
     0
440
 16777216
370
    -2
100
AcDbLine
 10
217.3919115869405
 20
214.3700146766557
 30
0.0
 11
-27.9287498472374
 21
214.3700146766558
 31
0.0
  0
LINE
  5
600
330
5FB
100
AcDbEntity
  8
0
 62
     0
440
 16777216
370
    -2
100
AcDbLine
 10
-27.74874984723715
 20
1314.190014676655
 30
0.0
 11
-27.74874984723727
 21
764.5500146766554
 31
0.0
  0
LINE
  5
601
330
5FB
100
AcDbEntity
  8
0
 62
     0
440
 16777216
370
    -2
100
AcDbLine
 10
-27.74874984723739
 20
214.5500146766558
 30
0.0
 11
-27.74874984723727
 21
764.1900146766554
 31
0.0
  0
SOLID
  5
602
330
5FB
100
AcDbEntity
  8
0
 62
     0
440
 16777216
100
AcDbTrace
 10
-27.77874984723715
 20
1314.190014676655
 30
0.0
 11
-27.71874984723714
 21
1314.190014676655
 31
0.0
 12
-27.74874984723715
 22
1314.370014676655
 32
0.0
 13
-27.74874984723715
 23
1314.370014676655
 33
0.0
  0
SOLID
  5
603
330
5FB
100
AcDbEntity
  8
0
 62
     0
440
 16777216
100
AcDbTrace
 10
-27.7787498472374
 20
214.5500146766558
 30
0.0
 11
-27.71874984723739
 21
214.5500146766558
 31
0.0
 12
-27.74874984723739
 22
214.3700146766558
 32
0.0
 13
-27.74874984723739
 23
214.3700146766558
 33
0.0
  0
MTEXT
  5
604
330
5FB
100
AcDbEntity
  8
0
 62
     0
440
 16777216
100
AcDbMText
 10
-27.74874984723739
 20
764.3700146766556
 30
0.0
 40
0.18
 41
0.0
 46
0.0
 71
     5
 72
     1
  1
\A1;1100.0000
 73
     1
 44
1.0
  0
POINT
  5
605
330
5FB
100
AcDbEntity
  8
Defpoints
 62
     0
440
 16777216
100
AcDbPoint
 10
217.4544115869405
 20
1314.370014676655
 30
0.0
  0
POINT
  5
606
330
5FB
100
AcDbEntity
  8
Defpoints
 62
     0
440
 16777216
100
AcDbPoint
 10
217.4544115869405
 20
214.3700146766557
 30
0.0
  0
POINT
  5
607
330
5FB
100
AcDbEntity
  8
Defpoints
 62
     0
440
 16777216
100
AcDbPoint
 10
-27.74874984723739
 20
214.3700146766558
 30
0.0
  0
ENDBLK
  5
5FD
330
5FB
100
AcDbEntity
  8
0
100
AcDbBlockEnd
  0
BLOCK
  5
667
330
666
100
AcDbEntity
  8
0
100
AcDbBlockBegin
  2
*D9
 70
     1
 10
0.0
 20
0.0
 30
0.0
  3
*D9
  1

  0
LINE
  5
669
330
666
100
AcDbEntity
  8
0
 62
     0
440
 16777216
370
    -2
100
AcDbLine
 10
-411.5134205253276
 20
792.7466902206019
 30
0.0
 11
-904.4882683987783
 21
792.7466902206019
 31
0.0
  0
LINE
  5
66A
330
666
100
AcDbEntity
  8
0
 62
     0
440
 16777216
370
    -2
100
AcDbLine
 10
-79.513420525328
 20
848.7466902206016
 30
0.0
 11
-904.4882683987783
 21
848.7466902206019
 31
0.0
  0
LINE
  5
66B
330
666
100
AcDbEntity
  8
0
 62
     0
440
 16777216
370
    -2
100
AcDbLine
 10
-904.3082683987783
 20
792.9266902206018
 30
0.0
 11
-904.3082683987783
 21
820.5666902206017
 31
0.0
  0
LINE
  5
66C
330
666
100
AcDbEntity
  8
0
 62
     0
440
 16777216
370
    -2
100
AcDbLine
 10
-904.3082683987783
 20
848.5666902206018
 30
0.0
 11
-904.3082683987783
 21
820.9266902206017
 31
0.0
  0
SOLID
  5
66D
330
666
100
AcDbEntity
  8
0
 62
     0
440
 16777216
100
AcDbTrace
 10
-904.3382683987784
 20
792.9266902206018
 30
0.0
 11
-904.2782683987786
 21
792.9266902206018
 31
0.0
 12
-904.3082683987783
 22
792.7466902206019
 32
0.0
 13
-904.3082683987783
 23
792.7466902206019
 33
0.0
  0
SOLID
  5
66E
330
666
100
AcDbEntity
  8
0
 62
     0
440
 16777216
100
AcDbTrace
 10
-904.3382683987784
 20
848.5666902206018
 30
0.0
 11
-904.2782683987786
 21
848.5666902206018
 31
0.0
 12
-904.3082683987783
 22
848.7466902206019
 32
0.0
 13
-904.3082683987783
 23
848.7466902206019
 33
0.0
  0
MTEXT
  5
66F
330
666
100
AcDbEntity
  8
0
 62
     0
440
 16777216
100
AcDbMText
 10
-904.3082683987787
 20
820.7466902206011
 30
0.0
 40
0.18
 41
0.0
 46
0.0
 71
     5
 72
     1
  1
\A1;56.0000
 73
     1
 44
1.0
  0
POINT
  5
670
330
666
100
AcDbEntity
  8
Defpoints
 62
     0
440
 16777216
100
AcDbPoint
 10
-411.4509205253275
 20
792.7466902206019
 30
0.0
  0
POINT
  5
671
330
666
100
AcDbEntity
  8
Defpoints
 62
     0
440
 16777216
100
AcDbPoint
 10
-79.450920525328
 20
848.7466902206016
 30
0.0
  0
POINT
  5
672
330
666
100
AcDbEntity
  8
Defpoints
 62
     0
440
 16777216
100
AcDbPoint
 10
-904.3082683987783
 20
848.7466902206019
 30
0.0
  0
ENDBLK
  5
668
330
666
100
AcDbEntity
  8
0
100
AcDbBlockEnd
  0
BLOCK
  5
693
330
692
100
AcDbEntity
  8
0
100
AcDbBlockBegin
  2
*D10
 70
     1
 10
0.0
 20
0.0
 30
0.0
  3
*D10
  1

  0
LINE
  5
695
330
692
100
AcDbEntity
  8
0
 62
     0
440
 16777216
370
    -2
100
AcDbLine
 10
140.5743441738882
 20
964.6763563540147
 30
0.0
 11
127.6342965533816
 21
964.6763563540147
 31
0.0
  0
LINE
  5
696
330
692
100
AcDbEntity
  8
0
 62
     0
440
 16777216
370
    -2
100
AcDbLine
 10
140.5743441738882
 20
932.8171578985276
 30
0.0
 11
127.6342965533816
 21
932.8171578985276
 31
0.0
  0
LINE
  5
697
330
692
100
AcDbEntity
  8
0
 62
     0
440
 16777216
370
    -2
100
AcDbLine
 10
127.8142965533816
 20
964.4963563540148
 30
0.0
 11
127.8142965533816
 21
948.9267571262713
 31
0.0
  0
LINE
  5
698
330
692
100
AcDbEntity
  8
0
 62
     0
440
 16777216
370
    -2
100
AcDbLine
 10
127.8142965533816
 20
932.9971578985277
 30
0.0
 11
127.8142965533816
 21
948.5667571262712
 31
0.0
  0
SOLID
  5
699
330
692
100
AcDbEntity
  8
0
 62
     0
440
 16777216
100
AcDbTrace
 10
127.7842965533816
 20
964.4963563540148
 30
0.0
 11
127.8442965533816
 21
964.4963563540148
 31
0.0
 12
127.8142965533816
 22
964.6763563540147
 32
0.0
 13
127.8142965533816
 23
964.6763563540147
 33
0.0
  0
SOLID
  5
69A
330
692
100
AcDbEntity
  8
0
 62
     0
440
 16777216
100
AcDbTrace
 10
127.7842965533816
 20
932.9971578985277
 30
0.0
 11
127.8442965533816
 21
932.9971578985277
 31
0.0
 12
127.8142965533816
 22
932.8171578985276
 32
0.0
 13
127.8142965533816
 23
932.8171578985276
 33
0.0
  0
MTEXT
  5
69B
330
692
100
AcDbEntity
  8
0
 62
     0
440
 16777216
100
AcDbMText
 10
127.8142965533814
 20
948.7467571262712
 30
0.0
 40
0.18
 41
0.0
 46
0.0
 71
     5
 72
     1
  1
\A1;31.8592
 73
     1
 44
1.0
  0
POINT
  5
69C
330
692
100
AcDbEntity
  8
Defpoints
 62
     0
440
 16777216
100
AcDbPoint
 10
140.6368441738882
 20
964.6763563540147
 30
0.0
  0
POINT
  5
69D
330
692
100
AcDbEntity
  8
Defpoints
 62
     0
440
 16777216
100
AcDbPoint
 10
140.6368441738882
 20
932.8171578985276
 30
0.0
  0
POINT
  5
69E
330
692
100
AcDbEntity
  8
Defpoints
 62
     0
440
 16777216
100
AcDbPoint
 10
127.8142965533816
 20
932.8171578985276
 30
0.0
  0
ENDBLK
  5
694
330
692
100
AcDbEntity
  8
0
100
AcDbBlockEnd
  0
BLOCK
  5
7F3
330
7F2
100
AcDbEntity
  8
0
100
AcDbBlockBegin
  2
*D11
 70
     1
 10
0.0
 20
0.0
 30
0.0
  3
*D11
  1

  0
LINE
  5
7F5
330
7F2
100
AcDbEntity
  8
0
 62
     0
440
 16777216
370
    -2
100
AcDbLine
 10
1316.929921805087
 20
1327.398471054199
 30
0.0
 11
1316.929921805087
 21
1570.156631180291
 31
0.0
  0
LINE
  5
7F6
330
7F2
100
AcDbEntity
  8
0
 62
     0
440
 16777216
370
    -2
100
AcDbLine
 10
351.9299218050873
 20
1327.398471054199
 30
0.0
 11
351.9299218050873
 21
1570.156631180291
 31
0.0
  0
LINE
  5
7F7
330
7F2
100
AcDbEntity
  8
0
 62
     0
440
 16777216
370
    -2
100
AcDbLine
 10
1316.749921805087
 20
1569.976631180291
 30
0.0
 11
835.0899218050873
 21
1569.976631180291
 31
0.0
  0
LINE
  5
7F8
330
7F2
100
AcDbEntity
  8
0
 62
     0
440
 16777216
370
    -2
100
AcDbLine
 10
352.1099218050874
 20
1569.976631180291
 30
0.0
 11
833.7699218050872
 21
1569.976631180291
 31
0.0
  0
SOLID
  5
7F9
330
7F2
100
AcDbEntity
  8
0
 62
     0
440
 16777216
100
AcDbTrace
 10
1316.749921805087
 20
1570.006631180291
 30
0.0
 11
1316.749921805087
 21
1569.946631180291
 31
0.0
 12
1316.929921805087
 22
1569.976631180291
 32
0.0
 13
1316.929921805087
 23
1569.976631180291
 33
0.0
  0
SOLID
  5
7FA
330
7F2
100
AcDbEntity
  8
0
 62
     0
440
 16777216
100
AcDbTrace
 10
352.1099218050874
 20
1570.006631180291
 30
0.0
 11
352.1099218050874
 21
1569.946631180291
 31
0.0
 12
351.9299218050873
 22
1569.976631180291
 32
0.0
 13
351.9299218050873
 23
1569.976631180291
 33
0.0
  0
MTEXT
  5
7FB
330
7F2
100
AcDbEntity
  8
0
 62
     0
440
 16777216
100
AcDbMText
 10
834.4299218050874
 20
1569.976631180291
 30
0.0
 40
0.18
 41
0.0
 46
0.0
 71
     5
 72
     1
  1
\A1;965.0000
 73
     1
 44
1.0
  0
POINT
  5
7FC
330
7F2
100
AcDbEntity
  8
Defpoints
 62
     0
440
 16777216
100
AcDbPoint
 10
1316.929921805087
 20
1327.335971054199
 30
0.0
  0
POINT
  5
7FD
330
7F2
100
AcDbEntity
  8
Defpoints
 62
     0
440
 16777216
100
AcDbPoint
 10
351.9299218050873
 20
1327.335971054198
 30
0.0
  0
POINT
  5
7FE
330
7F2
100
AcDbEntity
  8
Defpoints
 62
     0
440
 16777216
100
AcDbPoint
 10
351.9299218050873
 20
1569.976631180291
 30
0.0
  0
ENDBLK
  5
7F4
330
7F2
100
AcDbEntity
  8
0
100
AcDbBlockEnd
  0
BLOCK
  5
85E
330
85D
100
AcDbEntity
  8
0
100
AcDbBlockBegin
  2
*D12
 70
     1
 10
0.0
 20
0.0
 30
0.0
  3
*D12
  1

  0
LINE
  5
860
330
85D
100
AcDbEntity
  8
0
 62
     0
440
 16777216
370
    -2
100
AcDbLine
 10
1057.881092206771
 20
718.1375427807179
 30
0.0
 11
971.2705369152113
 21
718.1375427807179
 31
0.0
  0
LINE
  5
861
330
85D
100
AcDbEntity
  8
0
 62
     0
440
 16777216
370
    -2
100
AcDbLine
 10
1057.881092206771
 20
216.6375427807184
 30
0.0
 11
971.2705369152113
 21
216.6375427807184
 31
0.0
  0
LINE
  5
862
330
85D
100
AcDbEntity
  8
0
 62
     0
440
 16777216
370
    -2
100
AcDbLine
 10
971.4505369152112
 20
717.9575427807182
 30
0.0
 11
971.4505369152112
 21
467.5675427807183
 31
0.0
  0
LINE
  5
863
330
85D
100
AcDbEntity
  8
0
 62
     0
440
 16777216
370
    -2
100
AcDbLine
 10
971.4505369152112
 20
216.8175427807184
 30
0.0
 11
971.4505369152112
 21
467.2075427807181
 31
0.0
  0
SOLID
  5
864
330
85D
100
AcDbEntity
  8
0
 62
     0
440
 16777216
100
AcDbTrace
 10
971.4205369152111
 20
717.9575427807182
 30
0.0
 11
971.4805369152111
 21
717.9575427807182
 31
0.0
 12
971.4505369152112
 22
718.1375427807179
 32
0.0
 13
971.4505369152112
 23
718.1375427807179
 33
0.0
  0
SOLID
  5
865
330
85D
100
AcDbEntity
  8
0
 62
     0
440
 16777216
100
AcDbTrace
 10
971.4205369152111
 20
216.8175427807184
 30
0.0
 11
971.4805369152111
 21
216.8175427807184
 31
0.0
 12
971.4505369152112
 22
216.6375427807184
 32
0.0
 13
971.4505369152112
 23
216.6375427807184
 33
0.0
  0
MTEXT
  5
866
330
85D
100
AcDbEntity
  8
0
 62
     0
440
 16777216
100
AcDbMText
 10
971.4505369152112
 20
467.3875427807185
 30
0.0
 40
0.18
 41
0.0
 46
0.0
 71
     5
 72
     1
  1
\A1;501.5000
 73
     1
 44
1.0
  0
POINT
  5
867
330
85D
100
AcDbEntity
  8
Defpoints
 62
     0
440
 16777216
100
AcDbPoint
 10
1057.943592206771
 20
718.1375427807179
 30
0.0
  0
POINT
  5
868
330
85D
100
AcDbEntity
  8
Defpoints
 62
     0
440
 16777216
100
AcDbPoint
 10
1057.943592206771
 20
216.6375427807184
 30
0.0
  0
POINT
  5
869
330
85D
100
AcDbEntity
  8
Defpoints
 62
     0
440
 16777216
100
AcDbPoint
 10
971.4505369152112
 20
216.6375427807184
 30
0.0
  0
ENDBLK
  5
85F
330
85D
100
AcDbEntity
  8
0
100
AcDbBlockEnd
  0
BLOCK
  5
872
330
871
100
AcDbEntity
  8
0
100
AcDbBlockBegin
  2
*D13
 70
     1
 10
0.0
 20
0.0
 30
0.0
  3
*D13
  1

  0
LINE
  5
D3C
330
871
100
AcDbEntity
  8
0
 62
     0
440
 16777216
370
    -2
100
AcDbLine
 10
1741.476010168915
 20
788.5120690511459
 30
0.0
 11
1669.459093440563
 21
788.5266206352225
 31
0.0
  0
LINE
  5
D3D
330
871
100
AcDbEntity
  8
0
 62
     0
440
 16777216
370
    -2
100
AcDbLine
 10
1753.352964329605
 20
-176.4606334757538
 30
0.0
 11
1669.264113614213
 21
-176.4436426625298
 31
0.0
  0
LINE
  5
D3E
330
871
100
AcDbEntity
  8
0
 62
     0
440
 16777216
370
    -2
100
AcDbLine
 10
1669.63606256905
 20
773.5265845710139
 30
0.0
 11
1669.54665497011
 21
331.0414521055902
 31
0.0
  0
LINE
  5
D3F
330
871
100
AcDbEntity
  8
0
 62
     0
440
 16777216
370
    -2
100
AcDbLine
 10
1669.447144478376
 20
-161.4436793391491
 30
0.0
 11
1669.536552077317
 21
281.0414531262746
 31
0.0
  0
SOLID
  5
D40
330
871
100
AcDbEntity
  8
0
 62
     0
440
 16777216
100
AcDbTrace
 10
1667.136062620085
 20
773.5270897156535
 30
0.0
 11
1672.136062518016
 21
773.5260794263743
 31
0.0
 12
1669.639093436888
 22
788.5265842648085
 32
0.0
 13
1669.639093436888
 23
788.5265842648085
 33
0.0
  0
SOLID
  5
D41
330
871
100
AcDbEntity
  8
0
 62
     0
440
 16777216
100
AcDbTrace
 10
1666.947144529411
 20
-161.4431741945095
 30
0.0
 11
1671.947144427342
 21
-161.4441844837888
 31
0.0
 12
1669.444113610538
 22
-176.4436790329438
 32
0.0
 13
1669.444113610538
 23
-176.4436790329438
 33
0.0
  0
MTEXT
  5
D42
330
871
100
AcDbEntity
  8
0
 62
     0
440
 16777216
100
AcDbMText
 10
1669.541603523714
 20
306.0414526159326
 30
0.0
 40
15.0
 41
0.0
 46
0.0
 71
     5
 72
     1
  1
\A1;W2
 11
0.0002020578558586
 21
0.9999999795863113
 31
0.0
 73
     1
 44
1.0
  0
POINT
  5
D43
330
871
100
AcDbEntity
  8
Defpoints
 62
     0
440
 16777216
100
AcDbPoint
 10
1746.476010066847
 20
788.5110587618665
 30
0.0
  0
POINT
  5
D44
330
871
100
AcDbEntity
  8
Defpoints
 62
     0
440
 16777216
100
AcDbPoint
 10
1758.352964227536
 20
-176.4616437650331
 30
0.0
  0
POINT
  5
D45
330
871
100
AcDbEntity
  8
Defpoints
 62
     0
440
 16777216
100
AcDbPoint
 10
1669.444113610538
 20
-176.4436790329438
 30
0.0
  0
ENDBLK
  5
873
330
871
100
AcDbEntity
  8
0
100
AcDbBlockEnd
  0
BLOCK
  5
8DB
330
8DA
100
AcDbEntity
  8
0
100
AcDbBlockBegin
  2
*D14
 70
     1
 10
0.0
 20
0.0
 30
0.0
  3
*D14
  1

  0
LINE
  5
CF6
330
8DA
100
AcDbEntity
  8
0
 62
     0
440
 16777216
370
    -2
100
AcDbLine
 10
1852.566061703814
 20
858.1221957574838
 30
0.0
 11
1852.583188225162
 21
942.8826765113822
 31
0.0
  0
LINE
  5
CF7
330
8DA
100
AcDbEntity
  8
0
 62
     0
440
 16777216
370
    -2
100
AcDbLine
 10
2817.566619673764
 20
848.7858365031872
 30
0.0
 11
2817.585593281363
 21
942.6876901905908
 31
0.0
  0
LINE
  5
CF8
330
8DA
100
AcDbEntity
  8
0
 62
     0
440
 16777216
370
    -2
100
AcDbLine
 10
1867.583151548543
 20
942.6996456472194
 30
0.0
 11
2312.584354842158
 21
942.6097296564163
 31
0.0
  0
LINE
  5
CF9
330
8DA
100
AcDbEntity
  8
0
 62
     0
440
 16777216
370
    -2
100
AcDbLine
 10
2802.585557217155
 20
942.5107210621021
 30
0.0
 11
2357.584353923542
 21
942.6006370529051
 31
0.0
  0
SOLID
  5
CFA
330
8DA
100
AcDbEntity
  8
0
 62
     0
440
 16777216
100
AcDbTrace
 10
1867.583656693182
 20
945.1996455961852
 30
0.0
 11
1867.582646403903
 21
940.1996456982537
 31
0.0
 12
1852.583151854748
 22
942.7026765150564
 32
0.0
 13
1852.583151854748
 23
942.7026765150564
 33
0.0
  0
SOLID
  5
CFB
330
8DA
100
AcDbEntity
  8
0
 62
     0
440
 16777216
100
AcDbTrace
 10
2802.586062361794
 20
945.0107210110681
 30
0.0
 11
2802.585052072515
 21
940.0107211131365
 31
0.0
 12
2817.585556910949
 22
942.5076901942651
 32
0.0
 13
2817.585556910949
 23
942.5076901942651
 33
0.0
  0
MTEXT
  5
CFC
330
8DA
100
AcDbEntity
  8
0
 62
     0
440
 16777216
100
AcDbMText
 10
2335.084354382849
 20
942.6051833546607
 30
0.0
 40
15.0
 41
0.0
 46
0.0
 71
     5
 72
     1
  1
\A1;W1
 11
0.9999999795863113
 21
-0.0002020578558035
 31
0.0
 73
     1
 44
1.0
  0
POINT
  5
CFD
330
8DA
100
AcDbEntity
  8
Defpoints
 62
     0
440
 16777216
100
AcDbPoint
 10
1852.565051414536
 20
853.1221958595521
 30
0.0
  0
POINT
  5
CFE
330
8DA
100
AcDbEntity
  8
Defpoints
 62
     0
440
 16777216
100
AcDbPoint
 10
2817.565609384485
 20
843.7858366052557
 30
0.0
  0
POINT
  5
CFF
330
8DA
100
AcDbEntity
  8
Defpoints
 62
     0
440
 16777216
100
AcDbPoint
 10
2817.585556910949
 20
942.5076901942651
 30
0.0
  0
ENDBLK
  5
8DC
330
8DA
100
AcDbEntity
  8
0
100
AcDbBlockEnd
  0
BLOCK
  5
9CF
330
9CE
100
AcDbEntity
  8
0
100
AcDbBlockBegin
  2
*D15
 70
     1
 10
0.0
 20
0.0
 30
0.0
  3
*D15
  1

  0
LINE
  5
9D1
330
9CE
100
AcDbEntity
  8
0
 62
     0
440
 16777216
370
    -2
100
AcDbLine
 10
2162.833688214712
 20
1324.798123945664
 30
0.0
 11
2162.833688214712
 21
1515.872718614188
 31
0.0
  0
LINE
  5
9D2
330
9CE
100
AcDbEntity
  8
0
 62
     0
440
 16777216
370
    -2
100
AcDbLine
 10
2637.833688214712
 20
1324.798123945664
 30
0.0
 11
2637.833688214712
 21
1515.872718614188
 31
0.0
  0
LINE
  5
9D3
330
9CE
100
AcDbEntity
  8
0
 62
     0
440
 16777216
370
    -2
100
AcDbLine
 10
2163.013688214712
 20
1515.692718614188
 30
0.0
 11
2399.673688214712
 21
1515.692718614188
 31
0.0
  0
LINE
  5
9D4
330
9CE
100
AcDbEntity
  8
0
 62
     0
440
 16777216
370
    -2
100
AcDbLine
 10
2637.653688214712
 20
1515.692718614188
 30
0.0
 11
2400.993688214712
 21
1515.692718614188
 31
0.0
  0
SOLID
  5
9D5
330
9CE
100
AcDbEntity
  8
0
 62
     0
440
 16777216
100
AcDbTrace
 10
2163.013688214712
 20
1515.722718614188
 30
0.0
 11
2163.013688214712
 21
1515.662718614188
 31
0.0
 12
2162.833688214712
 22
1515.692718614188
 32
0.0
 13
2162.833688214712
 23
1515.692718614188
 33
0.0
  0
SOLID
  5
9D6
330
9CE
100
AcDbEntity
  8
0
 62
     0
440
 16777216
100
AcDbTrace
 10
2637.653688214712
 20
1515.722718614188
 30
0.0
 11
2637.653688214712
 21
1515.662718614188
 31
0.0
 12
2637.833688214712
 22
1515.692718614188
 32
0.0
 13
2637.833688214712
 23
1515.692718614188
 33
0.0
  0
MTEXT
  5
9D7
330
9CE
100
AcDbEntity
  8
0
 62
     0
440
 16777216
100
AcDbMText
 10
2400.333688214712
 20
1515.692718614188
 30
0.0
 40
0.18
 41
0.0
 46
0.0
 71
     5
 72
     1
  1
\A1;475.0000
 73
     1
 44
1.0
  0
POINT
  5
9D8
330
9CE
100
AcDbEntity
  8
Defpoints
 62
     0
440
 16777216
100
AcDbPoint
 10
2162.833688214712
 20
1324.735623945664
 30
0.0
  0
POINT
  5
9D9
330
9CE
100
AcDbEntity
  8
Defpoints
 62
     0
440
 16777216
100
AcDbPoint
 10
2637.833688214712
 20
1324.735623945664
 30
0.0
  0
POINT
  5
9DA
330
9CE
100
AcDbEntity
  8
Defpoints
 62
     0
440
 16777216
100
AcDbPoint
 10
2637.833688214712
 20
1515.692718614188
 30
0.0
  0
ENDBLK
  5
9D0
330
9CE
100
AcDbEntity
  8
0
100
AcDbBlockEnd
  0
BLOCK
  5
A2C
330
A2B
100
AcDbEntity
  8
0
100
AcDbBlockBegin
  2
*D16
 70
     1
 10
0.0
 20
0.0
 30
0.0
  3
*D16
  1

  0
LINE
  5
A2E
330
A2B
100
AcDbEntity
  8
0
 62
     0
440
 16777216
370
    -2
100
AcDbLine
 10
1818.079151416462
 20
716.5193448431842
 30
0.0
 11
1839.925049296663
 21
716.5193448431842
 31
0.0
  0
LINE
  5
A2F
330
A2B
100
AcDbEntity
  8
0
 62
     0
440
 16777216
370
    -2
100
AcDbLine
 10
1818.071736906009
 20
753.2143313987211
 30
0.0
 11
1839.925049296663
 21
753.2143313987211
 31
0.0
  0
LINE
  5
A30
330
A2B
100
AcDbEntity
  8
0
 62
     0
440
 16777216
370
    -2
100
AcDbLine
 10
1839.745049296664
 20
716.6993448431842
 30
0.0
 11
1839.745049296664
 21
734.6868381209527
 31
0.0
  0
LINE
  5
A31
330
A2B
100
AcDbEntity
  8
0
 62
     0
440
 16777216
370
    -2
100
AcDbLine
 10
1839.745049296664
 20
753.0343313987211
 30
0.0
 11
1839.745049296664
 21
735.0468381209526
 31
0.0
  0
SOLID
  5
A32
330
A2B
100
AcDbEntity
  8
0
 62
     0
440
 16777216
100
AcDbTrace
 10
1839.715049296664
 20
716.6993448431842
 30
0.0
 11
1839.775049296664
 21
716.6993448431842
 31
0.0
 12
1839.745049296664
 22
716.5193448431842
 32
0.0
 13
1839.745049296664
 23
716.5193448431842
 33
0.0
  0
SOLID
  5
A33
330
A2B
100
AcDbEntity
  8
0
 62
     0
440
 16777216
100
AcDbTrace
 10
1839.715049296664
 20
753.0343313987211
 30
0.0
 11
1839.775049296664
 21
753.0343313987211
 31
0.0
 12
1839.745049296664
 22
753.2143313987211
 32
0.0
 13
1839.745049296664
 23
753.2143313987211
 33
0.0
  0
MTEXT
  5
A34
330
A2B
100
AcDbEntity
  8
0
 62
     0
440
 16777216
100
AcDbMText
 10
1839.745049296663
 20
734.866838120953
 30
0.0
 40
0.18
 41
0.0
 46
0.0
 71
     5
 72
     1
  1
\A1;36.6950
 73
     1
 44
1.0
  0
POINT
  5
A35
330
A2B
100
AcDbEntity
  8
Defpoints
 62
     0
440
 16777216
100
AcDbPoint
 10
1818.016651416462
 20
716.5193448431842
 30
0.0
  0
POINT
  5
A36
330
A2B
100
AcDbEntity
  8
Defpoints
 62
     0
440
 16777216
100
AcDbPoint
 10
1818.009236906009
 20
753.2143313987211
 30
0.0
  0
POINT
  5
A37
330
A2B
100
AcDbEntity
  8
Defpoints
 62
     0
440
 16777216
100
AcDbPoint
 10
1839.745049296664
 20
753.2143313987211
 30
0.0
  0
ENDBLK
  5
A2D
330
A2B
100
AcDbEntity
  8
0
100
AcDbBlockEnd
  0
BLOCK
  5
A3A
330
A39
100
AcDbEntity
  8
0
100
AcDbBlockBegin
  2
*D17
 70
     1
 10
0.0
 20
0.0
 30
0.0
  3
*D17
  1

  0
LINE
  5
A3C
330
A39
100
AcDbEntity
  8
0
 62
     0
440
 16777216
370
    -2
100
AcDbLine
 10
1818.082182284361
 20
701.5193448431841
 30
0.0
 11
1871.604671843552
 21
701.5193448431841
 31
0.0
  0
LINE
  5
A3D
330
A39
100
AcDbEntity
  8
0
 62
     0
440
 16777216
370
    -2
100
AcDbLine
 10
1818.134236906009
 20
753.2143313987211
 30
0.0
 11
1871.604671843552
 21
753.2143313987211
 31
0.0
  0
LINE
  5
A3E
330
A39
100
AcDbEntity
  8
0
 62
     0
440
 16777216
370
    -2
100
AcDbLine
 10
1871.424671843551
 20
701.6993448431842
 30
0.0
 11
1871.424671843551
 21
727.1868381209527
 31
0.0
  0
LINE
  5
A3F
330
A39
100
AcDbEntity
  8
0
 62
     0
440
 16777216
370
    -2
100
AcDbLine
 10
1871.424671843551
 20
753.0343313987211
 30
0.0
 11
1871.424671843551
 21
727.5468381209527
 31
0.0
  0
SOLID
  5
A40
330
A39
100
AcDbEntity
  8
0
 62
     0
440
 16777216
100
AcDbTrace
 10
1871.394671843551
 20
701.6993448431842
 30
0.0
 11
1871.454671843551
 21
701.6993448431842
 31
0.0
 12
1871.424671843551
 22
701.5193448431841
 32
0.0
 13
1871.424671843551
 23
701.5193448431841
 33
0.0
  0
SOLID
  5
A41
330
A39
100
AcDbEntity
  8
0
 62
     0
440
 16777216
100
AcDbTrace
 10
1871.394671843551
 20
753.0343313987211
 30
0.0
 11
1871.454671843551
 21
753.0343313987211
 31
0.0
 12
1871.424671843551
 22
753.2143313987211
 32
0.0
 13
1871.424671843551
 23
753.2143313987211
 33
0.0
  0
MTEXT
  5
A42
330
A39
100
AcDbEntity
  8
0
 62
     0
440
 16777216
100
AcDbMText
 10
1871.424671843551
 20
727.366838120953
 30
0.0
 40
0.18
 41
0.0
 46
0.0
 71
     5
 72
     1
  1
\A1;51.6950
 73
     1
 44
1.0
  0
POINT
  5
A43
330
A39
100
AcDbEntity
  8
Defpoints
 62
     0
440
 16777216
100
AcDbPoint
 10
1818.019682284361
 20
701.5193448431841
 30
0.0
  0
POINT
  5
A44
330
A39
100
AcDbEntity
  8
Defpoints
 62
     0
440
 16777216
100
AcDbPoint
 10
1818.071736906009
 20
753.2143313987211
 30
0.0
  0
POINT
  5
A45
330
A39
100
AcDbEntity
  8
Defpoints
 62
     0
440
 16777216
100
AcDbPoint
 10
1871.424671843551
 20
753.2143313987211
 30
0.0
  0
ENDBLK
  5
A3B
330
A39
100
AcDbEntity
  8
0
100
AcDbBlockEnd
  0
BLOCK
  5
A48
330
A47
100
AcDbEntity
  8
0
100
AcDbBlockBegin
  2
*D18
 70
     1
 10
0.0
 20
0.0
 30
0.0
  3
*D18
  1

  0
LINE
  5
A4A
330
A47
100
AcDbEntity
  8
0
 62
     0
440
 16777216
370
    -2
100
AcDbLine
 10
941.6842040745633
 20
701.5193448431844
 30
0.0
 11
921.5048035554719
 21
701.5193448431844
 31
0.0
  0
LINE
  5
A4B
330
A47
100
AcDbEntity
  8
0
 62
     0
440
 16777216
370
    -2
100
AcDbLine
 10
941.6842040745633
 20
788.5193448431842
 30
0.0
 11
921.5048035554724
 21
788.5193448431842
 31
0.0
  0
LINE
  5
A4C
330
A47
100
AcDbEntity
  8
0
 62
     0
440
 16777216
370
    -2
100
AcDbLine
 10
921.6848035554718
 20
701.6993448431842
 30
0.0
 11
921.6848035554718
 21
744.8393448431843
 31
0.0
  0
LINE
  5
A4D
330
A47
100
AcDbEntity
  8
0
 62
     0
440
 16777216
370
    -2
100
AcDbLine
 10
921.6848035554722
 20
788.3393448431842
 30
0.0
 11
921.6848035554718
 21
745.1993448431842
 31
0.0
  0
SOLID
  5
A4E
330
A47
100
AcDbEntity
  8
0
 62
     0
440
 16777216
100
AcDbTrace
 10
921.6548035554719
 20
701.6993448431842
 30
0.0
 11
921.7148035554719
 21
701.6993448431842
 31
0.0
 12
921.6848035554718
 22
701.5193448431844
 32
0.0
 13
921.6848035554718
 23
701.5193448431844
 33
0.0
  0
SOLID
  5
A4F
330
A47
100
AcDbEntity
  8
0
 62
     0
440
 16777216
100
AcDbTrace
 10
921.6548035554719
 20
788.3393448431842
 30
0.0
 11
921.7148035554719
 21
788.3393448431842
 31
0.0
 12
921.6848035554722
 22
788.5193448431842
 32
0.0
 13
921.6848035554722
 23
788.5193448431842
 33
0.0
  0
MTEXT
  5
A50
330
A47
100
AcDbEntity
  8
0
 62
     0
440
 16777216
100
AcDbMText
 10
921.6848035554718
 20
745.0193448431846
 30
0.0
 40
0.18
 41
0.0
 46
0.0
 71
     5
 72
     1
  1
\A1;87.0000
 73
     1
 44
1.0
  0
POINT
  5
A51
330
A47
100
AcDbEntity
  8
Defpoints
 62
     0
440
 16777216
100
AcDbPoint
 10
941.7467040745632
 20
701.5193448431844
 30
0.0
  0
POINT
  5
A52
330
A47
100
AcDbEntity
  8
Defpoints
 62
     0
440
 16777216
100
AcDbPoint
 10
941.7467040745632
 20
788.5193448431842
 30
0.0
  0
POINT
  5
A53
330
A47
100
AcDbEntity
  8
Defpoints
 62
     0
440
 16777216
100
AcDbPoint
 10
921.6848035554722
 20
788.5193448431842
 30
0.0
  0
ENDBLK
  5
A49
330
A47
100
AcDbEntity
  8
0
100
AcDbBlockEnd
  0
BLOCK
  5
A56
330
A55
100
AcDbEntity
  8
0
100
AcDbBlockBegin
  2
*D19
 70
     1
 10
0.0
 20
0.0
 30
0.0
  3
*D19
  1

  0
LINE
  5
A58
330
A55
100
AcDbEntity
  8
0
 62
     0
440
 16777216
370
    -2
100
AcDbLine
 10
944.9551657702413
 20
788.5193448431842
 30
0.0
 11
931.9718788627021
 21
788.5193448431842
 31
0.0
  0
LINE
  5
A59
330
A55
100
AcDbEntity
  8
0
 62
     0
440
 16777216
370
    -2
100
AcDbLine
 10
944.9551657702413
 20
716.5193448431842
 30
0.0
 11
931.9718788627016
 21
716.5193448431842
 31
0.0
  0
LINE
  5
A5A
330
A55
100
AcDbEntity
  8
0
 62
     0
440
 16777216
370
    -2
100
AcDbLine
 10
932.1518788627017
 20
788.3393448431842
 30
0.0
 11
932.1518788627015
 21
752.6993448431842
 31
0.0
  0
LINE
  5
A5B
330
A55
100
AcDbEntity
  8
0
 62
     0
440
 16777216
370
    -2
100
AcDbLine
 10
932.1518788627015
 20
716.6993448431842
 30
0.0
 11
932.1518788627015
 21
752.3393448431842
 31
0.0
  0
SOLID
  5
A5C
330
A55
100
AcDbEntity
  8
0
 62
     0
440
 16777216
100
AcDbTrace
 10
932.1218788627019
 20
788.3393448431842
 30
0.0
 11
932.1818788627018
 21
788.3393448431842
 31
0.0
 12
932.1518788627017
 22
788.5193448431842
 32
0.0
 13
932.1518788627017
 23
788.5193448431842
 33
0.0
  0
SOLID
  5
A5D
330
A55
100
AcDbEntity
  8
0
 62
     0
440
 16777216
100
AcDbTrace
 10
932.1218788627016
 20
716.6993448431842
 30
0.0
 11
932.1818788627018
 21
716.6993448431842
 31
0.0
 12
932.1518788627015
 22
716.5193448431842
 32
0.0
 13
932.1518788627015
 23
716.5193448431842
 33
0.0
  0
MTEXT
  5
A5E
330
A55
100
AcDbEntity
  8
0
 62
     0
440
 16777216
100
AcDbMText
 10
932.1518788627015
 20
752.5193448431844
 30
0.0
 40
0.18
 41
0.0
 46
0.0
 71
     5
 72
     1
  1
\A1;72.0000
 73
     1
 44
1.0
  0
POINT
  5
A5F
330
A55
100
AcDbEntity
  8
Defpoints
 62
     0
440
 16777216
100
AcDbPoint
 10
945.0176657702414
 20
788.5193448431842
 30
0.0
  0
POINT
  5
A60
330
A55
100
AcDbEntity
  8
Defpoints
 62
     0
440
 16777216
100
AcDbPoint
 10
945.0176657702414
 20
716.5193448431842
 30
0.0
  0
POINT
  5
A61
330
A55
100
AcDbEntity
  8
Defpoints
 62
     0
440
 16777216
100
AcDbPoint
 10
932.1518788627015
 20
716.5193448431842
 30
0.0
  0
ENDBLK
  5
A57
330
A55
100
AcDbEntity
  8
0
100
AcDbBlockEnd
  0
BLOCK
  5
A6B
330
A6A
100
AcDbEntity
  8
0
100
AcDbBlockBegin
  2
*D20
 70
     1
 10
0.0
 20
0.0
 30
0.0
  3
*D20
  1

  0
LINE
  5
A6D
330
A6A
100
AcDbEntity
  8
0
 62
     0
440
 16777216
370
    -2
100
AcDbLine
 10
1731.112288208874
 20
313.5640637518736
 30
0.0
 11
1731.112288208874
 21
344.843814393075
 31
0.0
  0
LINE
  5
A6E
330
A6A
100
AcDbEntity
  8
0
 62
     0
440
 16777216
370
    -2
100
AcDbLine
 10
1806.112286698261
 20
313.5792180910501
 30
0.0
 11
1806.112286698261
 21
344.843814393075
 31
0.0
  0
LINE
  5
A6F
330
A6A
100
AcDbEntity
  8
0
 62
     0
440
 16777216
370
    -2
100
AcDbLine
 10
1731.292288208874
 20
344.663814393075
 30
0.0
 11
1768.042287453567
 21
344.663814393075
 31
0.0
  0
LINE
  5
A70
330
A6A
100
AcDbEntity
  8
0
 62
     0
440
 16777216
370
    -2
100
AcDbLine
 10
1805.932286698261
 20
344.663814393075
 30
0.0
 11
1769.182287453568
 21
344.663814393075
 31
0.0
  0
SOLID
  5
A71
330
A6A
100
AcDbEntity
  8
0
 62
     0
440
 16777216
100
AcDbTrace
 10
1731.292288208874
 20
344.6938143930749
 30
0.0
 11
1731.292288208874
 21
344.633814393075
 31
0.0
 12
1731.112288208874
 22
344.663814393075
 32
0.0
 13
1731.112288208874
 23
344.663814393075
 33
0.0
  0
SOLID
  5
A72
330
A6A
100
AcDbEntity
  8
0
 62
     0
440
 16777216
100
AcDbTrace
 10
1805.932286698261
 20
344.6938143930749
 30
0.0
 11
1805.932286698261
 21
344.633814393075
 31
0.0
 12
1806.112286698261
 22
344.663814393075
 32
0.0
 13
1806.112286698261
 23
344.663814393075
 33
0.0
  0
MTEXT
  5
A73
330
A6A
100
AcDbEntity
  8
0
 62
     0
440
 16777216
100
AcDbMText
 10
1768.612287453567
 20
344.663814393075
 30
0.0
 40
0.18
 41
0.0
 46
0.0
 71
     5
 72
     1
  1
\A1;75.0000
 73
     1
 44
1.0
  0
POINT
  5
A74
330
A6A
100
AcDbEntity
  8
Defpoints
 62
     0
440
 16777216
100
AcDbPoint
 10
1731.112288208874
 20
313.5015637518736
 30
0.0
  0
POINT
  5
A75
330
A6A
100
AcDbEntity
  8
Defpoints
 62
     0
440
 16777216
100
AcDbPoint
 10
1806.112286698261
 20
313.51671809105
 30
0.0
  0
POINT
  5
A76
330
A6A
100
AcDbEntity
  8
Defpoints
 62
     0
440
 16777216
100
AcDbPoint
 10
1806.112286698261
 20
344.663814393075
 30
0.0
  0
ENDBLK
  5
A6C
330
A6A
100
AcDbEntity
  8
0
100
AcDbBlockEnd
  0
BLOCK
  5
A7A
330
A79
100
AcDbEntity
  8
0
100
AcDbBlockBegin
  2
*D21
 70
     1
 10
0.0
 20
0.0
 30
0.0
  3
*D21
  1

  0
LINE
  5
A7C
330
A79
100
AcDbEntity
  8
0
 62
     0
440
 16777216
370
    -2
100
AcDbLine
 10
1731.016308930962
 20
325.4173863292544
 30
0.0
 11
1731.016308930962
 21
334.7242039307618
 31
0.0
  0
LINE
  5
A7D
330
A79
100
AcDbEntity
  8
0
 62
     0
440
 16777216
370
    -2
100
AcDbLine
 10
1761.016308930962
 20
325.4173863292544
 30
0.0
 11
1761.016308930962
 21
334.7242039307618
 31
0.0
  0
LINE
  5
A7E
330
A79
100
AcDbEntity
  8
0
 62
     0
440
 16777216
370
    -2
100
AcDbLine
 10
1731.196308930962
 20
334.5442039307618
 30
0.0
 11
1745.461308930962
 21
334.5442039307618
 31
0.0
  0
LINE
  5
A7F
330
A79
100
AcDbEntity
  8
0
 62
     0
440
 16777216
370
    -2
100
AcDbLine
 10
1760.836308930962
 20
334.5442039307618
 30
0.0
 11
1746.571308930962
 21
334.5442039307618
 31
0.0
  0
SOLID
  5
A80
330
A79
100
AcDbEntity
  8
0
 62
     0
440
 16777216
100
AcDbTrace
 10
1731.196308930962
 20
334.5742039307618
 30
0.0
 11
1731.196308930962
 21
334.5142039307618
 31
0.0
 12
1731.016308930962
 22
334.5442039307618
 32
0.0
 13
1731.016308930962
 23
334.5442039307618
 33
0.0
  0
SOLID
  5
A81
330
A79
100
AcDbEntity
  8
0
 62
     0
440
 16777216
100
AcDbTrace
 10
1760.836308930962
 20
334.5742039307618
 30
0.0
 11
1760.836308930962
 21
334.5142039307618
 31
0.0
 12
1761.016308930962
 22
334.5442039307618
 32
0.0
 13
1761.016308930962
 23
334.5442039307618
 33
0.0
  0
MTEXT
  5
A82
330
A79
100
AcDbEntity
  8
0
 62
     0
440
 16777216
100
AcDbMText
 10
1746.016308930962
 20
334.5442039307618
 30
0.0
 40
0.18
 41
0.0
 46
0.0
 71
     5
 72
     1
  1
\A1;30.0000
 73
     1
 44
1.0
  0
POINT
  5
A83
330
A79
100
AcDbEntity
  8
Defpoints
 62
     0
440
 16777216
100
AcDbPoint
 10
1731.016308930962
 20
325.3548863292544
 30
0.0
  0
POINT
  5
A84
330
A79
100
AcDbEntity
  8
Defpoints
 62
     0
440
 16777216
100
AcDbPoint
 10
1761.016308930962
 20
325.3548863292544
 30
0.0
  0
POINT
  5
A85
330
A79
100
AcDbEntity
  8
Defpoints
 62
     0
440
 16777216
100
AcDbPoint
 10
1761.016308930962
 20
334.5442039307618
 30
0.0
  0
ENDBLK
  5
A7B
330
A79
100
AcDbEntity
  8
0
100
AcDbBlockEnd
  0
BLOCK
  5
A88
330
A87
100
AcDbEntity
  8
0
100
AcDbBlockBegin
  2
*D22
 70
     1
 10
0.0
 20
0.0
 30
0.0
  3
*D22
  1

  0
LINE
  5
A8A
330
A87
100
AcDbEntity
  8
0
 62
     0
440
 16777216
370
    -2
100
AcDbLine
 10
1731.112589744217
 20
312.0794201795353
 30
0.0
 11
1731.112589744217
 21
322.1000613978646
 31
0.0
  0
LINE
  5
A8B
330
A87
100
AcDbEntity
  8
0
 62
     0
440
 16777216
370
    -2
100
AcDbLine
 10
1806.112586682164
 20
312.0945745183983
 30
0.0
 11
1806.112586682164
 21
322.1000613978646
 31
0.0
  0
LINE
  5
A8C
330
A87
100
AcDbEntity
  8
0
 62
     0
440
 16777216
370
    -2
100
AcDbLine
 10
1731.292589744217
 20
321.9200613978646
 30
0.0
 11
1768.042588213191
 21
321.9200613978646
 31
0.0
  0
LINE
  5
A8D
330
A87
100
AcDbEntity
  8
0
 62
     0
440
 16777216
370
    -2
100
AcDbLine
 10
1805.932586682164
 20
321.9200613978646
 30
0.0
 11
1769.182588213191
 21
321.9200613978646
 31
0.0
  0
SOLID
  5
A8E
330
A87
100
AcDbEntity
  8
0
 62
     0
440
 16777216
100
AcDbTrace
 10
1731.292589744217
 20
321.9500613978646
 30
0.0
 11
1731.292589744217
 21
321.8900613978647
 31
0.0
 12
1731.112589744217
 22
321.9200613978646
 32
0.0
 13
1731.112589744217
 23
321.9200613978646
 33
0.0
  0
SOLID
  5
A8F
330
A87
100
AcDbEntity
  8
0
 62
     0
440
 16777216
100
AcDbTrace
 10
1805.932586682164
 20
321.9500613978646
 30
0.0
 11
1805.932586682164
 21
321.8900613978647
 31
0.0
 12
1806.112586682164
 22
321.9200613978646
 32
0.0
 13
1806.112586682164
 23
321.9200613978646
 33
0.0
  0
MTEXT
  5
A90
330
A87
100
AcDbEntity
  8
0
 62
     0
440
 16777216
100
AcDbMText
 10
1768.612588213191
 20
321.9200613978646
 30
0.0
 40
0.18
 41
0.0
 46
0.0
 71
     5
 72
     1
  1
\A1;75.0000
 73
     1
 44
1.0
  0
POINT
  5
A91
330
A87
100
AcDbEntity
  8
Defpoints
 62
     0
440
 16777216
100
AcDbPoint
 10
1731.112589744217
 20
312.0169201795353
 30
0.0
  0
POINT
  5
A92
330
A87
100
AcDbEntity
  8
Defpoints
 62
     0
440
 16777216
100
AcDbPoint
 10
1806.112586682164
 20
312.0320745183983
 30
0.0
  0
POINT
  5
A93
330
A87
100
AcDbEntity
  8
Defpoints
 62
     0
440
 16777216
100
AcDbPoint
 10
1806.112586682164
 20
321.9200613978646
 30
0.0
  0
ENDBLK
  5
A89
330
A87
100
AcDbEntity
  8
0
100
AcDbBlockEnd
  0
BLOCK
  5
A9D
330
A9C
100
AcDbEntity
  8
0
100
AcDbBlockBegin
  2
*D23
 70
     1
 10
0.0
 20
0.0
 30
0.0
  3
*D23
  1

  0
LINE
  5
A9F
330
A9C
100
AcDbEntity
  8
0
 62
     0
440
 16777216
370
    -2
100
AcDbLine
 10
1320.679961965016
 20
1072.861418421526
 30
0.0
 11
1320.679961965016
 21
1140.146518812388
 31
0.0
  0
LINE
  5
AA0
330
A9C
100
AcDbEntity
  8
0
 62
     0
440
 16777216
370
    -2
100
AcDbLine
 10
1320.67662459822
 20
1104.86288688695
 30
0.0
 11
1320.67662459822
 21
1140.146518812388
 31
0.0
  0
LINE
  5
AA1
330
A9C
100
AcDbEntity
  8
0
 62
     0
440
 16777216
370
    -2
100
AcDbLine
 10
1320.859961965016
 20
1139.966518812388
 30
0.0
 11
1321.039961965016
 21
1139.966518812388
 31
0.0
  0
LINE
  5
AA2
330
A9C
100
AcDbEntity
  8
0
 62
     0
440
 16777216
370
    -2
100
AcDbLine
 10
1320.49662459822
 20
1139.966518812388
 30
0.0
 11
1320.31662459822
 21
1139.966518812388
 31
0.0
  0
SOLID
  5
AA3
330
A9C
100
AcDbEntity
  8
0
 62
     0
440
 16777216
100
AcDbTrace
 10
1320.859961965016
 20
1139.996518812388
 30
0.0
 11
1320.859961965016
 21
1139.936518812388
 31
0.0
 12
1320.679961965016
 22
1139.966518812388
 32
0.0
 13
1320.679961965016
 23
1139.966518812388
 33
0.0
  0
SOLID
  5
AA4
330
A9C
100
AcDbEntity
  8
0
 62
     0
440
 16777216
100
AcDbTrace
 10
1320.49662459822
 20
1139.996518812388
 30
0.0
 11
1320.49662459822
 21
1139.936518812388
 31
0.0
 12
1320.67662459822
 22
1139.966518812388
 32
0.0
 13
1320.67662459822
 23
1139.966518812388
 33
0.0
  0
MTEXT
  5
AA5
330
A9C
100
AcDbEntity
  8
0
 62
     0
440
 16777216
100
AcDbMText
 10
1319.82162459822
 20
1139.966518812388
 30
0.0
 40
0.18
 41
0.0
 46
0.0
 71
     5
 72
     1
  1
\A1;0.0033
 73
     1
 44
1.0
  0
POINT
  5
AA6
330
A9C
100
AcDbEntity
  8
Defpoints
 62
     0
440
 16777216
100
AcDbPoint
 10
1320.679961965016
 20
1072.798918421526
 30
0.0
  0
POINT
  5
AA7
330
A9C
100
AcDbEntity
  8
Defpoints
 62
     0
440
 16777216
100
AcDbPoint
 10
1320.67662459822
 20
1104.80038688695
 30
0.0
  0
POINT
  5
AA8
330
A9C
100
AcDbEntity
  8
Defpoints
 62
     0
440
 16777216
100
AcDbPoint
 10
1320.67662459822
 20
1139.966518812388
 30
0.0
  0
ENDBLK
  5
A9E
330
A9C
100
AcDbEntity
  8
0
100
AcDbBlockEnd
  0
BLOCK
  5
AAB
330
AAA
100
AcDbEntity
  8
0
100
AcDbBlockBegin
  2
*D24
 70
     1
 10
0.0
 20
0.0
 30
0.0
  3
*D24
  1

  0
LINE
  5
AAD
330
AAA
100
AcDbEntity
  8
0
 62
     0
440
 16777216
370
    -2
100
AcDbLine
 10
1201.119902224235
 20
1104.787925082252
 30
0.0
 11
642.8241135734338
 21
1104.787925082252
 31
0.0
  0
LINE
  5
AAE
330
AAA
100
AcDbEntity
  8
0
 62
     0
440
 16777216
370
    -2
100
AcDbLine
 10
1201.123135258975
 20
1072.786846037684
 30
0.0
 11
642.8241135734338
 21
1072.786846037684
 31
0.0
  0
LINE
  5
AAF
330
AAA
100
AcDbEntity
  8
0
 62
     0
440
 16777216
370
    -2
100
AcDbLine
 10
643.0041135734336
 20
1104.607925082252
 30
0.0
 11
643.0041135734336
 21
1088.967385559968
 31
0.0
  0
LINE
  5
AB0
330
AAA
100
AcDbEntity
  8
0
 62
     0
440
 16777216
370
    -2
100
AcDbLine
 10
643.0041135734336
 20
1072.966846037684
 30
0.0
 11
643.0041135734336
 21
1088.607385559968
 31
0.0
  0
SOLID
  5
AB1
330
AAA
100
AcDbEntity
  8
0
 62
     0
440
 16777216
100
AcDbTrace
 10
642.9741135734335
 20
1104.607925082252
 30
0.0
 11
643.0341135734336
 21
1104.607925082252
 31
0.0
 12
643.0041135734336
 22
1104.787925082252
 32
0.0
 13
643.0041135734336
 23
1104.787925082252
 33
0.0
  0
SOLID
  5
AB2
330
AAA
100
AcDbEntity
  8
0
 62
     0
440
 16777216
100
AcDbTrace
 10
642.9741135734335
 20
1072.966846037684
 30
0.0
 11
643.0341135734336
 21
1072.966846037684
 31
0.0
 12
643.0041135734336
 22
1072.786846037684
 32
0.0
 13
643.0041135734336
 23
1072.786846037684
 33
0.0
  0
MTEXT
  5
AB3
330
AAA
100
AcDbEntity
  8
0
 62
     0
440
 16777216
100
AcDbMText
 10
643.0041135734335
 20
1088.787385559968
 30
0.0
 40
0.18
 41
0.0
 46
0.0
 71
     5
 72
     1
  1
\A1;32.0011
 73
     1
 44
1.0
  0
POINT
  5
AB4
330
AAA
100
AcDbEntity
  8
Defpoints
 62
     0
440
 16777216
100
AcDbPoint
 10
1201.182402224235
 20
1104.787925082252
 30
0.0
  0
POINT
  5
AB5
330
AAA
100
AcDbEntity
  8
Defpoints
 62
     0
440
 16777216
100
AcDbPoint
 10
1201.185635258976
 20
1072.786846037684
 30
0.0
  0
POINT
  5
AB6
330
AAA
100
AcDbEntity
  8
Defpoints
 62
     0
440
 16777216
100
AcDbPoint
 10
643.0041135734336
 20
1072.786846037684
 30
0.0
  0
ENDBLK
  5
AAC
330
AAA
100
AcDbEntity
  8
0
100
AcDbBlockEnd
  0
BLOCK
  5
AB9
330
AB8
100
AcDbEntity
  8
0
100
AcDbBlockBegin
  2
*D25
 70
     1
 10
0.0
 20
0.0
 30
0.0
  3
*D25
  1

  0
LINE
  5
ABB
330
AB8
100
AcDbEntity
  8
0
 62
     0
440
 16777216
370
    -2
100
AcDbLine
 10
2436.631007447602
 20
1104.996725509607
 30
0.0
 11
1996.603238431986
 21
1104.996725509607
 31
0.0
  0
LINE
  5
ABC
330
AB8
100
AcDbEntity
  8
0
 62
     0
440
 16777216
370
    -2
100
AcDbLine
 10
2438.965454441716
 20
1072.99458308568
 30
0.0
 11
1996.603238431986
 21
1072.99458308568
 31
0.0
  0
LINE
  5
ABD
330
AB8
100
AcDbEntity
  8
0
 62
     0
440
 16777216
370
    -2
100
AcDbLine
 10
1996.783238431986
 20
1104.816725509607
 30
0.0
 11
1996.783238431986
 21
1089.175654297644
 31
0.0
  0
LINE
  5
ABE
330
AB8
100
AcDbEntity
  8
0
 62
     0
440
 16777216
370
    -2
100
AcDbLine
 10
1996.783238431986
 20
1073.17458308568
 30
0.0
 11
1996.783238431986
 21
1088.815654297643
 31
0.0
  0
SOLID
  5
ABF
330
AB8
100
AcDbEntity
  8
0
 62
     0
440
 16777216
100
AcDbTrace
 10
1996.753238431986
 20
1104.816725509607
 30
0.0
 11
1996.813238431986
 21
1104.816725509607
 31
0.0
 12
1996.783238431986
 22
1104.996725509607
 32
0.0
 13
1996.783238431986
 23
1104.996725509607
 33
0.0
  0
SOLID
  5
AC0
330
AB8
100
AcDbEntity
  8
0
 62
     0
440
 16777216
100
AcDbTrace
 10
1996.753238431986
 20
1073.17458308568
 30
0.0
 11
1996.813238431986
 21
1073.17458308568
 31
0.0
 12
1996.783238431986
 22
1072.99458308568
 32
0.0
 13
1996.783238431986
 23
1072.99458308568
 33
0.0
  0
MTEXT
  5
AC1
330
AB8
100
AcDbEntity
  8
0
 62
     0
440
 16777216
100
AcDbMText
 10
1996.783238431986
 20
1088.995654297644
 30
0.0
 40
0.18
 41
0.0
 46
0.0
 71
     5
 72
     1
  1
\A1;32.0021
 73
     1
 44
1.0
  0
POINT
  5
AC2
330
AB8
100
AcDbEntity
  8
Defpoints
 62
     0
440
 16777216
100
AcDbPoint
 10
2436.693507447603
 20
1104.996725509607
 30
0.0
  0
POINT
  5
AC3
330
AB8
100
AcDbEntity
  8
Defpoints
 62
     0
440
 16777216
100
AcDbPoint
 10
2439.027954441716
 20
1072.99458308568
 30
0.0
  0
POINT
  5
AC4
330
AB8
100
AcDbEntity
  8
Defpoints
 62
     0
440
 16777216
100
AcDbPoint
 10
1996.783238431986
 20
1072.99458308568
 30
0.0
  0
ENDBLK
  5
ABA
330
AB8
100
AcDbEntity
  8
0
100
AcDbBlockEnd
  0
BLOCK
  5
ACC
330
ACB
100
AcDbEntity
  8
0
100
AcDbBlockBegin
  2
*D26
 70
     1
 10
0.0
 20
0.0
 30
0.0
  3
*D26
  1

  0
LINE
  5
ACE
330
ACB
100
AcDbEntity
  8
0
 62
     0
440
 16777216
370
    -2
100
AcDbLine
 10
1817.941403573907
 20
1088.989246276847
 30
0.0
 11
1817.941403573907
 21
1093.830580637355
 31
0.0
  0
LINE
  5
ACF
330
ACB
100
AcDbEntity
  8
0
 62
     0
440
 16777216
370
    -2
100
AcDbLine
 10
1731.034155935119
 20
1088.886628574022
 30
0.0
 11
1731.034155935119
 21
1093.830580637355
 31
0.0
  0
LINE
  5
AD0
330
ACB
100
AcDbEntity
  8
0
 62
     0
440
 16777216
370
    -2
100
AcDbLine
 10
1817.761403573907
 20
1093.650580637355
 30
0.0
 11
1775.102779754513
 21
1093.650580637355
 31
0.0
  0
LINE
  5
AD1
330
ACB
100
AcDbEntity
  8
0
 62
     0
440
 16777216
370
    -2
100
AcDbLine
 10
1731.214155935119
 20
1093.650580637355
 30
0.0
 11
1773.872779754513
 21
1093.650580637355
 31
0.0
  0
SOLID
  5
AD2
330
ACB
100
AcDbEntity
  8
0
 62
     0
440
 16777216
100
AcDbTrace
 10
1817.761403573907
 20
1093.680580637355
 30
0.0
 11
1817.761403573907
 21
1093.620580637355
 31
0.0
 12
1817.941403573907
 22
1093.650580637355
 32
0.0
 13
1817.941403573907
 23
1093.650580637355
 33
0.0
  0
SOLID
  5
AD3
330
ACB
100
AcDbEntity
  8
0
 62
     0
440
 16777216
100
AcDbTrace
 10
1731.214155935119
 20
1093.680580637355
 30
0.0
 11
1731.214155935119
 21
1093.620580637355
 31
0.0
 12
1731.034155935119
 22
1093.650580637355
 32
0.0
 13
1731.034155935119
 23
1093.650580637355
 33
0.0
  0
MTEXT
  5
AD4
330
ACB
100
AcDbEntity
  8
0
 62
     0
440
 16777216
100
AcDbMText
 10
1774.487779754513
 20
1093.650580637355
 30
0.0
 40
0.18
 41
0.0
 46
0.0
 71
     5
 72
     1
  1
\A1;86.9072
 73
     1
 44
1.0
  0
POINT
  5
AD5
330
ACB
100
AcDbEntity
  8
Defpoints
 62
     0
440
 16777216
100
AcDbPoint
 10
1817.941403573907
 20
1088.926746276847
 30
0.0
  0
POINT
  5
AD6
330
ACB
100
AcDbEntity
  8
Defpoints
 62
     0
440
 16777216
100
AcDbPoint
 10
1731.034155935119
 20
1088.824128574022
 30
0.0
  0
POINT
  5
AD7
330
ACB
100
AcDbEntity
  8
Defpoints
 62
     0
440
 16777216
100
AcDbPoint
 10
1731.034155935119
 20
1093.650580637355
 30
0.0
  0
ENDBLK
  5
ACD
330
ACB
100
AcDbEntity
  8
0
100
AcDbBlockEnd
  0
BLOCK
  5
ADE
330
ADD
100
AcDbEntity
  8
0
100
AcDbBlockBegin
  2
*D27
 70
     1
 10
0.0
 20
0.0
 30
0.0
  3
*D27
  1

  0
LINE
  5
AE0
330
ADD
100
AcDbEntity
  8
0
 62
     0
440
 16777216
370
    -2
100
AcDbLine
 10
1730.936694454948
 20
1112.28625125446
 30
0.0
 11
1730.936694454948
 21
1157.575015524547
 31
0.0
  0
LINE
  5
AE1
330
ADD
100
AcDbEntity
  8
0
 62
     0
440
 16777216
370
    -2
100
AcDbLine
 10
1817.936692678956
 20
1112.303830287915
 30
0.0
 11
1817.936692678956
 21
1157.575015524547
 31
0.0
  0
LINE
  5
AE2
330
ADD
100
AcDbEntity
  8
0
 62
     0
440
 16777216
370
    -2
100
AcDbLine
 10
1731.116694454948
 20
1157.395015524547
 30
0.0
 11
1773.866693566952
 21
1157.395015524547
 31
0.0
  0
LINE
  5
AE3
330
ADD
100
AcDbEntity
  8
0
 62
     0
440
 16777216
370
    -2
100
AcDbLine
 10
1817.756692678956
 20
1157.395015524547
 30
0.0
 11
1775.006693566952
 21
1157.395015524547
 31
0.0
  0
SOLID
  5
AE4
330
ADD
100
AcDbEntity
  8
0
 62
     0
440
 16777216
100
AcDbTrace
 10
1731.116694454948
 20
1157.425015524547
 30
0.0
 11
1731.116694454948
 21
1157.365015524547
 31
0.0
 12
1730.936694454948
 22
1157.395015524547
 32
0.0
 13
1730.936694454948
 23
1157.395015524547
 33
0.0
  0
SOLID
  5
AE5
330
ADD
100
AcDbEntity
  8
0
 62
     0
440
 16777216
100
AcDbTrace
 10
1817.756692678956
 20
1157.425015524547
 30
0.0
 11
1817.756692678956
 21
1157.365015524547
 31
0.0
 12
1817.936692678956
 22
1157.395015524547
 32
0.0
 13
1817.936692678956
 23
1157.395015524547
 33
0.0
  0
MTEXT
  5
AE6
330
ADD
100
AcDbEntity
  8
0
 62
     0
440
 16777216
100
AcDbMText
 10
1774.436693566952
 20
1157.395015524547
 30
0.0
 40
0.18
 41
0.0
 46
0.0
 71
     5
 72
     1
  1
\A1;87.0000
 73
     1
 44
1.0
  0
POINT
  5
AE7
330
ADD
100
AcDbEntity
  8
Defpoints
 62
     0
440
 16777216
100
AcDbPoint
 10
1730.936694454948
 20
1112.223751254461
 30
0.0
  0
POINT
  5
AE8
330
ADD
100
AcDbEntity
  8
Defpoints
 62
     0
440
 16777216
100
AcDbPoint
 10
1817.936692678956
 20
1112.241330287915
 30
0.0
  0
POINT
  5
AE9
330
ADD
100
AcDbEntity
  8
Defpoints
 62
     0
440
 16777216
100
AcDbPoint
 10
1817.936692678956
 20
1157.395015524547
 30
0.0
  0
ENDBLK
  5
ADF
330
ADD
100
AcDbEntity
  8
0
100
AcDbBlockEnd
  0
BLOCK
  5
AEE
330
AED
100
AcDbEntity
  8
0
100
AcDbBlockBegin
  2
*D28
 70
     1
 10
0.0
 20
0.0
 30
0.0
  3
*D28
  1

  0
LINE
  5
AF0
330
AED
100
AcDbEntity
  8
0
 62
     0
440
 16777216
370
    -2
100
AcDbLine
 10
2162.833688214712
 20
1089.071168758208
 30
0.0
 11
2162.833688214712
 21
1189.541111328575
 31
0.0
  0
LINE
  5
AF1
330
AED
100
AcDbEntity
  8
0
 62
     0
440
 16777216
370
    -2
100
AcDbLine
 10
2637.83367851821
 20
1089.167146239716
 30
0.0
 11
2637.83367851821
 21
1189.541111328575
 31
0.0
  0
LINE
  5
AF2
330
AED
100
AcDbEntity
  8
0
 62
     0
440
 16777216
370
    -2
100
AcDbLine
 10
2163.013688214713
 20
1189.361111328575
 30
0.0
 11
2399.673683366462
 21
1189.361111328575
 31
0.0
  0
LINE
  5
AF3
330
AED
100
AcDbEntity
  8
0
 62
     0
440
 16777216
370
    -2
100
AcDbLine
 10
2637.653678518211
 20
1189.361111328575
 30
0.0
 11
2400.993683366461
 21
1189.361111328575
 31
0.0
  0
SOLID
  5
AF4
330
AED
100
AcDbEntity
  8
0
 62
     0
440
 16777216
100
AcDbTrace
 10
2163.013688214713
 20
1189.391111328575
 30
0.0
 11
2163.013688214713
 21
1189.331111328575
 31
0.0
 12
2162.833688214712
 22
1189.361111328575
 32
0.0
 13
2162.833688214712
 23
1189.361111328575
 33
0.0
  0
SOLID
  5
AF5
330
AED
100
AcDbEntity
  8
0
 62
     0
440
 16777216
100
AcDbTrace
 10
2637.653678518211
 20
1189.391111328575
 30
0.0
 11
2637.653678518211
 21
1189.331111328575
 31
0.0
 12
2637.83367851821
 22
1189.361111328575
 32
0.0
 13
2637.83367851821
 23
1189.361111328575
 33
0.0
  0
MTEXT
  5
AF6
330
AED
100
AcDbEntity
  8
0
 62
     0
440
 16777216
100
AcDbMText
 10
2400.333683366461
 20
1189.361111328575
 30
0.0
 40
0.18
 41
0.0
 46
0.0
 71
     5
 72
     1
  1
\A1;475.0000
 73
     1
 44
1.0
  0
POINT
  5
AF7
330
AED
100
AcDbEntity
  8
Defpoints
 62
     0
440
 16777216
100
AcDbPoint
 10
2162.833688214712
 20
1089.008668758208
 30
0.0
  0
POINT
  5
AF8
330
AED
100
AcDbEntity
  8
Defpoints
 62
     0
440
 16777216
100
AcDbPoint
 10
2637.83367851821
 20
1089.104646239716
 30
0.0
  0
POINT
  5
AF9
330
AED
100
AcDbEntity
  8
Defpoints
 62
     0
440
 16777216
100
AcDbPoint
 10
2637.83367851821
 20
1189.361111328575
 30
0.0
  0
ENDBLK
  5
AEF
330
AED
100
AcDbEntity
  8
0
100
AcDbBlockEnd
  0
BLOCK
  5
B01
330
B00
100
AcDbEntity
  8
0
100
AcDbBlockBegin
  2
*D29
 70
     1
 10
0.0
 20
0.0
 30
0.0
  3
*D29
  1

  0
LINE
  5
B03
330
B00
100
AcDbEntity
  8
0
 62
     0
440
 16777216
370
    -2
100
AcDbLine
 10
2271.313660072882
 20
1104.947121295051
 30
0.0
 11
2285.135444819999
 21
1104.947121295051
 31
0.0
  0
LINE
  5
B04
330
B00
100
AcDbEntity
  8
0
 62
     0
440
 16777216
370
    -2
100
AcDbLine
 10
2271.323359876635
 20
1072.943735094675
 30
0.0
 11
2285.135444819999
 21
1072.943735094675
 31
0.0
  0
LINE
  5
B05
330
B00
100
AcDbEntity
  8
0
 62
     0
440
 16777216
370
    -2
100
AcDbLine
 10
2284.95544482
 20
1104.767121295051
 30
0.0
 11
2284.95544482
 21
1089.125428194863
 31
0.0
  0
LINE
  5
B06
330
B00
100
AcDbEntity
  8
0
 62
     0
440
 16777216
370
    -2
100
AcDbLine
 10
2284.95544482
 20
1073.123735094675
 30
0.0
 11
2284.95544482
 21
1088.765428194863
 31
0.0
  0
SOLID
  5
B07
330
B00
100
AcDbEntity
  8
0
 62
     0
440
 16777216
100
AcDbTrace
 10
2284.92544482
 20
1104.767121295051
 30
0.0
 11
2284.98544482
 21
1104.767121295051
 31
0.0
 12
2284.95544482
 22
1104.947121295051
 32
0.0
 13
2284.95544482
 23
1104.947121295051
 33
0.0
  0
SOLID
  5
B08
330
B00
100
AcDbEntity
  8
0
 62
     0
440
 16777216
100
AcDbTrace
 10
2284.92544482
 20
1073.123735094675
 30
0.0
 11
2284.98544482
 21
1073.123735094675
 31
0.0
 12
2284.95544482
 22
1072.943735094675
 32
0.0
 13
2284.95544482
 23
1072.943735094675
 33
0.0
  0
MTEXT
  5
B09
330
B00
100
AcDbEntity
  8
0
 62
     0
440
 16777216
100
AcDbMText
 10
2284.955444819999
 20
1088.945428194864
 30
0.0
 40
0.18
 41
0.0
 46
0.0
 71
     5
 72
     1
  1
\A1;32.0034
 73
     1
 44
1.0
  0
POINT
  5
B0A
330
B00
100
AcDbEntity
  8
Defpoints
 62
     0
440
 16777216
100
AcDbPoint
 10
2271.251160072882
 20
1104.947121295051
 30
0.0
  0
POINT
  5
B0B
330
B00
100
AcDbEntity
  8
Defpoints
 62
     0
440
 16777216
100
AcDbPoint
 10
2271.260859876635
 20
1072.943735094675
 30
0.0
  0
POINT
  5
B0C
330
B00
100
AcDbEntity
  8
Defpoints
 62
     0
440
 16777216
100
AcDbPoint
 10
2284.95544482
 20
1072.943735094675
 30
0.0
  0
ENDBLK
  5
B02
330
B00
100
AcDbEntity
  8
0
100
AcDbBlockEnd
  0
BLOCK
  5
B13
330
B12
100
AcDbEntity
  8
0
100
AcDbBlockBegin
  2
*D30
 70
     1
 10
0.0
 20
0.0
 30
0.0
  3
*D30
  1

  0
LINE
  5
B15
330
B12
100
AcDbEntity
  8
0
 62
     0
440
 16777216
370
    -2
100
AcDbLine
 10
2634.833678579451
 20
1089.041540066148
 30
0.0
 11
2634.833678579451
 21
984.5445324941684
 31
0.0
  0
LINE
  5
B16
330
B12
100
AcDbEntity
  8
0
 62
     0
440
 16777216
370
    -2
100
AcDbLine
 10
2174.833687969748
 20
1088.948593452383
 30
0.0
 11
2174.833687969748
 21
984.5445324941684
 31
0.0
  0
LINE
  5
B17
330
B12
100
AcDbEntity
  8
0
 62
     0
440
 16777216
370
    -2
100
AcDbLine
 10
2634.653678579451
 20
984.7245324941686
 30
0.0
 11
2405.4786832746
 21
984.7245324941686
 31
0.0
  0
LINE
  5
B18
330
B12
100
AcDbEntity
  8
0
 62
     0
440
 16777216
370
    -2
100
AcDbLine
 10
2175.013687969748
 20
984.7245324941686
 30
0.0
 11
2404.1886832746
 21
984.7245324941686
 31
0.0
  0
SOLID
  5
B19
330
B12
100
AcDbEntity
  8
0
 62
     0
440
 16777216
100
AcDbTrace
 10
2634.653678579451
 20
984.7545324941687
 30
0.0
 11
2634.653678579451
 21
984.6945324941687
 31
0.0
 12
2634.833678579451
 22
984.7245324941686
 32
0.0
 13
2634.833678579451
 23
984.7245324941686
 33
0.0
  0
SOLID
  5
B1A
330
B12
100
AcDbEntity
  8
0
 62
     0
440
 16777216
100
AcDbTrace
 10
2175.013687969748
 20
984.7545324941687
 30
0.0
 11
2175.013687969748
 21
984.6945324941687
 31
0.0
 12
2174.833687969748
 22
984.7245324941686
 32
0.0
 13
2174.833687969748
 23
984.7245324941686
 33
0.0
  0
MTEXT
  5
B1B
330
B12
100
AcDbEntity
  8
0
 62
     0
440
 16777216
100
AcDbMText
 10
2404.8336832746
 20
984.7245324941686
 30
0.0
 40
0.18
 41
0.0
 46
0.0
 71
     5
 72
     1
  1
\A1;460.0000
 73
     1
 44
1.0
  0
POINT
  5
B1C
330
B12
100
AcDbEntity
  8
Defpoints
 62
     0
440
 16777216
100
AcDbPoint
 10
2634.833678579451
 20
1089.104040066148
 30
0.0
  0
POINT
  5
B1D
330
B12
100
AcDbEntity
  8
Defpoints
 62
     0
440
 16777216
100
AcDbPoint
 10
2174.833687969748
 20
1089.011093452383
 30
0.0
  0
POINT
  5
B1E
330
B12
100
AcDbEntity
  8
Defpoints
 62
     0
440
 16777216
100
AcDbPoint
 10
2174.833687969748
 20
984.7245324941686
 30
0.0
  0
ENDBLK
  5
B14
330
B12
100
AcDbEntity
  8
0
100
AcDbBlockEnd
  0
BLOCK
  5
B26
330
B25
100
AcDbEntity
  8
0
100
AcDbBlockBegin
  2
*D31
 70
     1
 10
0.0
 20
0.0
 30
0.0
  3
*D31
  1

  0
LINE
  5
B28
330
B25
100
AcDbEntity
  8
0
 62
     0
440
 16777216
370
    -2
100
AcDbLine
 10
2436.840930409859
 20
1104.104040066148
 30
0.0
 11
3083.530582344039
 21
1104.104040066148
 31
0.0
  0
LINE
  5
B29
330
B25
100
AcDbEntity
  8
0
 62
     0
440
 16777216
370
    -2
100
AcDbLine
 10
2436.840930409859
 20
1074.104040066148
 30
0.0
 11
3083.530582344039
 21
1074.104040066148
 31
0.0
  0
LINE
  5
B2A
330
B25
100
AcDbEntity
  8
0
 62
     0
440
 16777216
370
    -2
100
AcDbLine
 10
3083.350582344039
 20
1103.924040066148
 30
0.0
 11
3083.350582344039
 21
1089.284040066148
 31
0.0
  0
LINE
  5
B2B
330
B25
100
AcDbEntity
  8
0
 62
     0
440
 16777216
370
    -2
100
AcDbLine
 10
3083.350582344039
 20
1074.284040066148
 30
0.0
 11
3083.350582344039
 21
1088.924040066148
 31
0.0
  0
SOLID
  5
B2C
330
B25
100
AcDbEntity
  8
0
 62
     0
440
 16777216
100
AcDbTrace
 10
3083.320582344038
 20
1103.924040066148
 30
0.0
 11
3083.38058234404
 21
1103.924040066148
 31
0.0
 12
3083.350582344039
 22
1104.104040066148
 32
0.0
 13
3083.350582344039
 23
1104.104040066148
 33
0.0
  0
SOLID
  5
B2D
330
B25
100
AcDbEntity
  8
0
 62
     0
440
 16777216
100
AcDbTrace
 10
3083.320582344038
 20
1074.284040066148
 30
0.0
 11
3083.38058234404
 21
1074.284040066148
 31
0.0
 12
3083.350582344039
 22
1074.104040066148
 32
0.0
 13
3083.350582344039
 23
1074.104040066148
 33
0.0
  0
MTEXT
  5
B2E
330
B25
100
AcDbEntity
  8
0
 62
     0
440
 16777216
100
AcDbMText
 10
3083.350582344039
 20
1089.104040066148
 30
0.0
 40
0.18
 41
0.0
 46
0.0
 71
     5
 72
     1
  1
\A1;30.0000
 73
     1
 44
1.0
  0
POINT
  5
B2F
330
B25
100
AcDbEntity
  8
Defpoints
 62
     0
440
 16777216
100
AcDbPoint
 10
2436.778430409859
 20
1104.104040066148
 30
0.0
  0
POINT
  5
B30
330
B25
100
AcDbEntity
  8
Defpoints
 62
     0
440
 16777216
100
AcDbPoint
 10
2436.778430409859
 20
1074.104040066148
 30
0.0
  0
POINT
  5
B31
330
B25
100
AcDbEntity
  8
Defpoints
 62
     0
440
 16777216
100
AcDbPoint
 10
3083.350582344039
 20
1074.104040066148
 30
0.0
  0
ENDBLK
  5
B27
330
B25
100
AcDbEntity
  8
0
100
AcDbBlockEnd
  0
BLOCK
  5
B67
330
B66
100
AcDbEntity
  8
0
100
AcDbBlockBegin
  2
*D32
 70
     1
 10
0.0
 20
0.0
 30
0.0
  3
*D32
  1

  0
LINE
  5
B69
330
B66
100
AcDbEntity
  8
0
 62
     0
440
 16777216
370
    -2
100
AcDbLine
 10
2486.790711569847
 20
1104.104040066148
 30
0.0
 11
3025.255844720512
 21
1104.104040066148
 31
0.0
  0
LINE
  5
B6A
330
B66
100
AcDbEntity
  8
0
 62
     0
440
 16777216
370
    -2
100
AcDbLine
 10
2486.790711569847
 20
1074.104040066148
 30
0.0
 11
3025.255844720512
 21
1074.104040066148
 31
0.0
  0
LINE
  5
B6B
330
B66
100
AcDbEntity
  8
0
 62
     0
440
 16777216
370
    -2
100
AcDbLine
 10
3025.075844720512
 20
1103.924040066148
 30
0.0
 11
3025.075844720512
 21
1089.284040066148
 31
0.0
  0
LINE
  5
B6C
330
B66
100
AcDbEntity
  8
0
 62
     0
440
 16777216
370
    -2
100
AcDbLine
 10
3025.075844720512
 20
1074.284040066148
 30
0.0
 11
3025.075844720512
 21
1088.924040066148
 31
0.0
  0
SOLID
  5
B6D
330
B66
100
AcDbEntity
  8
0
 62
     0
440
 16777216
100
AcDbTrace
 10
3025.045844720512
 20
1103.924040066148
 30
0.0
 11
3025.105844720512
 21
1103.924040066148
 31
0.0
 12
3025.075844720512
 22
1104.104040066148
 32
0.0
 13
3025.075844720512
 23
1104.104040066148
 33
0.0
  0
SOLID
  5
B6E
330
B66
100
AcDbEntity
  8
0
 62
     0
440
 16777216
100
AcDbTrace
 10
3025.045844720512
 20
1074.284040066148
 30
0.0
 11
3025.105844720512
 21
1074.284040066148
 31
0.0
 12
3025.075844720512
 22
1074.104040066148
 32
0.0
 13
3025.075844720512
 23
1074.104040066148
 33
0.0
  0
MTEXT
  5
B6F
330
B66
100
AcDbEntity
  8
0
 62
     0
440
 16777216
100
AcDbMText
 10
3025.075844720511
 20
1089.104040066148
 30
0.0
 40
0.18
 41
0.0
 46
0.0
 71
     5
 72
     1
  1
\A1;30.0000
 73
     1
 44
1.0
  0
POINT
  5
B70
330
B66
100
AcDbEntity
  8
Defpoints
 62
     0
440
 16777216
100
AcDbPoint
 10
2486.728211569847
 20
1104.104040066148
 30
0.0
  0
POINT
  5
B71
330
B66
100
AcDbEntity
  8
Defpoints
 62
     0
440
 16777216
100
AcDbPoint
 10
2486.728211569847
 20
1074.104040066148
 30
0.0
  0
POINT
  5
B72
330
B66
100
AcDbEntity
  8
Defpoints
 62
     0
440
 16777216
100
AcDbPoint
 10
3025.075844720512
 20
1074.104040066148
 30
0.0
  0
ENDBLK
  5
B68
330
B66
100
AcDbEntity
  8
0
100
AcDbBlockEnd
  0
BLOCK
  5
B75
330
B74
100
AcDbEntity
  8
0
100
AcDbBlockBegin
  2
*D33
 70
     1
 10
0.0
 20
0.0
 30
0.0
  3
*D33
  1

  0
LINE
  5
B77
330
B74
100
AcDbEntity
  8
0
 62
     0
440
 16777216
370
    -2
100
AcDbLine
 10
1330.877407465168
 20
1103.781903226648
 30
0.0
 11
635.1875893627696
 21
1103.781903226648
 31
0.0
  0
LINE
  5
B78
330
B74
100
AcDbEntity
  8
0
 62
     0
440
 16777216
370
    -2
100
AcDbLine
 10
1330.882000633889
 20
1073.799955441977
 30
0.0
 11
635.1875893627696
 21
1073.799955441977
 31
0.0
  0
LINE
  5
B79
330
B74
100
AcDbEntity
  8
0
 62
     0
440
 16777216
370
    -2
100
AcDbLine
 10
635.3675893627696
 20
1103.601903226648
 30
0.0
 11
635.3675893627696
 21
1088.970929334312
 31
0.0
  0
LINE
  5
B7A
330
B74
100
AcDbEntity
  8
0
 62
     0
440
 16777216
370
    -2
100
AcDbLine
 10
635.3675893627696
 20
1073.979955441977
 30
0.0
 11
635.3675893627696
 21
1088.610929334312
 31
0.0
  0
SOLID
  5
B7B
330
B74
100
AcDbEntity
  8
0
 62
     0
440
 16777216
100
AcDbTrace
 10
635.3375893627696
 20
1103.601903226648
 30
0.0
 11
635.3975893627696
 21
1103.601903226648
 31
0.0
 12
635.3675893627696
 22
1103.781903226648
 32
0.0
 13
635.3675893627696
 23
1103.781903226648
 33
0.0
  0
SOLID
  5
B7C
330
B74
100
AcDbEntity
  8
0
 62
     0
440
 16777216
100
AcDbTrace
 10
635.3375893627696
 20
1073.979955441977
 30
0.0
 11
635.3975893627696
 21
1073.979955441977
 31
0.0
 12
635.3675893627696
 22
1073.799955441977
 32
0.0
 13
635.3675893627696
 23
1073.799955441977
 33
0.0
  0
MTEXT
  5
B7D
330
B74
100
AcDbEntity
  8
0
 62
     0
440
 16777216
100
AcDbMText
 10
635.3675893627694
 20
1088.790929334312
 30
0.0
 40
0.18
 41
0.0
 46
0.0
 71
     5
 72
     1
  1
\A1;29.9819
 73
     1
 44
1.0
  0
POINT
  5
B7E
330
B74
100
AcDbEntity
  8
Defpoints
 62
     0
440
 16777216
100
AcDbPoint
 10
1330.939907465168
 20
1103.781903226648
 30
0.0
  0
POINT
  5
B7F
330
B74
100
AcDbEntity
  8
Defpoints
 62
     0
440
 16777216
100
AcDbPoint
 10
1330.94450063389
 20
1073.799955441977
 30
0.0
  0
POINT
  5
B80
330
B74
100
AcDbEntity
  8
Defpoints
 62
     0
440
 16777216
100
AcDbPoint
 10
635.3675893627696
 20
1073.799955441977
 30
0.0
  0
ENDBLK
  5
B76
330
B74
100
AcDbEntity
  8
0
100
AcDbBlockEnd
  0
BLOCK
  5
BCD
330
BCC
100
AcDbEntity
  8
0
100
AcDbBlockBegin
  2
*D35
 70
     1
 10
0.0
 20
0.0
 30
0.0
  3
*D35
  1

  0
LINE
  5
BCF
330
BCC
100
AcDbEntity
  8
0
 62
     0
440
 16777216
370
    -2
100
AcDbLine
 10
2600.652298673133
 20
1104.104040066148
 30
0.0
 11
2417.220355091359
 21
1104.104040066148
 31
0.0
  0
LINE
  5
BD0
330
BCC
100
AcDbEntity
  8
0
 62
     0
440
 16777216
370
    -2
100
AcDbLine
 10
2600.652298673133
 20
1074.104040066148
 30
0.0
 11
2417.220355091359
 21
1074.104040066148
 31
0.0
  0
LINE
  5
BD1
330
BCC
100
AcDbEntity
  8
0
 62
     0
440
 16777216
370
    -2
100
AcDbLine
 10
2417.400355091359
 20
1103.924040066148
 30
0.0
 11
2417.400355091359
 21
1089.284040066148
 31
0.0
  0
LINE
  5
BD2
330
BCC
100
AcDbEntity
  8
0
 62
     0
440
 16777216
370
    -2
100
AcDbLine
 10
2417.400355091359
 20
1074.284040066148
 30
0.0
 11
2417.400355091359
 21
1088.924040066148
 31
0.0
  0
SOLID
  5
BD3
330
BCC
100
AcDbEntity
  8
0
 62
     0
440
 16777216
100
AcDbTrace
 10
2417.370355091359
 20
1103.924040066148
 30
0.0
 11
2417.430355091359
 21
1103.924040066148
 31
0.0
 12
2417.400355091359
 22
1104.104040066148
 32
0.0
 13
2417.400355091359
 23
1104.104040066148
 33
0.0
  0
SOLID
  5
BD4
330
BCC
100
AcDbEntity
  8
0
 62
     0
440
 16777216
100
AcDbTrace
 10
2417.370355091359
 20
1074.284040066148
 30
0.0
 11
2417.430355091359
 21
1074.284040066148
 31
0.0
 12
2417.400355091359
 22
1074.104040066148
 32
0.0
 13
2417.400355091359
 23
1074.104040066148
 33
0.0
  0
MTEXT
  5
BD5
330
BCC
100
AcDbEntity
  8
0
 62
     0
440
 16777216
100
AcDbMText
 10
2417.400355091359
 20
1089.104040066148
 30
0.0
 40
0.18
 41
0.0
 46
0.0
 71
     5
 72
     1
  1
\A1;30.0000
 73
     1
 44
1.0
  0
POINT
  5
BD6
330
BCC
100
AcDbEntity
  8
Defpoints
 62
     0
440
 16777216
100
AcDbPoint
 10
2600.714798673133
 20
1104.104040066148
 30
0.0
  0
POINT
  5
BD7
330
BCC
100
AcDbEntity
  8
Defpoints
 62
     0
440
 16777216
100
AcDbPoint
 10
2600.714798673133
 20
1074.104040066148
 30
0.0
  0
POINT
  5
BD8
330
BCC
100
AcDbEntity
  8
Defpoints
 62
     0
440
 16777216
100
AcDbPoint
 10
2417.400355091359
 20
1074.104040066148
 30
0.0
  0
ENDBLK
  5
BCE
330
BCC
100
AcDbEntity
  8
0
100
AcDbBlockEnd
  0
BLOCK
  5
BDB
330
BDA
100
AcDbEntity
  8
0
100
AcDbBlockBegin
  2
*D36
 70
     1
 10
0.0
 20
0.0
 30
0.0
  3
*D36
  1

  0
LINE
  5
BDD
330
BDA
100
AcDbEntity
  8
0
 62
     0
440
 16777216
370
    -2
100
AcDbLine
 10
1731.112286657433
 20
23.58184484318428
 30
0.0
 11
1731.112286657433
 21
81.9080384335345
 31
0.0
  0
LINE
  5
BDE
330
BDA
100
AcDbEntity
  8
0
 62
     0
440
 16777216
370
    -2
100
AcDbLine
 10
1818.112286412469
 20
23.58184484318428
 30
0.0
 11
1818.112286412469
 21
81.9080384335345
 31
0.0
  0
LINE
  5
BDF
330
BDA
100
AcDbEntity
  8
0
 62
     0
440
 16777216
370
    -2
100
AcDbLine
 10
1731.292286657433
 20
81.72803843353449
 30
0.0
 11
1774.042286534951
 21
81.72803843353449
 31
0.0
  0
LINE
  5
BE0
330
BDA
100
AcDbEntity
  8
0
 62
     0
440
 16777216
370
    -2
100
AcDbLine
 10
1817.932286412469
 20
81.72803843353449
 30
0.0
 11
1775.18228653495
 21
81.72803843353449
 31
0.0
  0
SOLID
  5
BE1
330
BDA
100
AcDbEntity
  8
0
 62
     0
440
 16777216
100
AcDbTrace
 10
1731.292286657433
 20
81.75803843353449
 30
0.0
 11
1731.292286657433
 21
81.69803843353449
 31
0.0
 12
1731.112286657433
 22
81.72803843353449
 32
0.0
 13
1731.112286657433
 23
81.72803843353449
 33
0.0
  0
SOLID
  5
BE2
330
BDA
100
AcDbEntity
  8
0
 62
     0
440
 16777216
100
AcDbTrace
 10
1817.932286412469
 20
81.75803843353449
 30
0.0
 11
1817.932286412469
 21
81.69803843353449
 31
0.0
 12
1818.112286412469
 22
81.72803843353449
 32
0.0
 13
1818.112286412469
 23
81.72803843353449
 33
0.0
  0
MTEXT
  5
BE3
330
BDA
100
AcDbEntity
  8
0
 62
     0
440
 16777216
100
AcDbMText
 10
1774.612286534951
 20
81.72803843353449
 30
0.0
 40
0.18
 41
0.0
 46
0.0
 71
     5
 72
     1
  1
\A1;87.0000
 73
     1
 44
1.0
  0
POINT
  5
BE4
330
BDA
100
AcDbEntity
  8
Defpoints
 62
     0
440
 16777216
100
AcDbPoint
 10
1731.112286657433
 20
23.51934484318428
 30
0.0
  0
POINT
  5
BE5
330
BDA
100
AcDbEntity
  8
Defpoints
 62
     0
440
 16777216
100
AcDbPoint
 10
1818.112286412469
 20
23.51934484318428
 30
0.0
  0
POINT
  5
BE6
330
BDA
100
AcDbEntity
  8
Defpoints
 62
     0
440
 16777216
100
AcDbPoint
 10
1818.112286412469
 20
81.72803843353449
 30
0.0
  0
ENDBLK
  5
BDC
330
BDA
100
AcDbEntity
  8
0
100
AcDbBlockEnd
  0
BLOCK
  5
BE9
330
BE8
100
AcDbEntity
  8
0
100
AcDbBlockBegin
  2
*D37
 70
     1
 10
0.0
 20
0.0
 30
0.0
  3
*D37
  1

  0
LINE
  5
BEB
330
BE8
100
AcDbEntity
  8
0
 62
     0
440
 16777216
370
    -2
100
AcDbLine
 10
1429.708753134494
 20
1103.792197106784
 30
0.0
 11
1946.24439841194
 21
1103.792197106784
 31
0.0
  0
LINE
  5
BEC
330
BE8
100
AcDbEntity
  8
0
 62
     0
440
 16777216
370
    -2
100
AcDbLine
 10
1429.711782211082
 20
1073.809927480341
 30
0.0
 11
1946.24439841194
 21
1073.809927480341
 31
0.0
  0
LINE
  5
BED
330
BE8
100
AcDbEntity
  8
0
 62
     0
440
 16777216
370
    -2
100
AcDbLine
 10
1946.064398411939
 20
1103.612197106784
 30
0.0
 11
1946.064398411939
 21
1088.981062293562
 31
0.0
  0
LINE
  5
BEE
330
BE8
100
AcDbEntity
  8
0
 62
     0
440
 16777216
370
    -2
100
AcDbLine
 10
1946.064398411939
 20
1073.989927480341
 30
0.0
 11
1946.064398411939
 21
1088.621062293562
 31
0.0
  0
SOLID
  5
BEF
330
BE8
100
AcDbEntity
  8
0
 62
     0
440
 16777216
100
AcDbTrace
 10
1946.03439841194
 20
1103.612197106784
 30
0.0
 11
1946.094398411939
 21
1103.612197106784
 31
0.0
 12
1946.064398411939
 22
1103.792197106784
 32
0.0
 13
1946.064398411939
 23
1103.792197106784
 33
0.0
  0
SOLID
  5
BF0
330
BE8
100
AcDbEntity
  8
0
 62
     0
440
 16777216
100
AcDbTrace
 10
1946.03439841194
 20
1073.989927480341
 30
0.0
 11
1946.094398411939
 21
1073.989927480341
 31
0.0
 12
1946.064398411939
 22
1073.809927480341
 32
0.0
 13
1946.064398411939
 23
1073.809927480341
 33
0.0
  0
MTEXT
  5
BF1
330
BE8
100
AcDbEntity
  8
0
 62
     0
440
 16777216
100
AcDbMText
 10
1946.064398411939
 20
1088.801062293563
 30
0.0
 40
0.18
 41
0.0
 46
0.0
 71
     5
 72
     1
  1
\A1;29.9823
 73
     1
 44
1.0
  0
POINT
  5
BF2
330
BE8
100
AcDbEntity
  8
Defpoints
 62
     0
440
 16777216
100
AcDbPoint
 10
1429.646253134494
 20
1103.792197106784
 30
0.0
  0
POINT
  5
BF3
330
BE8
100
AcDbEntity
  8
Defpoints
 62
     0
440
 16777216
100
AcDbPoint
 10
1429.649282211082
 20
1073.809927480341
 30
0.0
  0
POINT
  5
BF4
330
BE8
100
AcDbEntity
  8
Defpoints
 62
     0
440
 16777216
100
AcDbPoint
 10
1946.064398411939
 20
1073.809927480341
 30
0.0
  0
ENDBLK
  5
BEA
330
BE8
100
AcDbEntity
  8
0
100
AcDbBlockEnd
  0
BLOCK
  5
BF7
330
BF6
100
AcDbEntity
  8
0
100
AcDbBlockBegin
  2
*D38
 70
     1
 10
0.0
 20
0.0
 30
0.0
  3
*D38
  1

  0
LINE
  5
BF9
330
BF6
100
AcDbEntity
  8
0
 62
     0
440
 16777216
370
    -2
100
AcDbLine
 10
855.9414232118758
 20
1088.794866619563
 30
0.0
 11
855.9414232118758
 21
1222.50303101113
 31
0.0
  0
LINE
  5
BFA
330
BF6
100
AcDbEntity
  8
0
 62
     0
440
 16777216
370
    -2
100
AcDbLine
 10
1805.941706905655
 20
1087.486821613198
 30
0.0
 11
1805.941706905655
 21
1222.50303101113
 31
0.0
  0
LINE
  5
BFB
330
BF6
100
AcDbEntity
  8
0
 62
     0
440
 16777216
370
    -2
100
AcDbLine
 10
856.1214232118757
 20
1222.32303101113
 30
0.0
 11
1330.281565058765
 21
1222.32303101113
 31
0.0
  0
LINE
  5
BFC
330
BF6
100
AcDbEntity
  8
0
 62
     0
440
 16777216
370
    -2
100
AcDbLine
 10
1805.761706905655
 20
1222.32303101113
 30
0.0
 11
1331.601565058765
 21
1222.32303101113
 31
0.0
  0
SOLID
  5
BFD
330
BF6
100
AcDbEntity
  8
0
 62
     0
440
 16777216
100
AcDbTrace
 10
856.1214232118757
 20
1222.35303101113
 30
0.0
 11
856.1214232118757
 21
1222.29303101113
 31
0.0
 12
855.9414232118758
 22
1222.32303101113
 32
0.0
 13
855.9414232118758
 23
1222.32303101113
 33
0.0
  0
SOLID
  5
BFE
330
BF6
100
AcDbEntity
  8
0
 62
     0
440
 16777216
100
AcDbTrace
 10
1805.761706905655
 20
1222.35303101113
 30
0.0
 11
1805.761706905655
 21
1222.29303101113
 31
0.0
 12
1805.941706905655
 22
1222.32303101113
 32
0.0
 13
1805.941706905655
 23
1222.32303101113
 33
0.0
  0
MTEXT
  5
BFF
330
BF6
100
AcDbEntity
  8
0
 62
     0
440
 16777216
100
AcDbMText
 10
1330.941565058765
 20
1222.32303101113
 30
0.0
 40
0.18
 41
0.0
 46
0.0
 71
     5
 72
     1
  1
\A1;950.0003
 73
     1
 44
1.0
  0
POINT
  5
C00
330
BF6
100
AcDbEntity
  8
Defpoints
 62
     0
440
 16777216
100
AcDbPoint
 10
855.9414232118758
 20
1088.732366619563
 30
0.0
  0
POINT
  5
C01
330
BF6
100
AcDbEntity
  8
Defpoints
 62
     0
440
 16777216
100
AcDbPoint
 10
1805.941706905655
 20
1087.424321613198
 30
0.0
  0
POINT
  5
C02
330
BF6
100
AcDbEntity
  8
Defpoints
 62
     0
440
 16777216
100
AcDbPoint
 10
1805.941706905655
 20
1222.32303101113
 30
0.0
  0
ENDBLK
  5
BF8
330
BF6
100
AcDbEntity
  8
0
100
AcDbBlockEnd
  0
BLOCK
  5
C06
330
C05
100
AcDbEntity
  8
0
100
AcDbBlockBegin
  2
*D39
 70
     1
 10
0.0
 20
0.0
 30
0.0
  3
*D39
  1

  0
LINE
  5
C08
330
C05
100
AcDbEntity
  8
0
 62
     0
440
 16777216
370
    -2
100
AcDbLine
 10
2202.999249488037
 20
788.5193448431842
 30
0.0
 11
2348.116200167565
 21
788.5193448431842
 31
0.0
  0
LINE
  5
C09
330
C05
100
AcDbEntity
  8
0
 62
     0
440
 16777216
370
    -2
100
AcDbLine
 10
2202.999249488037
 20
23.51934484318428
 30
0.0
 11
2348.116200167565
 21
23.51934484318424
 31
0.0
  0
LINE
  5
C0A
330
C05
100
AcDbEntity
  8
0
 62
     0
440
 16777216
370
    -2
100
AcDbLine
 10
2347.936200167565
 20
788.3393448431842
 30
0.0
 11
2347.936200167565
 21
406.1993448431842
 31
0.0
  0
LINE
  5
C0B
330
C05
100
AcDbEntity
  8
0
 62
     0
440
 16777216
370
    -2
100
AcDbLine
 10
2347.936200167565
 20
23.69934484318425
 30
0.0
 11
2347.936200167565
 21
405.8393448431842
 31
0.0
  0
SOLID
  5
C0C
330
C05
100
AcDbEntity
  8
0
 62
     0
440
 16777216
100
AcDbTrace
 10
2347.906200167566
 20
788.3393448431842
 30
0.0
 11
2347.966200167566
 21
788.3393448431842
 31
0.0
 12
2347.936200167565
 22
788.5193448431842
 32
0.0
 13
2347.936200167565
 23
788.5193448431842
 33
0.0
  0
SOLID
  5
C0D
330
C05
100
AcDbEntity
  8
0
 62
     0
440
 16777216
100
AcDbTrace
 10
2347.906200167566
 20
23.69934484318425
 30
0.0
 11
2347.966200167566
 21
23.69934484318425
 31
0.0
 12
2347.936200167565
 22
23.51934484318425
 32
0.0
 13
2347.936200167565
 23
23.51934484318425
 33
0.0
  0
MTEXT
  5
C0E
330
C05
100
AcDbEntity
  8
0
 62
     0
440
 16777216
100
AcDbMText
 10
2347.936200167565
 20
406.0193448431846
 30
0.0
 40
0.18
 41
0.0
 46
0.0
 71
     5
 72
     1
  1
\A1;765.0000
 73
     1
 44
1.0
  0
POINT
  5
C0F
330
C05
100
AcDbEntity
  8
Defpoints
 62
     0
440
 16777216
100
AcDbPoint
 10
2202.936749488037
 20
788.5193448431842
 30
0.0
  0
POINT
  5
C10
330
C05
100
AcDbEntity
  8
Defpoints
 62
     0
440
 16777216
100
AcDbPoint
 10
2202.936749488037
 20
23.51934484318428
 30
0.0
  0
POINT
  5
C11
330
C05
100
AcDbEntity
  8
Defpoints
 62
     0
440
 16777216
100
AcDbPoint
 10
2347.936200167565
 20
23.51934484318425
 30
0.0
  0
ENDBLK
  5
C07
330
C05
100
AcDbEntity
  8
0
100
AcDbBlockEnd
  0
BLOCK
  5
C14
330
C13
100
AcDbEntity
  8
0
100
AcDbBlockBegin
  2
*D40
 70
     1
 10
0.0
 20
0.0
 30
0.0
  3
*D40
  1

  0
LINE
  5
C16
330
C13
100
AcDbEntity
  8
0
 62
     0
440
 16777216
370
    -2
100
AcDbLine
 10
852.9890694359357
 20
852.9897100287012
 30
0.0
 11
852.9890694359357
 21
1534.327578469265
 31
0.0
  0
LINE
  5
C17
330
C13
100
AcDbEntity
  8
0
 62
     0
440
 16777216
370
    -2
100
AcDbLine
 10
1817.989049736726
 20
853.1846958595521
 30
0.0
 11
1817.989049736726
 21
1534.327578469265
 31
0.0
  0
LINE
  5
C18
330
C13
100
AcDbEntity
  8
0
 62
     0
440
 16777216
370
    -2
100
AcDbLine
 10
853.1690694359356
 20
1534.147578469266
 30
0.0
 11
1334.829059586331
 21
1534.147578469266
 31
0.0
  0
LINE
  5
C19
330
C13
100
AcDbEntity
  8
0
 62
     0
440
 16777216
370
    -2
100
AcDbLine
 10
1817.809049736726
 20
1534.147578469266
 30
0.0
 11
1336.149059586331
 21
1534.147578469266
 31
0.0
  0
SOLID
  5
C1A
330
C13
100
AcDbEntity
  8
0
 62
     0
440
 16777216
100
AcDbTrace
 10
853.1690694359356
 20
1534.177578469266
 30
0.0
 11
853.1690694359356
 21
1534.117578469265
 31
0.0
 12
852.9890694359357
 22
1534.147578469266
 32
0.0
 13
852.9890694359357
 23
1534.147578469266
 33
0.0
  0
SOLID
  5
C1B
330
C13
100
AcDbEntity
  8
0
 62
     0
440
 16777216
100
AcDbTrace
 10
1817.809049736726
 20
1534.177578469266
 30
0.0
 11
1817.809049736726
 21
1534.117578469265
 31
0.0
 12
1817.989049736726
 22
1534.147578469266
 32
0.0
 13
1817.989049736726
 23
1534.147578469266
 33
0.0
  0
MTEXT
  5
C1C
330
C13
100
AcDbEntity
  8
0
 62
     0
440
 16777216
100
AcDbMText
 10
1335.489059586331
 20
1534.147578469266
 30
0.0
 40
0.18
 41
0.0
 46
0.0
 71
     5
 72
     1
  1
\A1;965.0000
 73
     1
 44
1.0
  0
POINT
  5
C1D
330
C13
100
AcDbEntity
  8
Defpoints
 62
     0
440
 16777216
100
AcDbPoint
 10
852.9890694359357
 20
852.9272100287013
 30
0.0
  0
POINT
  5
C1E
330
C13
100
AcDbEntity
  8
Defpoints
 62
     0
440
 16777216
100
AcDbPoint
 10
1817.989049736726
 20
853.1221958595521
 30
0.0
  0
POINT
  5
C1F
330
C13
100
AcDbEntity
  8
Defpoints
 62
     0
440
 16777216
100
AcDbPoint
 10
1817.989049736726
 20
1534.147578469266
 30
0.0
  0
ENDBLK
  5
C15
330
C13
100
AcDbEntity
  8
0
100
AcDbBlockEnd
  0
BLOCK
  5
C22
330
C21
100
AcDbEntity
  8
0
100
AcDbBlockBegin
  2
*D41
 70
     1
 10
0.0
 20
0.0
 30
0.0
  3
*D41
  1

  0
LINE
  5
C24
330
C21
100
AcDbEntity
  8
0
 62
     0
440
 16777216
370
    -2
100
AcDbLine
 10
1924.140591084414
 20
788.5110587618667
 30
0.0
 11
2347.8318339548
 21
788.5110587618665
 31
0.0
  0
LINE
  5
C25
330
C21
100
AcDbEntity
  8
0
 62
     0
440
 16777216
370
    -2
100
AcDbLine
 10
1924.23656856592
 20
23.51934484318428
 30
0.0
 11
2347.8318339548
 21
23.51934484318416
 31
0.0
  0
LINE
  5
C26
330
C21
100
AcDbEntity
  8
0
 62
     0
440
 16777216
370
    -2
100
AcDbLine
 10
2347.6518339548
 20
788.3310587618666
 30
0.0
 11
2347.6518339548
 21
406.1952018025254
 31
0.0
  0
LINE
  5
C27
330
C21
100
AcDbEntity
  8
0
 62
     0
440
 16777216
370
    -2
100
AcDbLine
 10
2347.6518339548
 20
23.69934484318417
 30
0.0
 11
2347.6518339548
 21
405.8352018025254
 31
0.0
  0
SOLID
  5
C28
330
C21
100
AcDbEntity
  8
0
 62
     0
440
 16777216
100
AcDbTrace
 10
2347.6218339548
 20
788.3310587618666
 30
0.0
 11
2347.6818339548
 21
788.3310587618666
 31
0.0
 12
2347.6518339548
 22
788.5110587618665
 32
0.0
 13
2347.6518339548
 23
788.5110587618665
 33
0.0
  0
SOLID
  5
C29
330
C21
100
AcDbEntity
  8
0
 62
     0
440
 16777216
100
AcDbTrace
 10
2347.6218339548
 20
23.69934484318417
 30
0.0
 11
2347.6818339548
 21
23.69934484318417
 31
0.0
 12
2347.6518339548
 22
23.51934484318416
 32
0.0
 13
2347.6518339548
 23
23.51934484318416
 33
0.0
  0
MTEXT
  5
C2A
330
C21
100
AcDbEntity
  8
0
 62
     0
440
 16777216
100
AcDbMText
 10
2347.6518339548
 20
406.0152018025258
 30
0.0
 40
0.18
 41
0.0
 46
0.0
 71
     5
 72
     1
  1
\A1;764.9917
 73
     1
 44
1.0
  0
POINT
  5
C2B
330
C21
100
AcDbEntity
  8
Defpoints
 62
     0
440
 16777216
100
AcDbPoint
 10
1924.078091084414
 20
788.5110587618667
 30
0.0
  0
POINT
  5
C2C
330
C21
100
AcDbEntity
  8
Defpoints
 62
     0
440
 16777216
100
AcDbPoint
 10
1924.17406856592
 20
23.51934484318428
 30
0.0
  0
POINT
  5
C2D
330
C21
100
AcDbEntity
  8
Defpoints
 62
     0
440
 16777216
100
AcDbPoint
 10
2347.6518339548
 20
23.51934484318416
 30
0.0
  0
ENDBLK
  5
C23
330
C21
100
AcDbEntity
  8
0
100
AcDbBlockEnd
  0
BLOCK
  5
C3C
330
C3B
100
AcDbEntity
  8
0
100
AcDbBlockBegin
  2
*D42
 70
     1
 10
0.0
 20
0.0
 30
0.0
  3
*D42
  1

  0
LINE
  5
C3E
330
C3B
100
AcDbEntity
  8
0
 62
     0
440
 16777216
370
    -2
100
AcDbLine
 10
1053.001073262059
 20
857.864709926633
 30
0.0
 11
1053.001073262059
 21
831.3581499909354
 31
0.0
  0
LINE
  5
C3F
330
C3B
100
AcDbEntity
  8
0
 62
     0
440
 16777216
370
    -2
100
AcDbLine
 10
1817.988039447447
 20
858.0596957574837
 30
0.0
 11
1817.988039447447
 21
831.3581499909354
 31
0.0
  0
LINE
  5
C40
330
C3B
100
AcDbEntity
  8
0
 62
     0
440
 16777216
370
    -2
100
AcDbLine
 10
1053.181073262059
 20
831.5381499909353
 30
0.0
 11
1434.789556354753
 21
831.5381499909353
 31
0.0
  0
LINE
  5
C41
330
C3B
100
AcDbEntity
  8
0
 62
     0
440
 16777216
370
    -2
100
AcDbLine
 10
1817.808039447447
 20
831.5381499909353
 30
0.0
 11
1436.199556354753
 21
831.5381499909353
 31
0.0
  0
SOLID
  5
C42
330
C3B
100
AcDbEntity
  8
0
 62
     0
440
 16777216
100
AcDbTrace
 10
1053.181073262059
 20
831.5681499909354
 30
0.0
 11
1053.181073262059
 21
831.5081499909354
 31
0.0
 12
1053.001073262059
 22
831.5381499909353
 32
0.0
 13
1053.001073262059
 23
831.5381499909353
 33
0.0
  0
SOLID
  5
C43
330
C3B
100
AcDbEntity
  8
0
 62
     0
440
 16777216
100
AcDbTrace
 10
1817.808039447447
 20
831.5681499909354
 30
0.0
 11
1817.808039447447
 21
831.5081499909354
 31
0.0
 12
1817.988039447447
 22
831.5381499909353
 32
0.0
 13
1817.988039447447
 23
831.5381499909353
 33
0.0
  0
MTEXT
  5
C44
330
C3B
100
AcDbEntity
  8
0
 62
     0
440
 16777216
100
AcDbMText
 10
1435.494556354753
 20
831.5381499909353
 30
0.0
 40
0.18
 41
0.0
 46
0.0
 71
     5
 72
     1
  1
\A1;764.9870
 73
     1
 44
1.0
  0
POINT
  5
C45
330
C3B
100
AcDbEntity
  8
Defpoints
 62
     0
440
 16777216
100
AcDbPoint
 10
1053.001073262059
 20
857.9272099266329
 30
0.0
  0
POINT
  5
C46
330
C3B
100
AcDbEntity
  8
Defpoints
 62
     0
440
 16777216
100
AcDbPoint
 10
1817.988039447447
 20
858.1221957574836
 30
0.0
  0
POINT
  5
C47
330
C3B
100
AcDbEntity
  8
Defpoints
 62
     0
440
 16777216
100
AcDbPoint
 10
1817.988039447447
 20
831.5381499909353
 30
0.0
  0
ENDBLK
  5
C3D
330
C3B
100
AcDbEntity
  8
0
100
AcDbBlockEnd
  0
BLOCK
  5
C4B
330
C4A
100
AcDbEntity
  8
0
100
AcDbBlockBegin
  2
*D43
 70
     1
 10
0.0
 20
0.0
 30
0.0
  3
*D43
  1

  0
LINE
  5
C4D
330
C4A
100
AcDbEntity
  8
0
 62
     0
440
 16777216
370
    -2
100
AcDbLine
 10
1464.203379026152
 20
1103.732366619563
 30
0.0
 11
2068.496034677667
 21
1103.732366619563
 31
0.0
  0
LINE
  5
C4E
330
C4A
100
AcDbEntity
  8
0
 62
     0
440
 16777216
370
    -2
100
AcDbLine
 10
1464.203379026152
 20
1073.732366619563
 30
0.0
 11
2068.496034677667
 21
1073.732366619563
 31
0.0
  0
LINE
  5
C4F
330
C4A
100
AcDbEntity
  8
0
 62
     0
440
 16777216
370
    -2
100
AcDbLine
 10
2068.316034677668
 20
1103.552366619563
 30
0.0
 11
2068.316034677668
 21
1088.912366619563
 31
0.0
  0
LINE
  5
C50
330
C4A
100
AcDbEntity
  8
0
 62
     0
440
 16777216
370
    -2
100
AcDbLine
 10
2068.316034677668
 20
1073.912366619563
 30
0.0
 11
2068.316034677668
 21
1088.552366619563
 31
0.0
  0
SOLID
  5
C51
330
C4A
100
AcDbEntity
  8
0
 62
     0
440
 16777216
100
AcDbTrace
 10
2068.286034677667
 20
1103.552366619563
 30
0.0
 11
2068.346034677668
 21
1103.552366619563
 31
0.0
 12
2068.316034677668
 22
1103.732366619563
 32
0.0
 13
2068.316034677668
 23
1103.732366619563
 33
0.0
  0
SOLID
  5
C52
330
C4A
100
AcDbEntity
  8
0
 62
     0
440
 16777216
100
AcDbTrace
 10
2068.286034677667
 20
1073.912366619563
 30
0.0
 11
2068.346034677668
 21
1073.912366619563
 31
0.0
 12
2068.316034677668
 22
1073.732366619563
 32
0.0
 13
2068.316034677668
 23
1073.732366619563
 33
0.0
  0
MTEXT
  5
C53
330
C4A
100
AcDbEntity
  8
0
 62
     0
440
 16777216
100
AcDbMText
 10
2068.316034677667
 20
1088.732366619563
 30
0.0
 40
0.18
 41
0.0
 46
0.0
 71
     5
 72
     1
  1
\A1;30.0000
 73
     1
 44
1.0
  0
POINT
  5
C54
330
C4A
100
AcDbEntity
  8
Defpoints
 62
     0
440
 16777216
100
AcDbPoint
 10
1464.140879026152
 20
1103.732366619563
 30
0.0
  0
POINT
  5
C55
330
C4A
100
AcDbEntity
  8
Defpoints
 62
     0
440
 16777216
100
AcDbPoint
 10
1464.140879026152
 20
1073.732366619563
 30
0.0
  0
POINT
  5
C56
330
C4A
100
AcDbEntity
  8
Defpoints
 62
     0
440
 16777216
100
AcDbPoint
 10
2068.316034677668
 20
1073.732366619563
 30
0.0
  0
ENDBLK
  5
C4C
330
C4A
100
AcDbEntity
  8
0
100
AcDbBlockEnd
  0
BLOCK
  5
C59
330
C58
100
AcDbEntity
  8
0
100
AcDbBlockBegin
  2
*D44
 70
     1
 10
0.0
 20
0.0
 30
0.0
  3
*D44
  1

  0
LINE
  5
C5B
330
C58
100
AcDbEntity
  8
0
 62
     0
440
 16777216
370
    -2
100
AcDbLine
 10
1817.941403573907
 20
1088.989246276847
 30
0.0
 11
1817.941403573907
 21
1700.392225878892
 31
0.0
  0
LINE
  5
C5C
330
C58
100
AcDbEntity
  8
0
 62
     0
440
 16777216
370
    -2
100
AcDbLine
 10
1053.002083551338
 20
1275.880960555441
 30
0.0
 11
1053.002083551338
 21
1700.392225878892
 31
0.0
  0
LINE
  5
C5D
330
C58
100
AcDbEntity
  8
0
 62
     0
440
 16777216
370
    -2
100
AcDbLine
 10
1817.761403573907
 20
1700.212225878892
 30
0.0
 11
1436.191743562622
 21
1700.212225878892
 31
0.0
  0
LINE
  5
C5E
330
C58
100
AcDbEntity
  8
0
 62
     0
440
 16777216
370
    -2
100
AcDbLine
 10
1053.182083551338
 20
1700.212225878892
 30
0.0
 11
1434.751743562622
 21
1700.212225878892
 31
0.0
  0
SOLID
  5
C5F
330
C58
100
AcDbEntity
  8
0
 62
     0
440
 16777216
100
AcDbTrace
 10
1817.761403573907
 20
1700.242225878892
 30
0.0
 11
1817.761403573907
 21
1700.182225878892
 31
0.0
 12
1817.941403573907
 22
1700.212225878892
 32
0.0
 13
1817.941403573907
 23
1700.212225878892
 33
0.0
  0
SOLID
  5
C60
330
C58
100
AcDbEntity
  8
0
 62
     0
440
 16777216
100
AcDbTrace
 10
1053.182083551338
 20
1700.242225878892
 30
0.0
 11
1053.182083551338
 21
1700.182225878892
 31
0.0
 12
1053.002083551338
 22
1700.212225878892
 32
0.0
 13
1053.002083551338
 23
1700.212225878892
 33
0.0
  0
MTEXT
  5
C61
330
C58
100
AcDbEntity
  8
0
 62
     0
440
 16777216
100
AcDbMText
 10
1435.471743562622
 20
1700.212225878892
 30
0.0
 40
0.18
 41
0.0
 46
0.0
 71
     5
 72
     1
  1
\A1;764.9393
 73
     1
 44
1.0
  0
POINT
  5
C62
330
C58
100
AcDbEntity
  8
Defpoints
 62
     0
440
 16777216
100
AcDbPoint
 10
1817.941403573907
 20
1088.926746276847
 30
0.0
  0
POINT
  5
C63
330
C58
100
AcDbEntity
  8
Defpoints
 62
     0
440
 16777216
100
AcDbPoint
 10
1053.002083551338
 20
1275.818460555441
 30
0.0
  0
POINT
  5
C64
330
C58
100
AcDbEntity
  8
Defpoints
 62
     0
440
 16777216
100
AcDbPoint
 10
1053.002083551338
 20
1700.212225878892
 30
0.0
  0
ENDBLK
  5
C5A
330
C58
100
AcDbEntity
  8
0
100
AcDbBlockEnd
  0
BLOCK
  5
CE0
330
CDF
100
AcDbEntity
  8
0
100
AcDbBlockBegin
  2
*D45
 70
     1
 10
0.0
 20
0.0
 30
0.0
  3
*D45
  1

  0
LINE
  5
CE2
330
CDF
100
AcDbEntity
  8
0
 62
     0
440
 16777216
370
    -2
100
AcDbLine
 10
1939.434778225735
 20
161.754552365478
 30
0.0
 11
1939.434778225735
 21
-177.6725356927542
 31
0.0
  0
LINE
  5
CE3
330
CDF
100
AcDbEntity
  8
0
 62
     0
440
 16777216
370
    -2
100
AcDbLine
 10
1852.441814738792
 20
23.45684484318429
 30
0.0
 11
1852.441814738792
 21
-177.6725356927542
 31
0.0
  0
LINE
  5
CE4
330
CDF
100
AcDbEntity
  8
0
 62
     0
440
 16777216
370
    -2
100
AcDbLine
 10
1939.254778225735
 20
-177.4925356927542
 30
0.0
 11
1896.553296482264
 21
-177.4925356927542
 31
0.0
  0
LINE
  5
CE5
330
CDF
100
AcDbEntity
  8
0
 62
     0
440
 16777216
370
    -2
100
AcDbLine
 10
1852.621814738792
 20
-177.4925356927542
 30
0.0
 11
1895.323296482264
 21
-177.4925356927542
 31
0.0
  0
SOLID
  5
CE6
330
CDF
100
AcDbEntity
  8
0
 62
     0
440
 16777216
100
AcDbTrace
 10
1939.254778225735
 20
-177.4625356927542
 30
0.0
 11
1939.254778225735
 21
-177.5225356927542
 31
0.0
 12
1939.434778225735
 22
-177.4925356927542
 32
0.0
 13
1939.434778225735
 23
-177.4925356927542
 33
0.0
  0
SOLID
  5
CE7
330
CDF
100
AcDbEntity
  8
0
 62
     0
440
 16777216
100
AcDbTrace
 10
1852.621814738792
 20
-177.4625356927542
 30
0.0
 11
1852.621814738792
 21
-177.5225356927542
 31
0.0
 12
1852.441814738792
 22
-177.4925356927542
 32
0.0
 13
1852.441814738792
 23
-177.4925356927542
 33
0.0
  0
MTEXT
  5
CE8
330
CDF
100
AcDbEntity
  8
0
 62
     0
440
 16777216
100
AcDbMText
 10
1895.938296482264
 20
-177.4925356927542
 30
0.0
 40
0.18
 41
0.0
 46
0.0
 71
     5
 72
     1
  1
\A1;86.9930
 73
     1
 44
1.0
  0
POINT
  5
CE9
330
CDF
100
AcDbEntity
  8
Defpoints
 62
     0
440
 16777216
100
AcDbPoint
 10
1939.434778225735
 20
161.817052365478
 30
0.0
  0
POINT
  5
CEA
330
CDF
100
AcDbEntity
  8
Defpoints
 62
     0
440
 16777216
100
AcDbPoint
 10
1852.441814738792
 20
23.51934484318428
 30
0.0
  0
POINT
  5
CEB
330
CDF
100
AcDbEntity
  8
Defpoints
 62
     0
440
 16777216
100
AcDbPoint
 10
1852.441814738792
 20
-177.4925356927542
 30
0.0
  0
ENDBLK
  5
CE1
330
CDF
100
AcDbEntity
  8
0
100
AcDbBlockEnd
  0
BLOCK
  5
D48
330
D47
100
AcDbEntity
  8
0
100
AcDbBlockBegin
  2
*D46
 70
     1
 10
0.0
 20
0.0
 30
0.0
  3
*D46
  1

  0
LINE
  5
D4A
330
D47
100
AcDbEntity
  8
0
 62
     0
440
 16777216
370
    -2
100
AcDbLine
 10
1746.413510066847
 20
788.5110587618667
 30
0.0
 11
1154.186854289281
 21
788.5110587618668
 31
0.0
  0
LINE
  5
D4B
330
D47
100
AcDbEntity
  8
0
 62
     0
440
 16777216
370
    -2
100
AcDbLine
 10
1758.290464227537
 20
-176.4616437650331
 30
0.0
 11
1154.186854289281
 21
-176.4616437650329
 31
0.0
  0
LINE
  5
D4C
330
D47
100
AcDbEntity
  8
0
 62
     0
440
 16777216
370
    -2
100
AcDbLine
 10
1154.366854289281
 20
788.3310587618669
 30
0.0
 11
1154.366854289281
 21
306.204707498417
 31
0.0
  0
LINE
  5
D4D
330
D47
100
AcDbEntity
  8
0
 62
     0
440
 16777216
370
    -2
100
AcDbLine
 10
1154.366854289281
 20
-176.2816437650329
 30
0.0
 11
1154.366854289281
 21
305.8447074984169
 31
0.0
  0
SOLID
  5
D4E
330
D47
100
AcDbEntity
  8
0
 62
     0
440
 16777216
100
AcDbTrace
 10
1154.336854289281
 20
788.3310587618669
 30
0.0
 11
1154.396854289281
 21
788.3310587618669
 31
0.0
 12
1154.366854289281
 22
788.5110587618668
 32
0.0
 13
1154.366854289281
 23
788.5110587618668
 33
0.0
  0
SOLID
  5
D4F
330
D47
100
AcDbEntity
  8
0
 62
     0
440
 16777216
100
AcDbTrace
 10
1154.336854289281
 20
-176.2816437650329
 30
0.0
 11
1154.396854289281
 21
-176.2816437650329
 31
0.0
 12
1154.366854289281
 22
-176.4616437650329
 32
0.0
 13
1154.366854289281
 23
-176.4616437650329
 33
0.0
  0
MTEXT
  5
D50
330
D47
100
AcDbEntity
  8
0
 62
     0
440
 16777216
100
AcDbMText
 10
1154.366854289281
 20
306.0247074984172
 30
0.0
 40
0.18
 41
0.0
 46
0.0
 71
     5
 72
     1
  1
\A1;964.9727
 73
     1
 44
1.0
  0
POINT
  5
D51
330
D47
100
AcDbEntity
  8
Defpoints
 62
     0
440
 16777216
100
AcDbPoint
 10
1746.476010066847
 20
788.5110587618667
 30
0.0
  0
POINT
  5
D52
330
D47
100
AcDbEntity
  8
Defpoints
 62
     0
440
 16777216
100
AcDbPoint
 10
1758.352964227537
 20
-176.4616437650331
 30
0.0
  0
POINT
  5
D53
330
D47
100
AcDbEntity
  8
Defpoints
 62
     0
440
 16777216
100
AcDbPoint
 10
1154.366854289281
 20
-176.4616437650329
 30
0.0
  0
ENDBLK
  5
D49
330
D47
100
AcDbEntity
  8
0
100
AcDbBlockEnd
  0
BLOCK
  5
D56
330
D55
100
AcDbEntity
  8
0
100
AcDbBlockBegin
  2
*D47
 70
     1
 10
0.0
 20
0.0
 30
0.0
  3
*D47
  1

  0
LINE
  5
D58
330
D55
100
AcDbEntity
  8
0
 62
     0
440
 16777216
370
    -2
100
AcDbLine
 10
1705.405051804739
 20
788.5193448431842
 30
0.0
 11
1338.578659288005
 21
788.5193448431842
 31
0.0
  0
LINE
  5
D59
330
D55
100
AcDbEntity
  8
0
 62
     0
440
 16777216
370
    -2
100
AcDbLine
 10
1705.210071978389
 20
-176.4509184545681
 30
0.0
 11
1338.578659288005
 21
-176.450918454568
 31
0.0
  0
LINE
  5
D5A
330
D55
100
AcDbEntity
  8
0
 62
     0
440
 16777216
370
    -2
100
AcDbLine
 10
1338.758659288005
 20
788.3393448431842
 30
0.0
 11
1338.758659288005
 21
306.2142131943081
 31
0.0
  0
LINE
  5
D5B
330
D55
100
AcDbEntity
  8
0
 62
     0
440
 16777216
370
    -2
100
AcDbLine
 10
1338.758659288005
 20
-176.270918454568
 30
0.0
 11
1338.758659288005
 21
305.8542131943081
 31
0.0
  0
SOLID
  5
D5C
330
D55
100
AcDbEntity
  8
0
 62
     0
440
 16777216
100
AcDbTrace
 10
1338.728659288005
 20
788.3393448431842
 30
0.0
 11
1338.788659288005
 21
788.3393448431842
 31
0.0
 12
1338.758659288005
 22
788.5193448431842
 32
0.0
 13
1338.758659288005
 23
788.5193448431842
 33
0.0
  0
SOLID
  5
D5D
330
D55
100
AcDbEntity
  8
0
 62
     0
440
 16777216
100
AcDbTrace
 10
1338.728659288005
 20
-176.270918454568
 30
0.0
 11
1338.788659288005
 21
-176.270918454568
 31
0.0
 12
1338.758659288005
 22
-176.450918454568
 32
0.0
 13
1338.758659288005
 23
-176.450918454568
 33
0.0
  0
MTEXT
  5
D5E
330
D55
100
AcDbEntity
  8
0
 62
     0
440
 16777216
100
AcDbMText
 10
1338.758659288005
 20
306.0342131943083
 30
0.0
 40
0.18
 41
0.0
 46
0.0
 71
     5
 72
     1
  1
\A1;964.9703
 73
     1
 44
1.0
  0
POINT
  5
D5F
330
D55
100
AcDbEntity
  8
Defpoints
 62
     0
440
 16777216
100
AcDbPoint
 10
1705.467551804739
 20
788.5193448431842
 30
0.0
  0
POINT
  5
D60
330
D55
100
AcDbEntity
  8
Defpoints
 62
     0
440
 16777216
100
AcDbPoint
 10
1705.272571978389
 20
-176.4509184545681
 30
0.0
  0
POINT
  5
D61
330
D55
100
AcDbEntity
  8
Defpoints
 62
     0
440
 16777216
100
AcDbPoint
 10
1338.758659288005
 20
-176.450918454568
 30
0.0
  0
ENDBLK
  5
D57
330
D55
100
AcDbEntity
  8
0
100
AcDbBlockEnd
  0
ENDSEC
  0
SECTION
  2
ENTITIES
  0
LWPOLYLINE
  5
33E
330
1F
100
AcDbEntity
  8
HEWI
100
AcDbPolyline
 90
        4
 70
     0
 43
0.0
 10
2782.552220372258
 20
777.5261140059043
 10
2782.554443008672
 20
788.5261137813536
 10
2852.554441579714
 20
788.5119697314474
 10
2852.5522189433
 20
777.511969955998
  0
LWPOLYLINE
  5
33F
330
1F
100
AcDbEntity
  8
HEWI
100
AcDbPolyline
 90
        2
 70
     0
 43
0.0
 10
2851.552016905858
 20
776.5121720342673
 10
2783.552018293989
 20
776.5259119684622
  0
ARC
  5
340
330
1F
100
AcDbEntity
  8
HEWI
100
AcDbCircle
 10
2783.552220351845
 20
777.5259119480485
 30
0.0
 40
1.0
100
AcDbArc
 50
179.9884229375662
 51
269.9884229375631
  0
ARC
  5
341
330
1F
100
AcDbEntity
  8
HEWI
100
AcDbCircle
 10
2851.552218963714
 20
777.5121720138538
 30
0.0
 40
1.0
100
AcDbArc
 50
269.9884229375631
 51
359.9884229375662
  0
LINE
  5
342
330
1F
100
AcDbEntity
  8
HEWI
100
AcDbLine
 10
2814.552017661164
 20
776.5196481749325
 30
0.0
 11
2817.552017599924
 21
776.5190420013647
 31
0.0
  0
LINE
  5
343
330
1F
100
AcDbEntity
  8
HEWI
100
AcDbLine
 10
2817.534236508614
 20
701.5187386696167
 30
0.0
 11
2814.534236569855
 21
701.5193448431841
 31
0.0
  0
LINE
  5
345
330
1F
100
AcDbEntity
  8
HEWI
100
AcDbLine
 10
2817.552017599924
 20
776.5190420013647
 30
0.0
 11
2820.552017538683
 21
776.5184358277974
 31
0.0
  0
LINE
  5
347
330
1F
100
AcDbEntity
  8
HEWI
100
AcDbLine
 10
2820.547168253304
 20
701.5185438609056
 30
0.0
 11
2817.534236508614
 21
701.5187386696167
 31
0.0
  0
LWPOLYLINE
  5
357
330
1F
100
AcDbEntity
  8
HEWI
100
AcDbPolyline
 90
        2
 70
     0
 43
0.0
 10
1495.713543214416
 20
1055.011094146544
 10
1495.727283148611
 20
1123.011092758413
  0
ARC
  5
358
330
1F
100
AcDbEntity
  8
HEWI
100
AcDbCircle
 10
1496.727283128197
 20
1123.010890700557
 30
0.0
 40
1.0
100
AcDbArc
 50
89.98842293756306
 51
179.9884229375661
  0
ARC
  5
359
330
1F
100
AcDbEntity
  8
HEWI
100
AcDbCircle
 10
1496.713543194002
 20
1055.010892088688
 30
0.0
 40
1.0
100
AcDbArc
 50
179.9884229375661
 51
269.9884229375631
  0
LINE
  5
35A
330
1F
100
AcDbEntity
  8
HEWI
100
AcDbLine
 10
1495.721019355081
 20
1092.011093391237
 30
0.0
 11
1495.720413181513
 21
1089.011093452478
 31
0.0
  0
LINE
  5
35B
330
1F
100
AcDbEntity
  8
HEWI
100
AcDbLine
 10
1495.720413181513
 20
1089.011093452478
 30
0.0
 11
1495.719807007946
 21
1086.01109351372
 31
0.0
  0
LWPOLYLINE
  5
651
330
1F
100
AcDbEntity
  8
HEWI
100
AcDbPolyline
 90
        4
 70
     0
 43
0.0
 10
1863.55199081046
 20
683.2121101912654
 10
1852.551991035011
 20
683.2143328276791
 10
1852.566135084917
 20
753.2143313987211
 10
1863.566134860366
 20
753.2121087623072
  0
LWPOLYLINE
  5
652
330
1F
100
AcDbEntity
  8
HEWI
100
AcDbPolyline
 90
        2
 70
     0
 43
0.0
 10
1864.565932782097
 20
752.2119067248652
 10
1864.552192847903
 20
684.2119081129959
  0
ARC
  5
653
330
1F
100
AcDbEntity
  8
HEWI
100
AcDbCircle
 10
1863.552192868316
 20
684.2121101708519
 30
0.0
 40
1.0
100
AcDbArc
 50
269.9884229375631
 51
359.9884229375662
  0
ARC
  5
654
330
1F
100
AcDbEntity
  8
HEWI
100
AcDbCircle
 10
1863.56593280251
 20
752.2121087827212
 30
0.0
 40
1.0
100
AcDbArc
 50
359.9884229375662
 51
89.98842293756306
  0
LINE
  5
655
330
1F
100
AcDbEntity
  8
HEWI
100
AcDbLine
 10
1864.558456641432
 20
715.2119074801718
 30
0.0
 11
1864.559062815
 21
718.2119074189306
 31
0.0
  0
LINE
  5
658
330
1F
100
AcDbEntity
  8
HEWI
100
AcDbLine
 10
1864.559062815
 20
718.2119074189306
 30
0.0
 11
1864.559668988567
 21
721.2119073576892
 31
0.0
  0
LWPOLYLINE
  5
65B
330
1F
100
AcDbEntity
  8
HEWI
100
AcDbPolyline
 90
        4
 70
     0
 43
0.0
 10
1863.434742489289
 20
-211.4828770787504
 10
1852.434742713839
 20
-211.4806544423365
 10
1852.448886763745
 20
-141.4806558712949
 10
1863.448886539195
 20
-141.4828785077087
  0
LWPOLYLINE
  5
65C
330
1F
100
AcDbEntity
  8
HEWI
100
AcDbPolyline
 90
        2
 70
     0
 43
0.0
 10
1864.448684460925
 20
-142.4830805451508
 10
1864.434944526731
 20
-210.4830791570199
  0
ARC
  5
65D
330
1F
100
AcDbEntity
  8
HEWI
100
AcDbCircle
 10
1863.434944547144
 20
-210.4828770991641
 30
0.0
 40
1.0
100
AcDbArc
 50
269.9884229375631
 51
359.9884229375663
  0
ARC
  5
65E
330
1F
100
AcDbEntity
  8
HEWI
100
AcDbCircle
 10
1863.448684481338
 20
-142.4828784872949
 30
0.0
 40
1.0
100
AcDbArc
 50
359.9884229375663
 51
89.98842293756306
  0
LINE
  5
65F
330
1F
100
AcDbEntity
  8
HEWI
100
AcDbLine
 10
1864.441208320261
 20
-179.4830797898443
 30
0.0
 11
1864.441814493827
 21
-176.4830798510853
 31
0.0
  0
LINE
  5
662
330
1F
100
AcDbEntity
  8
HEWI
100
AcDbLine
 10
1864.441814493827
 20
-176.4830798510853
 30
0.0
 11
1864.442420667396
 21
-173.4830799123264
 31
0.0
  0
ARC
  5
68B
330
1F
100
AcDbEntity
  8
HEWI
100
AcDbCircle
 10
542.7274849615023
 20
1089.104646239716
 30
0.0
 40
35.0
100
AcDbArc
 50
25.37583523358034
 51
334.621968173289
  0
ARC
  5
68D
330
1F
100
AcDbEntity
  8
HEWI
100
AcDbCircle
 10
542.7274849615023
 20
1089.104646239716
 30
0.0
 40
17.5
100
AcDbArc
 50
58.99342800243637
 51
300.9988658389986
  0
ARC
  5
6A2
330
1F
100
AcDbEntity
  8
HEWI
100
AcDbCircle
 10
1437.220414375714
 20
1089.022913837035
 30
0.0
 40
35.0
100
AcDbArc
 50
207.3154939833282
 51
332.6557499458699
  0
ARC
  5
6A3
330
1F
100
AcDbEntity
  8
HEWI
100
AcDbCircle
 10
1437.220414375714
 20
1089.022913837035
 30
0.0
 40
17.5
100
AcDbArc
 50
238.4854085524244
 51
301.5145914475756
  0
ARC
  5
6A4
330
1F
100
AcDbEntity
  8
HEWI
100
AcDbCircle
 10
1437.220414375714
 20
1089.022913837035
 30
0.0
 40
35.0
100
AcDbArc
 50
27.06168940586046
 51
152.9042970724418
  0
ARC
  5
6A5
330
1F
100
AcDbEntity
  8
HEWI
100
AcDbCircle
 10
1437.220414375714
 20
1089.022913837035
 30
0.0
 40
17.5
100
AcDbArc
 50
59.51687908958836
 51
120.4831209104116
  0
LWPOLYLINE
  5
6B0
330
1F
100
AcDbEntity
  8
HEWI
100
AcDbPolyline
 90
        2
 70
     0
 43
0.0
 10
1864.605827365292
 20
1054.924322276643
 10
1864.619567299487
 20
1122.924320888512
  0
ARC
  5
6B1
330
1F
100
AcDbEntity
  8
HEWI
100
AcDbCircle
 10
1863.6195673199
 20
1122.924522946368
 30
0.0
 40
1.0
100
AcDbArc
 50
359.9884229375662
 51
89.98842293756306
  0
ARC
  5
6B2
330
1F
100
AcDbEntity
  8
HEWI
100
AcDbCircle
 10
1863.605827385706
 20
1054.924524334499
 30
0.0
 40
1.0
100
AcDbArc
 50
269.9884229375631
 51
359.9884229375662
  0
ARC
  5
6B7
330
1F
100
AcDbEntity
  8
HEWI
100
AcDbCircle
 10
2817.612677878145
 20
1088.731760445996
 30
0.0
 40
35.0
100
AcDbArc
 50
205.3350892102655
 51
154.6165599296176
  0
ARC
  5
6B9
330
1F
100
AcDbEntity
  8
HEWI
100
AcDbCircle
 10
2817.612677878145
 20
1088.731760445996
 30
0.0
 40
17.5
100
AcDbArc
 50
238.8652128805364
 51
120.9948799506819
  0
DIMENSION
  5
870
330
1F
100
AcDbEntity
  8
0
100
AcDbDimension
280
     0
  2
*D13
 10
1669.444113610538
 20
-176.4436790329438
 30
0.0
 11
1669.541603523714
 21
306.0414526159326
 31
0.0
 70
    32
  1
W2
 71
     5
 42
964.9702829963555
 73
     0
 74
     0
 75
     0
  3
STANDARD
100
AcDbAlignedDimension
 13
1746.476010066847
 23
788.5110587618667
 33
0.0
 14
1758.352964227537
 24
-176.4616437650331
 34
0.0
 50
89.98842293756306
100
AcDbRotatedDimension
1001
ACAD
1000
DSTYLE
1002
{
1070
    73
1070
     0
1070
    42
1040
5.0
1070
    41
1040
15.0
1070
   147
1040
10.0
1070
   140
1040
15.0
1002
}
  0
DIMENSION
  5
8D9
330
1F
100
AcDbEntity
  8
0
100
AcDbDimension
280
     0
  2
*D14
 10
2817.585556910949
 20
942.5076901942651
 30
0.0
 11
2335.084354382849
 21
942.6051833546607
 31
0.0
 70
    32
  1
W1
 71
     5
 42
965.0024247554597
 73
     0
 74
     0
 75
     0
  3
STANDARD
100
AcDbAlignedDimension
 13
1852.565051414535
 23
853.1221958595521
 33
0.0
 14
2817.565609384485
 24
843.7858366052557
 34
0.0
 50
359.9884229375662
100
AcDbRotatedDimension
1001
ACAD
1000
DSTYLE
1002
{
1070
    41
1040
15.0
1070
    42
1040
5.0
1070
    73
1070
     0
1070
   140
1040
15.0
1070
   147
1040
10.0
1002
}
  0
LINE
  5
A27
330
1F
100
AcDbEntity
  8
HEWI
100
AcDbLine
 10
2814.552017601115
 20
701.5193448431841
 30
0.0
 11
1939.434778225735
 21
701.5193448431844
 31
0.0
  0
LINE
  5
A28
330
1F
100
AcDbEntity
  8
HEWI
100
AcDbLine
 10
2814.552017599924
 20
731.5193448431841
 30
0.0
 11
1864.540480847663
 21
731.5193448431841
 31
0.0
  0
LWPOLYLINE
  5
A64
330
1F
100
AcDbEntity
  8
HEWI
100
AcDbPolyline
 90
        4
 70
     1
 43
0.0
 10
2820.547168247044
 20
701.5184470313946
 10
2814.552017599924
 20
701.5193448431842
 10
2814.552017599924
 20
776.5190420013648
 10
2820.552017599924
 20
776.5190420013648
  0
LWPOLYLINE
  5
A77
330
1F
100
AcDbEntity
  8
HEWI
100
AcDbPolyline
 90
        4
 70
     1
 43
0.0
 10
1939.441814493828
 20
-179.4830798500511
 10
1864.441814493828
 20
-179.4830798500511
 10
1864.441814493828
 20
-173.483079850051
 10
1939.441814493828
 20
-173.483079850051
  0
LINE
  5
A94
330
1F
100
AcDbEntity
  8
HEWI
100
AcDbLine
 10
1939.434778225735
 20
701.5193448431841
 30
0.0
 11
1939.434778225735
 21
-173.4830798500511
 31
0.0
  0
LINE
  5
A95
330
1F
100
AcDbEntity
  8
HEWI
100
AcDbLine
 10
1909.434778225735
 20
701.5193448431841
 30
0.0
 11
1909.434778225735
 21
-173.4830798500511
 31
0.0
  0
LINE
  5
A98
330
1F
100
AcDbEntity
  8
HEWI
100
AcDbLine
 10
1939.434778225735
 20
701.5193448431841
 30
0.0
 11
1924.434778225735
 21
716.7119074495513
 31
0.0
  0
LINE
  5
A99
330
1F
100
AcDbEntity
  8
HEWI
100
AcDbLine
 10
1924.434778225735
 20
716.7119074495513
 30
0.0
 11
1909.434778225735
 21
701.5193448431841
 31
0.0
  0
LINE
  5
A9A
330
1F
100
AcDbEntity
  8
HEWI
100
AcDbLine
 10
1909.434778225735
 20
701.5193448431844
 30
0.0
 11
1864.534419111865
 21
701.5193448431841
 31
0.0
  0
LWPOLYLINE
  5
AC7
330
1F
100
AcDbEntity
  8
HEWI
100
AcDbPolyline
 90
        4
 70
     1
 43
0.0
 10
2820.612677939386
 20
1073.732366619563
 10
2814.612677939386
 20
1073.732366619563
 10
2814.612677939386
 20
1103.732366619563
 10
2820.612677939386
 20
1103.732366619563
  0
ARC
  5
AC8
330
1F
100
AcDbEntity
  8
HEWI
100
AcDbCircle
 10
1924.705605062937
 20
1088.841711735353
 30
0.0
 40
14.90711848421604
100
AcDbArc
 50
270.0
 51
90.0
  0
LINE
  5
AD8
330
1F
100
AcDbEntity
  8
HEWI
100
AcDbLine
 10
1863.619769377757
 20
1123.924522925954
 30
0.0
 11
1852.619769602307
 21
1123.926745562368
 31
0.0
  0
LINE
  5
AD9
330
1F
100
AcDbEntity
  8
HEWI
100
AcDbLine
 10
1852.619769602307
 20
1123.926745562368
 30
0.0
 11
1852.605625552401
 21
1053.926746991327
 31
0.0
  0
LINE
  5
ADA
330
1F
100
AcDbEntity
  8
HEWI
100
AcDbLine
 10
1852.605625552401
 20
1053.926746991327
 30
0.0
 11
1863.60562532785
 21
1053.924524354913
 31
0.0
  0
LINE
  5
AFA
330
1F
100
AcDbEntity
  8
HEWI
100
AcDbLine
 10
1496.727485186053
 20
1124.010890680143
 30
0.0
 11
1507.727484961502
 21
1124.008668043729
 31
0.0
  0
LINE
  5
AFC
330
1F
100
AcDbEntity
  8
HEWI
100
AcDbLine
 10
1507.727484961502
 20
1054.008666614771
 30
0.0
 11
1496.713341136146
 21
1054.010892109102
 31
0.0
  0
LINE
  5
B0E
330
1F
100
AcDbEntity
  8
HEWI
100
AcDbLine
 10
1507.727484961502
 20
1124.008668043729
 30
0.0
 11
1507.727484961502
 21
1054.008666614771
 31
0.0
  0
LWPOLYLINE
  5
B1F
330
1F
100
AcDbEntity
  8
HEWI
100
AcDbPolyline
 90
        4
 70
     1
 43
0.0
 10
1495.72042257181
 20
1074.104040066148
 10
545.7274849002614
 20
1074.104040066148
 10
545.7274849002614
 20
1104.104040066148
 10
1495.72042257181
 20
1104.104040066148
  0
LWPOLYLINE
  5
B20
330
1F
100
AcDbEntity
  8
HEWI
100
AcDbPolyline
 90
        4
 70
     1
 43
0.0
 10
545.7274849002614
 20
1074.104040066148
 10
539.7274849002615
 20
1074.104040066148
 10
539.7274849002615
 20
1104.104040066148
 10
545.7274849002614
 20
1104.104040066148
  0
ARC
  5
B23
330
1F
100
AcDbEntity
  8
HEWI
100
AcDbCircle
 10
1435.72041471254
 20
1089.026247791663
 30
0.0
 40
15.0
100
AcDbArc
 50
90.0
 51
270.0
  0
LWPOLYLINE
  5
C03
330
1F
100
AcDbEntity
  8
HEWI
100
AcDbPolyline
 90
        4
 70
     0
 43
0.0
 10
2814.612677939386
 20
1073.732366619563
 10
1864.612677939385
 20
1073.732366619563
 10
1864.612677939385
 20
1103.732366619563
 10
2814.612677939386
 20
1103.732366619563
  0
ENDSEC
  0
SECTION
  2
OBJECTS
  0
DICTIONARY
  5
C
330
0
100
AcDbDictionary
281
     1
  3
ACAD_CIP_PREVIOUS_PRODUCT_INFO
350
1CC
  3
ACAD_COLOR
350
1AC
  3
ACAD_DETAILVIEWSTYLE
350
1C6
  3
ACAD_GROUP
350
D
  3
ACAD_LAYOUT
350
1A
  3
ACAD_MATERIAL
350
17A
  3
ACAD_MLEADERSTYLE
350
1C1
  3
ACAD_MLINESTYLE
350
17
  3
ACAD_PLOTSETTINGS
350
19
  3
ACAD_PLOTSTYLENAME
350
DF
  3
ACAD_SCALELIST
350
1AF
  3
ACAD_SECTIONVIEWSTYLE
350
1C3
  3
ACAD_TABLESTYLE
350
1AD
  3
ACAD_VISUALSTYLE
350
193
  3
ACDB_RECOMPOSE_DATA
350
D6A
  3
AcDbVariableDictionary
350
2CB
  3
AcDsDecomposeData
350
D70
  0
DICTIONARY
  5
1E1
330
2
100
AcDbDictionary
280
     1
281
     1
  3
ACAD_LAYERSTATES
360
1E2
  0
DICTIONARY
  5
1CD
330
10
100
AcDbDictionary
280
     1
281
     1
  3
ADSK_XREC_LAYER_RECONCILED
360
1CE
  0
DICTIONARY
  5
D9
330
1F
100
AcDbDictionary
280
     1
281
     1
  3
ACAD_LAYOUTSELFREF
360
177
  3
ACAD_SORTENTS
360
292
  0
DICTIONARY
  5
D7
330
1B
100
AcDbDictionary
280
     1
281
     1
  3
ACAD_LAYOUTSELFREF
360
176
  0
XRECORD
  5
1CC
102
{ACAD_REACTORS
330
C
102
}
330
C
100
AcDbXrecord
280
     1
300
ACDLT
300
2013
300
ACDLT_F_S
  0
DICTIONARY
  5
1AC
102
{ACAD_REACTORS
330
C
102
}
330
C
100
AcDbDictionary
281
     1
  0
DICTIONARY
  5
1C6
102
{ACAD_REACTORS
330
C
102
}
330
C
100
AcDbDictionary
281
     1
  3
Imperial24
350
1C7
  0
DICTIONARY
  5
D
102
{ACAD_REACTORS
330
C
102
}
330
C
100
AcDbDictionary
281
     1
  0
DICTIONARY
  5
1A
102
{ACAD_REACTORS
330
C
102
}
330
C
100
AcDbDictionary
281
     1
  3
Layout1
350
1C9
  3
Model
350
1C8
  0
DICTIONARY
  5
17A
102
{ACAD_REACTORS
330
C
102
}
330
C
100
AcDbDictionary
281
     1
  3
ByBlock
350
183
  3
ByLayer
350
17B
  3
Global
350
18B
  0
DICTIONARY
  5
1C1
102
{ACAD_REACTORS
330
C
102
}
330
C
100
AcDbDictionary
281
     1
  3
Standard
350
1C2
  0
DICTIONARY
  5
17
102
{ACAD_REACTORS
330
C
102
}
330
C
100
AcDbDictionary
281
     1
  3
STANDARD
350
18
  0
DICTIONARY
  5
19
102
{ACAD_REACTORS
330
C
102
}
330
C
100
AcDbDictionary
281
     1
  0
ACDBDICTIONARYWDFLT
  5
DF
102
{ACAD_REACTORS
330
C
102
}
330
C
100
AcDbDictionary
281
     1
  3
Normal
350
E0
100
AcDbDictionaryWithDefault
340
E0
  0
DICTIONARY
  5
1AF
102
{ACAD_REACTORS
330
C
102
}
330
C
100
AcDbDictionary
281
     1
  3
A0
350
1B0
  3
A1
350
1B1
  3
A2
350
1B2
  3
A3
350
1B3
  3
A4
350
1B4
  3
A5
350
1B5
  3
A6
350
1B6
  3
A7
350
1B7
  3
A8
350
1B8
  3
A9
350
1B9
  3
B0
350
1BA
  3
B1
350
1BB
  3
B2
350
1BC
  3
B3
350
1BD
  3
B4
350
1BE
  3
B5
350
1BF
  3
B6
350
1C0
  0
DICTIONARY
  5
1C3
102
{ACAD_REACTORS
330
C
102
}
330
C
100
AcDbDictionary
281
     1
  3
Imperial24
350
1C5
  0
DICTIONARY
  5
1AD
102
{ACAD_REACTORS
330
C
102
}
330
C
100
AcDbDictionary
281
     1
  3
Standard
350
1AE
  0
DICTIONARY
  5
193
102
{ACAD_REACTORS
330
C
102
}
330
C
100
AcDbDictionary
281
     1
  3
2dWireframe
350
199
  3
Basic
350
198
  3
Brighten
350
19F
  3
ColorChange
350
1A3
  3
Conceptual
350
19C
  3
Dim
350
19E
  3
EdgeColorOff
350
1AB
  3
Facepattern
350
1A2
  3
Flat
350
194
  3
FlatWithEdges
350
195
  3
Gouraud
350
196
  3
GouraudWithEdges
350
197
  3
Hidden
350
19B
  3
JitterOff
350
1A9
  3
Linepattern
350
1A1
  3
OverhangOff
350
1AA
  3
Realistic
350
19D
  3
Shaded
350
1A8
  3
Shaded with edges
350
1A7
  3
Shades of Gray
350
1A4
  3
Sketchy
350
1A5
  3
Thicken
350
1A0
  3
Wireframe
350
19A
  3
X-Ray
350
1A6
  0
XRECORD
  5
D6A
102
{ACAD_REACTORS
330
C
102
}
330
C
100
AcDbXrecord
280
     1
 90
        1
330
1AE
  0
DICTIONARY
  5
2CB
102
{ACAD_REACTORS
330
C
102
}
330
C
100
AcDbDictionary
281
     1
  3
CANNOSCALE
350
2D1
  3
CMLEADERSTYLE
350
2CD
  3
CTABLESTYLE
350
2CC
  3
CVIEWDETAILSTYLE
350
2CE
  3
CVIEWSECTIONSTYLE
350
2CF
  3
LAYEREVAL
350
2D3
  3
LAYERNOTIFY
350
2D4
  3
LIGHTINGUNITS
350
2D2
  3
MSLTSCALE
350
2D0
  0
DICTIONARY
  5
D70
102
{ACAD_REACTORS
330
C
102
}
330
C
100
AcDbDictionary
281
     1
  3
AcDsRecords
350
D72
  3
AcDsSchemas
350
D71
1001
ACAD
1070
     2
  0
DICTIONARY
  5
1E2
102
{ACAD_REACTORS
330
1E1
102
}
330
1E1
100
AcDbDictionary
281
     1
  0
XRECORD
  5
1CE
102
{ACAD_REACTORS
330
1CD
102
}
330
1CD
100
AcDbXrecord
280
     1
290
     1
  0
XRECORD
  5
177
102
{ACAD_REACTORS
330
D9
102
}
330
D9
100
AcDbXrecord
280
     1
340
1F
  0
SORTENTSTABLE
  5
292
102
{ACAD_REACTORS
330
D9
102
}
330
D9
100
AcDbSortentsTable
330
1F
331
654
  5
664
331
AFC
  5
35C
331
AD9
  5
6BA
331
652
  5
662
331
AFA
  5
359
331
C03
  5
C03
331
B23
  5
B23
331
347
  5
357
331
6B2
  5
6C0
331
6B0
  5
6BE
331
345
  5
348
331
A99
  5
AFB
331
343
  5
344
331
A77
  5
ADA
331
341
  5
342
331
8D9
  5
A99
331
662
  5
690
331
65F
  5
68F
331
35B
  5
65A
331
33F
  5
340
331
A95
  5
AD9
331
A28
  5
AC7
331
65D
  5
68D
331
359
  5
656
331
AC7
  5
AFC
331
B0E
  5
B0E
331
65B
  5
675
331
357
  5
35E
331
6A5
  5
6B5
331
6A3
  5
6B4
331
655
  5
673
331
ADA
  5
6BC
331
653
  5
663
331
AD8
  5
6B8
331
6B9
  5
A66
331
68D
  5
6A3
331
651
  5
661
331
870
  5
A97
331
A64
  5
AC8
331
6B7
  5
A65
331
68B
  5
6A0
331
A27
  5
A9A
331
B20
  5
B20
331
6B1
  5
6BF
331
AC8
  5
AFD
331
B1F
  5
B1F
331
A9A
  5
AC6
331
342
  5
343
331
A98
  5
AFA
331
340
  5
341
331
65E
  5
68E
331
35A
  5
659
331
33E
  5
33F
331
A94
  5
AD8
331
65C
  5
680
331
358
  5
3EA
331
6A4
  5
6B2
331
658
  5
674
331
6A2
  5
6B1
  0
XRECORD
  5
176
102
{ACAD_REACTORS
330
D7
102
}
330
D7
100
AcDbXrecord
280
     1
340
1B
  0
ACDBDETAILVIEWSTYLE
  5
1C7
102
{ACAD_XDICTIONARY
360
468
102
}
102
{ACAD_REACTORS
330
1C6
102
}
330
1C6
100
AcDbModelDocViewStyle
 70
     0
  3
Imperial24
290
     0
100
AcDbDetailViewStyle
 70
     0
 71
     0
 90
        3
 71
     1
340
11
 62
   256
 40
0.24
340
0
 62
   256
 40
0.24
300

 40
0.36
280
     3
 71
     2
340
16
 90
       25
 62
   256
 71
     3
340
11
 62
   256
 40
0.24
 90
        1
 40
0.75
 90
        1
300
%<\AcVar ViewType \f "%tc1">% %<\AcVar ViewDetailId>%\PVARIA %<\AcVar ViewScale \f "%sn">%
 71
     4
340
16
 90
       25
 62
   256
340
16
 90
       25
 62
   256
280
     0
  0
LAYOUT
  5
1C9
102
{ACAD_REACTORS
330
1A
102
}
330
1A
100
AcDbPlotSettings
  1

  2
\\srvadruck01\MFSA15
  4

  6

 40
0.0
 41
0.0
 42
0.0
 43
0.0
 44
0.0
 45
0.0
 46
0.0
 47
0.0
 48
0.0
 49
0.0
140
0.0
141
0.0
142
1.0
143
1.0
 70
   688
 72
     0
 73
     0
 74
     5
  7

 75
    16
147
1.0
 76
     0
 77
     2
 78
   300
148
0.0
149
0.0
100
AcDbLayout
  1
Layout1
 70
     1
 71
     1
 10
0.0
 20
0.0
 11
12.0
 21
9.0
 12
0.0
 22
0.0
 32
0.0
 14
1.000000000000000E+20
 24
1.000000000000000E+20
 34
1.000000000000000E+20
 15
-1.000000000000000E+20
 25
-1.000000000000000E+20
 35
-1.000000000000000E+20
146
0.0
 13
0.0
 23
0.0
 33
0.0
 16
1.0
 26
0.0
 36
0.0
 17
0.0
 27
1.0
 37
0.0
 76
     0
330
1B
  0
LAYOUT
  5
1C8
102
{ACAD_REACTORS
330
1A
102
}
330
1A
100
AcDbPlotSettings
  1

  2
\\srvadruck01\MFSA15
  4
A4
  6

 40
5.027082920074462
 41
5.027099609375
 42
5.027069091796875
 43
5.027069091796875
 44
209.9733276367186
 45
296.9259948730469
 46
0.0
 47
0.0
 48
0.0
 49
0.0
140
0.0
141
0.0
142
1.0
143
250.9557649309207
 70
 11952
 72
     0
 73
     1
 74
     0
  7

 75
     0
147
0.003984766001591
 76
     0
 77
     2
 78
   300
148
18758.74732672532
149
6385.478578639141
100
AcDbLayout
  1
Model
 70
     1
 71
     0
 10
0.0
 20
0.0
 11
12.0
 21
9.0
 12
0.0
 22
0.0
 32
0.0
 14
0.0
 24
0.0
 34
0.0
 15
0.0
 25
0.0
 35
0.0
146
0.0
 13
0.0
 23
0.0
 33
0.0
 16
1.0
 26
0.0
 36
0.0
 17
0.0
 27
1.0
 37
0.0
 76
     0
330
1F
331
155
1001
ACAD_PSEXT
1000
\\srvadruck01\MFSA15
1000
KONICA MINOLTA C754SeriesPCL
1000
Marketing
1000

1070
     0
  0
MATERIAL
  5
183
102
{ACAD_XDICTIONARY
360
184
102
}
102
{ACAD_REACTORS
330
17A
102
}
330
17A
100
AcDbMaterial
  1
ByBlock
 72
     0
 43
0.0208333333333333
 43
0.0
 43
0.0
 43
0.0
 43
0.0
 43
0.0208333333333333
 43
0.0
 43
0.0
 43
0.0
 43
0.0
 43
1.0
 43
0.0
 43
0.0
 43
0.0
 43
0.0
 43
1.0
 77
     0
 47
0.0208333333333333
 47
0.0
 47
0.0
 47
0.0
 47
0.0
 47
0.0208333333333333
 47
0.0
 47
0.0
 47
0.0
 47
0.0
 47
1.0
 47
0.0
 47
0.0
 47
0.0
 47
0.0
 47
1.0
171
     0
 49
0.0208333333333333
 49
0.0
 49
0.0
 49
0.0
 49
0.0
 49
0.0208333333333333
 49
0.0
 49
0.0
 49
0.0
 49
0.0
 49
1.0
 49
0.0
 49
0.0
 49
0.0
 49
0.0
 49
1.0
175
     0
142
0.0208333333333333
142
0.0
142
0.0
142
0.0
142
0.0
142
0.0208333333333333
142
0.0
142
0.0
142
0.0
142
0.0
142
1.0
142
0.0
142
0.0
142
0.0
142
0.0
142
1.0
179
     0
144
0.0208333333333333
144
0.0
144
0.0
144
0.0
144
0.0
144
0.0208333333333333
144
0.0
144
0.0
144
0.0
144
0.0
144
1.0
144
0.0
144
0.0
144
0.0
144
0.0
144
1.0
147
0.0208333333333333
147
0.0
147
0.0
147
0.0
147
0.0
147
0.0208333333333333
147
0.0
147
0.0
147
0.0
147
0.0
147
1.0
147
0.0
147
0.0
147
0.0
147
0.0
147
1.0
  0
MATERIAL
  5
17B
102
{ACAD_XDICTIONARY
360
17C
102
}
102
{ACAD_REACTORS
330
17A
102
}
330
17A
100
AcDbMaterial
  1
ByLayer
 72
     0
 43
0.0208333333333333
 43
0.0
 43
0.0
 43
0.0
 43
0.0
 43
0.0208333333333333
 43
0.0
 43
0.0
 43
0.0
 43
0.0
 43
1.0
 43
0.0
 43
0.0
 43
0.0
 43
0.0
 43
1.0
 77
     0
 47
0.0208333333333333
 47
0.0
 47
0.0
 47
0.0
 47
0.0
 47
0.0208333333333333
 47
0.0
 47
0.0
 47
0.0
 47
0.0
 47
1.0
 47
0.0
 47
0.0
 47
0.0
 47
0.0
 47
1.0
171
     0
 49
0.0208333333333333
 49
0.0
 49
0.0
 49
0.0
 49
0.0
 49
0.0208333333333333
 49
0.0
 49
0.0
 49
0.0
 49
0.0
 49
1.0
 49
0.0
 49
0.0
 49
0.0
 49
0.0
 49
1.0
175
     0
142
0.0208333333333333
142
0.0
142
0.0
142
0.0
142
0.0
142
0.0208333333333333
142
0.0
142
0.0
142
0.0
142
0.0
142
1.0
142
0.0
142
0.0
142
0.0
142
0.0
142
1.0
179
     0
144
0.0208333333333333
144
0.0
144
0.0
144
0.0
144
0.0
144
0.0208333333333333
144
0.0
144
0.0
144
0.0
144
0.0
144
1.0
144
0.0
144
0.0
144
0.0
144
0.0
144
1.0
147
0.0208333333333333
147
0.0
147
0.0
147
0.0
147
0.0
147
0.0208333333333333
147
0.0
147
0.0
147
0.0
147
0.0
147
1.0
147
0.0
147
0.0
147
0.0
147
0.0
147
1.0
  0
MATERIAL
  5
18B
102
{ACAD_XDICTIONARY
360
18C
102
}
102
{ACAD_REACTORS
330
17A
102
}
330
17A
100
AcDbMaterial
  1
Global
 72
     0
 43
0.0208333333333333
 43
0.0
 43
0.0
 43
0.0
 43
0.0
 43
0.0208333333333333
 43
0.0
 43
0.0
 43
0.0
 43
0.0
 43
1.0
 43
0.0
 43
0.0
 43
0.0
 43
0.0
 43
1.0
 77
     0
 47
0.0208333333333333
 47
0.0
 47
0.0
 47
0.0
 47
0.0
 47
0.0208333333333333
 47
0.0
 47
0.0
 47
0.0
 47
0.0
 47
1.0
 47
0.0
 47
0.0
 47
0.0
 47
0.0
 47
1.0
171
     0
 49
0.0208333333333333
 49
0.0
 49
0.0
 49
0.0
 49
0.0
 49
0.0208333333333333
 49
0.0
 49
0.0
 49
0.0
 49
0.0
 49
1.0
 49
0.0
 49
0.0
 49
0.0
 49
0.0
 49
1.0
175
     0
142
0.0208333333333333
142
0.0
142
0.0
142
0.0
142
0.0
142
0.0208333333333333
142
0.0
142
0.0
142
0.0
142
0.0
142
1.0
142
0.0
142
0.0
142
0.0
142
0.0
142
1.0
179
     0
144
0.0208333333333333
144
0.0
144
0.0
144
0.0
144
0.0
144
0.0208333333333333
144
0.0
144
0.0
144
0.0
144
0.0
144
1.0
144
0.0
144
0.0
144
0.0
144
0.0
144
1.0
147
0.0208333333333333
147
0.0
147
0.0
147
0.0
147
0.0
147
0.0208333333333333
147
0.0
147
0.0
147
0.0
147
0.0
147
1.0
147
0.0
147
0.0
147
0.0
147
0.0
147
1.0
  0
MLEADERSTYLE
  5
1C2
102
{ACAD_REACTORS
330
1C1
102
}
330
1C1
100
AcDbMLeaderStyle
179
     2
170
     2
171
     1
172
     0
 90
        2
 40
0.0
 41
0.0
173
     1
 91
-1056964608
340
14
 92
       -2
290
     1
 42
0.09
291
     1
 43
0.36
  3
Standard
 44
0.18
300

342
11
174
     1
178
     6
175
     1
176
     0
 93
-1056964608
 45
0.18
292
     0
297
     0
 46
0.18
 94
-1056964608
 47
1.0
 49
1.0
140
1.0
293
     1
141
0.0
294
     1
177
     0
142
1.0
295
     0
296
     0
143
0.125
271
     0
272
     9
273
     9
  0
MLINESTYLE
  5
18
102
{ACAD_REACTORS
330
17
102
}
330
17
100
AcDbMlineStyle
  2
STANDARD
 70
     0
  3

 62
   256
 51
90.0
 52
90.0
 71
     2
 49
0.5
 62
   256
  6
BYLAYER
 49
-0.5
 62
   256
  6
BYLAYER
  0
ACDBPLACEHOLDER
  5
E0
102
{ACAD_REACTORS
330
DF
102
}
330
DF
  0
SCALE
  5
1B0
102
{ACAD_REACTORS
330
1AF
102
}
330
1AF
100
AcDbScale
 70
     0
300
1:1
140
1.0
141
1.0
290
     1
  0
SCALE
  5
1B1
102
{ACAD_REACTORS
330
1AF
102
}
330
1AF
100
AcDbScale
 70
     0
300
1/128" = 1'-0"
140
0.0078125
141
12.0
290
     0
  0
SCALE
  5
1B2
102
{ACAD_REACTORS
330
1AF
102
}
330
1AF
100
AcDbScale
 70
     0
300
1/64" = 1'-0"
140
0.015625
141
12.0
290
     0
  0
SCALE
  5
1B3
102
{ACAD_REACTORS
330
1AF
102
}
330
1AF
100
AcDbScale
 70
     0
300
1/32" = 1'-0"
140
0.03125
141
12.0
290
     0
  0
SCALE
  5
1B4
102
{ACAD_REACTORS
330
1AF
102
}
330
1AF
100
AcDbScale
 70
     0
300
1/16" = 1'-0"
140
0.0625
141
12.0
290
     0
  0
SCALE
  5
1B5
102
{ACAD_REACTORS
330
1AF
102
}
330
1AF
100
AcDbScale
 70
     0
300
3/32" = 1'-0"
140
0.09375
141
12.0
290
     0
  0
SCALE
  5
1B6
102
{ACAD_REACTORS
330
1AF
102
}
330
1AF
100
AcDbScale
 70
     0
300
1/8" = 1'-0"
140
0.125
141
12.0
290
     0
  0
SCALE
  5
1B7
102
{ACAD_REACTORS
330
1AF
102
}
330
1AF
100
AcDbScale
 70
     0
300
3/16" = 1'-0"
140
0.1875
141
12.0
290
     0
  0
SCALE
  5
1B8
102
{ACAD_REACTORS
330
1AF
102
}
330
1AF
100
AcDbScale
 70
     0
300
1/4" = 1'-0"
140
0.25
141
12.0
290
     0
  0
SCALE
  5
1B9
102
{ACAD_REACTORS
330
1AF
102
}
330
1AF
100
AcDbScale
 70
     0
300
3/8" = 1'-0"
140
0.375
141
12.0
290
     0
  0
SCALE
  5
1BA
102
{ACAD_REACTORS
330
1AF
102
}
330
1AF
100
AcDbScale
 70
     0
300
1/2" = 1'-0"
140
0.5
141
12.0
290
     0
  0
SCALE
  5
1BB
102
{ACAD_REACTORS
330
1AF
102
}
330
1AF
100
AcDbScale
 70
     0
300
3/4" = 1'-0"
140
0.75
141
12.0
290
     0
  0
SCALE
  5
1BC
102
{ACAD_REACTORS
330
1AF
102
}
330
1AF
100
AcDbScale
 70
     0
300
1" = 1'-0"
140
1.0
141
12.0
290
     0
  0
SCALE
  5
1BD
102
{ACAD_REACTORS
330
1AF
102
}
330
1AF
100
AcDbScale
 70
     0
300
1-1/2" = 1'-0"
140
1.5
141
12.0
290
     0
  0
SCALE
  5
1BE
102
{ACAD_REACTORS
330
1AF
102
}
330
1AF
100
AcDbScale
 70
     0
300
3" = 1'-0"
140
3.0
141
12.0
290
     0
  0
SCALE
  5
1BF
102
{ACAD_REACTORS
330
1AF
102
}
330
1AF
100
AcDbScale
 70
     0
300
6" = 1'-0"
140
6.0
141
12.0
290
     0
  0
SCALE
  5
1C0
102
{ACAD_REACTORS
330
1AF
102
}
330
1AF
100
AcDbScale
 70
     0
300
1'-0" = 1'-0"
140
12.0
141
12.0
290
     0
  0
ACDBSECTIONVIEWSTYLE
  5
1C5
102
{ACAD_XDICTIONARY
360
466
102
}
102
{ACAD_REACTORS
330
1C3
102
}
330
1C3
100
AcDbModelDocViewStyle
 70
     0
  3
Imperial24
290
     0
100
AcDbSectionViewStyle
 70
     0
 71
     0
 90
       78
 71
     1
340
11
 62
   256
 40
0.24
340
0
340
0
 62
   256
 40
0.24
300
I, O, Q, S, X, Z
 40
0.48
 90
        3
 40
0.18
 90
        1
 71
     2
340
1C4
 90
       25
 62
   256
340
16
 90
       50
 62
   256
 40
0.24
 40
0.0
 40
0.24
 71
     3
340
11
 62
   256
 40
0.24
 90
        1
 40
0.75
 90
        1
300
%<\AcVar ViewType \f "%tc1">% %<\AcVar ViewSectionStartId>%-%<\AcVar ViewSectionEndId>%\PVARIA %<\AcVar ViewScale \f "%sn">%
 71
     4
 62
   256
 62
   257
300
ANSI31
 40
1.0
 90
        0
290
     0
290
     0
 90
        6
 40
0.0
 40
1.570796326794896
 40
0.2617993877991494
 40
1.308996938995747
 40
-0.2617993877991494
 40
1.832595714594044
  0
TABLESTYLE
  5
1AE
102
{ACAD_XDICTIONARY
360
35F
102
}
102
{ACAD_REACTORS
330
1AD
102
}
330
1AD
100
AcDbTableStyle
280
     0
  3
Standard
 70
     0
 71
     0
 40
0.06
 41
0.06
280
     0
281
     0
  7
STANDARD
140
0.18
170
     2
 62
     0
 63
     7
283
     0
 90
      512
 91
        0
  1

274
    -2
284
     1
 64
     0
275
    -2
285
     1
 65
     0
276
    -2
286
     1
 66
     0
277
    -2
287
     1
 67
     0
278
    -2
288
     1
 68
     0
279
    -2
289
     1
 69
     0
  7
STANDARD
140
0.25
170
     5
 62
     0
 63
     7
283
     0
 90
      512
 91
        0
  1

274
    -2
284
     1
 64
     0
275
    -2
285
     1
 65
     0
276
    -2
286
     1
 66
     0
277
    -2
287
     1
 67
     0
278
    -2
288
     1
 68
     0
279
    -2
289
     1
 69
     0
  7
STANDARD
140
0.18
170
     5
 62
     0
 63
     7
283
     0
 90
      512
 91
        0
  1

274
    -2
284
     1
 64
     0
275
    -2
285
     1
 65
     0
276
    -2
286
     1
 66
     0
277
    -2
287
     1
 67
     0
278
    -2
288
     1
 68
     0
279
    -2
289
     1
 69
     0
  0
VISUALSTYLE
  5
199
102
{ACAD_XDICTIONARY
360
D7D
102
}
102
{ACAD_REACTORS
330
193
102
}
330
193
100
AcDbVisualStyle
  2
2dWireframe
 70
     4
177
     2
291
     0
 71
     0
176
     1
 72
     2
176
     1
 73
     0
176
     1
 90
        0
176
     1
 40
0.6
176
     1
 41
30.0
176
     1
 63
     7
421
 16777215
176
     1
 74
     1
176
     1
 91
        4
176
     1
 64
     7
176
     1
 65
   257
176
     1
 75
     1
176
     1
175
     1
176
     1
 42
1.0
176
     1
 92
        0
176
     1
 66
   257
176
     1
 43
1.0
176
     1
 76
     1
176
     1
 77
     6
176
     1
 78
     2
176
     1
 67
     7
176
     1
 79
     5
176
     1
170
     0
176
     1
171
     0
176
     1
290
     0
176
     1
 93
        1
176
     1
 44
0.0
176
     1
173
     0
176
     1
1001
ACAD
1000
AcDbSavedByObjectVersion
1070
     0
  0
VISUALSTYLE
  5
198
102
{ACAD_XDICTIONARY
360
D7B
102
}
102
{ACAD_REACTORS
330
193
102
}
330
193
100
AcDbVisualStyle
  2
Basic
 70
     7
177
     2
291
     1
 71
     1
176
     1
 72
     0
176
     1
 73
     1
176
     1
 90
        0
176
     1
 40
0.6
176
     1
 41
30.0
176
     1
 63
     7
421
 16777215
176
     1
 74
     0
176
     1
 91
        4
176
     1
 64
     7
176
     1
 65
   257
176
     1
 75
     1
176
     1
175
     1
176
     1
 42
1.0
176
     1
 92
        8
176
     1
 66
     7
176
     1
 43
1.0
176
     1
 76
     1
176
     1
 77
     6
176
     1
 78
     2
176
     1
 67
     7
176
     1
 79
     5
176
     1
170
     0
176
     1
171
     0
176
     1
290
     0
176
     1
 93
        1
176
     1
 44
0.0
176
     1
173
     0
176
     1
1001
ACAD
1000
AcDbSavedByObjectVersion
1070
     0
  0
VISUALSTYLE
  5
19F
102
{ACAD_XDICTIONARY
360
D89
102
}
102
{ACAD_REACTORS
330
193
102
}
330
193
100
AcDbVisualStyle
  2
Brighten
 70
    12
177
     2
291
     1
 71
     2
176
     1
 72
     2
176
     1
 73
     0
176
     1
 90
        0
176
     1
 40
0.6
176
     1
 41
30.0
176
     1
 63
     7
421
 16777215
176
     1
 74
     1
176
     1
 91
        4
176
     1
 64
     7
176
     1
 65
   257
176
     1
 75
     1
176
     1
175
     1
176
     1
 42
1.0
176
     1
 92
        8
176
     1
 66
     7
176
     1
 43
1.0
176
     1
 76
     1
176
     1
 77
     6
176
     1
 78
     2
176
     1
 67
     7
176
     1
 79
     5
176
     1
170
     0
176
     1
171
     0
176
     1
290
     0
176
     1
 93
        1
176
     1
 44
50.0
176
     1
173
     0
176
     1
1001
ACAD
1000
AcDbSavedByObjectVersion
1070
     0
  0
VISUALSTYLE
  5
1A3
102
{ACAD_XDICTIONARY
360
D91
102
}
102
{ACAD_REACTORS
330
193
102
}
330
193
100
AcDbVisualStyle
  2
ColorChange
 70
    16
177
     2
291
     1
 71
     2
176
     1
 72
     2
176
     1
 73
     3
176
     1
 90
        0
176
     1
 40
0.6
176
     1
 41
30.0
176
     1
 63
     8
421
  8421504
176
     1
 74
     1
176
     1
 91
        4
176
     1
 64
     7
176
     1
 65
   257
176
     1
 75
     1
176
     1
175
     1
176
     1
 42
1.0
176
     1
 92
        8
176
     1
 66
     8
424
  8421504
176
     1
 43
1.0
176
     1
 76
     1
176
     1
 77
     6
176
     1
 78
     2
176
     1
 67
     7
176
     1
 79
     5
176
     1
170
     0
176
     1
171
     0
176
     1
290
     0
176
     1
 93
        1
176
     1
 44
0.0
176
     1
173
     0
176
     1
1001
ACAD
1000
AcDbSavedByObjectVersion
1070
     0
  0
VISUALSTYLE
  5
19C
102
{ACAD_XDICTIONARY
360
D83
102
}
102
{ACAD_REACTORS
330
193
102
}
330
193
100
AcDbVisualStyle
  2
Conceptual
 70
     9
177
     2
291
     0
 71
     3
176
     1
 72
     2
176
     1
 73
     0
176
     1
 90
        0
176
     1
 40
0.6
176
     1
 41
30.0
176
     1
 63
     7
421
 16777215
176
     1
 74
     2
176
     1
 91
        2
176
     1
 64
     7
176
     1
 65
   257
176
     1
 75
     1
176
     1
175
     1
176
     1
 42
179.0
176
     1
 92
        8
176
     1
 66
     7
176
     1
 43
1.0
176
     1
 76
     1
176
     1
 77
     6
176
     1
 78
     2
176
     1
 67
     7
176
     1
 79
     3
176
     1
170
     0
176
     1
171
     0
176
     1
290
     0
176
     1
 93
        1
176
     1
 44
0.0
176
     1
173
     0
176
     1
1001
ACAD
1000
AcDbSavedByObjectVersion
1070
     0
  0
VISUALSTYLE
  5
19E
102
{ACAD_XDICTIONARY
360
D87
102
}
102
{ACAD_REACTORS
330
193
102
}
330
193
100
AcDbVisualStyle
  2
Dim
 70
    11
177
     2
291
     1
 71
     2
176
     1
 72
     2
176
     1
 73
     0
176
     1
 90
        0
176
     1
 40
0.6
176
     1
 41
30.0
176
     1
 63
     7
421
 16777215
176
     1
 74
     1
176
     1
 91
        4
176
     1
 64
     7
176
     1
 65
   257
176
     1
 75
     1
176
     1
175
     1
176
     1
 42
1.0
176
     1
 92
        8
176
     1
 66
     7
176
     1
 43
1.0
176
     1
 76
     1
176
     1
 77
     6
176
     1
 78
     2
176
     1
 67
     7
176
     1
 79
     5
176
     1
170
     0
176
     1
171
     0
176
     1
290
     0
176
     1
 93
        1
176
     1
 44
-50.0
176
     1
173
     0
176
     1
1001
ACAD
1000
AcDbSavedByObjectVersion
1070
     0
  0
VISUALSTYLE
  5
1AB
102
{ACAD_XDICTIONARY
360
DA1
102
}
102
{ACAD_REACTORS
330
193
102
}
330
193
100
AcDbVisualStyle
  2
EdgeColorOff
 70
    22
177
     2
291
     1
 71
     2
176
     0
 72
     2
176
     0
 73
     0
176
     0
 90
        0
176
     0
 40
0.6
176
     0
 41
30.0
176
     0
 63
     7
421
 16777215
176
     0
 74
     1
176
     0
 91
        4
176
     0
 64
     7
176
     0
 65
   257
176
     0
 75
     1
176
     0
175
     1
176
     0
 42
1.0
176
     0
 92
        8
176
     2
 66
     7
176
     0
 43
1.0
176
     0
 76
     1
176
     0
 77
     6
176
     0
 78
     2
176
     0
 67
     7
176
     0
 79
     5
176
     0
170
     0
176
     0
171
     0
176
     0
290
     0
176
     0
 93
        1
176
     0
 44
0.0
176
     0
173
     0
176
     0
1001
ACAD
1000
AcDbSavedByObjectVersion
1070
     0
  0
VISUALSTYLE
  5
1A2
102
{ACAD_XDICTIONARY
360
D8F
102
}
102
{ACAD_REACTORS
330
193
102
}
330
193
100
AcDbVisualStyle
  2
Facepattern
 70
    15
177
     2
291
     1
 71
     2
176
     1
 72
     2
176
     1
 73
     0
176
     1
 90
        0
176
     1
 40
0.6
176
     1
 41
30.0
176
     1
 63
     7
421
 16777215
176
     1
 74
     1
176
     1
 91
        4
176
     1
 64
     7
176
     1
 65
   257
176
     1
 75
     1
176
     1
175
     1
176
     1
 42
1.0
176
     1
 92
        8
176
     1
 66
     7
176
     1
 43
1.0
176
     1
 76
     1
176
     1
 77
     6
176
     1
 78
     2
176
     1
 67
     7
176
     1
 79
     5
176
     1
170
     0
176
     1
171
     0
176
     1
290
     0
176
     1
 93
        1
176
     1
 44
0.0
176
     1
173
     0
176
     1
1001
ACAD
1000
AcDbSavedByObjectVersion
1070
     0
  0
VISUALSTYLE
  5
194
102
{ACAD_XDICTIONARY
360
D73
102
}
102
{ACAD_REACTORS
330
193
102
}
330
193
100
AcDbVisualStyle
  2
Flat
 70
     0
177
     2
291
     1
 71
     2
176
     1
 72
     1
176
     1
 73
     1
176
     1
 90
        2
176
     1
 40
0.6
176
     1
 41
30.0
176
     1
 63
     7
421
 16777215
176
     1
 74
     0
176
     1
 91
        0
176
     1
 64
     7
176
     1
 65
   257
176
     1
 75
     1
176
     1
175
     1
176
     1
 42
1.0
176
     1
 92
        8
176
     1
 66
     7
176
     1
 43
1.0
176
     1
 76
     1
176
     1
 77
     6
176
     1
 78
     2
176
     1
 67
     7
176
     1
 79
     5
176
     1
170
     0
176
     1
171
     0
176
     1
290
     0
176
     1
 93
       13
176
     1
 44
0.0
176
     1
173
     0
176
     1
1001
ACAD
1000
AcDbSavedByObjectVersion
1070
     0
  0
VISUALSTYLE
  5
195
102
{ACAD_XDICTIONARY
360
D75
102
}
102
{ACAD_REACTORS
330
193
102
}
330
193
100
AcDbVisualStyle
  2
FlatWithEdges
 70
     1
177
     2
291
     1
 71
     2
176
     1
 72
     1
176
     1
 73
     1
176
     1
 90
        2
176
     1
 40
0.6
176
     1
 41
30.0
176
     1
 63
     7
421
 16777215
176
     1
 74
     1
176
     1
 91
        0
176
     1
 64
     7
176
     1
 65
   257
176
     1
 75
     1
176
     1
175
     1
176
     1
 42
1.0
176
     1
 92
        0
176
     1
 66
   257
176
     1
 43
1.0
176
     1
 76
     1
176
     1
 77
     6
176
     1
 78
     2
176
     1
 67
     7
176
     1
 79
     5
176
     1
170
     0
176
     1
171
     0
176
     1
290
     0
176
     1
 93
       13
176
     1
 44
0.0
176
     1
173
     0
176
     1
1001
ACAD
1000
AcDbSavedByObjectVersion
1070
     0
  0
VISUALSTYLE
  5
196
102
{ACAD_XDICTIONARY
360
D77
102
}
102
{ACAD_REACTORS
330
193
102
}
330
193
100
AcDbVisualStyle
  2
Gouraud
 70
     2
177
     2
291
     1
 71
     2
176
     1
 72
     2
176
     1
 73
     1
176
     1
 90
        2
176
     1
 40
0.6
176
     1
 41
30.0
176
     1
 63
     7
421
 16777215
176
     1
 74
     0
176
     1
 91
        0
176
     1
 64
     7
176
     1
 65
   257
176
     1
 75
     1
176
     1
175
     1
176
     1
 42
1.0
176
     1
 92
        0
176
     1
 66
     7
176
     1
 43
1.0
176
     1
 76
     1
176
     1
 77
     6
176
     1
 78
     2
176
     1
 67
     7
176
     1
 79
     5
176
     1
170
     0
176
     1
171
     0
176
     1
290
     0
176
     1
 93
       13
176
     1
 44
0.0
176
     1
173
     0
176
     1
1001
ACAD
1000
AcDbSavedByObjectVersion
1070
     0
  0
VISUALSTYLE
  5
197
102
{ACAD_XDICTIONARY
360
D79
102
}
102
{ACAD_REACTORS
330
193
102
}
330
193
100
AcDbVisualStyle
  2
GouraudWithEdges
 70
     3
177
     2
291
     1
 71
     2
176
     1
 72
     2
176
     1
 73
     1
176
     1
 90
        2
176
     1
 40
0.6
176
     1
 41
30.0
176
     1
 63
     7
421
 16777215
176
     1
 74
     1
176
     1
 91
        0
176
     1
 64
     7
176
     1
 65
   257
176
     1
 75
     1
176
     1
175
     1
176
     1
 42
1.0
176
     1
 92
        0
176
     1
 66
   257
176
     1
 43
1.0
176
     1
 76
     1
176
     1
 77
     6
176
     1
 78
     2
176
     1
 67
     7
176
     1
 79
     5
176
     1
170
     0
176
     1
171
     0
176
     1
290
     0
176
     1
 93
       13
176
     1
 44
0.0
176
     1
173
     0
176
     1
1001
ACAD
1000
AcDbSavedByObjectVersion
1070
     0
  0
VISUALSTYLE
  5
19B
102
{ACAD_XDICTIONARY
360
D81
102
}
102
{ACAD_REACTORS
330
193
102
}
330
193
100
AcDbVisualStyle
  2
Hidden
 70
     6
177
     2
291
     0
 71
     1
176
     1
 72
     2
176
     1
 73
     2
176
     1
 90
        0
176
     1
 40
0.6
176
     1
 41
30.0
176
     1
 63
     7
421
 16777215
176
     1
 74
     2
176
     1
 91
        2
176
     1
 64
     7
176
     1
 65
   257
176
     1
 75
     2
176
     1
175
     1
176
     1
 42
40.0
176
     1
 92
        0
176
     1
 66
   257
176
     1
 43
1.0
176
     1
 76
     1
176
     1
 77
     6
176
     1
 78
     2
176
     1
 67
     7
176
     1
 79
     3
176
     1
170
     0
176
     1
171
     0
176
     1
290
     0
176
     1
 93
        1
176
     1
 44
0.0
176
     1
173
     0
176
     1
1001
ACAD
1000
AcDbSavedByObjectVersion
1070
     0
  0
VISUALSTYLE
  5
1A9
102
{ACAD_XDICTIONARY
360
D9D
102
}
102
{ACAD_REACTORS
330
193
102
}
330
193
100
AcDbVisualStyle
  2
JitterOff
 70
    20
177
     2
291
     1
 71
     2
176
     0
 72
     2
176
     0
 73
     0
176
     0
 90
        0
176
     0
 40
0.6
176
     0
 41
30.0
176
     0
 63
     7
421
 16777215
176
     0
 74
     1
176
     0
 91
        4
176
     0
 64
     7
176
     0
 65
   257
176
     0
 75
     1
176
     0
175
     1
176
     0
 42
1.0
176
     0
 92
       10
176
     2
 66
     7
176
     0
 43
1.0
176
     0
 76
     1
176
     0
 77
     6
176
     0
 78
     2
176
     0
 67
     7
176
     0
 79
     5
176
     0
170
     0
176
     0
171
     0
176
     0
290
     0
176
     0
 93
        1
176
     0
 44
0.0
176
     0
173
     0
176
     0
1001
ACAD
1000
AcDbSavedByObjectVersion
1070
     0
  0
VISUALSTYLE
  5
1A1
102
{ACAD_XDICTIONARY
360
D8D
102
}
102
{ACAD_REACTORS
330
193
102
}
330
193
100
AcDbVisualStyle
  2
Linepattern
 70
    14
177
     2
291
     1
 71
     2
176
     1
 72
     2
176
     1
 73
     0
176
     1
 90
        0
176
     1
 40
0.6
176
     1
 41
30.0
176
     1
 63
     7
421
 16777215
176
     1
 74
     1
176
     1
 91
        4
176
     1
 64
     7
176
     1
 65
   257
176
     1
 75
     7
176
     1
175
     7
176
     1
 42
1.0
176
     1
 92
        8
176
     1
 66
     7
176
     1
 43
1.0
176
     1
 76
     1
176
     1
 77
     6
176
     1
 78
     2
176
     1
 67
     7
176
     1
 79
     5
176
     1
170
     0
176
     1
171
     0
176
     1
290
     0
176
     1
 93
        1
176
     1
 44
0.0
176
     1
173
     0
176
     1
1001
ACAD
1000
AcDbSavedByObjectVersion
1070
     0
  0
VISUALSTYLE
  5
1AA
102
{ACAD_XDICTIONARY
360
D9F
102
}
102
{ACAD_REACTORS
330
193
102
}
330
193
100
AcDbVisualStyle
  2
OverhangOff
 70
    21
177
     2
291
     1
 71
     2
176
     0
 72
     2
176
     0
 73
     0
176
     0
 90
        0
176
     0
 40
0.6
176
     0
 41
30.0
176
     0
 63
     7
421
 16777215
176
     0
 74
     1
176
     0
 91
        4
176
     0
 64
     7
176
     0
 65
   257
176
     0
 75
     1
176
     0
175
     1
176
     0
 42
1.0
176
     0
 92
        9
176
     2
 66
     7
176
     0
 43
1.0
176
     0
 76
     1
176
     0
 77
     6
176
     0
 78
     2
176
     0
 67
     7
176
     0
 79
     5
176
     0
170
     0
176
     0
171
     0
176
     0
290
     0
176
     0
 93
        1
176
     0
 44
0.0
176
     0
173
     0
176
     0
1001
ACAD
1000
AcDbSavedByObjectVersion
1070
     0
  0
VISUALSTYLE
  5
19D
102
{ACAD_XDICTIONARY
360
D85
102
}
102
{ACAD_REACTORS
330
193
102
}
330
193
100
AcDbVisualStyle
  2
Realistic
 70
     8
177
     2
291
     0
 71
     2
176
     1
 72
     3
176
     1
 73
     0
176
     1
 90
        2
176
     1
 40
0.6
176
     1
 41
30.0
176
     1
 63
     7
421
 16777215
176
     1
 74
     0
176
     1
 91
        0
176
     1
 64
     7
176
     1
 65
   257
176
     1
 75
     1
176
     1
175
     1
176
     1
 42
1.0
176
     1
 92
        8
176
     1
 66
   257
176
     1
 43
1.0
176
     1
 76
     1
176
     1
 77
     6
176
     1
 78
     2
176
     1
 67
     7
176
     1
 79
     3
176
     1
170
     0
176
     1
171
     0
176
     1
290
     0
176
     1
 93
       13
176
     1
 44
0.0
176
     1
173
     0
176
     1
1001
ACAD
1000
AcDbSavedByObjectVersion
1070
     0
  0
VISUALSTYLE
  5
1A8
102
{ACAD_XDICTIONARY
360
D9B
102
}
102
{ACAD_REACTORS
330
193
102
}
330
193
100
AcDbVisualStyle
  2
Shaded
 70
    27
177
     2
291
     0
 71
     2
176
     1
 72
     2
176
     1
 73
     1
176
     1
 90
        2
176
     1
 40
0.6
176
     1
 41
30.0
176
     1
 63
     7
421
 16777215
176
     1
 74
     0
176
     1
 91
        4
176
     1
 64
     7
176
     1
 65
   257
176
     1
 75
     1
176
     1
175
     1
176
     1
 42
1.0
176
     1
 92
        8
176
     1
 66
   257
176
     1
 43
1.0
176
     1
 76
     1
176
     1
 77
     6
176
     1
 78
     2
176
     1
 67
     8
425
  7895160
176
     1
 79
     3
176
     1
170
     0
176
     1
171
     0
176
     1
290
     0
176
     1
 93
        5
176
     1
 44
0.0
176
     1
173
     0
176
     1
1001
ACAD
1000
AcDbSavedByObjectVersion
1070
     0
  0
VISUALSTYLE
  5
1A7
102
{ACAD_XDICTIONARY
360
D99
102
}
102
{ACAD_REACTORS
330
193
102
}
330
193
100
AcDbVisualStyle
  2
Shaded with edges
 70
    26
177
     2
291
     0
 71
     2
176
     1
 72
     2
176
     1
 73
     1
176
     1
 90
        2
176
     1
 40
0.6
176
     1
 41
30.0
176
     1
 63
     7
421
 16777215
176
     1
 74
     1
176
     1
 91
        2
176
     1
 64
     7
176
     1
 65
   257
176
     1
 75
     2
176
     1
175
     1
176
     1
 42
1.0
176
     1
 92
        8
176
     1
 66
   257
176
     1
 43
1.0
176
     1
 76
     1
176
     1
 77
     6
176
     1
 78
     2
176
     1
 67
     7
176
     1
 79
     3
176
     1
170
     0
176
     1
171
     0
176
     1
290
     0
176
     1
 93
        5
176
     1
 44
0.0
176
     1
173
     0
176
     1
1001
ACAD
1000
AcDbSavedByObjectVersion
1070
     0
  0
VISUALSTYLE
  5
1A4
102
{ACAD_XDICTIONARY
360
D93
102
}
102
{ACAD_REACTORS
330
193
102
}
330
193
100
AcDbVisualStyle
  2
Shades of Gray
 70
    23
177
     2
291
     0
 71
     2
176
     1
 72
     2
176
     1
 73
     3
176
     1
 90
        0
176
     1
 40
0.6
176
     1
 41
30.0
176
     1
 63
     7
421
 16777215
176
     1
 74
     2
176
     1
 91
        2
176
     1
 64
     7
176
     1
 65
     7
176
     1
 75
     1
176
     1
175
     1
176
     1
 42
40.0
176
     1
 92
        8
176
     1
 66
     7
176
     1
 43
1.0
176
     1
 76
     1
176
     1
 77
     6
176
     1
 78
     2
176
     1
 67
     7
176
     1
 79
     3
176
     1
170
     0
176
     1
171
     0
176
     1
290
     0
176
     1
 93
        1
176
     1
 44
0.0
176
     1
173
     0
176
     1
1001
ACAD
1000
AcDbSavedByObjectVersion
1070
     0
  0
VISUALSTYLE
  5
1A5
102
{ACAD_XDICTIONARY
360
D95
102
}
102
{ACAD_REACTORS
330
193
102
}
330
193
100
AcDbVisualStyle
  2
Sketchy
 70
    24
177
     2
291
     0
 71
     1
176
     1
 72
     2
176
     1
 73
     2
176
     1
 90
        0
176
     1
 40
0.6
176
     1
 41
30.0
176
     1
 63
     7
421
 16777215
176
     1
 74
     2
176
     1
 91
        2
176
     1
 64
     7
176
     1
 65
     7
176
     1
 75
     1
176
     1
175
     1
176
     1
 42
40.0
176
     1
 92
       11
176
     1
 66
     7
176
     1
 43
1.0
176
     1
 76
     1
176
     1
 77
     6
176
     1
 78
     2
176
     1
 67
     7
176
     1
 79
     6
176
     1
170
     0
176
     1
171
     0
176
     1
290
     0
176
     1
 93
        1
176
     1
 44
0.0
176
     1
173
     0
176
     1
1001
ACAD
1000
AcDbSavedByObjectVersion
1070
     0
  0
VISUALSTYLE
  5
1A0
102
{ACAD_XDICTIONARY
360
D8B
102
}
102
{ACAD_REACTORS
330
193
102
}
330
193
100
AcDbVisualStyle
  2
Thicken
 70
    13
177
     2
291
     1
 71
     2
176
     1
 72
     2
176
     1
 73
     0
176
     1
 90
        0
176
     1
 40
0.6
176
     1
 41
30.0
176
     1
 63
     7
421
 16777215
176
     1
 74
     1
176
     1
 91
        4
176
     1
 64
     7
176
     1
 65
   257
176
     1
 75
     1
176
     1
175
     1
176
     1
 42
1.0
176
     1
 92
       12
176
     1
 66
     7
176
     1
 43
1.0
176
     1
 76
     1
176
     1
 77
     6
176
     1
 78
     2
176
     1
 67
     7
176
     1
 79
     5
176
     1
170
     0
176
     1
171
     0
176
     1
290
     0
176
     1
 93
        1
176
     1
 44
0.0
176
     1
173
     0
176
     1
1001
ACAD
1000
AcDbSavedByObjectVersion
1070
     0
  0
VISUALSTYLE
  5
19A
102
{ACAD_XDICTIONARY
360
D7F
102
}
102
{ACAD_REACTORS
330
193
102
}
330
193
100
AcDbVisualStyle
  2
Wireframe
 70
     5
177
     2
291
     0
 71
     0
176
     1
 72
     2
176
     1
 73
     0
176
     1
 90
        0
176
     1
 40
0.6
176
     1
 41
30.0
176
     1
 63
     7
421
 16777215
176
     1
 74
     1
176
     1
 91
        4
176
     1
 64
     7
176
     1
 65
   257
176
     1
 75
     1
176
     1
175
     1
176
     1
 42
1.0
176
     1
 92
        0
176
     1
 66
   257
176
     1
 43
1.0
176
     1
 76
     1
176
     1
 77
     6
176
     1
 78
     2
176
     1
 67
     7
176
     1
 79
     3
176
     1
170
     0
176
     1
171
     0
176
     1
290
     0
176
     1
 93
        1
176
     1
 44
0.0
176
     1
173
     0
176
     1
1001
ACAD
1000
AcDbSavedByObjectVersion
1070
     0
  0
VISUALSTYLE
  5
1A6
102
{ACAD_XDICTIONARY
360
D97
102
}
102
{ACAD_REACTORS
330
193
102
}
330
193
100
AcDbVisualStyle
  2
X-Ray
 70
    25
177
     2
291
     0
 71
     2
176
     1
 72
     2
176
     1
 73
     1
176
     1
 90
        1
176
     1
 40
0.5
176
     1
 41
30.0
176
     1
 63
     7
421
 16777215
176
     1
 74
     1
176
     1
 91
        0
176
     1
 64
     7
176
     1
 65
   257
176
     1
 75
     1
176
     1
175
     1
176
     1
 42
1.0
176
     1
 92
        8
176
     1
 66
     7
176
     1
 43
1.0
176
     1
 76
     1
176
     1
 77
     6
176
     1
 78
     2
176
     1
 67
     7
176
     1
 79
     3
176
     1
170
     0
176
     1
171
     0
176
     1
290
     0
176
     1
 93
       13
176
     1
 44
0.0
176
     1
173
     0
176
     1
1001
ACAD
1000
AcDbSavedByObjectVersion
1070
     0
  0
DICTIONARYVAR
  5
2D1
102
{ACAD_REACTORS
330
2CB
102
}
330
2CB
100
DictionaryVariables
280
     0
  1
1:1
  0
DICTIONARYVAR
  5
2CD
102
{ACAD_REACTORS
330
2CB
102
}
330
2CB
100
DictionaryVariables
280
     0
  1
STANDARD
  0
DICTIONARYVAR
  5
2CC
102
{ACAD_REACTORS
330
2CB
102
}
330
2CB
100
DictionaryVariables
280
     0
  1
STANDARD
  0
DICTIONARYVAR
  5
2CE
102
{ACAD_REACTORS
330
2CB
102
}
330
2CB
100
DictionaryVariables
280
     0
  1
Imperial24
  0
DICTIONARYVAR
  5
2CF
102
{ACAD_REACTORS
330
2CB
102
}
330
2CB
100
DictionaryVariables
280
     0
  1
Imperial24
  0
DICTIONARYVAR
  5
2D3
102
{ACAD_REACTORS
330
2CB
102
}
330
2CB
100
DictionaryVariables
280
     0
  1
1
  0
DICTIONARYVAR
  5
2D4
102
{ACAD_REACTORS
330
2CB
102
}
330
2CB
100
DictionaryVariables
280
     0
  1
15
  0
DICTIONARYVAR
  5
2D2
102
{ACAD_REACTORS
330
2CB
102
}
330
2CB
100
DictionaryVariables
280
     0
  1
0
  0
DICTIONARYVAR
  5
2D0
102
{ACAD_REACTORS
330
2CB
102
}
330
2CB
100
DictionaryVariables
280
     0
  1
0
  0
DICTIONARY
  5
D72
102
{ACAD_REACTORS
330
D70
102
}
330
D70
100
AcDbDictionary
281
     1
  0
DICTIONARY
  5
D71
102
{ACAD_REACTORS
330
D70
102
}
330
D70
100
AcDbDictionary
281
     1
  3
8796084649776
350
D6B
  3
8796084649792
350
D6C
  3
8796084649808
350
D6D
  3
8796084649824
350
D6E
  3
8796084649840
350
D6F
  0
DICTIONARY
  5
468
330
1C7
100
AcDbDictionary
280
     1
281
     1
  3
ACAD_XREC_ROUNDTRIP
360
469
  0
DICTIONARY
  5
184
330
183
100
AcDbDictionary
280
     1
281
     1
  3
BUMPTILE
360
186
  3
DIFFUSETILE
360
185
  3
OPACITYTILE
360
189
  3
REFLECTIONTILE
360
188
  3
REFRACTIONTILE
360
18A
  3
SPECULARTILE
360
187
  0
DICTIONARY
  5
17C
330
17B
100
AcDbDictionary
280
     1
281
     1
  3
BUMPTILE
360
17E
  3
DIFFUSETILE
360
17D
  3
OPACITYTILE
360
181
  3
REFLECTIONTILE
360
180
  3
REFRACTIONTILE
360
182
  3
SPECULARTILE
360
17F
  0
DICTIONARY
  5
18C
330
18B
100
AcDbDictionary
280
     1
281
     1
  3
BUMPTILE
360
18E
  3
DIFFUSETILE
360
18D
  3
OPACITYTILE
360
191
  3
REFLECTIONTILE
360
190
  3
REFRACTIONTILE
360
192
  3
SPECULARTILE
360
18F
  0
DICTIONARY
  5
466
330
1C5
100
AcDbDictionary
280
     1
281
     1
  3
ACAD_XREC_ROUNDTRIP
360
467
  0
DICTIONARY
  5
35F
330
1AE
100
AcDbDictionary
280
     1
281
     1
  3
ACAD_ROUNDTRIP_2008_TABLESTYLE_CELLSTYLEMAP
360
D69
  0
DICTIONARY
  5
D7D
330
199
100
AcDbDictionary
280
     1
281
     1
  3
ACAD_XREC_ROUNDTRIP
360
D7E
  0
DICTIONARY
  5
D7B
330
198
100
AcDbDictionary
280
     1
281
     1
  3
ACAD_XREC_ROUNDTRIP
360
D7C
  0
DICTIONARY
  5
D89
330
19F
100
AcDbDictionary
280
     1
281
     1
  3
ACAD_XREC_ROUNDTRIP
360
D8A
  0
DICTIONARY
  5
D91
330
1A3
100
AcDbDictionary
280
     1
281
     1
  3
ACAD_XREC_ROUNDTRIP
360
D92
  0
DICTIONARY
  5
D83
330
19C
100
AcDbDictionary
280
     1
281
     1
  3
ACAD_XREC_ROUNDTRIP
360
D84
  0
DICTIONARY
  5
D87
330
19E
100
AcDbDictionary
280
     1
281
     1
  3
ACAD_XREC_ROUNDTRIP
360
D88
  0
DICTIONARY
  5
DA1
330
1AB
100
AcDbDictionary
280
     1
281
     1
  3
ACAD_XREC_ROUNDTRIP
360
DA2
  0
DICTIONARY
  5
D8F
330
1A2
100
AcDbDictionary
280
     1
281
     1
  3
ACAD_XREC_ROUNDTRIP
360
D90
  0
DICTIONARY
  5
D73
330
194
100
AcDbDictionary
280
     1
281
     1
  3
ACAD_XREC_ROUNDTRIP
360
D74
  0
DICTIONARY
  5
D75
330
195
100
AcDbDictionary
280
     1
281
     1
  3
ACAD_XREC_ROUNDTRIP
360
D76
  0
DICTIONARY
  5
D77
330
196
100
AcDbDictionary
280
     1
281
     1
  3
ACAD_XREC_ROUNDTRIP
360
D78
  0
DICTIONARY
  5
D79
330
197
100
AcDbDictionary
280
     1
281
     1
  3
ACAD_XREC_ROUNDTRIP
360
D7A
  0
DICTIONARY
  5
D81
330
19B
100
AcDbDictionary
280
     1
281
     1
  3
ACAD_XREC_ROUNDTRIP
360
D82
  0
DICTIONARY
  5
D9D
330
1A9
100
AcDbDictionary
280
     1
281
     1
  3
ACAD_XREC_ROUNDTRIP
360
D9E
  0
DICTIONARY
  5
D8D
330
1A1
100
AcDbDictionary
280
     1
281
     1
  3
ACAD_XREC_ROUNDTRIP
360
D8E
  0
DICTIONARY
  5
D9F
330
1AA
100
AcDbDictionary
280
     1
281
     1
  3
ACAD_XREC_ROUNDTRIP
360
DA0
  0
DICTIONARY
  5
D85
330
19D
100
AcDbDictionary
280
     1
281
     1
  3
ACAD_XREC_ROUNDTRIP
360
D86
  0
DICTIONARY
  5
D9B
330
1A8
100
AcDbDictionary
280
     1
281
     1
  3
ACAD_XREC_ROUNDTRIP
360
D9C
  0
DICTIONARY
  5
D99
330
1A7
100
AcDbDictionary
280
     1
281
     1
  3
ACAD_XREC_ROUNDTRIP
360
D9A
  0
DICTIONARY
  5
D93
330
1A4
100
AcDbDictionary
280
     1
281
     1
  3
ACAD_XREC_ROUNDTRIP
360
D94
  0
DICTIONARY
  5
D95
330
1A5
100
AcDbDictionary
280
     1
281
     1
  3
ACAD_XREC_ROUNDTRIP
360
D96
  0
DICTIONARY
  5
D8B
330
1A0
100
AcDbDictionary
280
     1
281
     1
  3
ACAD_XREC_ROUNDTRIP
360
D8C
  0
DICTIONARY
  5
D7F
330
19A
100
AcDbDictionary
280
     1
281
     1
  3
ACAD_XREC_ROUNDTRIP
360
D80
  0
DICTIONARY
  5
D97
330
1A6
100
AcDbDictionary
280
     1
281
     1
  3
ACAD_XREC_ROUNDTRIP
360
D98
  0
XRECORD
  5
D6B
102
{ACAD_REACTORS
330
D71
102
}
330
D71
100
AcDbXrecord
280
     1
  1
AcDb_Thumbnail_Schema
102
{ATTRRECORD
341
D6C
  2
AcDbDs::TreatedAsObjectData
280
     1
291
     1
102
ATTRRECORD}
102
{ATTRRECORD
341
D6D
  2
AcDbDs::Legacy
280
     1
291
     1
102
ATTRRECORD}
  2
AcDbDs::ID
280
    10
 91
        8
102
{ATTRRECORD
341
D6E
  2
AcDs:Indexable
280
     1
291
     1
102
ATTRRECORD}
102
{ATTRRECORD
341
D6F
  2
AcDbDs::HandleAttribute
280
     7
282
     1
102
ATTRRECORD}
  2
Thumbnail_Data
280
    15
 91
        0
  0
XRECORD
  5
D6C
102
{ACAD_REACTORS
330
D71
102
}
330
D71
100
AcDbXrecord
280
     1
  1
AcDbDs::TreatedAsObjectDataSchema
  2
AcDbDs::TreatedAsObjectData
280
     1
 91
        0
  0
XRECORD
  5
D6D
102
{ACAD_REACTORS
330
D71
102
}
330
D71
100
AcDbXrecord
280
     1
  1
AcDbDs::LegacySchema
  2
AcDbDs::Legacy
280
     1
 91
        0
  0
XRECORD
  5
D6E
102
{ACAD_REACTORS
330
D71
102
}
330
D71
100
AcDbXrecord
280
     1
  1
AcDbDs::IndexedPropertySchema
  2
AcDs:Indexable
280
     1
 91
        0
  0
XRECORD
  5
D6F
102
{ACAD_REACTORS
330
D71
102
}
330
D71
100
AcDbXrecord
280
     1
  1
AcDbDs::HandleAttributeSchema
  2
AcDbDs::HandleAttribute
280
     7
 91
        1
284
     1
  0
XRECORD
  5
469
102
{ACAD_REACTORS
330
468
102
}
330
468
100
AcDbXrecord
280
     1
102
DISPLAYNAME
  1
Imperial24
102
FLAGS
 90
        0
  0
XRECORD
  5
186
102
{ACAD_REACTORS
330
184
102
}
330
184
100
AcDbXrecord
280
     1
270
     1
271
     1
  0
XRECORD
  5
185
102
{ACAD_REACTORS
330
184
102
}
330
184
100
AcDbXrecord
280
     1
270
     1
271
     1
  0
XRECORD
  5
189
102
{ACAD_REACTORS
330
184
102
}
330
184
100
AcDbXrecord
280
     1
270
     1
271
     1
  0
XRECORD
  5
188
102
{ACAD_REACTORS
330
184
102
}
330
184
100
AcDbXrecord
280
     1
270
     1
271
     1
  0
XRECORD
  5
18A
102
{ACAD_REACTORS
330
184
102
}
330
184
100
AcDbXrecord
280
     1
270
     1
271
     1
  0
XRECORD
  5
187
102
{ACAD_REACTORS
330
184
102
}
330
184
100
AcDbXrecord
280
     1
270
     1
271
     1
  0
XRECORD
  5
17E
102
{ACAD_REACTORS
330
17C
102
}
330
17C
100
AcDbXrecord
280
     1
270
     1
271
     1
  0
XRECORD
  5
17D
102
{ACAD_REACTORS
330
17C
102
}
330
17C
100
AcDbXrecord
280
     1
270
     1
271
     1
  0
XRECORD
  5
181
102
{ACAD_REACTORS
330
17C
102
}
330
17C
100
AcDbXrecord
280
     1
270
     1
271
     1
  0
XRECORD
  5
180
102
{ACAD_REACTORS
330
17C
102
}
330
17C
100
AcDbXrecord
280
     1
270
     1
271
     1
  0
XRECORD
  5
182
102
{ACAD_REACTORS
330
17C
102
}
330
17C
100
AcDbXrecord
280
     1
270
     1
271
     1
  0
XRECORD
  5
17F
102
{ACAD_REACTORS
330
17C
102
}
330
17C
100
AcDbXrecord
280
     1
270
     1
271
     1
  0
XRECORD
  5
18E
102
{ACAD_REACTORS
330
18C
102
}
330
18C
100
AcDbXrecord
280
     1
270
     1
271
     1
  0
XRECORD
  5
18D
102
{ACAD_REACTORS
330
18C
102
}
330
18C
100
AcDbXrecord
280
     1
270
     1
271
     1
  0
XRECORD
  5
191
102
{ACAD_REACTORS
330
18C
102
}
330
18C
100
AcDbXrecord
280
     1
270
     1
271
     1
  0
XRECORD
  5
190
102
{ACAD_REACTORS
330
18C
102
}
330
18C
100
AcDbXrecord
280
     1
270
     1
271
     1
  0
XRECORD
  5
192
102
{ACAD_REACTORS
330
18C
102
}
330
18C
100
AcDbXrecord
280
     1
270
     1
271
     1
  0
XRECORD
  5
18F
102
{ACAD_REACTORS
330
18C
102
}
330
18C
100
AcDbXrecord
280
     1
270
     1
271
     1
  0
XRECORD
  5
467
102
{ACAD_REACTORS
330
466
102
}
330
466
100
AcDbXrecord
280
     1
102
DISPLAYNAME
  1
Imperial24
102
FLAGS
 90
        0
  0
CELLSTYLEMAP
  5
D69
102
{ACAD_REACTORS
330
35F
102
}
330
35F
100
AcDbCellStyleMap
 90
        3
300
CELLSTYLE
  1
TABLEFORMAT_BEGIN
 90
        5
170
     1
 91
        0
 92
    32768
 62
   257
 93
        1
300
CONTENTFORMAT
  1
CONTENTFORMAT_BEGIN
 90
        0
 91
        0
 92
      512
 93
        0
300

 40
0.0
140
1.0
 94
        5
 62
     0
340
11
144
0.25
309
CONTENTFORMAT_END
171
     1
301
MARGIN
  1
CELLMARGIN_BEGIN
 40
0.06
 40
0.06
 40
0.06
 40
0.06
 40
0.18
 40
0.18
309
CELLMARGIN_END
 94
        6
 95
        1
302
GRIDFORMAT
  1
GRIDFORMAT_BEGIN
 90
        0
 91
        1
 62
     0
 92
       -2
340
0
 93
        0
 40
0.045
309
GRIDFORMAT_END
 95
        2
302
GRIDFORMAT
  1
GRIDFORMAT_BEGIN
 90
        0
 91
        1
 62
     0
 92
       -2
340
0
 93
        0
 40
0.045
309
GRIDFORMAT_END
 95
        4
302
GRIDFORMAT
  1
GRIDFORMAT_BEGIN
 90
        0
 91
        1
 62
     0
 92
       -2
340
0
 93
        0
 40
0.045
309
GRIDFORMAT_END
 95
        8
302
GRIDFORMAT
  1
GRIDFORMAT_BEGIN
 90
        0
 91
        1
 62
     0
 92
       -2
340
0
 93
        0
 40
0.045
309
GRIDFORMAT_END
 95
       16
302
GRIDFORMAT
  1
GRIDFORMAT_BEGIN
 90
        0
 91
        1
 62
     0
 92
       -2
340
0
 93
        0
 40
0.045
309
GRIDFORMAT_END
 95
       32
302
GRIDFORMAT
  1
GRIDFORMAT_BEGIN
 90
        0
 91
        1
 62
     0
 92
       -2
340
0
 93
        0
 40
0.045
309
GRIDFORMAT_END
309
TABLEFORMAT_END
  1
CELLSTYLE_BEGIN
 90
        1
 91
        1
300
_TITLE
309
CELLSTYLE_END
300
CELLSTYLE
  1
TABLEFORMAT_BEGIN
 90
        5
170
     1
 91
        0
 92
        0
 62
   257
 93
        1
300
CONTENTFORMAT
  1
CONTENTFORMAT_BEGIN
 90
        0
 91
        0
 92
      512
 93
        0
300

 40
0.0
140
1.0
 94
        5
 62
     0
340
11
144
0.18
309
CONTENTFORMAT_END
171
     1
301
MARGIN
  1
CELLMARGIN_BEGIN
 40
0.06
 40
0.06
 40
0.06
 40
0.06
 40
0.18
 40
0.18
309
CELLMARGIN_END
 94
        6
 95
        1
302
GRIDFORMAT
  1
GRIDFORMAT_BEGIN
 90
        0
 91
        1
 62
     0
 92
       -2
340
0
 93
        0
 40
0.045
309
GRIDFORMAT_END
 95
        2
302
GRIDFORMAT
  1
GRIDFORMAT_BEGIN
 90
        0
 91
        1
 62
     0
 92
       -2
340
0
 93
        0
 40
0.045
309
GRIDFORMAT_END
 95
        4
302
GRIDFORMAT
  1
GRIDFORMAT_BEGIN
 90
        0
 91
        1
 62
     0
 92
       -2
340
0
 93
        0
 40
0.045
309
GRIDFORMAT_END
 95
        8
302
GRIDFORMAT
  1
GRIDFORMAT_BEGIN
 90
        0
 91
        1
 62
     0
 92
       -2
340
0
 93
        0
 40
0.045
309
GRIDFORMAT_END
 95
       16
302
GRIDFORMAT
  1
GRIDFORMAT_BEGIN
 90
        0
 91
        1
 62
     0
 92
       -2
340
0
 93
        0
 40
0.045
309
GRIDFORMAT_END
 95
       32
302
GRIDFORMAT
  1
GRIDFORMAT_BEGIN
 90
        0
 91
        1
 62
     0
 92
       -2
340
0
 93
        0
 40
0.045
309
GRIDFORMAT_END
309
TABLEFORMAT_END
  1
CELLSTYLE_BEGIN
 90
        2
 91
        1
300
_HEADER
309
CELLSTYLE_END
300
CELLSTYLE
  1
TABLEFORMAT_BEGIN
 90
        5
170
     1
 91
        0
 92
        0
 62
   257
 93
        1
300
CONTENTFORMAT
  1
CONTENTFORMAT_BEGIN
 90
        0
 91
        0
 92
      512
 93
        0
300

 40
0.0
140
1.0
 94
        2
 62
     0
340
11
144
0.18
309
CONTENTFORMAT_END
171
     1
301
MARGIN
  1
CELLMARGIN_BEGIN
 40
0.06
 40
0.06
 40
0.06
 40
0.06
 40
0.18
 40
0.18
309
CELLMARGIN_END
 94
        6
 95
        1
302
GRIDFORMAT
  1
GRIDFORMAT_BEGIN
 90
        0
 91
        1
 62
     0
 92
       -2
340
0
 93
        0
 40
0.045
309
GRIDFORMAT_END
 95
        2
302
GRIDFORMAT
  1
GRIDFORMAT_BEGIN
 90
        0
 91
        1
 62
     0
 92
       -2
340
0
 93
        0
 40
0.045
309
GRIDFORMAT_END
 95
        4
302
GRIDFORMAT
  1
GRIDFORMAT_BEGIN
 90
        0
 91
        1
 62
     0
 92
       -2
340
0
 93
        0
 40
0.045
309
GRIDFORMAT_END
 95
        8
302
GRIDFORMAT
  1
GRIDFORMAT_BEGIN
 90
        0
 91
        1
 62
     0
 92
       -2
340
0
 93
        0
 40
0.045
309
GRIDFORMAT_END
 95
       16
302
GRIDFORMAT
  1
GRIDFORMAT_BEGIN
 90
        0
 91
        1
 62
     0
 92
       -2
340
0
 93
        0
 40
0.045
309
GRIDFORMAT_END
 95
       32
302
GRIDFORMAT
  1
GRIDFORMAT_BEGIN
 90
        0
 91
        1
 62
     0
 92
       -2
340
0
 93
        0
 40
0.045
309
GRIDFORMAT_END
309
TABLEFORMAT_END
  1
CELLSTYLE_BEGIN
 90
        3
 91
        2
300
_DATA
309
CELLSTYLE_END
  0
XRECORD
  5
D7E
102
{ACAD_REACTORS
330
D7D
102
}
330
D7D
100
AcDbXrecord
280
     1
102
RTVSPost2010Prop28
280
     1
102
RTVSPost2010PropOp28
 70
     1
102
RTVSPost2010Prop29
280
     1
102
RTVSPost2010PropOp29
 70
     1
102
RTVSPost2010Prop30
280
     0
102
RTVSPost2010PropOp30
 70
     1
102
RTVSPost2010Prop31
280
     0
102
RTVSPost2010PropOp31
 70
     1
102
RTVSPost2010Prop32
280
     0
102
RTVSPost2010PropOp32
 70
     1
102
RTVSPost2010Prop33
280
     0
102
RTVSPost2010PropOp33
 70
     1
102
RTVSPost2010Prop34
280
     0
102
RTVSPost2010PropOp34
 70
     1
102
RTVSPost2010Prop35
280
     0
102
RTVSPost2010PropOp35
 70
     1
102
RTVSPost2010Prop36
280
     0
102
RTVSPost2010PropOp36
 70
     1
102
RTVSPost2010Prop37
 90
       50
102
RTVSPost2010PropOp37
 70
     1
102
RTVSPost2010Prop38
140
0.0
102
RTVSPost2010PropOp38
 70
     1
102
RTVSPost2010Prop39
140
1.0
102
RTVSPost2010PropOp39
 70
     1
102
RTVSPost2010Prop40
 90
        0
102
RTVSPost2010PropOp40
 70
     1
102
RTVSPost2010Prop41ColorIndex
 90
       18
102
RTVSPost2010Prop41ColorRGB
 90
        0
102
RTVSPost2010PropOp41
 70
     1
102
RTVSPost2010Prop42
 90
       50
102
RTVSPost2010PropOp42
 70
     1
102
RTVSPost2010Prop43
 90
        3
102
RTVSPost2010PropOp43
 70
     1
102
RTVSPost2010Prop44ColorIndex
 90
        5
102
RTVSPost2010Prop44ColorRGB
 90
      255
102
RTVSPost2010PropOp44
 70
     1
102
RTVSPost2010Prop45
280
     0
102
RTVSPost2010PropOp45
 70
     1
102
RTVSPost2010Prop46
 90
       50
102
RTVSPost2010PropOp46
 70
     1
102
RTVSPost2010Prop47
 90
       50
102
RTVSPost2010PropOp47
 70
     1
102
RTVSPost2010Prop48
 90
       50
102
RTVSPost2010PropOp48
 70
     1
102
RTVSPost2010Prop49
280
     0
102
RTVSPost2010PropOp49
 70
     1
102
RTVSPost2010Prop50
 90
       50
102
RTVSPost2010PropOp50
 70
     1
102
RTVSPost2010Prop51ColorIndex
 90
      256
102
RTVSPost2010Prop51ColorRGB
 90
-16777216
102
RTVSPost2010PropOp51
 70
     0
102
RTVSPost2010Prop52
140
1.0
102
RTVSPost2010PropOp52
 70
     0
102
RTVSPost2010Prop53
 90
        2
102
RTVSPost2010PropOp53
 70
     1
102
RTVSPost2010Prop54
  1
strokes_ogs.tif
102
RTVSPost2010PropOp54
 70
     1
102
RTVSPost2010Prop55
280
     0
102
RTVSPost2010PropOp55
 70
     1
102
RTVSPost2010Prop56
140
1.0
102
RTVSPost2010PropOp56
 70
     1
102
RTVSPost2010Prop57
140
1.0
102
RTVSPost2010PropOp57
 70
     1
  0
XRECORD
  5
D7C
102
{ACAD_REACTORS
330
D7B
102
}
330
D7B
100
AcDbXrecord
280
     1
102
RTVSPost2010Prop28
280
     0
102
RTVSPost2010PropOp28
 70
     1
102
RTVSPost2010Prop29
280
     1
102
RTVSPost2010PropOp29
 70
     1
102
RTVSPost2010Prop30
280
     1
102
RTVSPost2010PropOp30
 70
     1
102
RTVSPost2010Prop31
280
     0
102
RTVSPost2010PropOp31
 70
     1
102
RTVSPost2010Prop32
280
     0
102
RTVSPost2010PropOp32
 70
     1
102
RTVSPost2010Prop33
280
     0
102
RTVSPost2010PropOp33
 70
     1
102
RTVSPost2010Prop34
280
     0
102
RTVSPost2010PropOp34
 70
     1
102
RTVSPost2010Prop35
280
     0
102
RTVSPost2010PropOp35
 70
     1
102
RTVSPost2010Prop36
280
     0
102
RTVSPost2010PropOp36
 70
     1
102
RTVSPost2010Prop37
 90
       50
102
RTVSPost2010PropOp37
 70
     1
102
RTVSPost2010Prop38
140
0.0
102
RTVSPost2010PropOp38
 70
     1
102
RTVSPost2010Prop39
140
1.0
102
RTVSPost2010PropOp39
 70
     1
102
RTVSPost2010Prop40
 90
        0
102
RTVSPost2010PropOp40
 70
     1
102
RTVSPost2010Prop41ColorIndex
 90
       18
102
RTVSPost2010Prop41ColorRGB
 90
        0
102
RTVSPost2010PropOp41
 70
     1
102
RTVSPost2010Prop42
 90
       50
102
RTVSPost2010PropOp42
 70
     1
102
RTVSPost2010Prop43
 90
        3
102
RTVSPost2010PropOp43
 70
     1
102
RTVSPost2010Prop44ColorIndex
 90
        5
102
RTVSPost2010Prop44ColorRGB
 90
      255
102
RTVSPost2010PropOp44
 70
     1
102
RTVSPost2010Prop45
280
     0
102
RTVSPost2010PropOp45
 70
     1
102
RTVSPost2010Prop46
 90
       50
102
RTVSPost2010PropOp46
 70
     1
102
RTVSPost2010Prop47
 90
       50
102
RTVSPost2010PropOp47
 70
     1
102
RTVSPost2010Prop48
 90
       50
102
RTVSPost2010PropOp48
 70
     1
102
RTVSPost2010Prop49
280
     0
102
RTVSPost2010PropOp49
 70
     1
102
RTVSPost2010Prop50
 90
       50
102
RTVSPost2010PropOp50
 70
     1
102
RTVSPost2010Prop51ColorIndex
 90
      256
102
RTVSPost2010Prop51ColorRGB
 90
-16777216
102
RTVSPost2010PropOp51
 70
     0
102
RTVSPost2010Prop52
140
1.0
102
RTVSPost2010PropOp52
 70
     0
102
RTVSPost2010Prop53
 90
        2
102
RTVSPost2010PropOp53
 70
     1
102
RTVSPost2010Prop54
  1
strokes_ogs.tif
102
RTVSPost2010PropOp54
 70
     1
102
RTVSPost2010Prop55
280
     0
102
RTVSPost2010PropOp55
 70
     1
102
RTVSPost2010Prop56
140
1.0
102
RTVSPost2010PropOp56
 70
     1
102
RTVSPost2010Prop57
140
1.0
102
RTVSPost2010PropOp57
 70
     1
  0
XRECORD
  5
D8A
102
{ACAD_REACTORS
330
D89
102
}
330
D89
100
AcDbXrecord
280
     1
102
RTVSPost2010Prop28
280
     0
102
RTVSPost2010PropOp28
 70
     1
102
RTVSPost2010Prop29
280
     1
102
RTVSPost2010PropOp29
 70
     1
102
RTVSPost2010Prop30
280
     1
102
RTVSPost2010PropOp30
 70
     1
102
RTVSPost2010Prop31
280
     0
102
RTVSPost2010PropOp31
 70
     1
102
RTVSPost2010Prop32
280
     0
102
RTVSPost2010PropOp32
 70
     1
102
RTVSPost2010Prop33
280
     0
102
RTVSPost2010PropOp33
 70
     1
102
RTVSPost2010Prop34
280
     0
102
RTVSPost2010PropOp34
 70
     1
102
RTVSPost2010Prop35
280
     0
102
RTVSPost2010PropOp35
 70
     1
102
RTVSPost2010Prop36
280
     0
102
RTVSPost2010PropOp36
 70
     1
102
RTVSPost2010Prop37
 90
       50
102
RTVSPost2010PropOp37
 70
     1
102
RTVSPost2010Prop38
140
0.0
102
RTVSPost2010PropOp38
 70
     1
102
RTVSPost2010Prop39
140
1.0
102
RTVSPost2010PropOp39
 70
     1
102
RTVSPost2010Prop40
 90
        0
102
RTVSPost2010PropOp40
 70
     1
102
RTVSPost2010Prop41ColorIndex
 90
       18
102
RTVSPost2010Prop41ColorRGB
 90
        0
102
RTVSPost2010PropOp41
 70
     1
102
RTVSPost2010Prop42
 90
       50
102
RTVSPost2010PropOp42
 70
     1
102
RTVSPost2010Prop43
 90
        3
102
RTVSPost2010PropOp43
 70
     1
102
RTVSPost2010Prop44ColorIndex
 90
        5
102
RTVSPost2010Prop44ColorRGB
 90
      255
102
RTVSPost2010PropOp44
 70
     1
102
RTVSPost2010Prop45
280
     0
102
RTVSPost2010PropOp45
 70
     1
102
RTVSPost2010Prop46
 90
       50
102
RTVSPost2010PropOp46
 70
     1
102
RTVSPost2010Prop47
 90
       50
102
RTVSPost2010PropOp47
 70
     1
102
RTVSPost2010Prop48
 90
       50
102
RTVSPost2010PropOp48
 70
     1
102
RTVSPost2010Prop49
280
     0
102
RTVSPost2010PropOp49
 70
     1
102
RTVSPost2010Prop50
 90
       50
102
RTVSPost2010PropOp50
 70
     1
102
RTVSPost2010Prop51ColorIndex
 90
      256
102
RTVSPost2010Prop51ColorRGB
 90
-16777216
102
RTVSPost2010PropOp51
 70
     0
102
RTVSPost2010Prop52
140
1.0
102
RTVSPost2010PropOp52
 70
     0
102
RTVSPost2010Prop53
 90
        2
102
RTVSPost2010PropOp53
 70
     1
102
RTVSPost2010Prop54
  1
strokes_ogs.tif
102
RTVSPost2010PropOp54
 70
     1
102
RTVSPost2010Prop55
280
     0
102
RTVSPost2010PropOp55
 70
     1
102
RTVSPost2010Prop56
140
1.0
102
RTVSPost2010PropOp56
 70
     1
102
RTVSPost2010Prop57
140
1.0
102
RTVSPost2010PropOp57
 70
     1
  0
XRECORD
  5
D92
102
{ACAD_REACTORS
330
D91
102
}
330
D91
100
AcDbXrecord
280
     1
102
RTVSPost2010Prop28
280
     0
102
RTVSPost2010PropOp28
 70
     1
102
RTVSPost2010Prop29
280
     1
102
RTVSPost2010PropOp29
 70
     1
102
RTVSPost2010Prop30
280
     1
102
RTVSPost2010PropOp30
 70
     1
102
RTVSPost2010Prop31
280
     0
102
RTVSPost2010PropOp31
 70
     1
102
RTVSPost2010Prop32
280
     0
102
RTVSPost2010PropOp32
 70
     1
102
RTVSPost2010Prop33
280
     0
102
RTVSPost2010PropOp33
 70
     1
102
RTVSPost2010Prop34
280
     0
102
RTVSPost2010PropOp34
 70
     1
102
RTVSPost2010Prop35
280
     0
102
RTVSPost2010PropOp35
 70
     1
102
RTVSPost2010Prop36
280
     0
102
RTVSPost2010PropOp36
 70
     1
102
RTVSPost2010Prop37
 90
       50
102
RTVSPost2010PropOp37
 70
     1
102
RTVSPost2010Prop38
140
0.0
102
RTVSPost2010PropOp38
 70
     1
102
RTVSPost2010Prop39
140
1.0
102
RTVSPost2010PropOp39
 70
     1
102
RTVSPost2010Prop40
 90
        0
102
RTVSPost2010PropOp40
 70
     1
102
RTVSPost2010Prop41ColorIndex
 90
       18
102
RTVSPost2010Prop41ColorRGB
 90
        0
102
RTVSPost2010PropOp41
 70
     1
102
RTVSPost2010Prop42
 90
       50
102
RTVSPost2010PropOp42
 70
     1
102
RTVSPost2010Prop43
 90
        3
102
RTVSPost2010PropOp43
 70
     1
102
RTVSPost2010Prop44ColorIndex
 90
        5
102
RTVSPost2010Prop44ColorRGB
 90
      255
102
RTVSPost2010PropOp44
 70
     1
102
RTVSPost2010Prop45
280
     0
102
RTVSPost2010PropOp45
 70
     1
102
RTVSPost2010Prop46
 90
       50
102
RTVSPost2010PropOp46
 70
     1
102
RTVSPost2010Prop47
 90
       50
102
RTVSPost2010PropOp47
 70
     1
102
RTVSPost2010Prop48
 90
       50
102
RTVSPost2010PropOp48
 70
     1
102
RTVSPost2010Prop49
280
     0
102
RTVSPost2010PropOp49
 70
     1
102
RTVSPost2010Prop50
 90
       50
102
RTVSPost2010PropOp50
 70
     1
102
RTVSPost2010Prop51ColorIndex
 90
      256
102
RTVSPost2010Prop51ColorRGB
 90
-16777216
102
RTVSPost2010PropOp51
 70
     0
102
RTVSPost2010Prop52
140
1.0
102
RTVSPost2010PropOp52
 70
     0
102
RTVSPost2010Prop53
 90
        2
102
RTVSPost2010PropOp53
 70
     1
102
RTVSPost2010Prop54
  1
strokes_ogs.tif
102
RTVSPost2010PropOp54
 70
     1
102
RTVSPost2010Prop55
280
     0
102
RTVSPost2010PropOp55
 70
     1
102
RTVSPost2010Prop56
140
1.0
102
RTVSPost2010PropOp56
 70
     1
102
RTVSPost2010Prop57
140
1.0
102
RTVSPost2010PropOp57
 70
     1
  0
XRECORD
  5
D84
102
{ACAD_REACTORS
330
D83
102
}
330
D83
100
AcDbXrecord
280
     1
102
RTVSPost2010Prop28
280
     0
102
RTVSPost2010PropOp28
 70
     1
102
RTVSPost2010Prop29
280
     1
102
RTVSPost2010PropOp29
 70
     1
102
RTVSPost2010Prop30
280
     1
102
RTVSPost2010PropOp30
 70
     1
102
RTVSPost2010Prop31
280
     0
102
RTVSPost2010PropOp31
 70
     1
102
RTVSPost2010Prop32
280
     0
102
RTVSPost2010PropOp32
 70
     1
102
RTVSPost2010Prop33
280
     0
102
RTVSPost2010PropOp33
 70
     1
102
RTVSPost2010Prop34
280
     0
102
RTVSPost2010PropOp34
 70
     1
102
RTVSPost2010Prop35
280
     0
102
RTVSPost2010PropOp35
 70
     1
102
RTVSPost2010Prop36
280
     0
102
RTVSPost2010PropOp36
 70
     1
102
RTVSPost2010Prop37
 90
       50
102
RTVSPost2010PropOp37
 70
     1
102
RTVSPost2010Prop38
140
0.0
102
RTVSPost2010PropOp38
 70
     1
102
RTVSPost2010Prop39
140
1.0
102
RTVSPost2010PropOp39
 70
     1
102
RTVSPost2010Prop40
 90
        0
102
RTVSPost2010PropOp40
 70
     1
102
RTVSPost2010Prop41ColorIndex
 90
       18
102
RTVSPost2010Prop41ColorRGB
 90
        0
102
RTVSPost2010PropOp41
 70
     1
102
RTVSPost2010Prop42
 90
       50
102
RTVSPost2010PropOp42
 70
     1
102
RTVSPost2010Prop43
 90
        3
102
RTVSPost2010PropOp43
 70
     1
102
RTVSPost2010Prop44ColorIndex
 90
        5
102
RTVSPost2010Prop44ColorRGB
 90
      255
102
RTVSPost2010PropOp44
 70
     1
102
RTVSPost2010Prop45
280
     0
102
RTVSPost2010PropOp45
 70
     1
102
RTVSPost2010Prop46
 90
       50
102
RTVSPost2010PropOp46
 70
     1
102
RTVSPost2010Prop47
 90
       50
102
RTVSPost2010PropOp47
 70
     1
102
RTVSPost2010Prop48
 90
       50
102
RTVSPost2010PropOp48
 70
     1
102
RTVSPost2010Prop49
280
     0
102
RTVSPost2010PropOp49
 70
     1
102
RTVSPost2010Prop50
 90
       50
102
RTVSPost2010PropOp50
 70
     1
102
RTVSPost2010Prop51ColorIndex
 90
      256
102
RTVSPost2010Prop51ColorRGB
 90
-16777216
102
RTVSPost2010PropOp51
 70
     0
102
RTVSPost2010Prop52
140
1.0
102
RTVSPost2010PropOp52
 70
     0
102
RTVSPost2010Prop53
 90
        2
102
RTVSPost2010PropOp53
 70
     1
102
RTVSPost2010Prop54
  1
strokes_ogs.tif
102
RTVSPost2010PropOp54
 70
     1
102
RTVSPost2010Prop55
280
     0
102
RTVSPost2010PropOp55
 70
     1
102
RTVSPost2010Prop56
140
1.0
102
RTVSPost2010PropOp56
 70
     1
102
RTVSPost2010Prop57
140
1.0
102
RTVSPost2010PropOp57
 70
     1
  0
XRECORD
  5
D88
102
{ACAD_REACTORS
330
D87
102
}
330
D87
100
AcDbXrecord
280
     1
102
RTVSPost2010Prop28
280
     0
102
RTVSPost2010PropOp28
 70
     1
102
RTVSPost2010Prop29
280
     1
102
RTVSPost2010PropOp29
 70
     1
102
RTVSPost2010Prop30
280
     1
102
RTVSPost2010PropOp30
 70
     1
102
RTVSPost2010Prop31
280
     0
102
RTVSPost2010PropOp31
 70
     1
102
RTVSPost2010Prop32
280
     0
102
RTVSPost2010PropOp32
 70
     1
102
RTVSPost2010Prop33
280
     0
102
RTVSPost2010PropOp33
 70
     1
102
RTVSPost2010Prop34
280
     0
102
RTVSPost2010PropOp34
 70
     1
102
RTVSPost2010Prop35
280
     0
102
RTVSPost2010PropOp35
 70
     1
102
RTVSPost2010Prop36
280
     0
102
RTVSPost2010PropOp36
 70
     1
102
RTVSPost2010Prop37
 90
       50
102
RTVSPost2010PropOp37
 70
     1
102
RTVSPost2010Prop38
140
0.0
102
RTVSPost2010PropOp38
 70
     1
102
RTVSPost2010Prop39
140
1.0
102
RTVSPost2010PropOp39
 70
     1
102
RTVSPost2010Prop40
 90
        0
102
RTVSPost2010PropOp40
 70
     1
102
RTVSPost2010Prop41ColorIndex
 90
       18
102
RTVSPost2010Prop41ColorRGB
 90
        0
102
RTVSPost2010PropOp41
 70
     1
102
RTVSPost2010Prop42
 90
       50
102
RTVSPost2010PropOp42
 70
     1
102
RTVSPost2010Prop43
 90
        3
102
RTVSPost2010PropOp43
 70
     1
102
RTVSPost2010Prop44ColorIndex
 90
        5
102
RTVSPost2010Prop44ColorRGB
 90
      255
102
RTVSPost2010PropOp44
 70
     1
102
RTVSPost2010Prop45
280
     0
102
RTVSPost2010PropOp45
 70
     1
102
RTVSPost2010Prop46
 90
       50
102
RTVSPost2010PropOp46
 70
     1
102
RTVSPost2010Prop47
 90
       50
102
RTVSPost2010PropOp47
 70
     1
102
RTVSPost2010Prop48
 90
       50
102
RTVSPost2010PropOp48
 70
     1
102
RTVSPost2010Prop49
280
     0
102
RTVSPost2010PropOp49
 70
     1
102
RTVSPost2010Prop50
 90
       50
102
RTVSPost2010PropOp50
 70
     1
102
RTVSPost2010Prop51ColorIndex
 90
      256
102
RTVSPost2010Prop51ColorRGB
 90
-16777216
102
RTVSPost2010PropOp51
 70
     0
102
RTVSPost2010Prop52
140
1.0
102
RTVSPost2010PropOp52
 70
     0
102
RTVSPost2010Prop53
 90
        2
102
RTVSPost2010PropOp53
 70
     1
102
RTVSPost2010Prop54
  1
strokes_ogs.tif
102
RTVSPost2010PropOp54
 70
     1
102
RTVSPost2010Prop55
280
     0
102
RTVSPost2010PropOp55
 70
     1
102
RTVSPost2010Prop56
140
1.0
102
RTVSPost2010PropOp56
 70
     1
102
RTVSPost2010Prop57
140
1.0
102
RTVSPost2010PropOp57
 70
     1
  0
XRECORD
  5
DA2
102
{ACAD_REACTORS
330
DA1
102
}
330
DA1
100
AcDbXrecord
280
     1
102
RTVSPost2010Prop28
280
     0
102
RTVSPost2010PropOp28
 70
     1
102
RTVSPost2010Prop29
280
     1
102
RTVSPost2010PropOp29
 70
     1
102
RTVSPost2010Prop30
280
     1
102
RTVSPost2010PropOp30
 70
     1
102
RTVSPost2010Prop31
280
     0
102
RTVSPost2010PropOp31
 70
     1
102
RTVSPost2010Prop32
280
     0
102
RTVSPost2010PropOp32
 70
     1
102
RTVSPost2010Prop33
280
     0
102
RTVSPost2010PropOp33
 70
     1
102
RTVSPost2010Prop34
280
     0
102
RTVSPost2010PropOp34
 70
     1
102
RTVSPost2010Prop35
280
     0
102
RTVSPost2010PropOp35
 70
     1
102
RTVSPost2010Prop36
280
     0
102
RTVSPost2010PropOp36
 70
     1
102
RTVSPost2010Prop37
 90
       50
102
RTVSPost2010PropOp37
 70
     0
102
RTVSPost2010Prop38
140
0.0
102
RTVSPost2010PropOp38
 70
     0
102
RTVSPost2010Prop39
140
1.0
102
RTVSPost2010PropOp39
 70
     0
102
RTVSPost2010Prop40
 90
        0
102
RTVSPost2010PropOp40
 70
     0
102
RTVSPost2010Prop41ColorIndex
 90
       18
102
RTVSPost2010Prop41ColorRGB
 90
        0
102
RTVSPost2010PropOp41
 70
     0
102
RTVSPost2010Prop42
 90
       50
102
RTVSPost2010PropOp42
 70
     0
102
RTVSPost2010Prop43
 90
        3
102
RTVSPost2010PropOp43
 70
     0
102
RTVSPost2010Prop44ColorIndex
 90
        5
102
RTVSPost2010Prop44ColorRGB
 90
      255
102
RTVSPost2010PropOp44
 70
     0
102
RTVSPost2010Prop45
280
     0
102
RTVSPost2010PropOp45
 70
     1
102
RTVSPost2010Prop46
 90
       50
102
RTVSPost2010PropOp46
 70
     0
102
RTVSPost2010Prop47
 90
       50
102
RTVSPost2010PropOp47
 70
     0
102
RTVSPost2010Prop48
 90
       50
102
RTVSPost2010PropOp48
 70
     0
102
RTVSPost2010Prop49
280
     0
102
RTVSPost2010PropOp49
 70
     1
102
RTVSPost2010Prop50
 90
       50
102
RTVSPost2010PropOp50
 70
     0
102
RTVSPost2010Prop51ColorIndex
 90
      256
102
RTVSPost2010Prop51ColorRGB
 90
-16777216
102
RTVSPost2010PropOp51
 70
     0
102
RTVSPost2010Prop52
140
1.0
102
RTVSPost2010PropOp52
 70
     0
102
RTVSPost2010Prop53
 90
        2
102
RTVSPost2010PropOp53
 70
     0
102
RTVSPost2010Prop54
  1
strokes_ogs.tif
102
RTVSPost2010PropOp54
 70
     0
102
RTVSPost2010Prop55
280
     0
102
RTVSPost2010PropOp55
 70
     1
102
RTVSPost2010Prop56
140
1.0
102
RTVSPost2010PropOp56
 70
     0
102
RTVSPost2010Prop57
140
1.0
102
RTVSPost2010PropOp57
 70
     0
  0
XRECORD
  5
D90
102
{ACAD_REACTORS
330
D8F
102
}
330
D8F
100
AcDbXrecord
280
     1
102
RTVSPost2010Prop28
280
     0
102
RTVSPost2010PropOp28
 70
     1
102
RTVSPost2010Prop29
280
     1
102
RTVSPost2010PropOp29
 70
     1
102
RTVSPost2010Prop30
280
     1
102
RTVSPost2010PropOp30
 70
     1
102
RTVSPost2010Prop31
280
     0
102
RTVSPost2010PropOp31
 70
     1
102
RTVSPost2010Prop32
280
     0
102
RTVSPost2010PropOp32
 70
     1
102
RTVSPost2010Prop33
280
     0
102
RTVSPost2010PropOp33
 70
     1
102
RTVSPost2010Prop34
280
     0
102
RTVSPost2010PropOp34
 70
     1
102
RTVSPost2010Prop35
280
     0
102
RTVSPost2010PropOp35
 70
     1
102
RTVSPost2010Prop36
280
     0
102
RTVSPost2010PropOp36
 70
     1
102
RTVSPost2010Prop37
 90
       50
102
RTVSPost2010PropOp37
 70
     1
102
RTVSPost2010Prop38
140
0.0
102
RTVSPost2010PropOp38
 70
     1
102
RTVSPost2010Prop39
140
1.0
102
RTVSPost2010PropOp39
 70
     1
102
RTVSPost2010Prop40
 90
        0
102
RTVSPost2010PropOp40
 70
     1
102
RTVSPost2010Prop41ColorIndex
 90
       18
102
RTVSPost2010Prop41ColorRGB
 90
        0
102
RTVSPost2010PropOp41
 70
     1
102
RTVSPost2010Prop42
 90
       50
102
RTVSPost2010PropOp42
 70
     1
102
RTVSPost2010Prop43
 90
        3
102
RTVSPost2010PropOp43
 70
     1
102
RTVSPost2010Prop44ColorIndex
 90
        5
102
RTVSPost2010Prop44ColorRGB
 90
      255
102
RTVSPost2010PropOp44
 70
     1
102
RTVSPost2010Prop45
280
     0
102
RTVSPost2010PropOp45
 70
     1
102
RTVSPost2010Prop46
 90
       50
102
RTVSPost2010PropOp46
 70
     1
102
RTVSPost2010Prop47
 90
       50
102
RTVSPost2010PropOp47
 70
     1
102
RTVSPost2010Prop48
 90
       50
102
RTVSPost2010PropOp48
 70
     1
102
RTVSPost2010Prop49
280
     0
102
RTVSPost2010PropOp49
 70
     1
102
RTVSPost2010Prop50
 90
       50
102
RTVSPost2010PropOp50
 70
     1
102
RTVSPost2010Prop51ColorIndex
 90
      256
102
RTVSPost2010Prop51ColorRGB
 90
-16777216
102
RTVSPost2010PropOp51
 70
     0
102
RTVSPost2010Prop52
140
1.0
102
RTVSPost2010PropOp52
 70
     0
102
RTVSPost2010Prop53
 90
        2
102
RTVSPost2010PropOp53
 70
     1
102
RTVSPost2010Prop54
  1
strokes_ogs.tif
102
RTVSPost2010PropOp54
 70
     1
102
RTVSPost2010Prop55
280
     0
102
RTVSPost2010PropOp55
 70
     1
102
RTVSPost2010Prop56
140
1.0
102
RTVSPost2010PropOp56
 70
     1
102
RTVSPost2010Prop57
140
1.0
102
RTVSPost2010PropOp57
 70
     1
  0
XRECORD
  5
D74
102
{ACAD_REACTORS
330
D73
102
}
330
D73
100
AcDbXrecord
280
     1
102
RTVSPost2010Prop28
280
     0
102
RTVSPost2010PropOp28
 70
     1
102
RTVSPost2010Prop29
280
     1
102
RTVSPost2010PropOp29
 70
     1
102
RTVSPost2010Prop30
280
     1
102
RTVSPost2010PropOp30
 70
     1
102
RTVSPost2010Prop31
280
     0
102
RTVSPost2010PropOp31
 70
     1
102
RTVSPost2010Prop32
280
     0
102
RTVSPost2010PropOp32
 70
     1
102
RTVSPost2010Prop33
280
     0
102
RTVSPost2010PropOp33
 70
     1
102
RTVSPost2010Prop34
280
     0
102
RTVSPost2010PropOp34
 70
     1
102
RTVSPost2010Prop35
280
     0
102
RTVSPost2010PropOp35
 70
     1
102
RTVSPost2010Prop36
280
     0
102
RTVSPost2010PropOp36
 70
     1
102
RTVSPost2010Prop37
 90
       50
102
RTVSPost2010PropOp37
 70
     1
102
RTVSPost2010Prop38
140
0.0
102
RTVSPost2010PropOp38
 70
     1
102
RTVSPost2010Prop39
140
1.0
102
RTVSPost2010PropOp39
 70
     1
102
RTVSPost2010Prop40
 90
        0
102
RTVSPost2010PropOp40
 70
     1
102
RTVSPost2010Prop41ColorIndex
 90
       18
102
RTVSPost2010Prop41ColorRGB
 90
        0
102
RTVSPost2010PropOp41
 70
     1
102
RTVSPost2010Prop42
 90
       50
102
RTVSPost2010PropOp42
 70
     1
102
RTVSPost2010Prop43
 90
        3
102
RTVSPost2010PropOp43
 70
     1
102
RTVSPost2010Prop44ColorIndex
 90
        5
102
RTVSPost2010Prop44ColorRGB
 90
      255
102
RTVSPost2010PropOp44
 70
     1
102
RTVSPost2010Prop45
280
     0
102
RTVSPost2010PropOp45
 70
     1
102
RTVSPost2010Prop46
 90
       50
102
RTVSPost2010PropOp46
 70
     1
102
RTVSPost2010Prop47
 90
       50
102
RTVSPost2010PropOp47
 70
     1
102
RTVSPost2010Prop48
 90
       50
102
RTVSPost2010PropOp48
 70
     1
102
RTVSPost2010Prop49
280
     0
102
RTVSPost2010PropOp49
 70
     1
102
RTVSPost2010Prop50
 90
       50
102
RTVSPost2010PropOp50
 70
     1
102
RTVSPost2010Prop51ColorIndex
 90
      256
102
RTVSPost2010Prop51ColorRGB
 90
-16777216
102
RTVSPost2010PropOp51
 70
     0
102
RTVSPost2010Prop52
140
1.0
102
RTVSPost2010PropOp52
 70
     0
102
RTVSPost2010Prop53
 90
        2
102
RTVSPost2010PropOp53
 70
     1
102
RTVSPost2010Prop54
  1
strokes_ogs.tif
102
RTVSPost2010PropOp54
 70
     1
102
RTVSPost2010Prop55
280
     0
102
RTVSPost2010PropOp55
 70
     1
102
RTVSPost2010Prop56
140
1.0
102
RTVSPost2010PropOp56
 70
     1
102
RTVSPost2010Prop57
140
1.0
102
RTVSPost2010PropOp57
 70
     1
  0
XRECORD
  5
D76
102
{ACAD_REACTORS
330
D75
102
}
330
D75
100
AcDbXrecord
280
     1
102
RTVSPost2010Prop28
280
     0
102
RTVSPost2010PropOp28
 70
     1
102
RTVSPost2010Prop29
280
     1
102
RTVSPost2010PropOp29
 70
     1
102
RTVSPost2010Prop30
280
     1
102
RTVSPost2010PropOp30
 70
     1
102
RTVSPost2010Prop31
280
     0
102
RTVSPost2010PropOp31
 70
     1
102
RTVSPost2010Prop32
280
     0
102
RTVSPost2010PropOp32
 70
     1
102
RTVSPost2010Prop33
280
     0
102
RTVSPost2010PropOp33
 70
     1
102
RTVSPost2010Prop34
280
     0
102
RTVSPost2010PropOp34
 70
     1
102
RTVSPost2010Prop35
280
     0
102
RTVSPost2010PropOp35
 70
     1
102
RTVSPost2010Prop36
280
     0
102
RTVSPost2010PropOp36
 70
     1
102
RTVSPost2010Prop37
 90
       50
102
RTVSPost2010PropOp37
 70
     1
102
RTVSPost2010Prop38
140
0.0
102
RTVSPost2010PropOp38
 70
     1
102
RTVSPost2010Prop39
140
1.0
102
RTVSPost2010PropOp39
 70
     1
102
RTVSPost2010Prop40
 90
        0
102
RTVSPost2010PropOp40
 70
     1
102
RTVSPost2010Prop41ColorIndex
 90
       18
102
RTVSPost2010Prop41ColorRGB
 90
        0
102
RTVSPost2010PropOp41
 70
     1
102
RTVSPost2010Prop42
 90
       50
102
RTVSPost2010PropOp42
 70
     1
102
RTVSPost2010Prop43
 90
        3
102
RTVSPost2010PropOp43
 70
     1
102
RTVSPost2010Prop44ColorIndex
 90
        5
102
RTVSPost2010Prop44ColorRGB
 90
      255
102
RTVSPost2010PropOp44
 70
     1
102
RTVSPost2010Prop45
280
     0
102
RTVSPost2010PropOp45
 70
     1
102
RTVSPost2010Prop46
 90
       50
102
RTVSPost2010PropOp46
 70
     1
102
RTVSPost2010Prop47
 90
       50
102
RTVSPost2010PropOp47
 70
     1
102
RTVSPost2010Prop48
 90
       50
102
RTVSPost2010PropOp48
 70
     1
102
RTVSPost2010Prop49
280
     0
102
RTVSPost2010PropOp49
 70
     1
102
RTVSPost2010Prop50
 90
       50
102
RTVSPost2010PropOp50
 70
     1
102
RTVSPost2010Prop51ColorIndex
 90
      256
102
RTVSPost2010Prop51ColorRGB
 90
-16777216
102
RTVSPost2010PropOp51
 70
     0
102
RTVSPost2010Prop52
140
1.0
102
RTVSPost2010PropOp52
 70
     0
102
RTVSPost2010Prop53
 90
        2
102
RTVSPost2010PropOp53
 70
     1
102
RTVSPost2010Prop54
  1
strokes_ogs.tif
102
RTVSPost2010PropOp54
 70
     1
102
RTVSPost2010Prop55
280
     0
102
RTVSPost2010PropOp55
 70
     1
102
RTVSPost2010Prop56
140
1.0
102
RTVSPost2010PropOp56
 70
     1
102
RTVSPost2010Prop57
140
1.0
102
RTVSPost2010PropOp57
 70
     1
  0
XRECORD
  5
D78
102
{ACAD_REACTORS
330
D77
102
}
330
D77
100
AcDbXrecord
280
     1
102
RTVSPost2010Prop28
280
     0
102
RTVSPost2010PropOp28
 70
     1
102
RTVSPost2010Prop29
280
     1
102
RTVSPost2010PropOp29
 70
     1
102
RTVSPost2010Prop30
280
     1
102
RTVSPost2010PropOp30
 70
     1
102
RTVSPost2010Prop31
280
     0
102
RTVSPost2010PropOp31
 70
     1
102
RTVSPost2010Prop32
280
     0
102
RTVSPost2010PropOp32
 70
     1
102
RTVSPost2010Prop33
280
     0
102
RTVSPost2010PropOp33
 70
     1
102
RTVSPost2010Prop34
280
     0
102
RTVSPost2010PropOp34
 70
     1
102
RTVSPost2010Prop35
280
     0
102
RTVSPost2010PropOp35
 70
     1
102
RTVSPost2010Prop36
280
     0
102
RTVSPost2010PropOp36
 70
     1
102
RTVSPost2010Prop37
 90
       50
102
RTVSPost2010PropOp37
 70
     1
102
RTVSPost2010Prop38
140
0.0
102
RTVSPost2010PropOp38
 70
     1
102
RTVSPost2010Prop39
140
1.0
102
RTVSPost2010PropOp39
 70
     1
102
RTVSPost2010Prop40
 90
        0
102
RTVSPost2010PropOp40
 70
     1
102
RTVSPost2010Prop41ColorIndex
 90
       18
102
RTVSPost2010Prop41ColorRGB
 90
        0
102
RTVSPost2010PropOp41
 70
     1
102
RTVSPost2010Prop42
 90
       50
102
RTVSPost2010PropOp42
 70
     1
102
RTVSPost2010Prop43
 90
        3
102
RTVSPost2010PropOp43
 70
     1
102
RTVSPost2010Prop44ColorIndex
 90
        5
102
RTVSPost2010Prop44ColorRGB
 90
      255
102
RTVSPost2010PropOp44
 70
     1
102
RTVSPost2010Prop45
280
     0
102
RTVSPost2010PropOp45
 70
     1
102
RTVSPost2010Prop46
 90
       50
102
RTVSPost2010PropOp46
 70
     1
102
RTVSPost2010Prop47
 90
       50
102
RTVSPost2010PropOp47
 70
     1
102
RTVSPost2010Prop48
 90
       50
102
RTVSPost2010PropOp48
 70
     1
102
RTVSPost2010Prop49
280
     0
102
RTVSPost2010PropOp49
 70
     1
102
RTVSPost2010Prop50
 90
       50
102
RTVSPost2010PropOp50
 70
     1
102
RTVSPost2010Prop51ColorIndex
 90
      256
102
RTVSPost2010Prop51ColorRGB
 90
-16777216
102
RTVSPost2010PropOp51
 70
     0
102
RTVSPost2010Prop52
140
1.0
102
RTVSPost2010PropOp52
 70
     0
102
RTVSPost2010Prop53
 90
        2
102
RTVSPost2010PropOp53
 70
     1
102
RTVSPost2010Prop54
  1
strokes_ogs.tif
102
RTVSPost2010PropOp54
 70
     1
102
RTVSPost2010Prop55
280
     0
102
RTVSPost2010PropOp55
 70
     1
102
RTVSPost2010Prop56
140
1.0
102
RTVSPost2010PropOp56
 70
     1
102
RTVSPost2010Prop57
140
1.0
102
RTVSPost2010PropOp57
 70
     1
  0
XRECORD
  5
D7A
102
{ACAD_REACTORS
330
D79
102
}
330
D79
100
AcDbXrecord
280
     1
102
RTVSPost2010Prop28
280
     0
102
RTVSPost2010PropOp28
 70
     1
102
RTVSPost2010Prop29
280
     1
102
RTVSPost2010PropOp29
 70
     1
102
RTVSPost2010Prop30
280
     1
102
RTVSPost2010PropOp30
 70
     1
102
RTVSPost2010Prop31
280
     0
102
RTVSPost2010PropOp31
 70
     1
102
RTVSPost2010Prop32
280
     0
102
RTVSPost2010PropOp32
 70
     1
102
RTVSPost2010Prop33
280
     0
102
RTVSPost2010PropOp33
 70
     1
102
RTVSPost2010Prop34
280
     0
102
RTVSPost2010PropOp34
 70
     1
102
RTVSPost2010Prop35
280
     0
102
RTVSPost2010PropOp35
 70
     1
102
RTVSPost2010Prop36
280
     0
102
RTVSPost2010PropOp36
 70
     1
102
RTVSPost2010Prop37
 90
       50
102
RTVSPost2010PropOp37
 70
     1
102
RTVSPost2010Prop38
140
0.0
102
RTVSPost2010PropOp38
 70
     1
102
RTVSPost2010Prop39
140
1.0
102
RTVSPost2010PropOp39
 70
     1
102
RTVSPost2010Prop40
 90
        0
102
RTVSPost2010PropOp40
 70
     1
102
RTVSPost2010Prop41ColorIndex
 90
       18
102
RTVSPost2010Prop41ColorRGB
 90
        0
102
RTVSPost2010PropOp41
 70
     1
102
RTVSPost2010Prop42
 90
       50
102
RTVSPost2010PropOp42
 70
     1
102
RTVSPost2010Prop43
 90
        3
102
RTVSPost2010PropOp43
 70
     1
102
RTVSPost2010Prop44ColorIndex
 90
        5
102
RTVSPost2010Prop44ColorRGB
 90
      255
102
RTVSPost2010PropOp44
 70
     1
102
RTVSPost2010Prop45
280
     0
102
RTVSPost2010PropOp45
 70
     1
102
RTVSPost2010Prop46
 90
       50
102
RTVSPost2010PropOp46
 70
     1
102
RTVSPost2010Prop47
 90
       50
102
RTVSPost2010PropOp47
 70
     1
102
RTVSPost2010Prop48
 90
       50
102
RTVSPost2010PropOp48
 70
     1
102
RTVSPost2010Prop49
280
     0
102
RTVSPost2010PropOp49
 70
     1
102
RTVSPost2010Prop50
 90
       50
102
RTVSPost2010PropOp50
 70
     1
102
RTVSPost2010Prop51ColorIndex
 90
      256
102
RTVSPost2010Prop51ColorRGB
 90
-16777216
102
RTVSPost2010PropOp51
 70
     0
102
RTVSPost2010Prop52
140
1.0
102
RTVSPost2010PropOp52
 70
     0
102
RTVSPost2010Prop53
 90
        2
102
RTVSPost2010PropOp53
 70
     1
102
RTVSPost2010Prop54
  1
strokes_ogs.tif
102
RTVSPost2010PropOp54
 70
     1
102
RTVSPost2010Prop55
280
     0
102
RTVSPost2010PropOp55
 70
     1
102
RTVSPost2010Prop56
140
1.0
102
RTVSPost2010PropOp56
 70
     1
102
RTVSPost2010Prop57
140
1.0
102
RTVSPost2010PropOp57
 70
     1
  0
XRECORD
  5
D82
102
{ACAD_REACTORS
330
D81
102
}
330
D81
100
AcDbXrecord
280
     1
102
RTVSPost2010Prop28
280
     0
102
RTVSPost2010PropOp28
 70
     1
102
RTVSPost2010Prop29
280
     1
102
RTVSPost2010PropOp29
 70
     1
102
RTVSPost2010Prop30
280
     1
102
RTVSPost2010PropOp30
 70
     1
102
RTVSPost2010Prop31
280
     0
102
RTVSPost2010PropOp31
 70
     1
102
RTVSPost2010Prop32
280
     0
102
RTVSPost2010PropOp32
 70
     1
102
RTVSPost2010Prop33
280
     0
102
RTVSPost2010PropOp33
 70
     1
102
RTVSPost2010Prop34
280
     0
102
RTVSPost2010PropOp34
 70
     1
102
RTVSPost2010Prop35
280
     0
102
RTVSPost2010PropOp35
 70
     1
102
RTVSPost2010Prop36
280
     0
102
RTVSPost2010PropOp36
 70
     1
102
RTVSPost2010Prop37
 90
       50
102
RTVSPost2010PropOp37
 70
     1
102
RTVSPost2010Prop38
140
0.0
102
RTVSPost2010PropOp38
 70
     1
102
RTVSPost2010Prop39
140
1.0
102
RTVSPost2010PropOp39
 70
     1
102
RTVSPost2010Prop40
 90
        0
102
RTVSPost2010PropOp40
 70
     1
102
RTVSPost2010Prop41ColorIndex
 90
       18
102
RTVSPost2010Prop41ColorRGB
 90
        0
102
RTVSPost2010PropOp41
 70
     1
102
RTVSPost2010Prop42
 90
       50
102
RTVSPost2010PropOp42
 70
     1
102
RTVSPost2010Prop43
 90
        3
102
RTVSPost2010PropOp43
 70
     1
102
RTVSPost2010Prop44ColorIndex
 90
        5
102
RTVSPost2010Prop44ColorRGB
 90
      255
102
RTVSPost2010PropOp44
 70
     1
102
RTVSPost2010Prop45
280
     0
102
RTVSPost2010PropOp45
 70
     1
102
RTVSPost2010Prop46
 90
       50
102
RTVSPost2010PropOp46
 70
     1
102
RTVSPost2010Prop47
 90
       50
102
RTVSPost2010PropOp47
 70
     1
102
RTVSPost2010Prop48
 90
       50
102
RTVSPost2010PropOp48
 70
     1
102
RTVSPost2010Prop49
280
     0
102
RTVSPost2010PropOp49
 70
     1
102
RTVSPost2010Prop50
 90
       50
102
RTVSPost2010PropOp50
 70
     1
102
RTVSPost2010Prop51ColorIndex
 90
      256
102
RTVSPost2010Prop51ColorRGB
 90
-16777216
102
RTVSPost2010PropOp51
 70
     0
102
RTVSPost2010Prop52
140
1.0
102
RTVSPost2010PropOp52
 70
     0
102
RTVSPost2010Prop53
 90
        2
102
RTVSPost2010PropOp53
 70
     1
102
RTVSPost2010Prop54
  1
strokes_ogs.tif
102
RTVSPost2010PropOp54
 70
     1
102
RTVSPost2010Prop55
280
     0
102
RTVSPost2010PropOp55
 70
     1
102
RTVSPost2010Prop56
140
1.0
102
RTVSPost2010PropOp56
 70
     1
102
RTVSPost2010Prop57
140
1.0
102
RTVSPost2010PropOp57
 70
     1
  0
XRECORD
  5
D9E
102
{ACAD_REACTORS
330
D9D
102
}
330
D9D
100
AcDbXrecord
280
     1
102
RTVSPost2010Prop28
280
     0
102
RTVSPost2010PropOp28
 70
     1
102
RTVSPost2010Prop29
280
     1
102
RTVSPost2010PropOp29
 70
     1
102
RTVSPost2010Prop30
280
     1
102
RTVSPost2010PropOp30
 70
     1
102
RTVSPost2010Prop31
280
     0
102
RTVSPost2010PropOp31
 70
     1
102
RTVSPost2010Prop32
280
     0
102
RTVSPost2010PropOp32
 70
     1
102
RTVSPost2010Prop33
280
     0
102
RTVSPost2010PropOp33
 70
     1
102
RTVSPost2010Prop34
280
     0
102
RTVSPost2010PropOp34
 70
     1
102
RTVSPost2010Prop35
280
     0
102
RTVSPost2010PropOp35
 70
     1
102
RTVSPost2010Prop36
280
     0
102
RTVSPost2010PropOp36
 70
     1
102
RTVSPost2010Prop37
 90
       50
102
RTVSPost2010PropOp37
 70
     0
102
RTVSPost2010Prop38
140
0.0
102
RTVSPost2010PropOp38
 70
     0
102
RTVSPost2010Prop39
140
1.0
102
RTVSPost2010PropOp39
 70
     0
102
RTVSPost2010Prop40
 90
        0
102
RTVSPost2010PropOp40
 70
     0
102
RTVSPost2010Prop41ColorIndex
 90
       18
102
RTVSPost2010Prop41ColorRGB
 90
        0
102
RTVSPost2010PropOp41
 70
     0
102
RTVSPost2010Prop42
 90
       50
102
RTVSPost2010PropOp42
 70
     0
102
RTVSPost2010Prop43
 90
        3
102
RTVSPost2010PropOp43
 70
     0
102
RTVSPost2010Prop44ColorIndex
 90
        5
102
RTVSPost2010Prop44ColorRGB
 90
      255
102
RTVSPost2010PropOp44
 70
     0
102
RTVSPost2010Prop45
280
     0
102
RTVSPost2010PropOp45
 70
     1
102
RTVSPost2010Prop46
 90
       50
102
RTVSPost2010PropOp46
 70
     0
102
RTVSPost2010Prop47
 90
       50
102
RTVSPost2010PropOp47
 70
     0
102
RTVSPost2010Prop48
 90
       50
102
RTVSPost2010PropOp48
 70
     0
102
RTVSPost2010Prop49
280
     0
102
RTVSPost2010PropOp49
 70
     1
102
RTVSPost2010Prop50
 90
       50
102
RTVSPost2010PropOp50
 70
     0
102
RTVSPost2010Prop51ColorIndex
 90
      256
102
RTVSPost2010Prop51ColorRGB
 90
-16777216
102
RTVSPost2010PropOp51
 70
     0
102
RTVSPost2010Prop52
140
1.0
102
RTVSPost2010PropOp52
 70
     0
102
RTVSPost2010Prop53
 90
        2
102
RTVSPost2010PropOp53
 70
     0
102
RTVSPost2010Prop54
  1
strokes_ogs.tif
102
RTVSPost2010PropOp54
 70
     0
102
RTVSPost2010Prop55
280
     0
102
RTVSPost2010PropOp55
 70
     1
102
RTVSPost2010Prop56
140
1.0
102
RTVSPost2010PropOp56
 70
     0
102
RTVSPost2010Prop57
140
1.0
102
RTVSPost2010PropOp57
 70
     0
  0
XRECORD
  5
D8E
102
{ACAD_REACTORS
330
D8D
102
}
330
D8D
100
AcDbXrecord
280
     1
102
RTVSPost2010Prop28
280
     0
102
RTVSPost2010PropOp28
 70
     1
102
RTVSPost2010Prop29
280
     1
102
RTVSPost2010PropOp29
 70
     1
102
RTVSPost2010Prop30
280
     1
102
RTVSPost2010PropOp30
 70
     1
102
RTVSPost2010Prop31
280
     0
102
RTVSPost2010PropOp31
 70
     1
102
RTVSPost2010Prop32
280
     0
102
RTVSPost2010PropOp32
 70
     1
102
RTVSPost2010Prop33
280
     0
102
RTVSPost2010PropOp33
 70
     1
102
RTVSPost2010Prop34
280
     0
102
RTVSPost2010PropOp34
 70
     1
102
RTVSPost2010Prop35
280
     0
102
RTVSPost2010PropOp35
 70
     1
102
RTVSPost2010Prop36
280
     0
102
RTVSPost2010PropOp36
 70
     1
102
RTVSPost2010Prop37
 90
       50
102
RTVSPost2010PropOp37
 70
     1
102
RTVSPost2010Prop38
140
0.0
102
RTVSPost2010PropOp38
 70
     1
102
RTVSPost2010Prop39
140
1.0
102
RTVSPost2010PropOp39
 70
     1
102
RTVSPost2010Prop40
 90
        0
102
RTVSPost2010PropOp40
 70
     1
102
RTVSPost2010Prop41ColorIndex
 90
       18
102
RTVSPost2010Prop41ColorRGB
 90
        0
102
RTVSPost2010PropOp41
 70
     1
102
RTVSPost2010Prop42
 90
       50
102
RTVSPost2010PropOp42
 70
     1
102
RTVSPost2010Prop43
 90
        3
102
RTVSPost2010PropOp43
 70
     1
102
RTVSPost2010Prop44ColorIndex
 90
        5
102
RTVSPost2010Prop44ColorRGB
 90
      255
102
RTVSPost2010PropOp44
 70
     1
102
RTVSPost2010Prop45
280
     0
102
RTVSPost2010PropOp45
 70
     1
102
RTVSPost2010Prop46
 90
       50
102
RTVSPost2010PropOp46
 70
     1
102
RTVSPost2010Prop47
 90
       50
102
RTVSPost2010PropOp47
 70
     1
102
RTVSPost2010Prop48
 90
       50
102
RTVSPost2010PropOp48
 70
     1
102
RTVSPost2010Prop49
280
     0
102
RTVSPost2010PropOp49
 70
     1
102
RTVSPost2010Prop50
 90
       50
102
RTVSPost2010PropOp50
 70
     1
102
RTVSPost2010Prop51ColorIndex
 90
      256
102
RTVSPost2010Prop51ColorRGB
 90
-16777216
102
RTVSPost2010PropOp51
 70
     0
102
RTVSPost2010Prop52
140
1.0
102
RTVSPost2010PropOp52
 70
     0
102
RTVSPost2010Prop53
 90
        2
102
RTVSPost2010PropOp53
 70
     1
102
RTVSPost2010Prop54
  1
strokes_ogs.tif
102
RTVSPost2010PropOp54
 70
     1
102
RTVSPost2010Prop55
280
     0
102
RTVSPost2010PropOp55
 70
     1
102
RTVSPost2010Prop56
140
1.0
102
RTVSPost2010PropOp56
 70
     1
102
RTVSPost2010Prop57
140
1.0
102
RTVSPost2010PropOp57
 70
     1
  0
XRECORD
  5
DA0
102
{ACAD_REACTORS
330
D9F
102
}
330
D9F
100
AcDbXrecord
280
     1
102
RTVSPost2010Prop28
280
     0
102
RTVSPost2010PropOp28
 70
     1
102
RTVSPost2010Prop29
280
     1
102
RTVSPost2010PropOp29
 70
     1
102
RTVSPost2010Prop30
280
     1
102
RTVSPost2010PropOp30
 70
     1
102
RTVSPost2010Prop31
280
     0
102
RTVSPost2010PropOp31
 70
     1
102
RTVSPost2010Prop32
280
     0
102
RTVSPost2010PropOp32
 70
     1
102
RTVSPost2010Prop33
280
     0
102
RTVSPost2010PropOp33
 70
     1
102
RTVSPost2010Prop34
280
     0
102
RTVSPost2010PropOp34
 70
     1
102
RTVSPost2010Prop35
280
     0
102
RTVSPost2010PropOp35
 70
     1
102
RTVSPost2010Prop36
280
     0
102
RTVSPost2010PropOp36
 70
     1
102
RTVSPost2010Prop37
 90
       50
102
RTVSPost2010PropOp37
 70
     0
102
RTVSPost2010Prop38
140
0.0
102
RTVSPost2010PropOp38
 70
     0
102
RTVSPost2010Prop39
140
1.0
102
RTVSPost2010PropOp39
 70
     0
102
RTVSPost2010Prop40
 90
        0
102
RTVSPost2010PropOp40
 70
     0
102
RTVSPost2010Prop41ColorIndex
 90
       18
102
RTVSPost2010Prop41ColorRGB
 90
        0
102
RTVSPost2010PropOp41
 70
     0
102
RTVSPost2010Prop42
 90
       50
102
RTVSPost2010PropOp42
 70
     0
102
RTVSPost2010Prop43
 90
        3
102
RTVSPost2010PropOp43
 70
     0
102
RTVSPost2010Prop44ColorIndex
 90
        5
102
RTVSPost2010Prop44ColorRGB
 90
      255
102
RTVSPost2010PropOp44
 70
     0
102
RTVSPost2010Prop45
280
     0
102
RTVSPost2010PropOp45
 70
     1
102
RTVSPost2010Prop46
 90
       50
102
RTVSPost2010PropOp46
 70
     0
102
RTVSPost2010Prop47
 90
       50
102
RTVSPost2010PropOp47
 70
     0
102
RTVSPost2010Prop48
 90
       50
102
RTVSPost2010PropOp48
 70
     0
102
RTVSPost2010Prop49
280
     0
102
RTVSPost2010PropOp49
 70
     1
102
RTVSPost2010Prop50
 90
       50
102
RTVSPost2010PropOp50
 70
     0
102
RTVSPost2010Prop51ColorIndex
 90
      256
102
RTVSPost2010Prop51ColorRGB
 90
-16777216
102
RTVSPost2010PropOp51
 70
     0
102
RTVSPost2010Prop52
140
1.0
102
RTVSPost2010PropOp52
 70
     0
102
RTVSPost2010Prop53
 90
        2
102
RTVSPost2010PropOp53
 70
     0
102
RTVSPost2010Prop54
  1
strokes_ogs.tif
102
RTVSPost2010PropOp54
 70
     0
102
RTVSPost2010Prop55
280
     0
102
RTVSPost2010PropOp55
 70
     1
102
RTVSPost2010Prop56
140
1.0
102
RTVSPost2010PropOp56
 70
     0
102
RTVSPost2010Prop57
140
1.0
102
RTVSPost2010PropOp57
 70
     0
  0
XRECORD
  5
D86
102
{ACAD_REACTORS
330
D85
102
}
330
D85
100
AcDbXrecord
280
     1
102
RTVSPost2010Prop28
280
     0
102
RTVSPost2010PropOp28
 70
     1
102
RTVSPost2010Prop29
280
     1
102
RTVSPost2010PropOp29
 70
     1
102
RTVSPost2010Prop30
280
     1
102
RTVSPost2010PropOp30
 70
     1
102
RTVSPost2010Prop31
280
     0
102
RTVSPost2010PropOp31
 70
     1
102
RTVSPost2010Prop32
280
     0
102
RTVSPost2010PropOp32
 70
     1
102
RTVSPost2010Prop33
280
     0
102
RTVSPost2010PropOp33
 70
     1
102
RTVSPost2010Prop34
280
     0
102
RTVSPost2010PropOp34
 70
     1
102
RTVSPost2010Prop35
280
     0
102
RTVSPost2010PropOp35
 70
     1
102
RTVSPost2010Prop36
280
     0
102
RTVSPost2010PropOp36
 70
     1
102
RTVSPost2010Prop37
 90
       50
102
RTVSPost2010PropOp37
 70
     1
102
RTVSPost2010Prop38
140
0.0
102
RTVSPost2010PropOp38
 70
     1
102
RTVSPost2010Prop39
140
1.0
102
RTVSPost2010PropOp39
 70
     1
102
RTVSPost2010Prop40
 90
        0
102
RTVSPost2010PropOp40
 70
     1
102
RTVSPost2010Prop41ColorIndex
 90
       18
102
RTVSPost2010Prop41ColorRGB
 90
        0
102
RTVSPost2010PropOp41
 70
     1
102
RTVSPost2010Prop42
 90
       50
102
RTVSPost2010PropOp42
 70
     1
102
RTVSPost2010Prop43
 90
        3
102
RTVSPost2010PropOp43
 70
     1
102
RTVSPost2010Prop44ColorIndex
 90
        5
102
RTVSPost2010Prop44ColorRGB
 90
      255
102
RTVSPost2010PropOp44
 70
     1
102
RTVSPost2010Prop45
280
     0
102
RTVSPost2010PropOp45
 70
     1
102
RTVSPost2010Prop46
 90
       50
102
RTVSPost2010PropOp46
 70
     1
102
RTVSPost2010Prop47
 90
       50
102
RTVSPost2010PropOp47
 70
     1
102
RTVSPost2010Prop48
 90
       50
102
RTVSPost2010PropOp48
 70
     1
102
RTVSPost2010Prop49
280
     0
102
RTVSPost2010PropOp49
 70
     1
102
RTVSPost2010Prop50
 90
       50
102
RTVSPost2010PropOp50
 70
     1
102
RTVSPost2010Prop51ColorIndex
 90
      256
102
RTVSPost2010Prop51ColorRGB
 90
-16777216
102
RTVSPost2010PropOp51
 70
     0
102
RTVSPost2010Prop52
140
1.0
102
RTVSPost2010PropOp52
 70
     0
102
RTVSPost2010Prop53
 90
        2
102
RTVSPost2010PropOp53
 70
     1
102
RTVSPost2010Prop54
  1
strokes_ogs.tif
102
RTVSPost2010PropOp54
 70
     1
102
RTVSPost2010Prop55
280
     0
102
RTVSPost2010PropOp55
 70
     1
102
RTVSPost2010Prop56
140
1.0
102
RTVSPost2010PropOp56
 70
     1
102
RTVSPost2010Prop57
140
1.0
102
RTVSPost2010PropOp57
 70
     1
  0
XRECORD
  5
D9C
102
{ACAD_REACTORS
330
D9B
102
}
330
D9B
100
AcDbXrecord
280
     1
102
RTVSPost2010Prop28
280
     0
102
RTVSPost2010PropOp28
 70
     1
102
RTVSPost2010Prop29
280
     1
102
RTVSPost2010PropOp29
 70
     1
102
RTVSPost2010Prop30
280
     1
102
RTVSPost2010PropOp30
 70
     1
102
RTVSPost2010Prop31
280
     0
102
RTVSPost2010PropOp31
 70
     1
102
RTVSPost2010Prop32
280
     0
102
RTVSPost2010PropOp32
 70
     1
102
RTVSPost2010Prop33
280
     0
102
RTVSPost2010PropOp33
 70
     1
102
RTVSPost2010Prop34
280
     0
102
RTVSPost2010PropOp34
 70
     1
102
RTVSPost2010Prop35
280
     0
102
RTVSPost2010PropOp35
 70
     1
102
RTVSPost2010Prop36
280
     0
102
RTVSPost2010PropOp36
 70
     1
102
RTVSPost2010Prop37
 90
       50
102
RTVSPost2010PropOp37
 70
     1
102
RTVSPost2010Prop38
140
0.0
102
RTVSPost2010PropOp38
 70
     1
102
RTVSPost2010Prop39
140
1.0
102
RTVSPost2010PropOp39
 70
     1
102
RTVSPost2010Prop40
 90
        0
102
RTVSPost2010PropOp40
 70
     1
102
RTVSPost2010Prop41ColorIndex
 90
       18
102
RTVSPost2010Prop41ColorRGB
 90
        0
102
RTVSPost2010PropOp41
 70
     1
102
RTVSPost2010Prop42
 90
       50
102
RTVSPost2010PropOp42
 70
     1
102
RTVSPost2010Prop43
 90
        3
102
RTVSPost2010PropOp43
 70
     1
102
RTVSPost2010Prop44ColorIndex
 90
        5
102
RTVSPost2010Prop44ColorRGB
 90
      255
102
RTVSPost2010PropOp44
 70
     1
102
RTVSPost2010Prop45
280
     0
102
RTVSPost2010PropOp45
 70
     1
102
RTVSPost2010Prop46
 90
       50
102
RTVSPost2010PropOp46
 70
     1
102
RTVSPost2010Prop47
 90
       50
102
RTVSPost2010PropOp47
 70
     1
102
RTVSPost2010Prop48
 90
       50
102
RTVSPost2010PropOp48
 70
     1
102
RTVSPost2010Prop49
280
     0
102
RTVSPost2010PropOp49
 70
     1
102
RTVSPost2010Prop50
 90
       50
102
RTVSPost2010PropOp50
 70
     1
102
RTVSPost2010Prop51ColorIndex
 90
      256
102
RTVSPost2010Prop51ColorRGB
 90
-16777216
102
RTVSPost2010PropOp51
 70
     0
102
RTVSPost2010Prop52
140
1.0
102
RTVSPost2010PropOp52
 70
     0
102
RTVSPost2010Prop53
 90
        2
102
RTVSPost2010PropOp53
 70
     1
102
RTVSPost2010Prop54
  1
strokes_ogs.tif
102
RTVSPost2010PropOp54
 70
     1
102
RTVSPost2010Prop55
280
     0
102
RTVSPost2010PropOp55
 70
     1
102
RTVSPost2010Prop56
140
1.0
102
RTVSPost2010PropOp56
 70
     1
102
RTVSPost2010Prop57
140
1.0
102
RTVSPost2010PropOp57
 70
     1
  0
XRECORD
  5
D9A
102
{ACAD_REACTORS
330
D99
102
}
330
D99
100
AcDbXrecord
280
     1
102
RTVSPost2010Prop28
280
     0
102
RTVSPost2010PropOp28
 70
     1
102
RTVSPost2010Prop29
280
     1
102
RTVSPost2010PropOp29
 70
     1
102
RTVSPost2010Prop30
280
     1
102
RTVSPost2010PropOp30
 70
     1
102
RTVSPost2010Prop31
280
     0
102
RTVSPost2010PropOp31
 70
     1
102
RTVSPost2010Prop32
280
     0
102
RTVSPost2010PropOp32
 70
     1
102
RTVSPost2010Prop33
280
     0
102
RTVSPost2010PropOp33
 70
     1
102
RTVSPost2010Prop34
280
     0
102
RTVSPost2010PropOp34
 70
     1
102
RTVSPost2010Prop35
280
     0
102
RTVSPost2010PropOp35
 70
     1
102
RTVSPost2010Prop36
280
     0
102
RTVSPost2010PropOp36
 70
     1
102
RTVSPost2010Prop37
 90
       50
102
RTVSPost2010PropOp37
 70
     1
102
RTVSPost2010Prop38
140
0.0
102
RTVSPost2010PropOp38
 70
     1
102
RTVSPost2010Prop39
140
1.0
102
RTVSPost2010PropOp39
 70
     1
102
RTVSPost2010Prop40
 90
        0
102
RTVSPost2010PropOp40
 70
     1
102
RTVSPost2010Prop41ColorIndex
 90
       18
102
RTVSPost2010Prop41ColorRGB
 90
        0
102
RTVSPost2010PropOp41
 70
     1
102
RTVSPost2010Prop42
 90
       50
102
RTVSPost2010PropOp42
 70
     1
102
RTVSPost2010Prop43
 90
        3
102
RTVSPost2010PropOp43
 70
     1
102
RTVSPost2010Prop44ColorIndex
 90
        5
102
RTVSPost2010Prop44ColorRGB
 90
      255
102
RTVSPost2010PropOp44
 70
     1
102
RTVSPost2010Prop45
280
     0
102
RTVSPost2010PropOp45
 70
     1
102
RTVSPost2010Prop46
 90
       50
102
RTVSPost2010PropOp46
 70
     1
102
RTVSPost2010Prop47
 90
       50
102
RTVSPost2010PropOp47
 70
     1
102
RTVSPost2010Prop48
 90
       50
102
RTVSPost2010PropOp48
 70
     1
102
RTVSPost2010Prop49
280
     0
102
RTVSPost2010PropOp49
 70
     1
102
RTVSPost2010Prop50
 90
       50
102
RTVSPost2010PropOp50
 70
     1
102
RTVSPost2010Prop51ColorIndex
 90
      256
102
RTVSPost2010Prop51ColorRGB
 90
-16777216
102
RTVSPost2010PropOp51
 70
     0
102
RTVSPost2010Prop52
140
1.0
102
RTVSPost2010PropOp52
 70
     0
102
RTVSPost2010Prop53
 90
        2
102
RTVSPost2010PropOp53
 70
     1
102
RTVSPost2010Prop54
  1
strokes_ogs.tif
102
RTVSPost2010PropOp54
 70
     1
102
RTVSPost2010Prop55
280
     0
102
RTVSPost2010PropOp55
 70
     1
102
RTVSPost2010Prop56
140
1.0
102
RTVSPost2010PropOp56
 70
     1
102
RTVSPost2010Prop57
140
1.0
102
RTVSPost2010PropOp57
 70
     1
  0
XRECORD
  5
D94
102
{ACAD_REACTORS
330
D93
102
}
330
D93
100
AcDbXrecord
280
     1
102
RTVSPost2010Prop28
280
     0
102
RTVSPost2010PropOp28
 70
     1
102
RTVSPost2010Prop29
280
     1
102
RTVSPost2010PropOp29
 70
     1
102
RTVSPost2010Prop30
280
     1
102
RTVSPost2010PropOp30
 70
     1
102
RTVSPost2010Prop31
280
     0
102
RTVSPost2010PropOp31
 70
     1
102
RTVSPost2010Prop32
280
     0
102
RTVSPost2010PropOp32
 70
     1
102
RTVSPost2010Prop33
280
     0
102
RTVSPost2010PropOp33
 70
     1
102
RTVSPost2010Prop34
280
     0
102
RTVSPost2010PropOp34
 70
     1
102
RTVSPost2010Prop35
280
     0
102
RTVSPost2010PropOp35
 70
     1
102
RTVSPost2010Prop36
280
     0
102
RTVSPost2010PropOp36
 70
     1
102
RTVSPost2010Prop37
 90
       50
102
RTVSPost2010PropOp37
 70
     1
102
RTVSPost2010Prop38
140
0.0
102
RTVSPost2010PropOp38
 70
     1
102
RTVSPost2010Prop39
140
1.0
102
RTVSPost2010PropOp39
 70
     1
102
RTVSPost2010Prop40
 90
        0
102
RTVSPost2010PropOp40
 70
     1
102
RTVSPost2010Prop41ColorIndex
 90
       18
102
RTVSPost2010Prop41ColorRGB
 90
        0
102
RTVSPost2010PropOp41
 70
     1
102
RTVSPost2010Prop42
 90
       50
102
RTVSPost2010PropOp42
 70
     1
102
RTVSPost2010Prop43
 90
        3
102
RTVSPost2010PropOp43
 70
     1
102
RTVSPost2010Prop44ColorIndex
 90
        5
102
RTVSPost2010Prop44ColorRGB
 90
      255
102
RTVSPost2010PropOp44
 70
     1
102
RTVSPost2010Prop45
280
     0
102
RTVSPost2010PropOp45
 70
     1
102
RTVSPost2010Prop46
 90
       50
102
RTVSPost2010PropOp46
 70
     1
102
RTVSPost2010Prop47
 90
       50
102
RTVSPost2010PropOp47
 70
     1
102
RTVSPost2010Prop48
 90
       50
102
RTVSPost2010PropOp48
 70
     1
102
RTVSPost2010Prop49
280
     0
102
RTVSPost2010PropOp49
 70
     1
102
RTVSPost2010Prop50
 90
       50
102
RTVSPost2010PropOp50
 70
     1
102
RTVSPost2010Prop51ColorIndex
 90
      256
102
RTVSPost2010Prop51ColorRGB
 90
-16777216
102
RTVSPost2010PropOp51
 70
     0
102
RTVSPost2010Prop52
140
1.0
102
RTVSPost2010PropOp52
 70
     0
102
RTVSPost2010Prop53
 90
        2
102
RTVSPost2010PropOp53
 70
     1
102
RTVSPost2010Prop54
  1
strokes_ogs.tif
102
RTVSPost2010PropOp54
 70
     1
102
RTVSPost2010Prop55
280
     0
102
RTVSPost2010PropOp55
 70
     1
102
RTVSPost2010Prop56
140
1.0
102
RTVSPost2010PropOp56
 70
     1
102
RTVSPost2010Prop57
140
1.0
102
RTVSPost2010PropOp57
 70
     1
  0
XRECORD
  5
D96
102
{ACAD_REACTORS
330
D95
102
}
330
D95
100
AcDbXrecord
280
     1
102
RTVSPost2010Prop28
280
     0
102
RTVSPost2010PropOp28
 70
     1
102
RTVSPost2010Prop29
280
     1
102
RTVSPost2010PropOp29
 70
     1
102
RTVSPost2010Prop30
280
     1
102
RTVSPost2010PropOp30
 70
     1
102
RTVSPost2010Prop31
280
     0
102
RTVSPost2010PropOp31
 70
     1
102
RTVSPost2010Prop32
280
     0
102
RTVSPost2010PropOp32
 70
     1
102
RTVSPost2010Prop33
280
     0
102
RTVSPost2010PropOp33
 70
     1
102
RTVSPost2010Prop34
280
     0
102
RTVSPost2010PropOp34
 70
     1
102
RTVSPost2010Prop35
280
     0
102
RTVSPost2010PropOp35
 70
     1
102
RTVSPost2010Prop36
280
     0
102
RTVSPost2010PropOp36
 70
     1
102
RTVSPost2010Prop37
 90
       50
102
RTVSPost2010PropOp37
 70
     1
102
RTVSPost2010Prop38
140
0.0
102
RTVSPost2010PropOp38
 70
     1
102
RTVSPost2010Prop39
140
1.0
102
RTVSPost2010PropOp39
 70
     1
102
RTVSPost2010Prop40
 90
        0
102
RTVSPost2010PropOp40
 70
     1
102
RTVSPost2010Prop41ColorIndex
 90
       18
102
RTVSPost2010Prop41ColorRGB
 90
        0
102
RTVSPost2010PropOp41
 70
     1
102
RTVSPost2010Prop42
 90
       50
102
RTVSPost2010PropOp42
 70
     1
102
RTVSPost2010Prop43
 90
        3
102
RTVSPost2010PropOp43
 70
     1
102
RTVSPost2010Prop44ColorIndex
 90
        5
102
RTVSPost2010Prop44ColorRGB
 90
      255
102
RTVSPost2010PropOp44
 70
     1
102
RTVSPost2010Prop45
280
     0
102
RTVSPost2010PropOp45
 70
     1
102
RTVSPost2010Prop46
 90
       50
102
RTVSPost2010PropOp46
 70
     1
102
RTVSPost2010Prop47
 90
       50
102
RTVSPost2010PropOp47
 70
     1
102
RTVSPost2010Prop48
 90
       50
102
RTVSPost2010PropOp48
 70
     1
102
RTVSPost2010Prop49
280
     0
102
RTVSPost2010PropOp49
 70
     1
102
RTVSPost2010Prop50
 90
       50
102
RTVSPost2010PropOp50
 70
     1
102
RTVSPost2010Prop51ColorIndex
 90
      256
102
RTVSPost2010Prop51ColorRGB
 90
-16777216
102
RTVSPost2010PropOp51
 70
     0
102
RTVSPost2010Prop52
140
1.0
102
RTVSPost2010PropOp52
 70
     0
102
RTVSPost2010Prop53
 90
        2
102
RTVSPost2010PropOp53
 70
     1
102
RTVSPost2010Prop54
  1
strokes_ogs.tif
102
RTVSPost2010PropOp54
 70
     1
102
RTVSPost2010Prop55
280
     0
102
RTVSPost2010PropOp55
 70
     1
102
RTVSPost2010Prop56
140
1.0
102
RTVSPost2010PropOp56
 70
     1
102
RTVSPost2010Prop57
140
1.0
102
RTVSPost2010PropOp57
 70
     1
  0
XRECORD
  5
D8C
102
{ACAD_REACTORS
330
D8B
102
}
330
D8B
100
AcDbXrecord
280
     1
102
RTVSPost2010Prop28
280
     0
102
RTVSPost2010PropOp28
 70
     1
102
RTVSPost2010Prop29
280
     1
102
RTVSPost2010PropOp29
 70
     1
102
RTVSPost2010Prop30
280
     1
102
RTVSPost2010PropOp30
 70
     1
102
RTVSPost2010Prop31
280
     0
102
RTVSPost2010PropOp31
 70
     1
102
RTVSPost2010Prop32
280
     0
102
RTVSPost2010PropOp32
 70
     1
102
RTVSPost2010Prop33
280
     0
102
RTVSPost2010PropOp33
 70
     1
102
RTVSPost2010Prop34
280
     0
102
RTVSPost2010PropOp34
 70
     1
102
RTVSPost2010Prop35
280
     0
102
RTVSPost2010PropOp35
 70
     1
102
RTVSPost2010Prop36
280
     0
102
RTVSPost2010PropOp36
 70
     1
102
RTVSPost2010Prop37
 90
       50
102
RTVSPost2010PropOp37
 70
     1
102
RTVSPost2010Prop38
140
0.0
102
RTVSPost2010PropOp38
 70
     1
102
RTVSPost2010Prop39
140
1.0
102
RTVSPost2010PropOp39
 70
     1
102
RTVSPost2010Prop40
 90
        0
102
RTVSPost2010PropOp40
 70
     1
102
RTVSPost2010Prop41ColorIndex
 90
       18
102
RTVSPost2010Prop41ColorRGB
 90
        0
102
RTVSPost2010PropOp41
 70
     1
102
RTVSPost2010Prop42
 90
       50
102
RTVSPost2010PropOp42
 70
     1
102
RTVSPost2010Prop43
 90
        3
102
RTVSPost2010PropOp43
 70
     1
102
RTVSPost2010Prop44ColorIndex
 90
        5
102
RTVSPost2010Prop44ColorRGB
 90
      255
102
RTVSPost2010PropOp44
 70
     1
102
RTVSPost2010Prop45
280
     0
102
RTVSPost2010PropOp45
 70
     1
102
RTVSPost2010Prop46
 90
       50
102
RTVSPost2010PropOp46
 70
     1
102
RTVSPost2010Prop47
 90
       50
102
RTVSPost2010PropOp47
 70
     1
102
RTVSPost2010Prop48
 90
       50
102
RTVSPost2010PropOp48
 70
     1
102
RTVSPost2010Prop49
280
     0
102
RTVSPost2010PropOp49
 70
     1
102
RTVSPost2010Prop50
 90
       50
102
RTVSPost2010PropOp50
 70
     1
102
RTVSPost2010Prop51ColorIndex
 90
      256
102
RTVSPost2010Prop51ColorRGB
 90
-16777216
102
RTVSPost2010PropOp51
 70
     0
102
RTVSPost2010Prop52
140
1.0
102
RTVSPost2010PropOp52
 70
     0
102
RTVSPost2010Prop53
 90
        2
102
RTVSPost2010PropOp53
 70
     1
102
RTVSPost2010Prop54
  1
strokes_ogs.tif
102
RTVSPost2010PropOp54
 70
     1
102
RTVSPost2010Prop55
280
     0
102
RTVSPost2010PropOp55
 70
     1
102
RTVSPost2010Prop56
140
1.0
102
RTVSPost2010PropOp56
 70
     1
102
RTVSPost2010Prop57
140
1.0
102
RTVSPost2010PropOp57
 70
     1
  0
XRECORD
  5
D80
102
{ACAD_REACTORS
330
D7F
102
}
330
D7F
100
AcDbXrecord
280
     1
102
RTVSPost2010Prop28
280
     0
102
RTVSPost2010PropOp28
 70
     1
102
RTVSPost2010Prop29
280
     1
102
RTVSPost2010PropOp29
 70
     1
102
RTVSPost2010Prop30
280
     1
102
RTVSPost2010PropOp30
 70
     1
102
RTVSPost2010Prop31
280
     0
102
RTVSPost2010PropOp31
 70
     1
102
RTVSPost2010Prop32
280
     0
102
RTVSPost2010PropOp32
 70
     1
102
RTVSPost2010Prop33
280
     0
102
RTVSPost2010PropOp33
 70
     1
102
RTVSPost2010Prop34
280
     0
102
RTVSPost2010PropOp34
 70
     1
102
RTVSPost2010Prop35
280
     0
102
RTVSPost2010PropOp35
 70
     1
102
RTVSPost2010Prop36
280
     0
102
RTVSPost2010PropOp36
 70
     1
102
RTVSPost2010Prop37
 90
       50
102
RTVSPost2010PropOp37
 70
     1
102
RTVSPost2010Prop38
140
0.0
102
RTVSPost2010PropOp38
 70
     1
102
RTVSPost2010Prop39
140
1.0
102
RTVSPost2010PropOp39
 70
     1
102
RTVSPost2010Prop40
 90
        0
102
RTVSPost2010PropOp40
 70
     1
102
RTVSPost2010Prop41ColorIndex
 90
       18
102
RTVSPost2010Prop41ColorRGB
 90
        0
102
RTVSPost2010PropOp41
 70
     1
102
RTVSPost2010Prop42
 90
       50
102
RTVSPost2010PropOp42
 70
     1
102
RTVSPost2010Prop43
 90
        3
102
RTVSPost2010PropOp43
 70
     1
102
RTVSPost2010Prop44ColorIndex
 90
        5
102
RTVSPost2010Prop44ColorRGB
 90
      255
102
RTVSPost2010PropOp44
 70
     1
102
RTVSPost2010Prop45
280
     0
102
RTVSPost2010PropOp45
 70
     1
102
RTVSPost2010Prop46
 90
       50
102
RTVSPost2010PropOp46
 70
     1
102
RTVSPost2010Prop47
 90
       50
102
RTVSPost2010PropOp47
 70
     1
102
RTVSPost2010Prop48
 90
       50
102
RTVSPost2010PropOp48
 70
     1
102
RTVSPost2010Prop49
280
     0
102
RTVSPost2010PropOp49
 70
     1
102
RTVSPost2010Prop50
 90
       50
102
RTVSPost2010PropOp50
 70
     1
102
RTVSPost2010Prop51ColorIndex
 90
      256
102
RTVSPost2010Prop51ColorRGB
 90
-16777216
102
RTVSPost2010PropOp51
 70
     0
102
RTVSPost2010Prop52
140
1.0
102
RTVSPost2010PropOp52
 70
     0
102
RTVSPost2010Prop53
 90
        2
102
RTVSPost2010PropOp53
 70
     1
102
RTVSPost2010Prop54
  1
strokes_ogs.tif
102
RTVSPost2010PropOp54
 70
     1
102
RTVSPost2010Prop55
280
     0
102
RTVSPost2010PropOp55
 70
     1
102
RTVSPost2010Prop56
140
1.0
102
RTVSPost2010PropOp56
 70
     1
102
RTVSPost2010Prop57
140
1.0
102
RTVSPost2010PropOp57
 70
     1
  0
XRECORD
  5
D98
102
{ACAD_REACTORS
330
D97
102
}
330
D97
100
AcDbXrecord
280
     1
102
RTVSPost2010Prop28
280
     0
102
RTVSPost2010PropOp28
 70
     1
102
RTVSPost2010Prop29
280
     1
102
RTVSPost2010PropOp29
 70
     1
102
RTVSPost2010Prop30
280
     1
102
RTVSPost2010PropOp30
 70
     1
102
RTVSPost2010Prop31
280
     0
102
RTVSPost2010PropOp31
 70
     1
102
RTVSPost2010Prop32
280
     0
102
RTVSPost2010PropOp32
 70
     1
102
RTVSPost2010Prop33
280
     0
102
RTVSPost2010PropOp33
 70
     1
102
RTVSPost2010Prop34
280
     0
102
RTVSPost2010PropOp34
 70
     1
102
RTVSPost2010Prop35
280
     0
102
RTVSPost2010PropOp35
 70
     1
102
RTVSPost2010Prop36
280
     0
102
RTVSPost2010PropOp36
 70
     1
102
RTVSPost2010Prop37
 90
       50
102
RTVSPost2010PropOp37
 70
     1
102
RTVSPost2010Prop38
140
0.0
102
RTVSPost2010PropOp38
 70
     1
102
RTVSPost2010Prop39
140
1.0
102
RTVSPost2010PropOp39
 70
     1
102
RTVSPost2010Prop40
 90
        0
102
RTVSPost2010PropOp40
 70
     1
102
RTVSPost2010Prop41ColorIndex
 90
       18
102
RTVSPost2010Prop41ColorRGB
 90
        0
102
RTVSPost2010PropOp41
 70
     1
102
RTVSPost2010Prop42
 90
       50
102
RTVSPost2010PropOp42
 70
     1
102
RTVSPost2010Prop43
 90
        3
102
RTVSPost2010PropOp43
 70
     1
102
RTVSPost2010Prop44ColorIndex
 90
        5
102
RTVSPost2010Prop44ColorRGB
 90
      255
102
RTVSPost2010PropOp44
 70
     1
102
RTVSPost2010Prop45
280
     0
102
RTVSPost2010PropOp45
 70
     1
102
RTVSPost2010Prop46
 90
       50
102
RTVSPost2010PropOp46
 70
     1
102
RTVSPost2010Prop47
 90
       50
102
RTVSPost2010PropOp47
 70
     1
102
RTVSPost2010Prop48
 90
       50
102
RTVSPost2010PropOp48
 70
     1
102
RTVSPost2010Prop49
280
     0
102
RTVSPost2010PropOp49
 70
     1
102
RTVSPost2010Prop50
 90
       50
102
RTVSPost2010PropOp50
 70
     1
102
RTVSPost2010Prop51ColorIndex
 90
      256
102
RTVSPost2010Prop51ColorRGB
 90
-16777216
102
RTVSPost2010PropOp51
 70
     0
102
RTVSPost2010Prop52
140
1.0
102
RTVSPost2010PropOp52
 70
     0
102
RTVSPost2010Prop53
 90
        2
102
RTVSPost2010PropOp53
 70
     1
102
RTVSPost2010Prop54
  1
strokes_ogs.tif
102
RTVSPost2010PropOp54
 70
     1
102
RTVSPost2010Prop55
280
     0
102
RTVSPost2010PropOp55
 70
     1
102
RTVSPost2010Prop56
140
1.0
102
RTVSPost2010PropOp56
 70
     1
102
RTVSPost2010Prop57
140
1.0
102
RTVSPost2010PropOp57
 70
     1
  0
ENDSEC
  0
EOF
