  0
SECTION
  2
HEADER
  9
$ACADVER
  1
AC1024
  9
$ACADMAINTVER
 70
   109
  9
$DWGCODEPAGE
  3
ANSI_1252
  9
$LASTSAVEDBY
  1
kaschu
  9
$INSBASE
 10
0.0
 20
0.0
 30
0.0
  9
$EXTMIN
 10
316.9299218050873
 20
-22.97466161354259
 30
0.0
  9
$EXTMAX
 10
2466.892777837382
 20
2612.335971054199
 30
0.0002684227922262
  9
$LIMMIN
 10
0.0
 20
0.0
  9
$LIMMAX
 10
12.0
 20
9.0
  9
$ORTHOMODE
 70
     1
  9
$REGENMODE
 70
     1
  9
$FILLMODE
 70
     1
  9
$QTEXTMODE
 70
     0
  9
$MIRRTEXT
 70
     1
  9
$LTSCALE
 40
1.0
  9
$ATTMODE
 70
     1
  9
$TEXTSIZE
 40
0.2
  9
$TRACEWID
 40
0.05
  9
$TEXTSTYLE
  7
STANDARD
  9
$CLAYER
  8
STANDARD
  9
$CELTYPE
  6
BYLAYER
  9
$CECOLOR
 62
     6
  9
$CELTSCALE
 40
1.0
  9
$DISPSILH
 70
     0
  9
$DIMSCALE
 40
1.0
  9
$DIMASZ
 40
0.18
  9
$DIMEXO
 40
0.0625
  9
$DIMDLI
 40
0.38
  9
$DIMRND
 40
0.0
  9
$DIMDLE
 40
0.0
  9
$DIMEXE
 40
0.18
  9
$DIMTP
 40
0.0
  9
$DIMTM
 40
0.0
  9
$DIMTXT
 40
0.18
  9
$DIMCEN
 40
0.09
  9
$DIMTSZ
 40
0.0
  9
$DIMTOL
 70
     0
  9
$DIMLIM
 70
     0
  9
$DIMTIH
 70
     1
  9
$DIMTOH
 70
     1
  9
$DIMSE1
 70
     0
  9
$DIMSE2
 70
     0
  9
$DIMTAD
 70
     0
  9
$DIMZIN
 70
     0
  9
$DIMBLK
  1

  9
$DIMASO
 70
     1
  9
$DIMSHO
 70
     1
  9
$DIMPOST
  1

  9
$DIMAPOST
  1

  9
$DIMALT
 70
     0
  9
$DIMALTD
 70
     2
  9
$DIMALTF
 40
25.4
  9
$DIMLFAC
 40
1.0
  9
$DIMTOFL
 70
     0
  9
$DIMTVP
 40
0.0
  9
$DIMTIX
 70
     0
  9
$DIMSOXD
 70
     0
  9
$DIMSAH
 70
     0
  9
$DIMBLK1
  1

  9
$DIMBLK2
  1

  9
$DIMSTYLE
  2
STANDARD
  9
$DIMCLRD
 70
     0
  9
$DIMCLRE
 70
     0
  9
$DIMCLRT
 70
     0
  9
$DIMTFAC
 40
1.0
  9
$DIMGAP
 40
0.09
  9
$DIMJUST
 70
     0
  9
$DIMSD1
 70
     0
  9
$DIMSD2
 70
     0
  9
$DIMTOLJ
 70
     1
  9
$DIMTZIN
 70
     0
  9
$DIMALTZ
 70
     0
  9
$DIMALTTZ
 70
     0
  9
$DIMUPT
 70
     0
  9
$DIMDEC
 70
     4
  9
$DIMTDEC
 70
     4
  9
$DIMALTU
 70
     2
  9
$DIMALTTD
 70
     2
  9
$DIMTXSTY
  7
STANDARD
  9
$DIMAUNIT
 70
     0
  9
$DIMADEC
 70
     0
  9
$DIMALTRND
 40
0.0
  9
$DIMAZIN
 70
     0
  9
$DIMDSEP
 70
    46
  9
$DIMATFIT
 70
     3
  9
$DIMFRAC
 70
     0
  9
$DIMLDRBLK
  1

  9
$DIMLUNIT
 70
     2
  9
$DIMLWD
 70
    -2
  9
$DIMLWE
 70
    -2
  9
$DIMTMOVE
 70
     0
  9
$DIMFXL
 40
1.0
  9
$DIMFXLON
 70
     0
  9
$DIMJOGANG
 40
0.7853981633974483
  9
$DIMTFILL
 70
     0
  9
$DIMTFILLCLR
 70
     0
  9
$DIMARCSYM
 70
     0
  9
$DIMLTYPE
  6

  9
$DIMLTEX1
  6

  9
$DIMLTEX2
  6

  9
$DIMTXTDIRECTION
 70
     0
  9
$LUNITS
 70
     2
  9
$LUPREC
 70
     4
  9
$SKETCHINC
 40
0.1
  9
$FILLETRAD
 40
0.5
  9
$AUNITS
 70
     0
  9
$AUPREC
 70
     0
  9
$MENU
  1
.
  9
$ELEVATION
 40
0.0
  9
$PELEVATION
 40
0.0
  9
$THICKNESS
 40
0.0
  9
$LIMCHECK
 70
     0
  9
$CHAMFERA
 40
0.5
  9
$CHAMFERB
 40
0.5
  9
$CHAMFERC
 40
1.0
  9
$CHAMFERD
 40
0.0
  9
$SKPOLY
 70
     0
  9
$TDCREATE
 40
2451762.415066667
  9
$TDUCREATE
 40
2451762.373400000
  9
$TDUPDATE
 40
2458177.681438438
  9
$TDUUPDATE
 40
2458177.639771771
  9
$TDINDWG
 40
0.1830696644
  9
$TDUSRTIMER
 40
0.1830694444
  9
$USRTIMER
 70
     1
  9
$ANGBASE
 50
0.0
  9
$ANGDIR
 70
     0
  9
$PDMODE
 70
     0
  9
$PDSIZE
 40
0.0
  9
$PLINEWID
 40
0.0
  9
$SPLFRAME
 70
     0
  9
$SPLINETYPE
 70
     6
  9
$SPLINESEGS
 70
     8
  9
$HANDSEED
  5
C9D
  9
$SURFTAB1
 70
     6
  9
$SURFTAB2
 70
     6
  9
$SURFTYPE
 70
     6
  9
$SURFU
 70
     6
  9
$SURFV
 70
     6
  9
$UCSBASE
  2

  9
$UCSNAME
  2

  9
$UCSORG
 10
0.0
 20
0.0
 30
0.0
  9
$UCSXDIR
 10
1.0
 20
0.0
 30
0.0
  9
$UCSYDIR
 10
0.0
 20
1.0
 30
0.0
  9
$UCSORTHOREF
  2

  9
$UCSORTHOVIEW
 70
     0
  9
$UCSORGTOP
 10
0.0
 20
0.0
 30
0.0
  9
$UCSORGBOTTOM
 10
0.0
 20
0.0
 30
0.0
  9
$UCSORGLEFT
 10
0.0
 20
0.0
 30
0.0
  9
$UCSORGRIGHT
 10
0.0
 20
0.0
 30
0.0
  9
$UCSORGFRONT
 10
0.0
 20
0.0
 30
0.0
  9
$UCSORGBACK
 10
0.0
 20
0.0
 30
0.0
  9
$PUCSBASE
  2

  9
$PUCSNAME
  2

  9
$PUCSORG
 10
0.0
 20
0.0
 30
0.0
  9
$PUCSXDIR
 10
1.0
 20
0.0
 30
0.0
  9
$PUCSYDIR
 10
0.0
 20
1.0
 30
0.0
  9
$PUCSORTHOREF
  2

  9
$PUCSORTHOVIEW
 70
     0
  9
$PUCSORGTOP
 10
0.0
 20
0.0
 30
0.0
  9
$PUCSORGBOTTOM
 10
0.0
 20
0.0
 30
0.0
  9
$PUCSORGLEFT
 10
0.0
 20
0.0
 30
0.0
  9
$PUCSORGRIGHT
 10
0.0
 20
0.0
 30
0.0
  9
$PUCSORGFRONT
 10
0.0
 20
0.0
 30
0.0
  9
$PUCSORGBACK
 10
0.0
 20
0.0
 30
0.0
  9
$USERI1
 70
     0
  9
$USERI2
 70
     0
  9
$USERI3
 70
     0
  9
$USERI4
 70
     0
  9
$USERI5
 70
     0
  9
$USERR1
 40
0.0
  9
$USERR2
 40
0.0
  9
$USERR3
 40
0.0
  9
$USERR4
 40
0.0
  9
$USERR5
 40
0.0
  9
$WORLDVIEW
 70
     1
  9
$SHADEDGE
 70
     3
  9
$SHADEDIF
 70
    70
  9
$TILEMODE
 70
     1
  9
$MAXACTVP
 70
    64
  9
$PINSBASE
 10
0.0
 20
0.0
 30
0.0
  9
$PLIMCHECK
 70
     0
  9
$PEXTMIN
 10
1.000000000000000E+20
 20
1.000000000000000E+20
 30
1.000000000000000E+20
  9
$PEXTMAX
 10
-1.000000000000000E+20
 20
-1.000000000000000E+20
 30
-1.000000000000000E+20
  9
$PLIMMIN
 10
0.0
 20
0.0
  9
$PLIMMAX
 10
12.0
 20
9.0
  9
$UNITMODE
 70
     0
  9
$VISRETAIN
 70
     1
  9
$PLINEGEN
 70
     0
  9
$PSLTSCALE
 70
     1
  9
$TREEDEPTH
 70
  3020
  9
$CMLSTYLE
  2
STANDARD
  9
$CMLJUST
 70
     0
  9
$CMLSCALE
 40
1.0
  9
$PROXYGRAPHICS
 70
     1
  9
$MEASUREMENT
 70
     0
  9
$CELWEIGHT
370
    -1
  9
$ENDCAPS
280
     0
  9
$JOINSTYLE
280
     0
  9
$LWDISPLAY
290
     0
  9
$INSUNITS
 70
     0
  9
$HYPERLINKBASE
  1

  9
$STYLESHEET
  1

  9
$XEDIT
290
     1
  9
$CEPSNTYPE
380
     0
  9
$PSTYLEMODE
290
     1
  9
$FINGERPRINTGUID
  2
{A42321FD-4D3B-470A-B3BE-A3689E04D828}
  9
$VERSIONGUID
  2
{44525B57-F7A8-4280-97C2-9069DBB03706}
  9
$EXTNAMES
290
     1
  9
$PSVPSCALE
 40
0.0
  9
$OLESTARTUP
290
     0
  9
$SORTENTS
280
   127
  9
$INDEXCTL
280
     0
  9
$HIDETEXT
280
     0
  9
$XCLIPFRAME
280
     2
  9
$HALOGAP
280
     0
  9
$OBSCOLOR
 70
   257
  9
$OBSLTYPE
280
     0
  9
$INTERSECTIONDISPLAY
280
     0
  9
$INTERSECTIONCOLOR
 70
   257
  9
$DIMASSOC
280
     1
  9
$PROJECTNAME
  1

  9
$CAMERADISPLAY
290
     0
  9
$LENSLENGTH
 40
50.0
  9
$CAMERAHEIGHT
 40
0.0
  9
$STEPSPERSEC
 40
2.0
  9
$STEPSIZE
 40
6.0
  9
$3DDWFPREC
 40
2.0
  9
$PSOLWIDTH
 40
0.25
  9
$PSOLHEIGHT
 40
4.0
  9
$LOFTANG1
 40
1.570796326794896
  9
$LOFTANG2
 40
1.570796326794896
  9
$LOFTMAG1
 40
0.0
  9
$LOFTMAG2
 40
0.0
  9
$LOFTPARAM
 70
     7
  9
$LOFTNORMALS
280
     1
  9
$LATITUDE
 40
37.795
  9
$LONGITUDE
 40
-122.394
  9
$NORTHDIRECTION
 40
0.0
  9
$TIMEZONE
 70
 -8000
  9
$LIGHTGLYPHDISPLAY
280
     1
  9
$TILEMODELIGHTSYNCH
280
     1
  9
$CMATERIAL
347
17B
  9
$SOLIDHIST
280
     0
  9
$SHOWHIST
280
     1
  9
$DWFFRAME
280
     2
  9
$DGNFRAME
280
     0
  9
$REALWORLDSCALE
290
     1
  9
$INTERFERECOLOR
 62
     1
  9
$INTERFEREOBJVS
345
19D
  9
$INTERFEREVPVS
346
19A
  9
$CSHADOW
280
     0
  9
$SHADOWPLANELOCATION
 40
0.0
  0
ENDSEC
  0
SECTION
  2
CLASSES
  0
CLASS
  1
ACDBDICTIONARYWDFLT
  2
AcDbDictionaryWithDefault
  3
ObjectDBX Classes
 90
        0
 91
        1
280
     0
281
     0
  0
CLASS
  1
MATERIAL
  2
AcDbMaterial
  3
ObjectDBX Classes
 90
     1153
 91
        3
280
     0
281
     0
  0
CLASS
  1
VISUALSTYLE
  2
AcDbVisualStyle
  3
ObjectDBX Classes
 90
     4095
 91
       24
280
     0
281
     0
  0
CLASS
  1
TABLESTYLE
  2
AcDbTableStyle
  3
ObjectDBX Classes
 90
     4095
 91
        1
280
     0
281
     0
  0
CLASS
  1
SCALE
  2
AcDbScale
  3
ObjectDBX Classes
 90
     1153
 91
       17
280
     0
281
     0
  0
CLASS
  1
MLEADERSTYLE
  2
AcDbMLeaderStyle
  3
ACDB_MLEADERSTYLE_CLASS
 90
     4095
 91
        1
280
     0
281
     0
  0
CLASS
  1
ACDBSECTIONVIEWSTYLE
  2
AcDbSectionViewStyle
  3
ObjectDBX Classes
 90
     1025
 91
        1
280
     0
281
     0
  0
CLASS
  1
ACDBDETAILVIEWSTYLE
  2
AcDbDetailViewStyle
  3
ObjectDBX Classes
 90
     1025
 91
        1
280
     0
281
     0
  0
CLASS
  1
DICTIONARYVAR
  2
AcDbDictionaryVar
  3
ObjectDBX Classes
 90
        0
 91
        9
280
     0
281
     0
  0
CLASS
  1
SORTENTSTABLE
  2
AcDbSortentsTable
  3
ObjectDBX Classes
 90
        0
 91
        1
280
     0
281
     0
  0
CLASS
  1
CELLSTYLEMAP
  2
AcDbCellStyleMap
  3
ObjectDBX Classes
 90
     1152
 91
        2
280
     0
281
     0
  0
ENDSEC
  0
SECTION
  2
TABLES
  0
TABLE
  2
VPORT
  5
8
330
0
100
AcDbSymbolTable
 70
     1
  0
VPORT
  5
155
330
8
100
AcDbSymbolTableRecord
100
AcDbViewportTableRecord
  2
*ACTIVE
 70
     0
 10
0.0
 20
0.0
 11
1.0
 21
1.0
 12
2088.160026613266
 22
1188.37334526106
 13
0.0
 23
0.0
 14
0.5
 24
0.5
 15
0.5
 25
0.5
 16
0.0
 26
0.0
 36
1.0
 17
0.0
 27
0.0
 37
0.0
 40
3491.901113584145
 41
1.875432525951557
 42
50.0
 43
0.0
 44
0.0
 50
0.0
 51
0.0
 71
     0
 72
 10000
 73
     1
 74
     3
 75
     0
 76
     0
 77
     0
 78
     0
281
     0
 65
     1
110
0.0
120
0.0
130
0.0
111
1.0
121
0.0
131
0.0
112
0.0
122
1.0
132
0.0
 79
     0
146
0.0
348
199
 60
     3
 61
     5
292
     1
282
     1
141
0.0
142
0.0
 63
   250
421
  3355443
1001
ACAD_NAV_VCDISPLAY
1070
     3
  0
ENDTAB
  0
TABLE
  2
LTYPE
  5
5
330
0
100
AcDbSymbolTable
 70
     3
  0
LTYPE
  5
14
330
5
100
AcDbSymbolTableRecord
100
AcDbLinetypeTableRecord
  2
BYBLOCK
 70
     0
  3

 72
    65
 73
     0
 40
0.0
  0
LTYPE
  5
15
330
5
100
AcDbSymbolTableRecord
100
AcDbLinetypeTableRecord
  2
BYLAYER
 70
     0
  3

 72
    65
 73
     0
 40
0.0
  0
LTYPE
  5
16
330
5
100
AcDbSymbolTableRecord
100
AcDbLinetypeTableRecord
  2
CONTINUOUS
 70
     0
  3
Solid line
 72
    65
 73
     0
 40
0.0
  0
LTYPE
  5
1C4
330
5
100
AcDbSymbolTableRecord
100
AcDbLinetypeTableRecord
  2
PHANTOM2
 70
     0
  3
___ _ _ ___ _ _ ___ _ _ ___ _ _
 72
    65
 73
     6
 40
1.25
 49
0.625
 74
     0
 49
-0.125
 74
     0
 49
0.125
 74
     0
 49
-0.125
 74
     0
 49
0.125
 74
     0
 49
-0.125
 74
     0
  0
LTYPE
  5
B6A
330
5
100
AcDbSymbolTableRecord
100
AcDbLinetypeTableRecord
  2
IMPORT
 70
     0
  3

 72
    65
 73
     0
 40
0.0
  0
ENDTAB
  0
TABLE
  2
LAYER
  5
2
102
{ACAD_XDICTIONARY
360
1E1
102
}
330
0
100
AcDbSymbolTable
 70
     5
  0
LAYER
  5
10
102
{ACAD_XDICTIONARY
360
1CD
102
}
330
2
100
AcDbSymbolTableRecord
100
AcDbLayerTableRecord
  2
0
 70
     0
 62
     7
  6
CONTINUOUS
370
    -3
390
E0
347
18B
  0
LAYER
  5
296
330
2
100
AcDbSymbolTableRecord
100
AcDbLayerTableRecord
  2
HEWI
 70
     0
 62
     7
  6
CONTINUOUS
370
     9
390
E0
347
18B
1001
AcAecLayerStandard
1000

1000

1001
AcCmTransparency
1071
        0
  0
LAYER
  5
309
330
2
100
AcDbSymbolTableRecord
100
AcDbLayerTableRecord
  2
Defpoints
 70
     0
 62
     7
  6
CONTINUOUS
290
     0
370
    -3
390
E0
347
18B
  0
LAYER
  5
AC0
102
{ACAD_XDICTIONARY
360
AC1
102
}
330
2
100
AcDbSymbolTableRecord
100
AcDbLayerTableRecord
  2
PV-151
 70
     2
 62
     7
  6
CONTINUOUS
370
    -3
390
E0
347
18B
  0
LAYER
  5
B6B
330
2
100
AcDbSymbolTableRecord
100
AcDbLayerTableRecord
  2
STANDARD
 70
     0
 62
     7
  6
CONTINUOUS
370
    -3
390
E0
347
18B
  0
ENDTAB
  0
TABLE
  2
STYLE
  5
3
330
0
100
AcDbSymbolTable
 70
     1
  0
STYLE
  5
11
330
3
100
AcDbSymbolTableRecord
100
AcDbTextStyleTableRecord
  2
STANDARD
 70
     0
 40
0.0
 41
1.0
 50
0.0
 71
     0
 42
0.2
  3
txt
  4

  0
ENDTAB
  0
TABLE
  2
VIEW
  5
6
330
0
100
AcDbSymbolTable
 70
     0
  0
ENDTAB
  0
TABLE
  2
UCS
  5
7
330
0
100
AcDbSymbolTable
 70
     0
  0
ENDTAB
  0
TABLE
  2
APPID
  5
9
330
0
100
AcDbSymbolTable
 70
     7
  0
APPID
  5
12
330
9
100
AcDbSymbolTableRecord
100
AcDbRegAppTableRecord
  2
ACAD
 70
     0
  0
APPID
  5
1D1
330
9
100
AcDbSymbolTableRecord
100
AcDbRegAppTableRecord
  2
ACAD_NAV_VCDISPLAY
 70
     0
  0
APPID
  5
297
330
9
100
AcDbSymbolTableRecord
100
AcDbRegAppTableRecord
  2
AcAecLayerStandard
 70
     0
  0
APPID
  5
298
330
9
100
AcDbSymbolTableRecord
100
AcDbRegAppTableRecord
  2
AcCmTransparency
 70
     0
  0
APPID
  5
2AA
330
9
100
AcDbSymbolTableRecord
100
AcDbRegAppTableRecord
  2
ACAD_PSEXT
 70
     0
  0
APPID
  5
4A0
330
9
100
AcDbSymbolTableRecord
100
AcDbRegAppTableRecord
  2
ACAD_EXEMPT_FROM_CAD_STANDARDS
 70
     0
  0
APPID
  5
A71
330
9
100
AcDbSymbolTableRecord
100
AcDbRegAppTableRecord
  2
ACAD_DSTYLE_DIMRADIAL_EXTENSION
 70
     0
  0
ENDTAB
  0
TABLE
  2
DIMSTYLE
  5
A
330
0
100
AcDbSymbolTable
 70
     1
100
AcDbDimStyleTable
 71
     1
340
27
  0
DIMSTYLE
105
27
102
{ACAD_REACTORS
330
854
330
846
102
}
330
A
100
AcDbSymbolTableRecord
100
AcDbDimStyleTableRecord
  2
STANDARD
 70
     0
340
11
  0
ENDTAB
  0
TABLE
  2
BLOCK_RECORD
  5
1
330
0
100
AcDbSymbolTable
 70
     4
  0
BLOCK_RECORD
  5
1F
102
{ACAD_XDICTIONARY
360
D9
102
}
330
1
100
AcDbSymbolTableRecord
100
AcDbBlockTableRecord
  2
*MODEL_SPACE
340
1C8
 70
     0
280
     1
281
     0
  0
BLOCK_RECORD
  5
1B
102
{ACAD_XDICTIONARY
360
D7
102
}
330
1
100
AcDbSymbolTableRecord
100
AcDbBlockTableRecord
  2
*PAPER_SPACE
340
1C9
 70
     0
280
     1
281
     0
  0
BLOCK_RECORD
  5
847
330
1
100
AcDbSymbolTableRecord
100
AcDbBlockTableRecord
  2
*D0
340
0
 70
     0
280
     1
281
     0
  0
BLOCK_RECORD
  5
855
330
1
100
AcDbSymbolTableRecord
100
AcDbBlockTableRecord
  2
*D1
340
0
 70
     0
280
     1
281
     0
  0
BLOCK_RECORD
  5
C5D
330
1
100
AcDbSymbolTableRecord
100
AcDbBlockTableRecord
  2
*D3
340
0
 70
     0
280
     1
281
     0
  0
ENDTAB
  0
ENDSEC
  0
SECTION
  2
BLOCKS
  0
BLOCK
  5
20
330
1F
100
AcDbEntity
  8
0
100
AcDbBlockBegin
  2
*MODEL_SPACE
 70
     0
 10
0.0
 20
0.0
 30
0.0
  3
*MODEL_SPACE
  1

  0
ENDBLK
  5
21
330
1F
100
AcDbEntity
  8
0
100
AcDbBlockEnd
  0
BLOCK
  5
1C
330
1B
100
AcDbEntity
 67
     1
  8
0
100
AcDbBlockBegin
  2
*PAPER_SPACE
 70
     0
 10
0.0
 20
0.0
 30
0.0
  3
*PAPER_SPACE
  1

  0
ENDBLK
  5
1D
330
1B
100
AcDbEntity
 67
     1
  8
0
100
AcDbBlockEnd
  0
BLOCK
  5
848
330
847
100
AcDbEntity
  8
0
100
AcDbBlockBegin
  2
*D0
 70
     1
 10
0.0
 20
0.0
 30
0.0
  3
*D0
  1

  0
LINE
  5
C47
330
847
100
AcDbEntity
  8
0
 62
     0
440
 16777216
370
    -2
100
AcDbLine
 10
1442.968841456953
 20
149.0624444565096
 30
0.0
 11
1336.660859682068
 21
149.0624444565096
 31
0.0
  0
LINE
  5
C48
330
847
100
AcDbEntity
  8
0
 62
     0
440
 16777216
370
    -2
100
AcDbLine
 10
1442.968841456953
 20
1114.062444456509
 30
0.0
 11
1336.660859682068
 21
1114.062444456509
 31
0.0
  0
LINE
  5
C49
330
847
100
AcDbEntity
  8
0
 62
     0
440
 16777216
370
    -2
100
AcDbLine
 10
1336.840859682068
 20
169.0624444565096
 30
0.0
 11
1336.840859682068
 21
604.8957777898425
 31
0.0
  0
LINE
  5
C4A
330
847
100
AcDbEntity
  8
0
 62
     0
440
 16777216
370
    -2
100
AcDbLine
 10
1336.840859682068
 20
1094.062444456509
 30
0.0
 11
1336.840859682068
 21
658.2291111231758
 31
0.0
  0
SOLID
  5
C4B
330
847
100
AcDbEntity
  8
0
 62
     0
440
 16777216
100
AcDbTrace
 10
1333.507526348734
 20
169.0624444565096
 30
0.0
 11
1340.174193015401
 21
169.0624444565096
 31
0.0
 12
1336.840859682068
 22
149.0624444565096
 32
0.0
 13
1336.840859682068
 23
149.0624444565096
 33
0.0
  0
SOLID
  5
C4C
330
847
100
AcDbEntity
  8
0
 62
     0
440
 16777216
100
AcDbTrace
 10
1333.507526348735
 20
1094.062444456509
 30
0.0
 11
1340.174193015401
 21
1094.062444456509
 31
0.0
 12
1336.840859682068
 22
1114.062444456509
 32
0.0
 13
1336.840859682068
 23
1114.062444456509
 33
0.0
  0
MTEXT
  5
C4D
330
847
100
AcDbEntity
  8
0
 62
     0
440
 16777216
100
AcDbMText
 10
1336.840859682068
 20
631.5624444565094
 30
0.0
 40
20.0
 41
0.0
 46
0.0
 71
     5
 72
     1
  1
\A1;W1
 11
0.0000000000000001
 21
1.0
 31
0.0
 73
     1
 44
1.0
  0
POINT
  5
C4E
330
847
100
AcDbEntity
  8
Defpoints
 62
     0
440
 16777216
100
AcDbPoint
 10
1443.031341456953
 20
149.0624444565096
 30
0.0
  0
POINT
  5
C4F
330
847
100
AcDbEntity
  8
Defpoints
 62
     0
440
 16777216
100
AcDbPoint
 10
1443.031341456953
 20
1114.062444456509
 30
0.0
  0
POINT
  5
C50
330
847
100
AcDbEntity
  8
Defpoints
 62
     0
440
 16777216
100
AcDbPoint
 10
1336.840859682068
 20
1114.062444456509
 30
0.0
  0
ENDBLK
  5
849
330
847
100
AcDbEntity
  8
0
100
AcDbBlockEnd
  0
BLOCK
  5
856
330
855
100
AcDbEntity
  8
0
100
AcDbBlockBegin
  2
*D1
 70
     1
 10
0.0
 20
0.0
 30
0.0
  3
*D1
  1

  0
LINE
  5
C51
330
855
100
AcDbEntity
  8
0
 62
     0
440
 16777216
370
    -2
100
AcDbLine
 10
1466.892777837382
 20
81.20810924566507
 30
0.0
 11
1466.892777837382
 21
-13.1546616135426
 31
0.0
  0
LINE
  5
C52
330
855
100
AcDbEntity
  8
0
 62
     0
440
 16777216
370
    -2
100
AcDbLine
 10
2431.892777837382
 20
81.20810924566507
 30
0.0
 11
2431.892777837382
 21
-13.1546616135426
 31
0.0
  0
LINE
  5
C53
330
855
100
AcDbEntity
  8
0
 62
     0
440
 16777216
370
    -2
100
AcDbLine
 10
1486.892777837382
 20
-12.97466161354259
 30
0.0
 11
1919.392777837382
 21
-12.97466161354259
 31
0.0
  0
LINE
  5
C54
330
855
100
AcDbEntity
  8
0
 62
     0
440
 16777216
370
    -2
100
AcDbLine
 10
2411.892777837382
 20
-12.97466161354259
 30
0.0
 11
1979.392777837382
 21
-12.97466161354259
 31
0.0
  0
SOLID
  5
C55
330
855
100
AcDbEntity
  8
0
 62
     0
440
 16777216
100
AcDbTrace
 10
1486.892777837382
 20
-9.641328280209256
 30
0.0
 11
1486.892777837382
 21
-16.30799494687592
 31
0.0
 12
1466.892777837382
 22
-12.97466161354259
 32
0.0
 13
1466.892777837382
 23
-12.97466161354259
 33
0.0
  0
SOLID
  5
C56
330
855
100
AcDbEntity
  8
0
 62
     0
440
 16777216
100
AcDbTrace
 10
2411.892777837382
 20
-9.641328280209256
 30
0.0
 11
2411.892777837382
 21
-16.30799494687592
 31
0.0
 12
2431.892777837382
 22
-12.97466161354259
 32
0.0
 13
2431.892777837382
 23
-12.97466161354259
 33
0.0
  0
MTEXT
  5
C57
330
855
100
AcDbEntity
  8
0
 62
     0
440
 16777216
100
AcDbMText
 10
1949.392777837382
 20
-12.97466161354259
 30
0.0
 40
20.0
 41
0.0
 46
0.0
 71
     5
 72
     1
  1
\A1;W2
 73
     1
 44
1.0
  0
POINT
  5
C58
330
855
100
AcDbEntity
  8
Defpoints
 62
     0
440
 16777216
100
AcDbPoint
 10
1466.892777837382
 20
81.27060924566507
 30
0.0
  0
POINT
  5
C59
330
855
100
AcDbEntity
  8
Defpoints
 62
     0
440
 16777216
100
AcDbPoint
 10
2431.892777837382
 20
81.27060924566507
 30
0.0
  0
POINT
  5
C5A
330
855
100
AcDbEntity
  8
Defpoints
 62
     0
440
 16777216
100
AcDbPoint
 10
2431.892777837382
 20
-12.97466161354259
 30
0.0
  0
ENDBLK
  5
857
330
855
100
AcDbEntity
  8
0
100
AcDbBlockEnd
  0
BLOCK
  5
C5E
330
C5D
100
AcDbEntity
  8
0
 62
     6
100
AcDbBlockBegin
  2
*D3
 70
     1
 10
0.0
 20
0.0
 30
0.0
  3
*D3
  1

  0
LINE
  5
C60
330
C5D
100
AcDbEntity
  8
STANDARD
 62
     0
440
 16777216
370
    -2
100
AcDbLine
 10
1466.892777837382
 20
81.27060924566507
 30
0.0
 11
1466.892777837382
 21
285.4061106449405
 31
0.0
  0
LINE
  5
C61
330
C5D
100
AcDbEntity
  8
STANDARD
 62
     0
440
 16777216
370
    -2
100
AcDbLine
 10
2431.892777837382
 20
81.27060924566507
 30
0.0
 11
2431.892777837382
 21
285.4061106449405
 31
0.0
  0
LINE
  5
C62
330
C5D
100
AcDbEntity
  8
STANDARD
 62
     0
440
 16777216
370
    -2
100
AcDbLine
 10
1467.072777837382
 20
285.2261106449405
 30
0.0
 11
1948.732777837381
 21
285.2261106449405
 31
0.0
  0
LINE
  5
C63
330
C5D
100
AcDbEntity
  8
STANDARD
 62
     0
440
 16777216
370
    -2
100
AcDbLine
 10
2431.712777837382
 20
285.2261106449405
 30
0.0
 11
1950.052777837382
 21
285.2261106449405
 31
0.0
  0
SOLID
  5
C64
330
C5D
100
AcDbEntity
  8
STANDARD
 62
     0
440
 16777216
100
AcDbTrace
 10
1467.072777837382
 20
285.2561106449405
 30
0.0
 11
1467.072777837382
 21
285.1961106449405
 31
0.0
 12
1466.892777837382
 22
285.2261106449405
 32
0.0
 13
1466.892777837382
 23
285.2261106449405
 33
0.0
  0
SOLID
  5
C65
330
C5D
100
AcDbEntity
  8
STANDARD
 62
     0
440
 16777216
100
AcDbTrace
 10
2431.712777837382
 20
285.2561106449405
 30
0.0
 11
2431.712777837382
 21
285.1961106449405
 31
0.0
 12
2431.892777837382
 22
285.2261106449405
 32
0.0
 13
2431.892777837382
 23
285.2261106449405
 33
0.0
  0
MTEXT
  5
C66
330
C5D
100
AcDbEntity
  8
STANDARD
 62
     0
440
 16777216
100
AcDbMText
 10
1949.392777837382
 20
285.2261106449405
 30
0.0
 40
0.18
 41
0.0
 46
0.0
 71
     5
 72
     1
  1
\A1;965.0000
 73
     1
 44
1.0
  0
POINT
  5
C67
330
C5D
100
AcDbEntity
  8
Defpoints
 62
     0
440
 16777216
100
AcDbPoint
 10
1466.892777837382
 20
81.20810924566507
 30
0.0
  0
POINT
  5
C68
330
C5D
100
AcDbEntity
  8
Defpoints
 62
     0
440
 16777216
100
AcDbPoint
 10
2431.892777837382
 20
81.20810924566507
 30
0.0
  0
POINT
  5
C69
330
C5D
100
AcDbEntity
  8
Defpoints
 62
     0
440
 16777216
100
AcDbPoint
 10
2431.892777837382
 20
285.2261106449405
 30
0.0
  0
ENDBLK
  5
C5F
330
C5D
100
AcDbEntity
  8
0
 62
     6
100
AcDbBlockEnd
  0
ENDSEC
  0
SECTION
  2
ENTITIES
  0
LINE
  5
33B
330
1F
100
AcDbEntity
  8
HEWI
100
AcDbLine
 10
1522.892777837381
 20
1102.062444456509
 30
0.0
 11
1522.892777837381
 21
636.1329121344349
 31
0.0
  0
LINE
  5
33C
330
1F
100
AcDbEntity
  8
HEWI
100
AcDbLine
 10
1522.892777837381
 20
152.0624444565092
 30
0.0
 11
1554.892777837381
 21
152.0624444565092
 31
0.0
  0
LINE
  5
33D
330
1F
100
AcDbEntity
  8
HEWI
100
AcDbLine
 10
1554.892777837381
 20
152.0624444565092
 30
0.0
 11
1554.892777837381
 21
593.9209976563757
 31
0.0
  0
LWPOLYLINE
  5
33E
330
1F
100
AcDbEntity
  8
HEWI
100
AcDbPolyline
 90
        4
 70
     0
 43
0.0
 10
1477.892777837381
 20
184.0624444565096
 10
1466.892777837382
 20
184.0624444565096
 10
1466.892777837382
 20
114.0624444565096
 10
1477.892777837381
 20
114.0624444565096
  0
LWPOLYLINE
  5
33F
330
1F
100
AcDbEntity
  8
HEWI
100
AcDbPolyline
 90
        2
 70
     0
 43
0.0
 10
1478.892777837382
 20
115.0624444565094
 10
1478.892777837382
 20
183.0624444565095
  0
ARC
  5
340
330
1F
100
AcDbEntity
  8
HEWI
100
AcDbCircle
 10
1477.892777837381
 20
183.0624444565095
 30
0.0
 40
1.0
100
AcDbArc
 50
0.000000000000007
 51
90.0
  0
ARC
  5
341
330
1F
100
AcDbEntity
  8
HEWI
100
AcDbCircle
 10
1477.892777837381
 20
115.0624444565094
 30
0.0
 40
1.0
100
AcDbArc
 50
270.0
 51
0.000000000000007
  0
LINE
  5
342
330
1F
100
AcDbEntity
  8
HEWI
100
AcDbLine
 10
1478.892777837382
 20
152.0624444565092
 30
0.0
 11
1478.892777837382
 21
149.0624444565095
 31
0.0
  0
LINE
  5
343
330
1F
100
AcDbEntity
  8
HEWI
100
AcDbLine
 10
1554.892777837381
 20
149.0624444565094
 30
0.0
 11
1554.892777837381
 21
152.0624444565092
 31
0.0
  0
LINE
  5
344
330
1F
100
AcDbEntity
  8
HEWI
100
AcDbLine
 10
1554.892777837381
 20
152.0624444565092
 30
0.0
 11
1478.892777837382
 21
152.0624444565092
 31
0.0
  0
LINE
  5
345
330
1F
100
AcDbEntity
  8
HEWI
100
AcDbLine
 10
1478.892777837382
 20
149.0624444565095
 30
0.0
 11
1478.892777837382
 21
146.0624444565095
 31
0.0
  0
LINE
  5
346
330
1F
100
AcDbEntity
  8
HEWI
100
AcDbLine
 10
1478.892777837382
 20
146.0624444565095
 30
0.0
 11
1554.892777837381
 21
146.0624444565095
 31
0.0
  0
LINE
  5
347
330
1F
100
AcDbEntity
  8
HEWI
100
AcDbLine
 10
1554.892777837381
 20
146.0624444565095
 30
0.0
 11
1554.892777837381
 21
149.0624444565094
 31
0.0
  0
LWPOLYLINE
  5
356
330
1F
100
AcDbEntity
  8
HEWI
100
AcDbPolyline
 90
        4
 70
     0
 43
0.0
 10
1477.892777837381
 20
1362.335971054198
 10
1466.892777837382
 20
1362.335971054198
 10
1466.892777837382
 20
1292.335971054199
 10
1477.892777837381
 20
1292.335971054199
  0
LWPOLYLINE
  5
357
330
1F
100
AcDbEntity
  8
HEWI
100
AcDbPolyline
 90
        2
 70
     0
 43
0.0
 10
1478.892777837382
 20
1293.335971054199
 10
1478.892777837382
 20
1361.335971054198
  0
ARC
  5
358
330
1F
100
AcDbEntity
  8
HEWI
100
AcDbCircle
 10
1477.892777837381
 20
1361.335971054198
 30
0.0
 40
1.0
100
AcDbArc
 50
0.000000000000007
 51
90.0
  0
ARC
  5
359
330
1F
100
AcDbEntity
  8
HEWI
100
AcDbCircle
 10
1477.892777837381
 20
1293.335971054199
 30
0.0
 40
1.0
100
AcDbArc
 50
270.0
 51
0.000000000000007
  0
LINE
  5
35A
330
1F
100
AcDbEntity
  8
HEWI
100
AcDbLine
 10
1478.892777837382
 20
1330.335971054198
 30
0.0
 11
1478.892777837382
 21
1327.335971054199
 31
0.0
  0
LINE
  5
35B
330
1F
100
AcDbEntity
  8
HEWI
100
AcDbLine
 10
1478.892777837382
 20
1327.335971054199
 30
0.0
 11
1478.892777837382
 21
1324.335971054199
 31
0.0
  0
LINE
  5
35D
330
1F
100
AcDbEntity
  8
HEWI
100
AcDbLine
 10
1537.392777837382
 20
1343.265503376273
 30
0.0
 11
1478.892777837382
 21
1343.265503376273
 31
0.0
  0
LINE
  5
35E
330
1F
100
AcDbEntity
  8
HEWI
100
AcDbLine
 10
1537.392777837382
 20
1311.265503529216
 30
0.0
 11
1478.892777837382
 21
1311.265503529216
 31
0.0
  0
LINE
  5
64E
330
1F
100
AcDbEntity
  8
HEWI
100
AcDbLine
 10
2428.892777837382
 20
1058.062444456509
 30
0.0
 11
1554.892777837381
 21
1058.062444456509
 31
0.0
  0
LINE
  5
650
330
1F
100
AcDbEntity
  8
HEWI
100
AcDbLine
 10
1554.892777837381
 20
1026.062444456509
 30
0.0
 11
2428.892777837382
 21
1026.062444456509
 31
0.0
  0
LWPOLYLINE
  5
651
330
1F
100
AcDbEntity
  8
HEWI
100
AcDbPolyline
 90
        4
 70
     0
 43
0.0
 10
1572.392777837382
 20
1103.06244445651
 10
1572.392777837382
 20
1114.062444456509
 10
1502.392777837382
 20
1114.062444456509
 10
1502.392777837382
 20
1103.06244445651
  0
LWPOLYLINE
  5
652
330
1F
100
AcDbEntity
  8
HEWI
100
AcDbPolyline
 90
        2
 70
     0
 43
0.0
 10
1503.392777837382
 20
1102.062444456509
 10
1571.392777837382
 20
1102.062444456509
  0
ARC
  5
653
330
1F
100
AcDbEntity
  8
HEWI
100
AcDbCircle
 10
1571.392777837382
 20
1103.06244445651
 30
0.0
 40
1.0
100
AcDbArc
 50
270.0
 51
0.000000000000007
  0
ARC
  5
654
330
1F
100
AcDbEntity
  8
HEWI
100
AcDbCircle
 10
1503.392777837382
 20
1103.06244445651
 30
0.0
 40
1.0
100
AcDbArc
 50
180.0
 51
270.0
  0
LINE
  5
655
330
1F
100
AcDbEntity
  8
HEWI
100
AcDbLine
 10
1540.392777837381
 20
1102.062444456509
 30
0.0
 11
1537.392777837382
 21
1102.062444456509
 31
0.0
  0
LINE
  5
658
330
1F
100
AcDbEntity
  8
HEWI
100
AcDbLine
 10
1537.392777837382
 20
1102.062444456509
 30
0.0
 11
1534.392777837382
 21
1102.062444456509
 31
0.0
  0
LWPOLYLINE
  5
65B
330
1F
100
AcDbEntity
  8
HEWI
100
AcDbPolyline
 90
        4
 70
     0
 43
0.0
 10
2466.892777837382
 20
1103.06244445651
 10
2466.892777837382
 20
1114.062444456509
 10
2396.892777837382
 20
1114.062444456509
 10
2396.892777837382
 20
1103.06244445651
  0
LWPOLYLINE
  5
65C
330
1F
100
AcDbEntity
  8
HEWI
100
AcDbPolyline
 90
        2
 70
     0
 43
0.0
 10
2397.892777837382
 20
1102.062444456509
 10
2465.892777837382
 20
1102.062444456509
  0
ARC
  5
65D
330
1F
100
AcDbEntity
  8
HEWI
100
AcDbCircle
 10
2465.892777837382
 20
1103.06244445651
 30
0.0
 40
1.0
100
AcDbArc
 50
270.0
 51
0.000000000000007
  0
ARC
  5
65E
330
1F
100
AcDbEntity
  8
HEWI
100
AcDbCircle
 10
2397.892777837382
 20
1103.06244445651
 30
0.0
 40
1.0
100
AcDbArc
 50
180.0
 51
270.0
  0
LINE
  5
65F
330
1F
100
AcDbEntity
  8
HEWI
100
AcDbLine
 10
2434.892777837382
 20
1102.062444456509
 30
0.0
 11
2431.892777837382
 21
1102.062444456509
 31
0.0
  0
LINE
  5
660
330
1F
100
AcDbEntity
  8
HEWI
100
AcDbLine
 10
2431.892777837382
 20
1026.062444456509
 30
0.0
 11
2434.892777837382
 21
1026.062444456509
 31
0.0
  0
LINE
  5
661
330
1F
100
AcDbEntity
  8
HEWI
100
AcDbLine
 10
2434.892777837382
 20
1026.062444456509
 30
0.0
 11
2434.892777837382
 21
1102.062444456509
 31
0.0
  0
LINE
  5
662
330
1F
100
AcDbEntity
  8
HEWI
100
AcDbLine
 10
2431.892777837382
 20
1102.062444456509
 30
0.0
 11
2428.892777837382
 21
1102.062444456509
 31
0.0
  0
LINE
  5
663
330
1F
100
AcDbEntity
  8
HEWI
100
AcDbLine
 10
2428.892777837382
 20
1102.062444456509
 30
0.0
 11
2428.892777837382
 21
1026.062444456509
 31
0.0
  0
LINE
  5
664
330
1F
100
AcDbEntity
  8
HEWI
100
AcDbLine
 10
2428.892777837382
 20
1026.062444456509
 30
0.0
 11
2431.892777837382
 21
1026.062444456509
 31
0.0
  0
LINE
  5
680
330
1F
100
AcDbEntity
  8
HEWI
100
AcDbLine
 10
1538.892777837381
 20
1042.062444456509
 30
0.0
 11
1554.892777837381
 21
1058.062444456509
 31
0.0
  0
LINE
  5
681
330
1F
100
AcDbEntity
  8
HEWI
100
AcDbLine
 10
1538.892777837381
 20
1042.062444456509
 30
0.0
 11
1554.892777837381
 21
1026.062444456509
 31
0.0
  0
LINE
  5
682
330
1F
100
AcDbEntity
  8
HEWI
100
AcDbLine
 10
1554.892777837381
 20
1058.062444456509
 30
0.0
 11
1554.892777837381
 21
1102.062444456509
 31
0.0
  0
ARC
  5
68B
330
1F
100
AcDbEntity
  8
HEWI
100
AcDbCircle
 10
2431.892777837382
 20
1327.335971054198
 30
0.0
 40
35.0
100
AcDbArc
 50
207.2028944122034
 51
152.7971055877966
  0
LWPOLYLINE
  5
68C
330
1F
100
AcDbEntity
  8
HEWI
100
AcDbPolyline
 90
        4
 70
     1
 43
0.0
 10
2434.892777837382
 20
1311.335971054198
 10
2428.892777837382
 20
1311.335971054198
 10
2428.892777837382
 20
1343.335971054198
 10
2434.892777837382
 20
1343.335971054198
  0
ARC
  5
68D
330
1F
100
AcDbEntity
  8
HEWI
100
AcDbCircle
 10
2431.892777837382
 20
1327.335971054198
 30
0.0
 40
17.5
100
AcDbArc
 50
246.1044918138434
 51
113.8955081861566
  0
LINE
  5
68E
330
1F
100
AcDbEntity
  8
HEWI
100
AcDbLine
 10
1539.618866147115
 20
1343.249026805019
 30
0.0
 11
2428.892777837382
 21
1343.335971054198
 31
0.0
  0
LINE
  5
68F
330
1F
100
AcDbEntity
  8
HEWI
100
AcDbLine
 10
1544.274827471472
 20
1311.245993029535
 30
0.0
 11
2434.892777837382
 21
1311.335971207142
 31
0.0
  0
ARC
  5
6A0
330
1F
100
AcDbEntity
  8
HEWI
100
AcDbCircle
 10
1538.892933092196
 20
1327.265503452745
 30
0.0
 40
15.99999992352832
100
AcDbArc
 50
270.0
 51
90.0
  0
ARC
  5
6A2
330
1F
100
AcDbEntity
  8
HEWI
100
AcDbCircle
 10
1537.392777837382
 20
1327.335971054191
 30
0.0
 40
35.0
100
AcDbArc
 50
207.3326729917012
 51
332.6729289542381
  0
ARC
  5
6A3
330
1F
100
AcDbEntity
  8
HEWI
100
AcDbCircle
 10
1537.392777837382
 20
1327.335971054191
 30
0.0
 40
17.5
100
AcDbArc
 50
246.6806044268803
 51
293.3249980127893
  0
ARC
  5
6A4
330
1F
100
AcDbEntity
  8
HEWI
100
AcDbCircle
 10
1537.392777837382
 20
1327.335971054191
 30
0.0
 40
35.0
100
AcDbArc
 50
27.08412586513855
 51
60.00000000000041
  0
ARC
  5
6A5
330
1F
100
AcDbEntity
  8
HEWI
100
AcDbCircle
 10
1537.392777837382
 20
1327.335971054191
 30
0.0
 40
17.5
100
AcDbArc
 50
65.56939142421882
 51
114.4588334297001
  0
LWPOLYLINE
  5
6AF
330
1F
100
AcDbEntity
  8
HEWI
100
AcDbPolyline
 90
        4
 70
     0
 43
0.0
 10
1305.929921805087
 20
1362.335971054198
 10
1316.929921805087
 20
1362.335971054198
 10
1316.929921805087
 20
1292.335971054199
 10
1305.929921805087
 20
1292.335971054199
  0
LWPOLYLINE
  5
6B0
330
1F
100
AcDbEntity
  8
HEWI
100
AcDbPolyline
 90
        2
 70
     0
 43
0.0
 10
1304.929921805087
 20
1293.335971054199
 10
1304.929921805087
 20
1361.335971054198
  0
ARC
  5
6B1
330
1F
100
AcDbEntity
  8
HEWI
100
AcDbCircle
 10
1305.929921805087
 20
1361.335971054198
 30
0.0
 40
1.0
100
AcDbArc
 50
90.0
 51
180.0
  0
ARC
  5
6B2
330
1F
100
AcDbEntity
  8
HEWI
100
AcDbCircle
 10
1305.929921805087
 20
1293.335971054199
 30
0.0
 40
1.0
100
AcDbArc
 50
180.0
 51
270.0
  0
LINE
  5
6B3
330
1F
100
AcDbEntity
  8
HEWI
100
AcDbLine
 10
1304.929921805087
 20
1330.335971054198
 30
0.0
 11
1304.929921805087
 21
1327.335971054199
 31
0.0
  0
LINE
  5
6B4
330
1F
100
AcDbEntity
  8
HEWI
100
AcDbLine
 10
1304.929921805087
 20
1327.335971054199
 30
0.0
 11
1304.929921805087
 21
1324.335971054199
 31
0.0
  0
LINE
  5
6B5
330
1F
100
AcDbEntity
  8
HEWI
100
AcDbLine
 10
1246.429921805087
 20
1343.265503376273
 30
0.0
 11
1304.929921805087
 21
1343.265503376273
 31
0.0
  0
LINE
  5
6B6
330
1F
100
AcDbEntity
  8
HEWI
100
AcDbLine
 10
1246.429921805087
 20
1311.265503529216
 30
0.0
 11
1304.929921805087
 21
1311.265503529216
 31
0.0
  0
ARC
  5
6B7
330
1F
100
AcDbEntity
  8
HEWI
100
AcDbCircle
 10
351.9299218050873
 20
1327.335971054198
 30
0.0
 40
35.0
100
AcDbArc
 50
27.20289441220336
 51
332.7971055877966
  0
LWPOLYLINE
  5
6B8
330
1F
100
AcDbEntity
  8
HEWI
100
AcDbPolyline
 90
        4
 70
     1
 43
0.0
 10
348.9299218050874
 20
1311.335971054198
 10
354.9299218050874
 20
1311.335971054198
 10
354.9299218050874
 20
1343.335971054198
 10
348.9299218050874
 20
1343.335971054198
  0
ARC
  5
6B9
330
1F
100
AcDbEntity
  8
HEWI
100
AcDbCircle
 10
351.9299218050873
 20
1327.335971054198
 30
0.0
 40
17.5
100
AcDbArc
 50
66.10449181384345
 51
293.8955081861566
  0
LINE
  5
6BA
330
1F
100
AcDbEntity
  8
HEWI
100
AcDbLine
 10
1275.679921805087
 20
1343.265503376273
 30
0.0
 11
778.5834181145364
 21
1343.314104467247
 31
0.0
  0
ARC
  5
6BC
330
1F
100
AcDbEntity
  8
HEWI
100
AcDbCircle
 10
1244.929766550273
 20
1327.265503452745
 30
0.0
 40
15.99999992352832
100
AcDbArc
 50
90.0
 51
270.0
  0
DIMENSION
  5
846
330
1F
100
AcDbEntity
  8
0
100
AcDbDimension
280
     0
  2
*D0
 10
1336.840859682068
 20
1114.062444456509
 30
0.0
 11
1336.840859682068
 21
631.5624444565094
 31
0.0
 70
    33
  1
W1
 71
     5
 42
964.9999999999993
 73
     0
 74
     0
 75
     0
  3
STANDARD
100
AcDbAlignedDimension
 13
1443.031341456953
 23
149.0624444565096
 33
0.0
 14
1443.031341456953
 24
1114.062444456509
 34
0.0
1001
ACAD
1000
DSTYLE
1002
{
1070
    41
1040
20.0
1070
    73
1070
     0
1070
   140
1040
20.0
1070
   147
1040
10.0
1002
}
  0
DIMENSION
  5
854
330
1F
100
AcDbEntity
  8
0
100
AcDbDimension
280
     0
  2
*D1
 10
2431.892777837382
 20
-12.97466161354259
 30
0.0
 11
1949.392777837382
 21
-12.97466161354259
 31
0.0
 70
    33
  1
W2
 71
     5
 42
965.0
 73
     0
 74
     0
 75
     0
  3
STANDARD
100
AcDbAlignedDimension
 13
1466.892777837382
 23
81.27060924566507
 33
0.0
 14
2431.892777837382
 24
81.27060924566507
 34
0.0
1001
ACAD
1000
DSTYLE
1002
{
1070
    73
1070
     0
1070
   147
1040
10.0
1070
   140
1040
20.0
1070
    41
1040
20.0
1002
}
  0
LINE
  5
8EC
330
1F
100
AcDbEntity
  8
HEWI
100
AcDbLine
 10
1522.892777837381
 20
2580.335971054199
 30
0.0
 11
1554.892777837381
 21
2580.335971054199
 31
0.0
  0
LWPOLYLINE
  5
8ED
330
1F
100
AcDbEntity
  8
HEWI
100
AcDbPolyline
 90
        4
 70
     0
 43
0.0
 10
1477.892777837381
 20
2612.335971054199
 10
1466.892777837382
 20
2612.335971054199
 10
1466.892777837382
 20
2542.335971054199
 10
1477.892777837381
 20
2542.335971054199
  0
LWPOLYLINE
  5
8EE
330
1F
100
AcDbEntity
  8
HEWI
100
AcDbPolyline
 90
        2
 70
     0
 43
0.0
 10
1478.892777837382
 20
2543.335971054198
 10
1478.892777837382
 20
2611.335971054199
  0
ARC
  5
8EF
330
1F
100
AcDbEntity
  8
HEWI
100
AcDbCircle
 10
1477.892777837381
 20
2611.335971054199
 30
0.0
 40
1.0
100
AcDbArc
 50
0.0
 51
90.0
  0
ARC
  5
8F0
330
1F
100
AcDbEntity
  8
HEWI
100
AcDbCircle
 10
1477.892777837381
 20
2543.335971054198
 30
0.0
 40
1.0
100
AcDbArc
 50
270.0
 51
0.0
  0
LINE
  5
8F1
330
1F
100
AcDbEntity
  8
HEWI
100
AcDbLine
 10
1478.892777837382
 20
2580.335971054199
 30
0.0
 11
1478.892777837382
 21
2577.335971054198
 31
0.0
  0
LINE
  5
8F2
330
1F
100
AcDbEntity
  8
HEWI
100
AcDbLine
 10
1554.892777837381
 20
2577.335971054198
 30
0.0
 11
1554.892777837381
 21
2580.335971054199
 31
0.0
  0
LINE
  5
8F3
330
1F
100
AcDbEntity
  8
HEWI
100
AcDbLine
 10
1554.892777837381
 20
2580.335971054199
 30
0.0
 11
1478.892777837382
 21
2580.335971054199
 31
0.0
  0
LINE
  5
8F4
330
1F
100
AcDbEntity
  8
HEWI
100
AcDbLine
 10
1478.892777837382
 20
2577.335971054198
 30
0.0
 11
1478.892777837382
 21
2574.335971054199
 31
0.0
  0
LINE
  5
8F5
330
1F
100
AcDbEntity
  8
HEWI
100
AcDbLine
 10
1478.892777837382
 20
2574.335971054199
 30
0.0
 11
1554.892777837381
 21
2574.335971054199
 31
0.0
  0
LINE
  5
8F6
330
1F
100
AcDbEntity
  8
HEWI
100
AcDbLine
 10
1554.892777837381
 20
2574.335971054199
 30
0.0
 11
1554.892777837381
 21
2577.335971054198
 31
0.0
  0
LINE
  5
91D
330
1F
100
AcDbEntity
  8
HEWI
100
AcDbLine
 10
1522.892777837381
 20
2574.335971054199
 30
0.0
 11
1522.892777837381
 21
2203.829893362801
 31
0.0
  0
LINE
  5
91F
330
1F
100
AcDbEntity
  8
HEWI
100
AcDbLine
 10
1554.892777837381
 20
1343.250520134314
 30
0.0
 11
1554.892777837381
 21
2133.829893362801
 31
0.0
  0
LWPOLYLINE
  5
92A
330
1F
100
AcDbEntity
  8
HEWI
100
AcDbPolyline
 90
        4
 70
     0
 43
0.0
 10
1477.892777837381
 20
2612.335971054199
 10
1466.892777837382
 20
2612.335971054199
 10
1466.892777837382
 20
2542.335971054199
 10
1477.892777837381
 20
2542.335971054199
  0
LWPOLYLINE
  5
92B
330
1F
100
AcDbEntity
  8
HEWI
100
AcDbPolyline
 90
        2
 70
     0
 43
0.0
 10
1478.892777837382
 20
2543.3359710542
 10
1478.892777837382
 20
2611.335971054199
  0
ARC
  5
92C
330
1F
100
AcDbEntity
  8
HEWI
100
AcDbCircle
 10
1477.892777837381
 20
2611.335971054199
 30
0.0
 40
1.0
100
AcDbArc
 50
0.0
 51
90.0
  0
ARC
  5
92D
330
1F
100
AcDbEntity
  8
HEWI
100
AcDbCircle
 10
1477.892777837381
 20
2543.3359710542
 30
0.0
 40
1.0
100
AcDbArc
 50
270.0
 51
0.0
  0
LINE
  5
92E
330
1F
100
AcDbEntity
  8
HEWI
100
AcDbLine
 10
1478.892777837382
 20
2580.335971054199
 30
0.0
 11
1478.892777837382
 21
2577.335971054198
 31
0.0
  0
LINE
  5
92F
330
1F
100
AcDbEntity
  8
HEWI
100
AcDbLine
 10
1554.892777837381
 20
2577.335971054198
 30
0.0
 11
1554.892777837381
 21
2580.335971054199
 31
0.0
  0
LINE
  5
930
330
1F
100
AcDbEntity
  8
HEWI
100
AcDbLine
 10
1554.892777837381
 20
2580.335971054199
 30
0.0
 11
1478.892777837382
 21
2580.335971054199
 31
0.0
  0
LINE
  5
931
330
1F
100
AcDbEntity
  8
HEWI
100
AcDbLine
 10
1478.892777837382
 20
2577.335971054198
 30
0.0
 11
1478.892777837382
 21
2574.335971054199
 31
0.0
  0
LINE
  5
932
330
1F
100
AcDbEntity
  8
HEWI
100
AcDbLine
 10
1478.892777837382
 20
2574.335971054199
 30
0.0
 11
1554.892777837381
 21
2574.335971054199
 31
0.0
  0
LINE
  5
933
330
1F
100
AcDbEntity
  8
HEWI
100
AcDbLine
 10
1554.892777837381
 20
2574.335971054199
 30
0.0
 11
1554.892777837381
 21
2577.335971054198
 31
0.0
  0
LWPOLYLINE
  5
934
330
1F
100
AcDbEntity
  8
HEWI
100
AcDbPolyline
 90
        4
 70
     0
 43
0.0
 10
1477.892777837381
 20
646.1329121344345
 10
1466.892777837382
 20
646.1329121344345
 10
1466.892777837382
 20
576.1329121344349
 10
1477.892777837381
 20
576.1329121344349
  0
LWPOLYLINE
  5
935
330
1F
100
AcDbEntity
  8
HEWI
100
AcDbPolyline
 90
        2
 70
     0
 43
0.0
 10
1478.892777837382
 20
577.1329121344349
 10
1478.892777837382
 20
645.1329121344343
  0
ARC
  5
936
330
1F
100
AcDbEntity
  8
HEWI
100
AcDbCircle
 10
1477.892777837381
 20
645.1329121344343
 30
0.0
 40
1.0
100
AcDbArc
 50
0.0
 51
90.0
  0
ARC
  5
937
330
1F
100
AcDbEntity
  8
HEWI
100
AcDbCircle
 10
1477.892777837381
 20
577.1329121344349
 30
0.0
 40
1.0
100
AcDbArc
 50
270.0
 51
0.0
  0
LINE
  5
938
330
1F
100
AcDbEntity
  8
HEWI
100
AcDbLine
 10
1478.892777837382
 20
614.1329121344345
 30
0.0
 11
1478.892777837382
 21
611.1329121344349
 31
0.0
  0
LINE
  5
939
330
1F
100
AcDbEntity
  8
HEWI
100
AcDbLine
 10
1478.892777837382
 20
611.1329121344349
 30
0.0
 11
1478.892777837382
 21
608.1329121344349
 31
0.0
  0
ARC
  5
93A
330
1F
100
AcDbEntity
  8
HEWI
100
AcDbCircle
 10
1538.892777837381
 20
611.1329121344349
 30
0.0
 40
16.0
100
AcDbArc
 50
264.6206210088879
 51
95.37937899111208
  0
LINE
  5
93B
330
1F
100
AcDbEntity
  8
HEWI
100
AcDbLine
 10
1521.61562529421
 20
627.0624444565088
 30
0.0
 11
1478.892777837382
 21
627.0624444565088
 31
0.0
  0
LINE
  5
93C
330
1F
100
AcDbEntity
  8
HEWI
100
AcDbLine
 10
1521.61562529421
 20
595.2033798123609
 30
0.0
 11
1478.892777837382
 21
595.2033798123608
 31
0.0
  0
LWPOLYLINE
  5
944
330
1F
100
AcDbEntity
  8
0
100
AcDbPolyline
 90
        4
 70
     0
 43
0.0
 10
1519.892777837382
 20
597.3035954484954
 10
1519.892777837382
 20
586.1329121344349
 10
1557.892777837382
 20
586.1329121344349
 10
1557.892777837382
 20
597.3035954484954
  0
CIRCLE
  5
953
330
1F
100
AcDbEntity
  8
0
100
AcDbCircle
 10
1538.892777837381
 20
611.1329121344349
 30
0.0
 40
15.92953232207401
  0
LINE
  5
954
330
1F
100
AcDbEntity
  8
HEWI
100
AcDbLine
 10
1522.892777837381
 20
586.1329121344351
 30
0.0
 11
1522.892777837381
 21
152.0624444565092
 31
0.0
  0
ARC
  5
958
330
1F
100
AcDbEntity
  8
0
100
AcDbCircle
 10
1538.892777837381
 20
1327.335971054198
 30
0.0
 40
19.0
100
AcDbArc
 50
237.759263025035
 51
123.028827179813
  0
ARC
  5
959
330
1F
100
AcDbEntity
  8
HEWI
100
AcDbCircle
 10
1537.392777837382
 20
1327.335971054191
 30
0.0
 40
35.0
100
AcDbArc
 50
114.4743425628467
 51
152.9267335317076
  0
LWPOLYLINE
  5
95A
330
1F
100
AcDbEntity
  8
0
100
AcDbPolyline
 90
        4
 70
     1
 43
0.0
 10
728.5834181145362
 20
1308.317821006831
 10
778.5834181145362
 20
1308.317821006831
 10
778.5834181145362
 20
1346.317821006831
 10
728.5834181145362
 20
1346.317821006831
  0
LINE
  5
95B
330
1F
100
AcDbEntity
  8
0
100
AcDbLine
 10
354.9299218050874
 20
1311.335971054198
 30
0.0
 11
728.5834181145364
 21
1311.306436071488
 31
0.0
  0
ARC
  5
95E
330
1F
100
AcDbEntity
  8
HEWI
100
AcDbCircle
 10
753.5834181145362
 20
2577.335971054198
 30
0.0
 40
35.0
100
AcDbArc
 50
297.2028944122005
 51
242.7971055877995
  0
LWPOLYLINE
  5
95F
330
1F
100
AcDbEntity
  8
HEWI
100
AcDbPolyline
 90
        4
 70
     1
 43
0.0
 10
769.5834181145364
 20
2580.335971054199
 10
769.5834181145364
 20
2574.335971054199
 10
737.5834181145362
 20
2574.335971054199
 10
737.5834181145362
 20
2580.335971054199
  0
ARC
  5
960
330
1F
100
AcDbEntity
  8
HEWI
100
AcDbCircle
 10
753.5834181145362
 20
2577.335971054198
 30
0.0
 40
17.5
100
AcDbArc
 50
336.1044918138402
 51
203.8955081861597
  0
LINE
  5
961
330
1F
100
AcDbEntity
  8
0
100
AcDbLine
 10
769.5834181145364
 20
2574.335971054199
 30
0.0
 11
769.5834181145364
 21
2509.674897786459
 31
0.0
  0
LINE
  5
971
330
1F
100
AcDbEntity
  8
0
100
AcDbLine
 10
737.5834181145362
 20
2574.335971054199
 30
0.0
 11
737.5834181145362
 21
2203.829893362801
 31
0.0
  0
LINE
  5
972
330
1F
100
AcDbEntity
  8
0
100
AcDbLine
 10
769.5834181145364
 20
2574.335971054199
 30
0.0
 11
769.5834181145364
 21
2203.829893362801
 31
0.0
  0
LINE
  5
973
330
1F
100
AcDbEntity
  8
0
100
AcDbLine
 10
737.5834181145362
 20
1346.317821006831
 30
0.0
 11
753.6595023293994
 21
1340.017797349605
 31
0.0
  0
LINE
  5
974
330
1F
100
AcDbEntity
  8
0
100
AcDbLine
 10
753.6595023293994
 20
1340.017797349605
 30
0.0
 11
769.5834181145364
 21
1346.317821006831
 31
0.0
  0
LINE
  5
975
330
1F
100
AcDbEntity
  8
HEWI
100
AcDbLine
 10
728.5834181145362
 20
1343.318992963808
 30
0.0
 11
358.975243780716
 21
1343.35512952959
 31
0.0
  0
LINE
  5
976
330
1F
100
AcDbEntity
  8
0
100
AcDbLine
 10
778.5834181145362
 20
1311.302483882762
 30
0.0
 11
1246.429921805087
 21
1311.265503529216
 31
0.0
  0
LINE
  5
9CF
330
1F
100
AcDbEntity
  8
HEWI
370
    18
100
AcDbLine
 10
1572.392777837382
 20
571.0471261344347
 30
0.0
 11
1572.392777837382
 21
577.6329121344349
 31
0.0
  0
LINE
  5
9D0
330
1F
100
AcDbEntity
  8
HEWI
370
    18
100
AcDbLine
 10
1531.392777837382
 20
577.6329121344349
 30
0.0
 11
1531.392777837382
 21
539.1329121344349
 31
0.0
  0
LINE
  5
9D1
330
1F
100
AcDbEntity
  8
HEWI
370
    18
100
AcDbLine
 10
1531.392777837382
 20
588.5053681344348
 30
0.0
 11
1531.392777837382
 21
578.6329121344349
 31
0.0
  0
LINE
  5
9D2
330
1F
100
AcDbEntity
  8
HEWI
370
    18
100
AcDbLine
 10
1572.392777837382
 20
578.6329121344349
 30
0.0
 11
1572.392777837382
 21
599.4329121344349
 31
0.0
  0
LINE
  5
9D3
330
1F
100
AcDbEntity
  8
HEWI
370
    18
100
AcDbLine
 10
1572.392777837382
 20
601.1329121344349
 30
0.0
 11
1572.392777837382
 21
601.9053941344346
 31
0.0
  0
LINE
  5
9D4
330
1F
100
AcDbEntity
  8
HEWI
370
    18
100
AcDbLine
 10
1572.392777837382
 20
620.3612661344346
 30
0.0
 11
1572.392777837382
 21
621.1329121344349
 31
0.0
  0
LINE
  5
9D5
330
1F
100
AcDbEntity
  8
HEWI
370
    18
100
AcDbLine
 10
1568.277835837381
 20
567.1329121344349
 30
0.0
 11
1561.174812837382
 21
567.1329121344349
 31
0.0
  0
LINE
  5
9D6
330
1F
100
AcDbEntity
  8
HEWI
370
    18
100
AcDbLine
 10
1560.722029837382
 20
550.1329121344349
 30
0.0
 11
1567.478563837382
 21
550.1329121344349
 31
0.0
  0
LINE
  5
9D7
330
1F
100
AcDbEntity
  8
HEWI
370
    18
100
AcDbLine
 10
1560.722029837382
 20
566.1329121344349
 30
0.0
 11
1567.478563837382
 21
566.1329121344349
 31
0.0
  0
LINE
  5
9D8
330
1F
100
AcDbEntity
  8
HEWI
370
    18
100
AcDbLine
 10
1561.174812837382
 20
567.1329121344349
 30
0.0
 11
1568.277835837381
 21
567.1329121344349
 31
0.0
  0
LINE
  5
9D9
330
1F
100
AcDbEntity
  8
HEWI
370
    18
100
AcDbLine
 10
1571.892777837382
 20
578.1329121344349
 30
0.0
 11
1531.892777837382
 21
578.1329121344349
 31
0.0
  0
LINE
  5
9DA
330
1F
100
AcDbEntity
  8
HEWI
370
    18
100
AcDbLine
 10
1567.478563837382
 20
550.1329121344349
 30
0.0
 11
1560.722029837382
 21
550.1329121344349
 31
0.0
  0
LINE
  5
9DB
330
1F
100
AcDbEntity
  8
HEWI
370
    18
100
AcDbLine
 10
1568.277835837381
 20
549.1329121344349
 30
0.0
 11
1561.174812837382
 21
549.1329121344349
 31
0.0
  0
LINE
  5
9DC
330
1F
100
AcDbEntity
  8
HEWI
370
    18
100
AcDbLine
 10
1531.392777837382
 20
577.6329121344349
 30
0.0
 11
1572.392777837382
 21
577.6329121344349
 31
0.0
  0
LINE
  5
9DD
330
1F
100
AcDbEntity
  8
HEWI
370
    18
100
AcDbLine
 10
1567.478563837382
 20
566.1329121344349
 30
0.0
 11
1560.722029837382
 21
566.1329121344349
 31
0.0
  0
LINE
  5
9DE
330
1F
100
AcDbEntity
  8
HEWI
370
    18
100
AcDbLine
 10
1572.392777837382
 20
539.1329121344349
 30
0.0
 11
1531.392777837382
 21
539.1329121344349
 31
0.0
  0
LINE
  5
9DF
330
1F
100
AcDbEntity
  8
HEWI
370
    18
100
AcDbLine
 10
1561.174812837382
 20
549.1329121344349
 30
0.0
 11
1568.277835837381
 21
549.1329121344349
 31
0.0
  0
LINE
  5
9E0
330
1F
100
AcDbEntity
  8
HEWI
370
    18
100
AcDbLine
 10
1571.527037837381
 20
538.2234781344346
 30
0.0
 11
1532.258517837381
 21
538.2234781344346
 31
0.0
  0
LINE
  5
9E1
330
1F
100
AcDbEntity
  8
HEWI
370
    18
100
AcDbLine
 10
1531.392777837382
 20
539.1329121344349
 30
0.0
 11
1572.392777837382
 21
539.1329121344349
 31
0.0
  0
LINE
  5
9E2
330
1F
100
AcDbEntity
  8
HEWI
370
    18
100
AcDbLine
 10
1571.392777837382
 20
622.1329121344349
 30
0.0
 11
1561.645675837382
 21
622.1329121344349
 31
0.0
  0
LINE
  5
9E3
330
1F
100
AcDbEntity
  8
HEWI
370
    18
100
AcDbLine
 10
1572.392777837382
 20
601.1329121344349
 30
0.0
 11
1562.145824837382
 21
601.1329121344349
 31
0.0
  0
LINE
  5
9E4
330
1F
100
AcDbEntity
  8
HEWI
370
    18
100
AcDbLine
 10
1561.645675837382
 20
620.9520801344349
 30
0.0
 11
1557.694523837382
 21
620.9520801344349
 31
0.0
  0
LINE
  5
9E5
330
1F
100
AcDbEntity
  8
HEWI
370
    18
100
AcDbLine
 10
1562.145824837382
 20
621.1329121344349
 30
0.0
 11
1572.392777837382
 21
621.1329121344349
 31
0.0
  0
LINE
  5
9E6
330
1F
100
AcDbEntity
  8
HEWI
370
    18
100
AcDbLine
 10
1561.645675837382
 20
620.9520801344349
 30
0.0
 11
1561.645675837382
 21
622.1329121344349
 31
0.0
  0
LINE
  5
9E7
330
1F
100
AcDbEntity
  8
HEWI
370
    18
100
AcDbLine
 10
1557.392777837382
 20
622.1329121344349
 30
0.0
 11
1561.645675837382
 21
622.1329121344349
 31
0.0
  0
LINE
  5
9E8
330
1F
100
AcDbEntity
  8
HEWI
370
    18
100
AcDbLine
 10
1557.694523837382
 20
620.9520801344349
 30
0.0
 11
1561.645675837382
 21
620.9520801344349
 31
0.0
  0
LINE
  5
9E9
330
1F
100
AcDbEntity
  8
HEWI
370
    18
100
AcDbLine
 10
1558.692777837381
 20
601.3704111344347
 30
0.0
 11
1560.992777837381
 21
600.5332791344349
 31
0.0
  0
LINE
  5
9EA
330
1F
100
AcDbEntity
  8
HEWI
370
    18
100
AcDbLine
 10
1571.392777837382
 20
600.1329121344349
 30
0.0
 11
1562.092777837382
 21
600.1329121344349
 31
0.0
  0
LINE
  5
9EB
330
1F
100
AcDbEntity
  8
HEWI
370
    18
100
AcDbLine
 10
1561.645675837382
 20
622.1329121344349
 30
0.0
 11
1557.392777837382
 21
622.1329121344349
 31
0.0
  0
LINE
  5
9EC
330
1F
100
AcDbEntity
  8
HEWI
370
    18
100
AcDbLine
 10
1531.892777837382
 20
578.1329121344349
 30
0.0
 11
1571.892777837382
 21
578.1329121344349
 31
0.0
  0
LINE
  5
9ED
330
1F
100
AcDbEntity
  8
HEWI
370
    18
100
AcDbLine
 10
1572.392777837382
 20
578.6329121344349
 30
0.0
 11
1531.392777837382
 21
578.6329121344349
 31
0.0
  0
LINE
  5
9EE
330
1F
100
AcDbEntity
  8
HEWI
370
    18
100
AcDbLine
 10
1571.892777837382
 20
599.9329121344349
 30
0.0
 11
1560.375561837381
 21
599.9329121344349
 31
0.0
  0
LINE
  5
9EF
330
1F
100
AcDbEntity
  8
HEWI
370
    18
100
AcDbLine
 10
1559.658325837381
 20
599.4329121344349
 30
0.0
 11
1572.392777837382
 21
599.4329121344349
 31
0.0
  0
LINE
  5
9F0
330
1F
100
AcDbEntity
  8
HEWI
370
    18
100
AcDbLine
 10
1560.992777837381
 20
619.0329121344347
 30
0.0
 11
1560.992777837381
 21
599.7329121344347
 31
0.0
  0
ARC
  5
9F1
330
1F
100
AcDbEntity
  8
HEWI
370
    18
100
AcDbCircle
 10
1531.892777837382
 20
577.6329121344349
 30
0.0
 40
0.5
100
AcDbArc
 50
90.0
 51
180.0
  0
ARC
  5
9F2
330
1F
100
AcDbEntity
  8
HEWI
370
    18
100
AcDbCircle
 10
1571.892777837382
 20
577.6329121344349
 30
0.0
 40
0.5
100
AcDbArc
 50
0.0
 51
90.0
  0
ARC
  5
9F3
330
1F
100
AcDbEntity
  8
HEWI
370
    18
100
AcDbCircle
 10
1571.892777837382
 20
578.6329121344349
 30
0.0
 40
0.5
100
AcDbArc
 50
270.0
 51
0.0
  0
ARC
  5
9F4
330
1F
100
AcDbEntity
  8
HEWI
370
    18
100
AcDbCircle
 10
1571.892777837382
 20
599.4329121344349
 30
0.0
 40
0.5
100
AcDbArc
 50
0.0
 51
90.0
  0
ARC
  5
9F5
330
1F
100
AcDbEntity
  8
HEWI
370
    18
100
AcDbCircle
 10
1531.892777837382
 20
578.6329121344349
 30
0.0
 40
0.5
100
AcDbArc
 50
180.0
 51
270.0
  0
ARC
  5
9F6
330
1F
100
AcDbEntity
  8
HEWI
370
    18
100
AcDbCircle
 10
1532.389412837382
 20
539.2148741344349
 30
0.0
 40
1.0
100
AcDbArc
 50
184.7013459999935
 51
262.4786819999999
  0
ARC
  5
9F7
330
1F
100
AcDbEntity
  8
HEWI
370
    18
100
AcDbCircle
 10
1571.396142837382
 20
539.2148741344349
 30
0.0
 40
1.0
100
AcDbArc
 50
277.521318
 51
355.2986540000065
  0
ARC
  5
9F8
330
1F
100
AcDbEntity
  8
HEWI
370
    18
100
AcDbCircle
 10
1571.392955818082
 20
601.9041841847003
 30
-0.0012829101042062
 40
1.0
210
-0.0000050724367247
220
0.0000106736619938
230
0.9999999999301715
100
AcDbArc
 50
25.29657500310654
 51
25.43893300310986
  0
ARC
  5
9F9
330
1F
100
AcDbEntity
  8
HEWI
370
    18
100
AcDbCircle
 10
1551.892777837382
 20
686.9329121344349
 30
0.0
 40
150.0
100
AcDbArc
 50
262.4786819999999
 51
277.521318
  0
ARC
  5
9FA
330
1F
100
AcDbEntity
  8
HEWI
370
    18
100
AcDbCircle
 10
1571.39292082489
 20
620.3615670568344
 30
-0.0115280155405257
 40
1.0
210
-0.0000040809046632
220
-0.0000085872331912
230
0.9999999999548027
100
AcDbArc
 50
334.5815859979979
 51
334.7187589979957
  0
ARC
  5
9FB
330
1F
100
AcDbEntity
  8
HEWI
370
    18
100
AcDbCircle
 10
1571.392777837382
 20
601.1329121344349
 30
0.0
 40
1.0
100
AcDbArc
 50
270.0
 51
0.0
  0
ARC
  5
9FC
330
1F
100
AcDbEntity
  8
HEWI
370
    18
100
AcDbCircle
 10
1571.392777837382
 20
621.1329121344349
 30
0.0
 40
1.0
100
AcDbArc
 50
0.0
 51
90.0
  0
ARC
  5
9FD
330
1F
100
AcDbEntity
  8
HEWI
370
    18
100
AcDbCircle
 10
1571.392955818082
 20
601.9041841847003
 30
-0.0012829101042062
 40
1.0
210
-0.0000050724367247
220
0.0000106736619938
230
0.9999999999301715
100
AcDbArc
 50
0.0486470030990046
 51
25.29657500310654
  0
ARC
  5
9FE
330
1F
100
AcDbEntity
  8
HEWI
370
    18
100
AcDbCircle
 10
1571.39292082489
 20
620.3615670568344
 30
-0.0115280155405257
 40
1.0
210
-0.0000040809046632
220
-0.0000085872331912
230
0.9999999999548027
100
AcDbArc
 50
334.7187589979957
 51
0.000243997984452
  0
ARC
  5
9FF
330
1F
100
AcDbEntity
  8
HEWI
  6
Continuous
370
    18
100
AcDbCircle
 10
1551.892777837382
 20
558.1329121344349
 30
0.0
 40
11.0
100
AcDbArc
 50
48.59367600000536
 51
311.4063239999946
  0
CIRCLE
  5
A00
330
1F
100
AcDbEntity
  8
HEWI
  6
Continuous
370
    18
100
AcDbCircle
 10
1538.892777837381
 20
611.1329121344349
 30
0.0
 40
19.35
  0
CIRCLE
  5
A01
330
1F
100
AcDbEntity
  8
HEWI
  6
Continuous
370
    18
100
AcDbCircle
 10
1538.892777837381
 20
611.1329121344349
 30
0.0
 40
16.6
  0
CIRCLE
  5
A02
330
1F
100
AcDbEntity
  8
HEWI
  6
Continuous
370
    18
100
AcDbCircle
 10
1538.892777837381
 20
611.1329121344349
 30
0.0
 40
23.5
  0
ELLIPSE
  5
A03
330
1F
100
AcDbEntity
  8
HEWI
370
    18
100
AcDbEllipse
 10
1561.645675837382
 20
621.1329121344349
 30
0.0
 11
0.0000000000000001
 21
1.0
 31
0.0
210
0.0
220
0.0
230
1.0
 40
0.500149
 41
4.71238898038469
 42
6.283185307179592
  0
SPLINE
  5
A04
330
1F
100
AcDbEntity
  8
HEWI
370
    18
100
AcDbSpline
210
0.0
220
0.0
230
1.0
 70
     8
 71
     3
 72
    31
 73
    27
 74
     0
 42
0.000000001
 43
0.0000000001
 40
0.0
 40
0.0
 40
0.0
 40
0.0
 40
0.0517354188461022
 40
0.1938764879655099
 40
0.3363483763447113
 40
0.4541095556442031
 40
0.4721350381865176
 40
0.4820249065194799
 40
0.4890416987557856
 40
0.4939916978688077
 40
0.4973121963063477
 40
0.5013908919778805
 40
0.5069760159400522
 40
0.51598202378747
 40
0.541565306563212
 40
0.5814621053012448
 40
0.6129529302611601
 40
0.6580272774730479
 40
0.6998404574770142
 40
0.7390341129793873
 40
0.7807471514324159
 40
0.8237267530465825
 40
0.8675792090132821
 40
0.9120305948064871
 40
0.9569061417054054
 40
1.0
 40
1.0
 40
1.0
 40
1.0
 10
1572.292129795967
 20
619.9240210148688
 30
0.0
 10
1572.292463468454
 20
619.9247272733453
 30
0.0
 10
1572.293651791447
 20
619.9272425411175
 30
0.0
 10
1572.295281207017
 20
619.9306915874749
 30
0.0
 10
1572.296589493485
 20
619.9334616717581
 30
0.0
 10
1572.296891596517
 20
619.9341009509635
 30
0.0
 10
1572.297303560874
 20
619.9349744432022
 30
0.0
 10
1572.29754430968
 20
619.9354853666264
 30
0.0
 10
1572.297877703292
 20
619.9361942503634
 30
0.0
 10
1572.298461651683
 20
619.9374381835378
 30
0.0
 10
1572.299520713691
 20
619.9397064752639
 30
0.0
 10
1572.301012517499
 20
619.9429250650532
 30
0.0
 10
1572.303230170657
 20
619.9477625597507
 30
0.0
 10
1572.307992960302
 20
619.9583262572616
 30
0.0
 10
1572.316539485875
 20
619.9780666739171
 30
0.0
 10
1572.326934776539
 20
620.0040767011139
 30
0.0
 10
1572.338446447113
 20
620.0356826191124
 30
0.0
 10
1572.349077547842
 20
620.0681844905521
 30
0.0
 10
1572.359089033762
 20
620.1032007985992
 30
0.0
 10
1572.367631609248
 20
620.1376036404353
 30
0.0
 10
1572.375033271427
 20
620.1726153970808
 30
0.0
 10
1572.38137557803
 20
620.2092014029854
 30
0.0
 10
1572.386443217786
 20
620.2467846587362
 30
0.0
 10
1572.390122128714
 20
620.285078388736
 30
0.0
 10
1572.392304360022
 20
620.3232718735755
 30
0.0
 10
1572.39278604859
 20
620.3486695442814
 30
0.0
 10
1572.392789924226
 20
620.3611214212762
 30
0.0
  0
SPLINE
  5
A05
330
1F
100
AcDbEntity
  8
HEWI
370
    18
100
AcDbSpline
210
0.0
220
0.0
230
1.0
 70
     8
 71
     3
 72
    10
 73
     6
 74
     0
 42
0.000000001
 43
0.0000000001
 40
0.0
 40
0.0
 40
0.0
 40
0.0
 40
0.3130106283270859
 40
0.6522969503281058
 40
1.0
 40
1.0
 40
1.0
 40
1.0
 10
1572.296835518432
 20
602.3318380409314
 30
0.0
 10
1572.296712627964
 20
602.3320977786364
 30
0.0
 10
1572.296462738796
 20
602.3326260485032
 30
0.0
 10
1572.296357016953
 20
602.3328496649927
 30
0.0
 10
1572.29594049767
 20
602.3337308814757
 30
0.0
 10
1572.295687713207
 20
602.3342657313687
 30
0.0
  0
SPLINE
  5
A06
330
1F
100
AcDbEntity
  8
HEWI
  6
Continuous
370
    18
100
AcDbSpline
210
0.0
220
0.0
230
1.0
 70
     8
 71
     3
 72
    10
 73
     6
 74
     0
 42
0.000000001
 43
0.0000000001
 40
0.0
 40
0.0
 40
0.0
 40
0.0
 40
0.5
 40
0.5
 40
1.0
 40
1.0
 40
1.0
 40
1.0
 10
1559.168119009297
 20
566.3833309621208
 30
0.0
 10
1559.259613014998
 20
566.3026501966275
 30
0.0
 10
1559.362436934605
 20
566.2407547218331
 30
0.0
 10
1559.590641615314
 20
566.1545190069724
 30
0.0
 10
1559.710945131977
 20
566.1329121344347
 30
0.0
 10
1559.830953284846
 20
566.1329121344349
 30
0.0
  0
SPLINE
  5
A07
330
1F
100
AcDbEntity
  8
HEWI
  6
Continuous
370
    18
100
AcDbSpline
210
0.0
220
0.0
230
1.0
 70
     8
 71
     3
 72
    86
 73
    82
 74
     0
 42
0.000000001
 43
0.0000000001
 40
0.0
 40
0.0
 40
0.0
 40
0.0
 40
0.0625000000000003
 40
0.0625000000000003
 40
0.0781250000000003
 40
0.0781250000000003
 40
0.0937500000000004
 40
0.0937500000000004
 40
0.1250000000000005
 40
0.1250000000000005
 40
0.1406250000000005
 40
0.1406250000000005
 40
0.1562500000000005
 40
0.1562500000000005
 40
0.1875000000000005
 40
0.1875000000000005
 40
0.2031250000000005
 40
0.2031250000000005
 40
0.2187500000000004
 40
0.2187500000000004
 40
0.2500000000000005
 40
0.2500000000000005
 40
0.2812500000000006
 40
0.2812500000000006
 40
0.3125000000000006
 40
0.3125000000000006
 40
0.3437500000000007
 40
0.3437500000000007
 40
0.3750000000000007
 40
0.3750000000000007
 40
0.3906250000000008
 40
0.3906250000000008
 40
0.4062500000000009
 40
0.4062500000000009
 40
0.4375000000000008
 40
0.4375000000000008
 40
0.4531250000000007
 40
0.4531250000000007
 40
0.4687500000000007
 40
0.4687500000000007
 40
0.5000000000000005
 40
0.5000000000000005
 40
0.5156250000000006
 40
0.5156250000000006
 40
0.5312500000000005
 40
0.5312500000000005
 40
0.5625000000000006
 40
0.5625000000000006
 40
0.5937500000000006
 40
0.5937500000000006
 40
0.6250000000000006
 40
0.6250000000000006
 40
0.6562500000000006
 40
0.6562500000000006
 40
0.6875000000000006
 40
0.6875000000000006
 40
0.7031250000000006
 40
0.7031250000000006
 40
0.7187500000000006
 40
0.7187500000000006
 40
0.7500000000000006
 40
0.7500000000000006
 40
0.7812500000000006
 40
0.7812500000000006
 40
0.7968750000000006
 40
0.7968750000000006
 40
0.8125000000000005
 40
0.8125000000000005
 40
0.8437500000000003
 40
0.8437500000000003
 40
0.8750000000000003
 40
0.8750000000000003
 40
0.9062500000000003
 40
0.9062500000000003
 40
0.9218750000000003
 40
0.9218750000000003
 40
0.9375
 40
0.9375
 40
0.96875
 40
0.96875
 40
1.0
 40
1.0
 40
1.0
 40
1.0
 10
1561.174812470034
 20
549.1329121344349
 30
0.0
 10
1560.278367028219
 20
548.2751901650779
 30
0.0
 10
1559.275434992041
 20
547.5565122454744
 30
0.0
 10
1557.872224882898
 20
546.8273547473097
 30
0.0
 10
1557.582796945555
 20
546.6897927314746
 30
0.0
 10
1556.997289633964
 20
546.4368421449583
 30
0.0
 10
1556.700459372913
 20
546.3209681548249
 30
0.0
 10
1555.797633746146
 20
546.0048634606383
 30
0.0
 10
1555.179368614525
 20
545.8359571418744
 30
0.0
 10
1554.225873610131
 20
545.6476362264968
 30
0.0
 10
1553.903676959822
 20
545.5957490767026
 30
0.0
 10
1553.250082632694
 20
545.5147608360777
 30
0.0
 10
1552.921015589572
 20
545.4860514881088
 30
0.0
 10
1551.939277853759
 20
545.4357628460903
 30
0.0
 10
1551.287090342042
 20
545.4491794553801
 30
0.0
 10
1550.31221994324
 20
545.538909081145
 30
0.0
 10
1549.987833563081
 20
545.5804678684594
 30
0.0
 10
1549.34021775451
 20
545.6873419089326
 30
0.0
 10
1549.018112675855
 20
545.7525879017246
 30
0.0
 10
1548.070691182871
 20
545.9799718853337
 30
0.0
 10
1547.458663745383
 20
546.1744065357903
 30
0.0
 10
1546.271325841035
 20
546.645951942786
 30
0.0
 10
1545.6932932641
 20
546.9252091343405
 30
0.0
 10
1544.603204941968
 20
547.5504310262722
 30
0.0
 10
1544.087373532739
 20
547.8973893972477
 30
0.0
 10
1543.110257189677
 20
548.6599084131761
 30
0.0
 10
1542.646936752614
 20
549.078166545931
 30
0.0
 10
1541.795329267268
 20
549.9657846172408
 30
0.0
 10
1541.404322285694
 20
550.4366585913677
 30
0.0
 10
1540.868443197962
 20
551.1868376361413
 30
0.0
 10
1540.698299393971
 20
551.4442508012733
 30
0.0
 10
1540.375287462862
 20
551.9749266601702
 30
0.0
 10
1540.221848493645
 20
552.2493727893106
 30
0.0
 10
1539.793858631145
 20
553.0882004205507
 30
0.0
 10
1539.550901404258
 20
553.6677878215491
 30
0.0
 10
1539.251671643244
 20
554.5718757378238
 30
0.0
 10
1539.162856835648
 20
554.8790517054015
 30
0.0
 10
1539.008193004777
 20
555.5061241349842
 30
0.0
 10
1538.942079600978
 20
555.8279966890268
 30
0.0
 10
1538.783613118307
 20
556.7958625240955
 30
0.0
 10
1538.729876781153
 20
557.445141200491
 30
0.0
 10
1538.727130364915
 20
558.4252661052649
 30
0.0
 10
1538.73925004977
 20
558.7530105374703
 30
0.0
 10
1538.790292032388
 20
559.4106176028945
 30
0.0
 10
1538.829462084908
 20
559.7407705189684
 30
0.0
 10
1538.984052859353
 20
560.7106043214223
 30
0.0
 10
1539.136289006695
 20
561.3358142937038
 30
0.0
 10
1539.531898019141
 20
562.5493456157031
 30
0.0
 10
1539.777604906249
 20
563.1410332150054
 30
0.0
 10
1540.343164761997
 20
564.2586530513015
 30
0.0
 10
1540.663708232478
 20
564.7885217311275
 30
0.0
 10
1541.379127593079
 20
565.7974849553575
 30
0.0
 10
1541.776031823838
 20
566.2778364626554
 30
0.0
 10
1542.625431728201
 20
567.1672351831642
 30
0.0
 10
1543.079927165822
 20
567.5796255750076
 30
0.0
 10
1543.808371063959
 20
568.1518884838631
 30
0.0
 10
1544.059004335199
 20
568.3348761410814
 30
0.0
 10
1544.576699752534
 20
568.6851322024993
 30
0.0
 10
1544.844962634495
 20
568.8530485528551
 30
0.0
 10
1545.664418663734
 20
569.3259069330135
 30
0.0
 10
1546.230910926317
 20
569.6011735599987
 30
0.0
 10
1547.405599837279
 20
570.0727893293827
 30
0.0
 10
1548.013776997094
 20
570.2691549744558
 30
0.0
 10
1548.960325832745
 20
570.5006878313522
 30
0.0
 10
1549.28337025839
 20
570.5675646933059
 30
0.0
 10
1549.930342124469
 20
570.6771556882007
 30
0.0
 10
1550.254520135223
 20
570.7200907759372
 30
0.0
 10
1551.229104088195
 20
570.8139639025976
 30
0.0
 10
1551.881550592916
 20
570.8301631823301
 30
0.0
 10
1553.191978390855
 20
570.7685101356096
 30
0.0
 10
1553.8536492299
 20
570.6891174748944
 30
0.0
 10
1555.13346535853
 20
570.4413252075132
 30
0.0
 10
1555.75749601335
 20
570.2731908677359
 30
0.0
 10
1556.670799966554
 20
569.9560798358255
 30
0.0
 10
1556.972574874747
 20
569.8389870840911
 30
0.0
 10
1557.561834534011
 20
569.5857098163021
 30
0.0
 10
1557.849282833076
 20
569.4496726762865
 30
0.0
 10
1558.691230724036
 20
569.014237226451
 30
0.0
 10
1559.225441840586
 20
568.6877007658461
 30
0.0
 10
1560.242844779657
 20
567.9621127664678
 30
0.0
 10
1560.725291425266
 20
567.5630153596849
 30
0.0
 10
1561.174812470034
 20
567.1329121344349
 30
0.0
  0
SPLINE
  5
A08
330
1F
100
AcDbEntity
  8
HEWI
  6
Continuous
370
    18
100
AcDbSpline
210
0.0
220
0.0
230
1.0
 70
     8
 71
     3
 72
    10
 73
     6
 74
     0
 42
0.000000001
 43
0.0000000001
 40
0.0
 40
0.0
 40
0.0
 40
0.0
 40
0.5
 40
0.5
 40
1.0
 40
1.0
 40
1.0
 40
1.0
 10
1559.830953284757
 20
550.1329121344349
 30
0.0
 10
1559.710945131903
 20
550.1329121344242
 30
0.0
 10
1559.590641615257
 20
550.1113052618814
 30
0.0
 10
1559.362436934578
 20
550.0250695470206
 30
0.0
 10
1559.259613014986
 20
549.9631740722321
 30
0.0
 10
1559.168119009297
 20
549.8824933067488
 30
0.0
  0
SPLINE
  5
A09
330
1F
100
AcDbEntity
  8
HEWI
  6
Continuous
370
    18
100
AcDbSpline
210
0.0
220
0.0
230
1.0
 70
    24
 71
     3
 72
     8
 73
     4
 74
     0
 42
0.000000001
 43
0.0000000001
 40
0.0
 40
0.0
 40
0.0
 40
0.0
 40
1.0
 40
1.0
 40
1.0
 40
1.0
 10
1560.722030292831
 20
566.1329121344349
 30
0.0
 10
1560.433013946975
 20
566.1329121344349
 30
0.0
 10
1560.136886008624
 20
566.1329121344349
 30
0.0
 10
1559.830953284845
 20
566.1329121344349
 30
0.0
  0
SPLINE
  5
A0A
330
1F
100
AcDbEntity
  8
HEWI
370
    18
100
AcDbSpline
210
0.0
220
0.0
230
1.0
 70
     9
 71
     3
 72
    99
 73
    95
 74
     0
 42
0.000000001
 43
0.0000000001
 40
0.0
 40
0.0
 40
0.0
 40
0.0
 40
0.0312499999999998
 40
0.0312499999999998
 40
0.0468749999999998
 40
0.0468749999999998
 40
0.0624999999999997
 40
0.0624999999999997
 40
0.0937499999999995
 40
0.0937499999999995
 40
0.1093749999999995
 40
0.1093749999999995
 40
0.1249999999999994
 40
0.1249999999999994
 40
0.1562499999999993
 40
0.1562499999999993
 40
0.1874999999999993
 40
0.1874999999999993
 40
0.2031249999999992
 40
0.2031249999999992
 40
0.2187499999999991
 40
0.2187499999999991
 40
0.249999999999999
 40
0.249999999999999
 40
0.265624999999999
 40
0.265624999999999
 40
0.2812499999999989
 40
0.2812499999999989
 40
0.2968749999999989
 40
0.2968749999999989
 40
0.3124999999999989
 40
0.3124999999999989
 40
0.3437499999999989
 40
0.3437499999999989
 40
0.3593749999999988
 40
0.3593749999999988
 40
0.3749999999999988
 40
0.3749999999999988
 40
0.4062499999999988
 40
0.4062499999999988
 40
0.4218749999999988
 40
0.4218749999999988
 40
0.4374999999999988
 40
0.4374999999999988
 40
0.4531249999999988
 40
0.4531249999999988
 40
0.4687499999999988
 40
0.4687499999999988
 40
0.4999999999999988
 40
0.4999999999999988
 40
0.5312499999999987
 40
0.5312499999999987
 40
0.5624999999999986
 40
0.5624999999999986
 40
0.5781249999999987
 40
0.5781249999999987
 40
0.5937499999999987
 40
0.5937499999999987
 40
0.6093749999999987
 40
0.6093749999999987
 40
0.6249999999999987
 40
0.6249999999999987
 40
0.6562499999999988
 40
0.6562499999999988
 40
0.6874999999999991
 40
0.6874999999999991
 40
0.7187499999999991
 40
0.7187499999999991
 40
0.7343749999999992
 40
0.7343749999999992
 40
0.7499999999999992
 40
0.7656249999999992
 40
0.7656249999999992
 40
0.7812499999999992
 40
0.7812499999999992
 40
0.8124999999999991
 40
0.8124999999999991
 40
0.8437499999999992
 40
0.8437499999999992
 40
0.8749999999999992
 40
0.8749999999999992
 40
0.8906249999999992
 40
0.8906249999999992
 40
0.9062499999999994
 40
0.9062499999999994
 40
0.9218749999999996
 40
0.9218749999999996
 40
0.9374999999999998
 40
0.9374999999999998
 40
0.96875
 40
0.96875
 40
0.984375
 40
0.984375
 40
1.0
 40
1.0
 40
1.0
 40
1.0
 10
1572.392779500952
 20
620.3612695324228
 30
0.0
 10
1572.392775646508
 20
620.3612618622577
 30
0.0
 10
1572.364559011181
 20
620.3053792888597
 30
0.0
 10
1572.283584742683
 20
620.1396609497956
 30
0.0
 10
1572.250139187711
 20
620.0706410204552
 30
0.0
 10
1572.170858554645
 20
619.9037720811967
 30
0.0
 10
1572.124960668521
 20
619.8057538518368
 30
0.0
 10
1571.973587293278
 20
619.4741038961599
 30
0.0
 10
1571.853566174663
 20
619.2015028530708
 30
0.0
 10
1571.654593676502
 20
618.7111343650006
 30
0.0
 10
1571.584679923078
 20
618.5328088422129
 30
0.0
 10
1571.443023403016
 20
618.1543043587018
 30
0.0
 10
1571.371247464751
 20
617.9541384752154
 30
0.0
 10
1571.156221232698
 20
617.3210956065202
 30
0.0
 10
1571.012885758974
 20
616.854653362953
 30
0.0
 10
1570.745116102588
 20
615.8353148939921
 30
0.0
 10
1570.624771549751
 20
615.2978262170029
 30
0.0
 10
1570.473593737179
 20
614.4512549981371
 30
0.0
 10
1570.42808149757
 20
614.162296308018
 30
0.0
 10
1570.348335264813
 20
613.5704976001322
 30
0.0
 10
1570.314422910482
 20
613.269510746577
 30
0.0
 10
1570.232969773427
 20
612.3650823850258
 30
0.0
 10
1570.204922336146
 20
611.7548779310638
 30
0.0
 10
1570.204720115714
 20
610.8286266427824
 30
0.0
 10
1570.211759307722
 20
610.5168321513002
 30
0.0
 10
1570.239496738367
 20
609.9028564428148
 30
0.0
 10
1570.260140883347
 20
609.5992258479658
 30
0.0
 10
1570.314203470549
 20
608.9985679116137
 30
0.0
 10
1570.347623807379
 20
608.7015408970232
 30
0.0
 10
1570.426522746753
 20
608.1141874692892
 30
0.0
 10
1570.472238834054
 20
607.8225762230795
 30
0.0
 10
1570.62474755314
 20
606.9673041768892
 30
0.0
 10
1570.745200380908
 20
606.4308310575486
 30
0.0
 10
1570.943452207138
 20
605.6751733776913
 30
0.0
 10
1571.012471309179
 20
605.4315182536157
 30
0.0
 10
1571.154558067395
 20
604.9610693070676
 30
0.0
 10
1571.227105819944
 20
604.736101797595
 30
0.0
 10
1571.442805508452
 20
604.1008992927084
 30
0.0
 10
1571.585323204214
 20
603.7257115477508
 30
0.0
 10
1571.784950432364
 20
603.2332772900348
 30
0.0
 10
1571.849306557511
 20
603.0805832082108
 30
0.0
 10
1571.968570518556
 20
602.8052239558507
 30
0.0
 10
1572.023848171216
 20
602.68161491578
 30
0.0
 10
1572.124378312759
 20
602.4613333226373
 30
0.0
 10
1572.169633759171
 20
602.3646610941547
 30
0.0
 10
1572.248809482409
 20
602.1979520082127
 30
0.0
 10
1572.282868554642
 20
602.1276352999608
 30
0.0
 10
1572.364776285486
 20
601.9599879298496
 30
0.0
 10
1572.392564156371
 20
601.9049857554225
 30
0.0
 10
1572.392989067795
 20
601.9041352519186
 30
0.0
 10
1572.364693290806
 20
601.9601724336593
 30
0.0
 10
1572.256608039097
 20
602.1813703804316
 30
0.0
 10
1572.177247769197
 20
602.3456240629307
 30
0.0
 10
1572.025595570667
 20
602.6777189474112
 30
0.0
 10
1571.969497586608
 20
602.803131865513
 30
0.0
 10
1571.850495996909
 20
603.0777895120523
 30
0.0
 10
1571.787310323824
 20
603.2276360961739
 30
0.0
 10
1571.655426912441
 20
603.5526096930382
 30
0.0
 10
1571.586725848534
 20
603.7277366852968
 30
0.0
 10
1571.445682982361
 20
604.1042317705065
 30
0.0
 10
1571.372900823224
 20
604.3069243726378
 30
0.0
 10
1571.155935113928
 20
604.9453609851627
 30
0.0
 10
1571.013321136402
 20
605.4101959677299
 30
0.0
 10
1570.748149568413
 20
606.4182880869882
 30
0.0
 10
1570.625054313839
 20
606.9665811302825
 30
0.0
 10
1570.423286586645
 20
608.0961149426258
 30
0.0
 10
1570.343008664273
 20
608.6818658902972
 30
0.0
 10
1570.260597119785
 20
609.5925295652976
 30
0.0
 10
1570.23968140453
 20
609.8999942271125
 30
0.0
 10
1570.211906494637
 20
610.5123632901888
 30
0.0
 10
1570.197896439271
 20
611.1251637073294
 30
0.0
 10
1570.211454459819
 20
611.7388162581676
 30
0.0
 10
1570.23889222482
 20
612.3529035639332
 30
0.0
 10
1570.259733357995
 20
612.6616024142292
 30
0.0
 10
1570.341292997925
 20
613.5691623042024
 30
0.0
 10
1570.420981661041
 20
614.1544488110532
 30
0.0
 10
1570.622222934279
 20
615.2856903630987
 30
0.0
 10
1570.745058227497
 20
615.8344115348886
 30
0.0
 10
1571.009475088874
 20
616.8423438597059
 30
0.0
 10
1571.151985942268
 20
617.3080535005972
 30
0.0
 10
1571.369311450871
 20
617.9487175082011
 30
0.0
 10
1571.441937124098
 20
618.1512900804855
 30
0.0
 10
1571.582955026324
 20
618.5283094882739
 30
0.0
 10
1571.651725793095
 20
618.7038765138411
 30
0.0
 10
1571.783888412771
 20
619.0299629504372
 30
0.0
 10
1571.847283625926
 20
619.1804828551677
 30
0.0
 10
1571.966805187261
 20
619.4566093609949
 30
0.0
 10
1572.023089001688
 20
619.5825319696028
 30
0.0
 10
1572.174931511505
 20
619.915290703771
 30
0.0
 10
1572.254787638281
 20
620.0806884708112
 30
0.0
 10
1572.336652448079
 20
620.2482851402313
 30
0.0
 10
1572.357661385374
 20
620.2906996416134
 30
0.0
 10
1572.385708279142
 20
620.3471553557204
 30
0.0
 10
1572.392781428175
 20
620.3612733675052
 30
0.0
 10
1572.392779500952
 20
620.3612695324228
 30
0.0
  0
SPLINE
  5
A0B
330
1F
100
AcDbEntity
  8
HEWI
370
    18
100
AcDbSpline
210
0.0
220
0.0
230
1.0
 70
     9
 71
     3
 72
    95
 73
    91
 74
     0
 42
0.000000001
 43
0.0000000001
 40
0.0
 40
0.0
 40
0.0
 40
0.0
 40
0.03125
 40
0.03125
 40
0.046875
 40
0.046875
 40
0.0625
 40
0.0625
 40
0.09375
 40
0.09375
 40
0.109375
 40
0.109375
 40
0.1250000000000001
 40
0.1250000000000001
 40
0.1562500000000001
 40
0.1562500000000001
 40
0.1875000000000001
 40
0.1875000000000001
 40
0.2031250000000001
 40
0.2031250000000001
 40
0.2187500000000001
 40
0.2187500000000001
 40
0.2500000000000001
 40
0.2500000000000001
 40
0.2656250000000001
 40
0.2656250000000001
 40
0.2812500000000001
 40
0.2812500000000001
 40
0.3125
 40
0.3125
 40
0.3437499999999999
 40
0.3437499999999999
 40
0.3593749999999997
 40
0.3593749999999997
 40
0.3749999999999996
 40
0.3749999999999996
 40
0.4062499999999993
 40
0.4062499999999993
 40
0.4218749999999992
 40
0.4218749999999992
 40
0.4374999999999992
 40
0.4374999999999992
 40
0.453124999999999
 40
0.453124999999999
 40
0.468749999999999
 40
0.468749999999999
 40
0.4999999999999988
 40
0.4999999999999988
 40
0.5312499999999986
 40
0.5312499999999986
 40
0.5624999999999984
 40
0.5624999999999984
 40
0.5781249999999984
 40
0.5781249999999984
 40
0.5937499999999984
 40
0.5937499999999984
 40
0.6093749999999984
 40
0.6093749999999984
 40
0.6249999999999984
 40
0.6249999999999984
 40
0.6562499999999984
 40
0.6562499999999984
 40
0.6874999999999984
 40
0.6874999999999984
 40
0.7187499999999986
 40
0.7187499999999986
 40
0.7343749999999987
 40
0.7343749999999987
 40
0.7499999999999988
 40
0.7656249999999991
 40
0.7656249999999991
 40
0.7812499999999992
 40
0.7812499999999992
 40
0.8124999999999991
 40
0.8124999999999991
 40
0.8437499999999992
 40
0.8437499999999992
 40
0.8749999999999992
 40
0.8749999999999992
 40
0.8906249999999994
 40
0.8906249999999994
 40
0.9062499999999996
 40
0.9062499999999996
 40
0.9218749999999996
 40
0.9218749999999996
 40
0.9374999999999998
 40
0.9374999999999998
 40
0.96875
 40
0.96875
 40
1.0
 40
1.0
 40
1.0
 40
1.0
 10
1572.295975744393
 20
619.932041855082
 30
0.0
 10
1572.29597295717
 20
619.9320360515415
 30
0.0
 10
1572.270386269113
 20
619.8787640052005
 30
0.0
 10
1572.196923119297
 20
619.7207070735117
 30
0.0
 10
1572.166576976222
 20
619.6548715788537
 30
0.0
 10
1572.094633997631
 20
619.4956791258116
 30
0.0
 10
1572.052965350117
 20
619.4021278370846
 30
0.0
 10
1571.915514903514
 20
619.0855219817247
 30
0.0
 10
1571.806505712483
 20
618.8252127347871
 30
0.0
 10
1571.625791677016
 20
618.3568924861724
 30
0.0
 10
1571.562289210644
 20
618.1865663331533
 30
0.0
 10
1571.433561027664
 20
617.8248199373529
 30
0.0
 10
1571.368351660469
 20
617.6335391126086
 30
0.0
 10
1571.173067725685
 20
617.0287393574974
 30
0.0
 10
1571.043060214348
 20
616.5835636058707
 30
0.0
 10
1570.800168861083
 20
615.6103478049756
 30
0.0
 10
1570.69114586354
 20
615.0975430483631
 30
0.0
 10
1570.554343927487
 20
614.2906499239841
 30
0.0
 10
1570.513189205757
 20
614.0153617983046
 30
0.0
 10
1570.441120066623
 20
613.4518679118192
 30
0.0
 10
1570.410481031532
 20
613.1653061226455
 30
0.0
 10
1570.336916129924
 20
612.3044295380492
 30
0.0
 10
1570.311625079314
 20
611.7238625417144
 30
0.0
 10
1570.311465406217
 20
610.8430110230435
 30
0.0
 10
1570.317822317775
 20
610.5464800844453
 30
0.0
 10
1570.342880951639
 20
609.9622872320587
 30
0.0
 10
1570.361530515435
 20
609.6733656697426
 30
0.0
 10
1570.434793532452
 20
608.8159762119677
 30
0.0
 10
1570.507054337662
 20
608.2548790876799
 30
0.0
 10
1570.691226225145
 20
607.1670354550206
 30
0.0
 10
1570.800371035339
 20
606.6552800984591
 30
0.0
 10
1570.980016699382
 20
605.9345618842439
 30
0.0
 10
1571.042558869832
 20
605.7021942232243
 30
0.0
 10
1571.171301947241
 20
605.2535962220186
 30
0.0
 10
1571.237353420625
 20
605.0380507237857
 30
0.0
 10
1571.433423151222
 20
604.4306369213966
 30
0.0
 10
1571.562870290386
 20
604.0722993749991
 30
0.0
 10
1571.744003777536
 20
603.6024363329145
 30
0.0
 10
1571.802476818487
 20
603.4565443700603
 30
0.0
 10
1571.910957083089
 20
603.1931976695302
 30
0.0
 10
1571.961194212054
 20
603.0750945175092
 30
0.0
 10
1572.052493553836
 20
602.8647724682286
 30
0.0
 10
1572.093558415649
 20
602.7725543524224
 30
0.0
 10
1572.165360599735
 20
602.6136159492213
 30
0.0
 10
1572.196209602553
 20
602.54665874244
 30
0.0
 10
1572.270633634564
 20
602.3865153918933
 30
0.0
 10
1572.295796057297
 20
602.3341605051605
 30
0.0
 10
1572.296152178617
 20
602.3334111375747
 30
0.0
 10
1572.270515827024
 20
602.3867824136588
 30
0.0
 10
1572.172361849199
 20
602.5979601955333
 30
0.0
 10
1572.100320612217
 20
602.7547264100092
 30
0.0
 10
1571.962853540774
 20
603.0712084865201
 30
0.0
 10
1571.911867362726
 20
603.191037579115
 30
0.0
 10
1571.803628508107
 20
603.4536997618118
 30
0.0
 10
1571.746183435533
 20
603.5969519720831
 30
0.0
 10
1571.626364045702
 20
603.9074332365983
 30
0.0
 10
1571.563986725922
 20
604.0746627670046
 30
0.0
 10
1571.436029796898
 20
604.4338971997074
 30
0.0
 10
1571.370122386026
 20
604.6269180962593
 30
0.0
 10
1571.172673292349
 20
605.2380754041718
 30
0.0
 10
1571.043164662531
 20
605.6824295799117
 30
0.0
 10
1570.802899094872
 20
606.643956451828
 30
0.0
 10
1570.69140412903
 20
607.1668530000589
 30
0.0
 10
1570.508684282598
 20
608.2443917217712
 30
0.0
 10
1570.4362190731
 20
608.8021630642945
 30
0.0
 10
1570.361917124594
 20
609.6674380093092
 30
0.0
 10
1570.342980735694
 20
609.960661750277
 30
0.0
 10
1570.317902876928
 20
610.5439061418333
 30
0.0
 10
1570.3052985779
 20
611.1271663329008
 30
0.0
 10
1570.317576354567
 20
611.7104576073377
 30
0.0
 10
1570.342330807476
 20
612.2937646795961
 30
0.0
 10
1570.361109294767
 20
612.5870701096093
 30
0.0
 10
1570.434933069513
 20
613.4523925013033
 30
0.0
 10
1570.507057110398
 20
614.0098521911686
 30
0.0
 10
1570.688918451729
 20
615.086252953816
 30
0.0
 10
1570.800183221448
 20
615.6098274241088
 30
0.0
 10
1571.040264029903
 20
616.572931134513
 30
0.0
 10
1571.169507853751
 20
617.0171364979028
 30
0.0
 10
1571.366247270119
 20
617.6273022087968
 30
0.0
 10
1571.432480292039
 20
617.8216783987942
 30
0.0
 10
1571.56088116605
 20
618.1827120031278
 30
0.0
 10
1571.623422845186
 20
618.3505879255268
 30
0.0
 10
1571.743472827784
 20
618.6620218345517
 30
0.0
 10
1571.800984120869
 20
618.8055796027697
 30
0.0
 10
1571.909292789971
 20
619.0686607835669
 30
0.0
 10
1571.960345341474
 20
619.188759382866
 30
0.0
 10
1572.098594305985
 20
619.5072814896599
 30
0.0
 10
1572.171004874895
 20
619.6649111942307
 30
0.0
 10
1572.26982227788
 20
619.8775823586343
 30
0.0
 10
1572.295978531615
 20
619.9320476586231
 30
0.0
 10
1572.295975744393
 20
619.932041855082
 30
0.0
  0
SPLINE
  5
A0C
330
1F
100
AcDbEntity
  8
HEWI
370
    18
100
AcDbSpline
210
0.0
220
0.0
230
1.0
 70
     8
 71
     3
 72
    10
 73
     6
 74
     0
 42
0.000000001
 43
0.0000000001
 40
0.0
 40
0.0
 40
0.0
 40
0.0
 40
0.5
 40
0.5
 40
1.0
 40
1.0
 40
1.0
 40
1.0
 10
1562.145824417108
 20
601.1329121344349
 30
0.0
 10
1562.034915811927
 20
601.0465116164624
 30
0.0
 10
1561.915926086092
 20
600.9594189591055
 30
0.0
 10
1561.671143728637
 20
600.7904674507307
 30
0.0
 10
1561.543912867534
 20
600.7074398158049
 30
0.0
 10
1561.410833962688
 20
600.6258701202825
 30
0.0
  0
SPLINE
  5
A0D
330
1F
100
AcDbEntity
  8
HEWI
370
    18
100
AcDbSpline
210
0.0
220
0.0
230
1.0
 70
    24
 71
     3
 72
    14
 73
    10
 74
     0
 42
0.000000001
 43
0.0000000001
 40
0.0
 40
0.0
 40
0.0
 40
0.0
 40
0.5000000000000006
 40
0.5000000000000006
 40
0.7500000000000026
 40
0.7500000000000026
 40
0.8750000000000012
 40
0.8750000000000012
 40
1.0
 40
1.0
 40
1.0
 40
1.0
 10
1561.13352436537
 20
600.4820518453636
 30
0.0
 10
1561.350624246602
 20
600.4030339507322
 30
0.0
 10
1561.55298683752
 20
600.3293799911094
 30
0.0
 10
1561.818243569805
 20
600.2328344361187
 30
0.0
 10
1561.900766193405
 20
600.2027986574749
 30
0.0
 10
1562.001462854446
 20
600.1661480701658
 30
0.0
 10
1562.031463711057
 20
600.1552286513567
 30
0.0
 10
1562.076720405297
 20
600.1387565617524
 30
0.0
 10
1562.092788175039
 20
600.1329083718351
 30
0.0
 10
1562.092773373401
 20
600.1329137591907
 30
0.0
  0
LINE
  5
A0E
330
1F
100
AcDbEntity
  8
HEWI
370
    18
100
AcDbLine
 10
1531.392777837382
 20
588.5053681344348
 30
0.0
 11
1531.392777837382
 21
578.6329121344349
 31
0.0
  0
LINE
  5
A0F
330
1F
100
AcDbEntity
  8
HEWI
370
    18
100
AcDbLine
 10
1531.392777837382
 20
577.6329121344349
 30
0.0
 11
1531.392777375749
 21
539.1329122126904
 31
0.0
  0
LINE
  5
A10
330
1F
100
AcDbEntity
  8
HEWI
370
    18
100
AcDbLine
 10
1572.392777837382
 20
599.4329121344349
 30
0.0
 11
1572.392777837382
 21
578.6329121344349
 31
0.0
  0
LINE
  5
A11
330
1F
100
AcDbEntity
  8
HEWI
370
    18
100
AcDbLine
 10
1572.392777837382
 20
577.6329121344349
 30
0.0
 11
1572.392777837382
 21
571.0471261344347
 31
0.0
  0
LINE
  5
A12
330
1F
100
AcDbEntity
  8
HEWI
370
    18
100
AcDbLine
 10
1572.392777837382
 20
571.0471261344347
 30
0.0
 11
1567.478563837382
 21
566.1329121344349
 31
0.0
  0
LINE
  5
A13
330
1F
100
AcDbEntity
  8
HEWI
370
    18
100
AcDbLine
 10
1567.478563837382
 20
566.1329121344349
 30
0.0
 11
1560.722030292832
 21
566.1329121344349
 31
0.0
  0
LINE
  5
A14
330
1F
100
AcDbEntity
  8
HEWI
370
    18
100
AcDbLine
 10
1572.392777837382
 20
545.2186981344348
 30
0.0
 11
1572.392777837382
 21
539.1329121344349
 31
0.0
  0
LINE
  5
A15
330
1F
100
AcDbEntity
  8
HEWI
370
    18
100
AcDbLine
 10
1572.392777837382
 20
539.1329121344349
 30
0.0
 11
1572.316536779918
 21
545.6016725671122
 31
0.0
  0
LINE
  5
A16
330
1F
100
AcDbEntity
  8
HEWI
370
    18
100
AcDbLine
 10
1572.316536779918
 20
545.6016725671122
 30
0.0
 11
1567.478563837382
 21
550.1329121344349
 31
0.0
  0
LINE
  5
A17
330
1F
100
AcDbEntity
  8
HEWI
370
    18
100
AcDbLine
 10
1567.478563837382
 20
550.1329121344349
 30
0.0
 11
1559.830953284757
 21
550.1329121344349
 31
0.0
  0
LINE
  5
A6F
330
1F
100
AcDbEntity
  8
HEWI
100
AcDbLine
 10
1554.892777837381
 20
628.3448266124938
 30
0.0
 11
1554.892777837381
 21
1026.062444456509
 31
0.0
  0
LWPOLYLINE
  5
A70
330
1F
100
AcDbEntity
  8
0
100
AcDbPolyline
 90
        4
 70
     0
 43
0.0
 10
1557.892777837382
 20
624.9622288203742
 10
1557.892777837382
 20
636.1329121344349
 10
1519.892777837382
 20
636.1329121344349
 10
1519.892777837382
 20
624.9622288203742
  0
LWPOLYLINE
  5
AA6
330
1F
100
AcDbEntity
  8
0
100
AcDbPolyline
 90
        6
 70
     0
 43
0.0
 10
1562.392777837382
 20
2187.172025630379
 10
1562.392777837382
 20
2203.829893362801
 10
1515.392777837382
 20
2203.829893362801
 10
1515.392777837382
 20
2133.829893362801
 10
1562.392777837382
 20
2133.829893362801
 10
1562.392777837382
 20
2150.487761095223
  0
LINE
  5
AAD
330
1F
100
AcDbEntity
  8
0
100
AcDbLine
 10
1522.892777837381
 20
2203.829893362801
 30
0.0
 11
1554.892777837381
 21
2203.829893362801
 31
0.0
  0
CIRCLE
  5
AAE
330
1F
100
AcDbEntity
  8
0
100
AcDbCircle
 10
1553.237659931059
 20
2168.829893362801
 30
0.0
 40
20.5
  0
LINE
  5
AAF
330
1F
100
AcDbEntity
  8
HEWI
100
AcDbLine
 10
1554.892777837381
 20
2203.829893362801
 30
0.0
 11
1554.892777837381
 21
2574.335971054199
 31
0.0
  0
LINE
  5
AB0
330
1F
100
AcDbEntity
  8
HEWI
100
AcDbLine
 10
1522.892777837381
 20
2133.829893362801
 30
0.0
 11
1522.892777837381
 21
1343.265503376273
 31
0.0
  0
CIRCLE
  5
AB1
330
1F
100
AcDbEntity
  8
0
100
AcDbCircle
 10
1553.237659931059
 20
2168.829893362801
 30
0.0
 40
19.5
  0
LWPOLYLINE
  5
ABA
330
1F
100
AcDbEntity
  8
0
100
AcDbPolyline
 90
        6
 70
     0
 43
0.0
 10
730.0834181145362
 20
2148.329893362801
 10
730.0834181145362
 20
2133.829893362801
 10
777.0834181145362
 20
2133.829893362801
 10
777.0834181145362
 20
2203.829893362801
 10
730.0834181145362
 20
2203.829893362801
 10
730.0834181145362
 20
2189.329893362801
  0
LINE
  5
ABE
330
1F
100
AcDbEntity
  8
0
100
AcDbLine
 10
769.5834181145364
 20
2133.829893362801
 30
0.0
 11
769.5834181145364
 21
1346.317821006831
 31
0.0
  0
LINE
  5
ABF
330
1F
100
AcDbEntity
  8
0
100
AcDbLine
 10
737.5834181145362
 20
2133.829893362801
 30
0.0
 11
737.5834181145362
 21
1346.317821006831
 31
0.0
  0
LINE
  5
BC1
330
1F
100
AcDbEntity
  8
HEWI
100
AcDbLine
 10
681.1779025633112
 20
2148.282518373581
 30
0.0
 11
687.5967582154077
 21
2148.282518373581
 31
0.0
  0
LINE
  5
BC2
330
1F
100
AcDbEntity
  8
HEWI
100
AcDbLine
 10
712.3777571016725
 20
2148.072182782061
 30
0.0
 11
719.427971741581
 21
2148.072182782061
 31
0.0
  0
LINE
  5
BC3
330
1F
100
AcDbEntity
  8
HEWI
100
AcDbLine
 10
719.427971741581
 20
2148.072182782061
 30
0.0
 11
719.427971741581
 21
2188.830988769397
 31
0.0
  0
LINE
  5
BC4
330
1F
100
AcDbEntity
  8
HEWI
100
AcDbLine
 10
719.427971741581
 20
2188.830988769397
 30
0.0
 11
712.4750468225283
 21
2188.830988769397
 31
0.0
  0
LINE
  5
BC5
330
1F
100
AcDbEntity
  8
HEWI
100
AcDbLine
 10
681.1779025633112
 20
2148.282518373581
 30
0.0
 11
681.1779025633112
 21
2188.746868064788
 31
0.0
  0
LINE
  5
BC6
330
1F
100
AcDbEntity
  8
HEWI
100
AcDbLine
 10
681.1779025633112
 20
2188.746868064788
 30
0.0
 11
687.7291788248402
 21
2188.746868064788
 31
0.0
  0
LINE
  5
BC7
330
1F
100
AcDbEntity
  8
HEWI
100
AcDbLine
 10
720.7236634459585
 20
2188.746868064788
 30
0.0
 11
720.7236634459585
 21
2148.283069319251
 31
0.0
  0
LINE
  5
BC8
330
1F
100
AcDbEntity
  8
HEWI
100
AcDbLine
 10
720.7236634459585
 20
2148.283069319251
 30
0.0
 11
731.329040624223
 21
2148.283069319251
 31
0.0
  0
LINE
  5
BC9
330
1F
100
AcDbEntity
  8
HEWI
100
AcDbLine
 10
720.7236634459585
 20
2188.746868064788
 30
0.0
 11
730.9081769295986
 21
2188.746868064788
 31
0.0
  0
LINE
  5
BCA
330
1F
100
AcDbEntity
  8
HEWI
100
AcDbLine
 10
764.0710106540425
 20
2150.55442500084
 30
0.0
 11
764.0710106540425
 21
2187.099725505794
 31
0.0
  0
CIRCLE
  5
BCC
330
1F
100
AcDbEntity
  8
HEWI
100
AcDbCircle
 10
753.0448060359411
 20
2168.557019378611
 30
0.0
 40
9.303292506783055
  0
LINE
  5
BCD
330
1F
100
AcDbEntity
  8
HEWI
100
AcDbLine
 10
692.0218362398843
 20
2186.139010233334
 30
0.0
 11
692.0218362398843
 21
2150.638545705449
 31
0.0
  0
LINE
  5
BCE
330
1F
100
AcDbEntity
  8
HEWI
100
AcDbLine
 10
708.2665730228434
 20
2150.722666410057
 30
0.0
 11
708.2665730228434
 21
2185.970759158402
 31
0.0
  0
ARC
  5
BCF
330
1F
100
AcDbEntity
  8
HEWI
100
AcDbCircle
 10
699.8706096823806
 20
2134.434296697132
 30
0.0
 40
18.50461222056227
100
AcDbArc
 50
47.47642464104895
 51
131.5509711196326
  0
ARC
  5
BD0
330
1F
100
AcDbEntity
  8
HEWI
100
AcDbCircle
 10
700.0493667817732
 20
2204.305281930769
 30
0.0
 40
19.84568651670457
100
AcDbArc
 50
231.6254741386458
 51
308.7640650586789
  0
ARC
  5
BD9
330
1F
100
AcDbEntity
  8
HEWI
100
AcDbCircle
 10
769.5368365577596
 20
2168.514693219185
 30
0.0
 40
90.64569551621508
100
AcDbArc
 50
167.1029097090432
 51
192.8970902909567
  0
LINE
  5
BDA
330
1F
100
AcDbEntity
  8
HEWI
100
AcDbLine
 10
709.2765951332365
 20
2186.812004867351
 30
0.0
 11
709.2765951332365
 21
2150.077847092567
 31
0.0
  0
LINE
  5
BDB
330
1F
100
AcDbEntity
  8
HEWI
100
AcDbLine
 10
690.9950412409687
 20
2186.603728307725
 30
0.0
 11
690.9950412409687
 21
2150.386173925907
 31
0.0
  0
LINE
  5
BDC
330
1F
100
AcDbEntity
  8
HEWI
100
AcDbLine
 10
731.329040624223
 20
2148.283069319251
 30
0.0
 11
742.0185651630597
 21
2150.217922850975
 31
0.0
  0
ARC
  5
BDD
330
1F
100
AcDbEntity
  8
HEWI
100
AcDbCircle
 10
753.5846577209105
 20
2115.006163384924
 30
0.0
 40
37.0626834127233
100
AcDbArc
 50
73.25359580235853
 51
108.1839265772819
  0
ARC
  5
BDE
330
1F
100
AcDbEntity
  8
HEWI
100
AcDbCircle
 10
752.6239423413223
 20
2222.302406675717
 30
0.0
 40
37.01707895698044
100
AcDbArc
 50
253.4874482325059
 51
288.306118066888
  0
LINE
  5
BE6
330
1F
100
AcDbEntity
  8
HEWI
100
AcDbLine
 10
730.9081769295986
 20
2188.746868064788
 30
0.0
 11
734.3401094470207
 21
2189.042938535072
 31
0.0
  0
LINE
  5
BE7
330
1F
100
AcDbEntity
  8
HEWI
100
AcDbLine
 10
734.3401094470207
 20
2189.042938535072
 30
0.0
 11
742.1027487784191
 21
2186.812004867351
 31
0.0
  0
LINE
  5
BE8
330
1F
100
AcDbEntity
  8
HEWI
100
AcDbLine
 10
742.1027487784191
 20
2186.812004867351
 30
0.0
 11
742.0185651630597
 21
2150.217922850975
 31
0.0
  0
ARC
  5
BE9
330
1F
100
AcDbEntity
  8
HEWI
100
AcDbCircle
 10
691.249786134918
 20
2168.432046535883
 30
0.0
 40
21.6852879497221
100
AcDbArc
 50
326.2316996770311
 51
33.76830032296886
  0
ARC
  5
BEA
330
1F
100
AcDbEntity
  8
HEWI
100
AcDbCircle
 10
708.8930591554063
 20
2168.382140309948
 30
0.0
 40
21.6852879497221
100
AcDbArc
 50
145.9075638448554
 51
213.4441644907962
  0
LINE
  5
BEB
330
1F
100
AcDbEntity
  8
HEWI
100
AcDbLine
 10
719.427971741581
 20
2188.830988769397
 30
0.0
 11
720.7236634459585
 21
2188.830988769397
 31
0.0
  0
LINE
  5
BEC
330
1F
100
AcDbEntity
  8
HEWI
100
AcDbLine
 10
719.427971741581
 20
2148.072182782061
 30
0.0
 11
720.7236634459585
 21
2148.072182782061
 31
0.0
  0
LINE
  5
BED
330
1F
100
AcDbEntity
  8
HEWI
100
AcDbLine
 10
764.9078255196506
 20
2150.97579257352
 30
0.0
 11
764.9078255196506
 21
2186.683994152083
 31
0.0
  0
ARC
  5
BEE
330
1F
100
AcDbEntity
  8
HEWI
100
AcDbCircle
 10
764.4078255196506
 20
2186.683994152083
 30
0.0
 40
0.5
100
AcDbArc
 50
0.0
 51
108.3061180668855
  0
ARC
  5
BEF
330
1F
100
AcDbEntity
  8
HEWI
100
AcDbCircle
 10
764.4078255196506
 20
2150.97579257352
 30
0.0
 40
0.5
100
AcDbArc
 50
253.2535958023598
 51
0.0
  0
LINE
  5
BF0
330
1F
100
AcDbEntity
  8
HEWI
100
AcDbLine
 10
741.3985176687817
 20
2150.55442500084
 30
0.0
 11
741.3985176687817
 21
2187.099725505794
 31
0.0
  0
ENDSEC
  0
SECTION
  2
OBJECTS
  0
DICTIONARY
  5
C
330
0
100
AcDbDictionary
281
     1
  3
ACAD_CIP_PREVIOUS_PRODUCT_INFO
350
1CC
  3
ACAD_COLOR
350
1AC
  3
ACAD_DETAILVIEWSTYLE
350
1C6
  3
ACAD_GROUP
350
D
  3
ACAD_LAYOUT
350
1A
  3
ACAD_MATERIAL
350
17A
  3
ACAD_MLEADERSTYLE
350
1C1
  3
ACAD_MLINESTYLE
350
17
  3
ACAD_PLOTSETTINGS
350
19
  3
ACAD_PLOTSTYLENAME
350
DF
  3
ACAD_SCALELIST
350
1AF
  3
ACAD_SECTIONVIEWSTYLE
350
1C3
  3
ACAD_TABLESTYLE
350
1AD
  3
ACAD_VISUALSTYLE
350
193
  3
ACDB_RECOMPOSE_DATA
350
C6B
  3
AcDbVariableDictionary
350
2CB
  0
DICTIONARY
  5
1E1
330
2
100
AcDbDictionary
280
     1
281
     1
  3
ACAD_LAYERSTATES
360
1E2
  0
DICTIONARY
  5
1CD
330
10
100
AcDbDictionary
280
     1
281
     1
  3
ADSK_XREC_LAYER_RECONCILED
360
1CE
  0
DICTIONARY
  5
AC1
330
AC0
100
AcDbDictionary
280
     1
281
     1
  0
DICTIONARY
  5
D9
330
1F
100
AcDbDictionary
280
     1
281
     1
  3
ACAD_LAYOUTSELFREF
360
177
  3
ACAD_SORTENTS
360
292
  0
DICTIONARY
  5
D7
330
1B
100
AcDbDictionary
280
     1
281
     1
  3
ACAD_LAYOUTSELFREF
360
176
  0
XRECORD
  5
1CC
102
{ACAD_REACTORS
330
C
102
}
330
C
100
AcDbXrecord
280
     1
300
ACDLT
300
2013
300
ACDLT_F_S
  0
DICTIONARY
  5
1AC
102
{ACAD_REACTORS
330
C
102
}
330
C
100
AcDbDictionary
281
     1
  0
DICTIONARY
  5
1C6
102
{ACAD_REACTORS
330
C
102
}
330
C
100
AcDbDictionary
281
     1
  3
Imperial24
350
1C7
  0
DICTIONARY
  5
D
102
{ACAD_REACTORS
330
C
102
}
330
C
100
AcDbDictionary
281
     1
  0
DICTIONARY
  5
1A
102
{ACAD_REACTORS
330
C
102
}
330
C
100
AcDbDictionary
281
     1
  3
Layout1
350
1C9
  3
Model
350
1C8
  0
DICTIONARY
  5
17A
102
{ACAD_REACTORS
330
C
102
}
330
C
100
AcDbDictionary
281
     1
  3
ByBlock
350
183
  3
ByLayer
350
17B
  3
Global
350
18B
  0
DICTIONARY
  5
1C1
102
{ACAD_REACTORS
330
C
102
}
330
C
100
AcDbDictionary
281
     1
  3
Standard
350
1C2
  0
DICTIONARY
  5
17
102
{ACAD_REACTORS
330
C
102
}
330
C
100
AcDbDictionary
281
     1
  3
STANDARD
350
18
  0
DICTIONARY
  5
19
102
{ACAD_REACTORS
330
C
102
}
330
C
100
AcDbDictionary
281
     1
  0
ACDBDICTIONARYWDFLT
  5
DF
102
{ACAD_REACTORS
330
C
102
}
330
C
100
AcDbDictionary
281
     1
  3
Normal
350
E0
100
AcDbDictionaryWithDefault
340
E0
  0
DICTIONARY
  5
1AF
102
{ACAD_REACTORS
330
C
102
}
330
C
100
AcDbDictionary
281
     1
  3
A0
350
1B0
  3
A1
350
1B1
  3
A2
350
1B2
  3
A3
350
1B3
  3
A4
350
1B4
  3
A5
350
1B5
  3
A6
350
1B6
  3
A7
350
1B7
  3
A8
350
1B8
  3
A9
350
1B9
  3
B0
350
1BA
  3
B1
350
1BB
  3
B2
350
1BC
  3
B3
350
1BD
  3
B4
350
1BE
  3
B5
350
1BF
  3
B6
350
1C0
  0
DICTIONARY
  5
1C3
102
{ACAD_REACTORS
330
C
102
}
330
C
100
AcDbDictionary
281
     1
  3
Imperial24
350
1C5
  0
DICTIONARY
  5
1AD
102
{ACAD_REACTORS
330
C
102
}
330
C
100
AcDbDictionary
281
     1
  3
Standard
350
1AE
  0
DICTIONARY
  5
193
102
{ACAD_REACTORS
330
C
102
}
330
C
100
AcDbDictionary
281
     1
  3
2dWireframe
350
199
  3
Basic
350
198
  3
Brighten
350
19F
  3
ColorChange
350
1A3
  3
Conceptual
350
19C
  3
Dim
350
19E
  3
EdgeColorOff
350
1AB
  3
Facepattern
350
1A2
  3
Flat
350
194
  3
FlatWithEdges
350
195
  3
Gouraud
350
196
  3
GouraudWithEdges
350
197
  3
Hidden
350
19B
  3
JitterOff
350
1A9
  3
Linepattern
350
1A1
  3
OverhangOff
350
1AA
  3
Realistic
350
19D
  3
Shaded
350
1A8
  3
Shaded with edges
350
1A7
  3
Shades of Gray
350
1A4
  3
Sketchy
350
1A5
  3
Thicken
350
1A0
  3
Wireframe
350
19A
  3
X-Ray
350
1A6
  0
XRECORD
  5
C6B
102
{ACAD_REACTORS
330
C
102
}
330
C
100
AcDbXrecord
280
     1
 90
        1
330
1AE
  0
DICTIONARY
  5
2CB
102
{ACAD_REACTORS
330
C
102
}
330
C
100
AcDbDictionary
281
     1
  3
CANNOSCALE
350
2D1
  3
CMLEADERSTYLE
350
2CD
  3
CTABLESTYLE
350
2CC
  3
CVIEWDETAILSTYLE
350
2CE
  3
CVIEWSECTIONSTYLE
350
2CF
  3
LAYEREVAL
350
2D3
  3
LAYERNOTIFY
350
2D4
  3
LIGHTINGUNITS
350
2D2
  3
MSLTSCALE
350
2D0
  0
DICTIONARY
  5
1E2
102
{ACAD_REACTORS
330
1E1
102
}
330
1E1
100
AcDbDictionary
281
     1
  0
XRECORD
  5
1CE
102
{ACAD_REACTORS
330
1CD
102
}
330
1CD
100
AcDbXrecord
280
     1
290
     1
  0
XRECORD
  5
177
102
{ACAD_REACTORS
330
D9
102
}
330
D9
100
AcDbXrecord
280
     1
340
1F
  0
SORTENTSTABLE
  5
292
102
{ACAD_REACTORS
330
D9
102
}
330
D9
100
AcDbSortentsTable
330
1F
331
92E
  5
935
331
654
  5
661
331
6B7
  5
6BA
331
BCE
  5
BCE
331
A04
  5
A0A
331
92A
  5
931
331
650
  5
659
331
33D
  5
33E
331
BCA
  5
BCA
331
A00
  5
A06
331
975
  5
6BF
331
6B3
  5
6B6
331
BC6
  5
BC6
331
9FC
  5
A02
331
971
  5
9CF
331
BC2
  5
BC2
331
9F8
  5
9FE
331
6AF
  5
6B2
331
8F6
  5
921
331
961
  5
976
331
9F4
  5
9FA
331
8F2
  5
8F6
331
8EE
  5
8F2
331
6A3
  5
6B0
331
9F0
  5
9F6
331
A6F
  5
33F
331
9EC
  5
9F2
331
959
  5
6AF
331
9E8
  5
9EE
331
68F
  5
6A2
331
68B
  5
68E
331
BED
  5
BEF
331
ABE
  5
9D2
331
9E4
  5
9EA
331
BE9
  5
BEB
331
ABA
  5
ABC
331
9E0
  5
9E6
331
9DC
  5
9E2
331
358
  5
35B
331
9D8
  5
9DE
331
663
  5
682
331
A17
  5
AAF
331
846
  5
8EE
331
A13
  5
A6F
331
9D4
  5
9DA
331
939
  5
957
331
65F
  5
676
331
AAE
  5
AB9
331
BDD
  5
BDD
331
65B
  5
664
331
A0F
  5
A15
331
9D0
  5
9D6
331
935
  5
93C
331
344
  5
347
331
BD9
  5
BD9
331
931
  5
938
331
A0B
  5
A11
331
6BA
  5
6BE
331
340
  5
343
331
AA6
  5
AB0
331
A07
  5
A0D
331
92D
  5
934
331
653
  5
660
331
A03
  5
A09
331
6B6
  5
6B9
331
33C
  5
33D
331
BCD
  5
BCD
331
9FF
  5
A05
331
91D
  5
92D
331
974
  5
9D4
331
6B2
  5
6B5
331
BC9
  5
BC9
331
9FB
  5
A01
331
BC5
  5
BC5
331
BC1
  5
BC1
331
9F7
  5
9FD
331
8F5
  5
91F
331
960
  5
975
331
9F3
  5
9F9
331
8F1
  5
8F5
331
9EF
  5
9F5
331
8ED
  5
8F1
331
6A2
  5
6A4
331
9EB
  5
9F1
331
958
  5
960
331
68E
  5
6A0
331
9E7
  5
9ED
331
954
  5
33C
331
9E3
  5
9E9
331
BEC
  5
BEE
331
682
  5
340
331
9DF
  5
9E5
331
944
  5
95B
331
35B
  5
3EA
331
BE8
  5
BEA
331
9DB
  5
9E1
331
AB1
  5
ABA
331
357
  5
35A
331
662
  5
681
331
A16
  5
AAE
331
9D7
  5
9DD
331
93C
  5
95A
331
65E
  5
675
331
347
  5
358
331
A12
  5
A3B
331
BDC
  5
BDC
331
AAD
  5
AB1
331
9D3
  5
9D9
331
938
  5
954
331
343
  5
346
331
9CF
  5
9D5
331
A0E
  5
A14
331
934
  5
93B
331
6B9
  5
6BC
331
A0A
  5
A10
331
930
  5
937
331
BD0
  5
BD0
331
33F
  5
342
331
A06
  5
A0C
331
92C
  5
933
331
652
  5
65D
331
33B
  5
33B
331
6B5
  5
6B8
331
BCC
  5
BCC
331
A02
  5
A08
331
64E
  5
658
331
BC8
  5
BC8
331
9FE
  5
A04
331
973
  5
9D3
331
6B1
  5
6B4
331
BC4
  5
BC4
331
9FA
  5
A00
331
9F6
  5
9FC
331
8F4
  5
91E
331
95F
  5
974
331
9F2
  5
9F8
331
8F0
  5
8F4
331
6A5
  5
6B1
331
9EE
  5
9F4
331
8EC
  5
8F0
331
95B
  5
971
331
9EA
  5
9F0
331
68D
  5
690
331
953
  5
95D
331
BEF
  5
BDE
331
9E6
  5
9EC
331
854
  5
8EF
331
BEB
  5
BED
331
9E2
  5
9E8
331
35E
  5
657
331
681
  5
68D
331
BE7
  5
BE9
331
9DE
  5
9E4
331
35A
  5
35E
331
9DA
  5
9E0
331
AB0
  5
92E
331
356
  5
359
331
A15
  5
A72
331
9D6
  5
9DC
331
93B
  5
959
331
661
  5
680
331
65D
  5
674
331
A11
  5
A17
331
BDB
  5
BDB
331
9D2
  5
9D8
331
937
  5
953
331
346
  5
357
331
933
  5
93A
331
A0D
  5
A13
331
6BC
  5
6C0
331
342
  5
345
331
A09
  5
A0F
331
6B8
  5
6BB
331
92F
  5
936
331
655
  5
662
331
BCF
  5
BCF
331
A05
  5
A0B
331
92B
  5
932
331
651
  5
65A
331
33E
  5
341
331
976
  5
972
331
A01
  5
A07
331
91F
  5
92F
331
6B4
  5
6B7
331
BC7
  5
BC7
331
9FD
  5
A03
331
972
  5
9D1
331
6B0
  5
6B3
331
BC3
  5
BC3
331
9F9
  5
9FF
331
9F5
  5
9FB
331
8F3
  5
91D
331
95E
  5
973
331
8EF
  5
8F3
331
9F1
  5
9F7
331
A70
  5
95C
331
6A4
  5
6A5
331
9ED
  5
9F3
331
95A
  5
961
331
6A0
  5
6A3
331
9E9
  5
9EF
331
68C
  5
68F
331
BEE
  5
BE7
331
ABF
  5
9D0
331
9E5
  5
9EB
331
BEA
  5
BEC
331
9E1
  5
9E7
331
35D
  5
656
331
680
  5
68C
331
BE6
  5
BE8
331
9DD
  5
9E3
331
359
  5
35C
331
9D9
  5
9DF
331
664
  5
68A
331
A14
  5
A70
331
BDE
  5
BE6
331
AAF
  5
930
331
9D5
  5
9DB
331
93A
  5
958
331
660
  5
67D
331
65C
  5
673
331
A10
  5
A16
331
BDA
  5
BDA
331
9D1
  5
9D7
331
936
  5
944
331
345
  5
348
331
658
  5
663
331
A0C
  5
A12
331
932
  5
939
331
341
  5
344
331
A08
  5
A0E
  0
XRECORD
  5
176
102
{ACAD_REACTORS
330
D7
102
}
330
D7
100
AcDbXrecord
280
     1
340
1B
  0
ACDBDETAILVIEWSTYLE
  5
1C7
102
{ACAD_XDICTIONARY
360
468
102
}
102
{ACAD_REACTORS
330
1C6
102
}
330
1C6
100
AcDbModelDocViewStyle
 70
     0
  3
Imperial24
290
     0
100
AcDbDetailViewStyle
 70
     0
 71
     0
 90
        3
 71
     1
340
11
 62
   256
 40
0.24
340
0
 62
   256
 40
0.24
300

 40
0.36
280
     3
 71
     2
340
16
 90
       25
 62
   256
 71
     3
340
11
 62
   256
 40
0.24
 90
        1
 40
0.75
 90
        1
300
%<\AcVar ViewType \f "%tc1">% %<\AcVar ViewDetailId>%\PVARIA %<\AcVar ViewScale \f "%sn">%
 71
     4
340
16
 90
       25
 62
   256
340
16
 90
       25
 62
   256
280
     0
  0
LAYOUT
  5
1C9
102
{ACAD_REACTORS
330
1A
102
}
330
1A
100
AcDbPlotSettings
  1

  2
\\srvadruck01\MFSA15
  4

  6

 40
0.0
 41
0.0
 42
0.0
 43
0.0
 44
0.0
 45
0.0
 46
0.0
 47
0.0
 48
0.0
 49
0.0
140
0.0
141
0.0
142
1.0
143
1.0
 70
   688
 72
     0
 73
     0
 74
     5
  7

 75
    16
147
1.0
 76
     0
 77
     2
 78
   300
148
0.0
149
0.0
100
AcDbLayout
  1
Layout1
 70
     1
 71
     1
 10
0.0
 20
0.0
 11
12.0
 21
9.0
 12
0.0
 22
0.0
 32
0.0
 14
1.000000000000000E+20
 24
1.000000000000000E+20
 34
1.000000000000000E+20
 15
-1.000000000000000E+20
 25
-1.000000000000000E+20
 35
-1.000000000000000E+20
146
0.0
 13
0.0
 23
0.0
 33
0.0
 16
1.0
 26
0.0
 36
0.0
 17
0.0
 27
1.0
 37
0.0
 76
     0
330
1B
  0
LAYOUT
  5
1C8
102
{ACAD_REACTORS
330
1A
102
}
330
1A
100
AcDbPlotSettings
  1

  2
\\srvadruck01\MFSA15
  4
A4
  6

 40
5.027082920074462
 41
5.027099609375
 42
5.027069091796875
 43
5.027069091796875
 44
209.9733276367186
 45
296.9259948730469
 46
0.0
 47
0.0
 48
0.0
 49
0.0
140
0.0
141
0.0
142
1.0
143
250.9557649309207
 70
 11952
 72
     0
 73
     1
 74
     0
  7

 75
     0
147
0.003984766001591
 76
     0
 77
     2
 78
   300
148
18758.74732672532
149
6385.478578639141
100
AcDbLayout
  1
Model
 70
     1
 71
     0
 10
0.0
 20
0.0
 11
12.0
 21
9.0
 12
0.0
 22
0.0
 32
0.0
 14
0.0
 24
0.0
 34
0.0
 15
0.0
 25
0.0
 35
0.0
146
0.0
 13
0.0
 23
0.0
 33
0.0
 16
1.0
 26
0.0
 36
0.0
 17
0.0
 27
1.0
 37
0.0
 76
     0
330
1F
331
155
1001
ACAD_PSEXT
1000
\\srvadruck01\MFSA15
1000
KONICA MINOLTA C754SeriesPCL
1000
Marketing
1000

1070
     0
  0
MATERIAL
  5
183
102
{ACAD_XDICTIONARY
360
184
102
}
102
{ACAD_REACTORS
330
17A
102
}
330
17A
100
AcDbMaterial
  1
ByBlock
 72
     0
 43
0.0208333333333333
 43
0.0
 43
0.0
 43
0.0
 43
0.0
 43
0.0208333333333333
 43
0.0
 43
0.0
 43
0.0
 43
0.0
 43
1.0
 43
0.0
 43
0.0
 43
0.0
 43
0.0
 43
1.0
 77
     0
 47
0.0208333333333333
 47
0.0
 47
0.0
 47
0.0
 47
0.0
 47
0.0208333333333333
 47
0.0
 47
0.0
 47
0.0
 47
0.0
 47
1.0
 47
0.0
 47
0.0
 47
0.0
 47
0.0
 47
1.0
171
     0
 49
0.0208333333333333
 49
0.0
 49
0.0
 49
0.0
 49
0.0
 49
0.0208333333333333
 49
0.0
 49
0.0
 49
0.0
 49
0.0
 49
1.0
 49
0.0
 49
0.0
 49
0.0
 49
0.0
 49
1.0
175
     0
142
0.0208333333333333
142
0.0
142
0.0
142
0.0
142
0.0
142
0.0208333333333333
142
0.0
142
0.0
142
0.0
142
0.0
142
1.0
142
0.0
142
0.0
142
0.0
142
0.0
142
1.0
179
     0
144
0.0208333333333333
144
0.0
144
0.0
144
0.0
144
0.0
144
0.0208333333333333
144
0.0
144
0.0
144
0.0
144
0.0
144
1.0
144
0.0
144
0.0
144
0.0
144
0.0
144
1.0
147
0.0208333333333333
147
0.0
147
0.0
147
0.0
147
0.0
147
0.0208333333333333
147
0.0
147
0.0
147
0.0
147
0.0
147
1.0
147
0.0
147
0.0
147
0.0
147
0.0
147
1.0
  0
MATERIAL
  5
17B
102
{ACAD_XDICTIONARY
360
17C
102
}
102
{ACAD_REACTORS
330
17A
102
}
330
17A
100
AcDbMaterial
  1
ByLayer
 72
     0
 43
0.0208333333333333
 43
0.0
 43
0.0
 43
0.0
 43
0.0
 43
0.0208333333333333
 43
0.0
 43
0.0
 43
0.0
 43
0.0
 43
1.0
 43
0.0
 43
0.0
 43
0.0
 43
0.0
 43
1.0
 77
     0
 47
0.0208333333333333
 47
0.0
 47
0.0
 47
0.0
 47
0.0
 47
0.0208333333333333
 47
0.0
 47
0.0
 47
0.0
 47
0.0
 47
1.0
 47
0.0
 47
0.0
 47
0.0
 47
0.0
 47
1.0
171
     0
 49
0.0208333333333333
 49
0.0
 49
0.0
 49
0.0
 49
0.0
 49
0.0208333333333333
 49
0.0
 49
0.0
 49
0.0
 49
0.0
 49
1.0
 49
0.0
 49
0.0
 49
0.0
 49
0.0
 49
1.0
175
     0
142
0.0208333333333333
142
0.0
142
0.0
142
0.0
142
0.0
142
0.0208333333333333
142
0.0
142
0.0
142
0.0
142
0.0
142
1.0
142
0.0
142
0.0
142
0.0
142
0.0
142
1.0
179
     0
144
0.0208333333333333
144
0.0
144
0.0
144
0.0
144
0.0
144
0.0208333333333333
144
0.0
144
0.0
144
0.0
144
0.0
144
1.0
144
0.0
144
0.0
144
0.0
144
0.0
144
1.0
147
0.0208333333333333
147
0.0
147
0.0
147
0.0
147
0.0
147
0.0208333333333333
147
0.0
147
0.0
147
0.0
147
0.0
147
1.0
147
0.0
147
0.0
147
0.0
147
0.0
147
1.0
  0
MATERIAL
  5
18B
102
{ACAD_XDICTIONARY
360
18C
102
}
102
{ACAD_REACTORS
330
17A
102
}
330
17A
100
AcDbMaterial
  1
Global
 72
     0
 43
0.0208333333333333
 43
0.0
 43
0.0
 43
0.0
 43
0.0
 43
0.0208333333333333
 43
0.0
 43
0.0
 43
0.0
 43
0.0
 43
1.0
 43
0.0
 43
0.0
 43
0.0
 43
0.0
 43
1.0
 77
     0
 47
0.0208333333333333
 47
0.0
 47
0.0
 47
0.0
 47
0.0
 47
0.0208333333333333
 47
0.0
 47
0.0
 47
0.0
 47
0.0
 47
1.0
 47
0.0
 47
0.0
 47
0.0
 47
0.0
 47
1.0
171
     0
 49
0.0208333333333333
 49
0.0
 49
0.0
 49
0.0
 49
0.0
 49
0.0208333333333333
 49
0.0
 49
0.0
 49
0.0
 49
0.0
 49
1.0
 49
0.0
 49
0.0
 49
0.0
 49
0.0
 49
1.0
175
     0
142
0.0208333333333333
142
0.0
142
0.0
142
0.0
142
0.0
142
0.0208333333333333
142
0.0
142
0.0
142
0.0
142
0.0
142
1.0
142
0.0
142
0.0
142
0.0
142
0.0
142
1.0
179
     0
144
0.0208333333333333
144
0.0
144
0.0
144
0.0
144
0.0
144
0.0208333333333333
144
0.0
144
0.0
144
0.0
144
0.0
144
1.0
144
0.0
144
0.0
144
0.0
144
0.0
144
1.0
147
0.0208333333333333
147
0.0
147
0.0
147
0.0
147
0.0
147
0.0208333333333333
147
0.0
147
0.0
147
0.0
147
0.0
147
1.0
147
0.0
147
0.0
147
0.0
147
0.0
147
1.0
  0
MLEADERSTYLE
  5
1C2
102
{ACAD_REACTORS
330
1C1
102
}
330
1C1
100
AcDbMLeaderStyle
179
     2
170
     2
171
     1
172
     0
 90
        2
 40
0.0
 41
0.0
173
     1
 91
-1056964608
340
14
 92
       -2
290
     1
 42
0.09
291
     1
 43
0.36
  3
Standard
 44
0.18
300

342
11
174
     1
178
     6
175
     1
176
     0
 93
-1056964608
 45
0.18
292
     0
297
     0
 46
0.18
 94
-1056964608
 47
1.0
 49
1.0
140
1.0
293
     1
141
0.0
294
     1
177
     0
142
1.0
295
     0
296
     0
143
0.125
271
     0
272
     9
273
     9
  0
MLINESTYLE
  5
18
102
{ACAD_REACTORS
330
17
102
}
330
17
100
AcDbMlineStyle
  2
STANDARD
 70
     0
  3

 62
   256
 51
90.0
 52
90.0
 71
     2
 49
0.5
 62
   256
  6
BYLAYER
 49
-0.5
 62
   256
  6
BYLAYER
  0
ACDBPLACEHOLDER
  5
E0
102
{ACAD_REACTORS
330
DF
102
}
330
DF
  0
SCALE
  5
1B0
102
{ACAD_REACTORS
330
1AF
102
}
330
1AF
100
AcDbScale
 70
     0
300
1:1
140
1.0
141
1.0
290
     1
  0
SCALE
  5
1B1
102
{ACAD_REACTORS
330
1AF
102
}
330
1AF
100
AcDbScale
 70
     0
300
1/128" = 1'-0"
140
0.0078125
141
12.0
290
     0
  0
SCALE
  5
1B2
102
{ACAD_REACTORS
330
1AF
102
}
330
1AF
100
AcDbScale
 70
     0
300
1/64" = 1'-0"
140
0.015625
141
12.0
290
     0
  0
SCALE
  5
1B3
102
{ACAD_REACTORS
330
1AF
102
}
330
1AF
100
AcDbScale
 70
     0
300
1/32" = 1'-0"
140
0.03125
141
12.0
290
     0
  0
SCALE
  5
1B4
102
{ACAD_REACTORS
330
1AF
102
}
330
1AF
100
AcDbScale
 70
     0
300
1/16" = 1'-0"
140
0.0625
141
12.0
290
     0
  0
SCALE
  5
1B5
102
{ACAD_REACTORS
330
1AF
102
}
330
1AF
100
AcDbScale
 70
     0
300
3/32" = 1'-0"
140
0.09375
141
12.0
290
     0
  0
SCALE
  5
1B6
102
{ACAD_REACTORS
330
1AF
102
}
330
1AF
100
AcDbScale
 70
     0
300
1/8" = 1'-0"
140
0.125
141
12.0
290
     0
  0
SCALE
  5
1B7
102
{ACAD_REACTORS
330
1AF
102
}
330
1AF
100
AcDbScale
 70
     0
300
3/16" = 1'-0"
140
0.1875
141
12.0
290
     0
  0
SCALE
  5
1B8
102
{ACAD_REACTORS
330
1AF
102
}
330
1AF
100
AcDbScale
 70
     0
300
1/4" = 1'-0"
140
0.25
141
12.0
290
     0
  0
SCALE
  5
1B9
102
{ACAD_REACTORS
330
1AF
102
}
330
1AF
100
AcDbScale
 70
     0
300
3/8" = 1'-0"
140
0.375
141
12.0
290
     0
  0
SCALE
  5
1BA
102
{ACAD_REACTORS
330
1AF
102
}
330
1AF
100
AcDbScale
 70
     0
300
1/2" = 1'-0"
140
0.5
141
12.0
290
     0
  0
SCALE
  5
1BB
102
{ACAD_REACTORS
330
1AF
102
}
330
1AF
100
AcDbScale
 70
     0
300
3/4" = 1'-0"
140
0.75
141
12.0
290
     0
  0
SCALE
  5
1BC
102
{ACAD_REACTORS
330
1AF
102
}
330
1AF
100
AcDbScale
 70
     0
300
1" = 1'-0"
140
1.0
141
12.0
290
     0
  0
SCALE
  5
1BD
102
{ACAD_REACTORS
330
1AF
102
}
330
1AF
100
AcDbScale
 70
     0
300
1-1/2" = 1'-0"
140
1.5
141
12.0
290
     0
  0
SCALE
  5
1BE
102
{ACAD_REACTORS
330
1AF
102
}
330
1AF
100
AcDbScale
 70
     0
300
3" = 1'-0"
140
3.0
141
12.0
290
     0
  0
SCALE
  5
1BF
102
{ACAD_REACTORS
330
1AF
102
}
330
1AF
100
AcDbScale
 70
     0
300
6" = 1'-0"
140
6.0
141
12.0
290
     0
  0
SCALE
  5
1C0
102
{ACAD_REACTORS
330
1AF
102
}
330
1AF
100
AcDbScale
 70
     0
300
1'-0" = 1'-0"
140
12.0
141
12.0
290
     0
  0
ACDBSECTIONVIEWSTYLE
  5
1C5
102
{ACAD_XDICTIONARY
360
466
102
}
102
{ACAD_REACTORS
330
1C3
102
}
330
1C3
100
AcDbModelDocViewStyle
 70
     0
  3
Imperial24
290
     0
100
AcDbSectionViewStyle
 70
     0
 71
     0
 90
       78
 71
     1
340
11
 62
   256
 40
0.24
340
0
340
0
 62
   256
 40
0.24
300
I, O, Q, S, X, Z
 40
0.48
 90
        3
 40
0.18
 90
        1
 71
     2
340
1C4
 90
       25
 62
   256
340
16
 90
       50
 62
   256
 40
0.24
 40
0.0
 40
0.24
 71
     3
340
11
 62
   256
 40
0.24
 90
        1
 40
0.75
 90
        1
300
%<\AcVar ViewType \f "%tc1">% %<\AcVar ViewSectionStartId>%-%<\AcVar ViewSectionEndId>%\PVARIA %<\AcVar ViewScale \f "%sn">%
 71
     4
 62
   256
 62
   257
300
ANSI31
 40
1.0
 90
        0
290
     0
290
     0
 90
        6
 40
0.0
 40
1.570796326794896
 40
0.2617993877991494
 40
1.308996938995747
 40
-0.2617993877991494
 40
1.832595714594044
  0
TABLESTYLE
  5
1AE
102
{ACAD_XDICTIONARY
360
35F
102
}
102
{ACAD_REACTORS
330
1AD
102
}
330
1AD
100
AcDbTableStyle
280
     0
  3
Standard
 70
     0
 71
     0
 40
0.06
 41
0.06
280
     0
281
     0
  7
STANDARD
140
0.18
170
     2
 62
     0
 63
     7
283
     0
 90
      512
 91
        0
  1

274
    -2
284
     1
 64
     0
275
    -2
285
     1
 65
     0
276
    -2
286
     1
 66
     0
277
    -2
287
     1
 67
     0
278
    -2
288
     1
 68
     0
279
    -2
289
     1
 69
     0
  7
STANDARD
140
0.25
170
     5
 62
     0
 63
     7
283
     0
 90
      512
 91
        0
  1

274
    -2
284
     1
 64
     0
275
    -2
285
     1
 65
     0
276
    -2
286
     1
 66
     0
277
    -2
287
     1
 67
     0
278
    -2
288
     1
 68
     0
279
    -2
289
     1
 69
     0
  7
STANDARD
140
0.18
170
     5
 62
     0
 63
     7
283
     0
 90
      512
 91
        0
  1

274
    -2
284
     1
 64
     0
275
    -2
285
     1
 65
     0
276
    -2
286
     1
 66
     0
277
    -2
287
     1
 67
     0
278
    -2
288
     1
 68
     0
279
    -2
289
     1
 69
     0
  0
VISUALSTYLE
  5
199
102
{ACAD_XDICTIONARY
360
C76
102
}
102
{ACAD_REACTORS
330
193
102
}
330
193
100
AcDbVisualStyle
  2
2dWireframe
 70
     4
177
     2
291
     0
 71
     0
176
     1
 72
     2
176
     1
 73
     0
176
     1
 90
        0
176
     1
 40
0.6
176
     1
 41
30.0
176
     1
 63
     7
421
 16777215
176
     1
 74
     1
176
     1
 91
        4
176
     1
 64
     7
176
     1
 65
   257
176
     1
 75
     1
176
     1
175
     1
176
     1
 42
1.0
176
     1
 92
        0
176
     1
 66
   257
176
     1
 43
1.0
176
     1
 76
     1
176
     1
 77
     6
176
     1
 78
     2
176
     1
 67
     7
176
     1
 79
     5
176
     1
170
     0
176
     1
171
     0
176
     1
290
     0
176
     1
 93
        1
176
     1
 44
0.0
176
     1
173
     0
176
     1
1001
ACAD
1000
AcDbSavedByObjectVersion
1070
     0
  0
VISUALSTYLE
  5
198
102
{ACAD_XDICTIONARY
360
C74
102
}
102
{ACAD_REACTORS
330
193
102
}
330
193
100
AcDbVisualStyle
  2
Basic
 70
     7
177
     2
291
     1
 71
     1
176
     1
 72
     0
176
     1
 73
     1
176
     1
 90
        0
176
     1
 40
0.6
176
     1
 41
30.0
176
     1
 63
     7
421
 16777215
176
     1
 74
     0
176
     1
 91
        4
176
     1
 64
     7
176
     1
 65
   257
176
     1
 75
     1
176
     1
175
     1
176
     1
 42
1.0
176
     1
 92
        8
176
     1
 66
     7
176
     1
 43
1.0
176
     1
 76
     1
176
     1
 77
     6
176
     1
 78
     2
176
     1
 67
     7
176
     1
 79
     5
176
     1
170
     0
176
     1
171
     0
176
     1
290
     0
176
     1
 93
        1
176
     1
 44
0.0
176
     1
173
     0
176
     1
1001
ACAD
1000
AcDbSavedByObjectVersion
1070
     0
  0
VISUALSTYLE
  5
19F
102
{ACAD_XDICTIONARY
360
C82
102
}
102
{ACAD_REACTORS
330
193
102
}
330
193
100
AcDbVisualStyle
  2
Brighten
 70
    12
177
     2
291
     1
 71
     2
176
     1
 72
     2
176
     1
 73
     0
176
     1
 90
        0
176
     1
 40
0.6
176
     1
 41
30.0
176
     1
 63
     7
421
 16777215
176
     1
 74
     1
176
     1
 91
        4
176
     1
 64
     7
176
     1
 65
   257
176
     1
 75
     1
176
     1
175
     1
176
     1
 42
1.0
176
     1
 92
        8
176
     1
 66
     7
176
     1
 43
1.0
176
     1
 76
     1
176
     1
 77
     6
176
     1
 78
     2
176
     1
 67
     7
176
     1
 79
     5
176
     1
170
     0
176
     1
171
     0
176
     1
290
     0
176
     1
 93
        1
176
     1
 44
50.0
176
     1
173
     0
176
     1
1001
ACAD
1000
AcDbSavedByObjectVersion
1070
     0
  0
VISUALSTYLE
  5
1A3
102
{ACAD_XDICTIONARY
360
C8A
102
}
102
{ACAD_REACTORS
330
193
102
}
330
193
100
AcDbVisualStyle
  2
ColorChange
 70
    16
177
     2
291
     1
 71
     2
176
     1
 72
     2
176
     1
 73
     3
176
     1
 90
        0
176
     1
 40
0.6
176
     1
 41
30.0
176
     1
 63
     8
421
  8421504
176
     1
 74
     1
176
     1
 91
        4
176
     1
 64
     7
176
     1
 65
   257
176
     1
 75
     1
176
     1
175
     1
176
     1
 42
1.0
176
     1
 92
        8
176
     1
 66
     8
424
  8421504
176
     1
 43
1.0
176
     1
 76
     1
176
     1
 77
     6
176
     1
 78
     2
176
     1
 67
     7
176
     1
 79
     5
176
     1
170
     0
176
     1
171
     0
176
     1
290
     0
176
     1
 93
        1
176
     1
 44
0.0
176
     1
173
     0
176
     1
1001
ACAD
1000
AcDbSavedByObjectVersion
1070
     0
  0
VISUALSTYLE
  5
19C
102
{ACAD_XDICTIONARY
360
C7C
102
}
102
{ACAD_REACTORS
330
193
102
}
330
193
100
AcDbVisualStyle
  2
Conceptual
 70
     9
177
     2
291
     0
 71
     3
176
     1
 72
     2
176
     1
 73
     0
176
     1
 90
        0
176
     1
 40
0.6
176
     1
 41
30.0
176
     1
 63
     7
421
 16777215
176
     1
 74
     2
176
     1
 91
        2
176
     1
 64
     7
176
     1
 65
   257
176
     1
 75
     1
176
     1
175
     1
176
     1
 42
179.0
176
     1
 92
        8
176
     1
 66
     7
176
     1
 43
1.0
176
     1
 76
     1
176
     1
 77
     6
176
     1
 78
     2
176
     1
 67
     7
176
     1
 79
     3
176
     1
170
     0
176
     1
171
     0
176
     1
290
     0
176
     1
 93
        1
176
     1
 44
0.0
176
     1
173
     0
176
     1
1001
ACAD
1000
AcDbSavedByObjectVersion
1070
     0
  0
VISUALSTYLE
  5
19E
102
{ACAD_XDICTIONARY
360
C80
102
}
102
{ACAD_REACTORS
330
193
102
}
330
193
100
AcDbVisualStyle
  2
Dim
 70
    11
177
     2
291
     1
 71
     2
176
     1
 72
     2
176
     1
 73
     0
176
     1
 90
        0
176
     1
 40
0.6
176
     1
 41
30.0
176
     1
 63
     7
421
 16777215
176
     1
 74
     1
176
     1
 91
        4
176
     1
 64
     7
176
     1
 65
   257
176
     1
 75
     1
176
     1
175
     1
176
     1
 42
1.0
176
     1
 92
        8
176
     1
 66
     7
176
     1
 43
1.0
176
     1
 76
     1
176
     1
 77
     6
176
     1
 78
     2
176
     1
 67
     7
176
     1
 79
     5
176
     1
170
     0
176
     1
171
     0
176
     1
290
     0
176
     1
 93
        1
176
     1
 44
-50.0
176
     1
173
     0
176
     1
1001
ACAD
1000
AcDbSavedByObjectVersion
1070
     0
  0
VISUALSTYLE
  5
1AB
102
{ACAD_XDICTIONARY
360
C9A
102
}
102
{ACAD_REACTORS
330
193
102
}
330
193
100
AcDbVisualStyle
  2
EdgeColorOff
 70
    22
177
     2
291
     1
 71
     2
176
     0
 72
     2
176
     0
 73
     0
176
     0
 90
        0
176
     0
 40
0.6
176
     0
 41
30.0
176
     0
 63
     7
421
 16777215
176
     0
 74
     1
176
     0
 91
        4
176
     0
 64
     7
176
     0
 65
   257
176
     0
 75
     1
176
     0
175
     1
176
     0
 42
1.0
176
     0
 92
        8
176
     2
 66
     7
176
     0
 43
1.0
176
     0
 76
     1
176
     0
 77
     6
176
     0
 78
     2
176
     0
 67
     7
176
     0
 79
     5
176
     0
170
     0
176
     0
171
     0
176
     0
290
     0
176
     0
 93
        1
176
     0
 44
0.0
176
     0
173
     0
176
     0
1001
ACAD
1000
AcDbSavedByObjectVersion
1070
     0
  0
VISUALSTYLE
  5
1A2
102
{ACAD_XDICTIONARY
360
C88
102
}
102
{ACAD_REACTORS
330
193
102
}
330
193
100
AcDbVisualStyle
  2
Facepattern
 70
    15
177
     2
291
     1
 71
     2
176
     1
 72
     2
176
     1
 73
     0
176
     1
 90
        0
176
     1
 40
0.6
176
     1
 41
30.0
176
     1
 63
     7
421
 16777215
176
     1
 74
     1
176
     1
 91
        4
176
     1
 64
     7
176
     1
 65
   257
176
     1
 75
     1
176
     1
175
     1
176
     1
 42
1.0
176
     1
 92
        8
176
     1
 66
     7
176
     1
 43
1.0
176
     1
 76
     1
176
     1
 77
     6
176
     1
 78
     2
176
     1
 67
     7
176
     1
 79
     5
176
     1
170
     0
176
     1
171
     0
176
     1
290
     0
176
     1
 93
        1
176
     1
 44
0.0
176
     1
173
     0
176
     1
1001
ACAD
1000
AcDbSavedByObjectVersion
1070
     0
  0
VISUALSTYLE
  5
194
102
{ACAD_XDICTIONARY
360
C6C
102
}
102
{ACAD_REACTORS
330
193
102
}
330
193
100
AcDbVisualStyle
  2
Flat
 70
     0
177
     2
291
     1
 71
     2
176
     1
 72
     1
176
     1
 73
     1
176
     1
 90
        2
176
     1
 40
0.6
176
     1
 41
30.0
176
     1
 63
     7
421
 16777215
176
     1
 74
     0
176
     1
 91
        0
176
     1
 64
     7
176
     1
 65
   257
176
     1
 75
     1
176
     1
175
     1
176
     1
 42
1.0
176
     1
 92
        8
176
     1
 66
     7
176
     1
 43
1.0
176
     1
 76
     1
176
     1
 77
     6
176
     1
 78
     2
176
     1
 67
     7
176
     1
 79
     5
176
     1
170
     0
176
     1
171
     0
176
     1
290
     0
176
     1
 93
       13
176
     1
 44
0.0
176
     1
173
     0
176
     1
1001
ACAD
1000
AcDbSavedByObjectVersion
1070
     0
  0
VISUALSTYLE
  5
195
102
{ACAD_XDICTIONARY
360
C6E
102
}
102
{ACAD_REACTORS
330
193
102
}
330
193
100
AcDbVisualStyle
  2
FlatWithEdges
 70
     1
177
     2
291
     1
 71
     2
176
     1
 72
     1
176
     1
 73
     1
176
     1
 90
        2
176
     1
 40
0.6
176
     1
 41
30.0
176
     1
 63
     7
421
 16777215
176
     1
 74
     1
176
     1
 91
        0
176
     1
 64
     7
176
     1
 65
   257
176
     1
 75
     1
176
     1
175
     1
176
     1
 42
1.0
176
     1
 92
        0
176
     1
 66
   257
176
     1
 43
1.0
176
     1
 76
     1
176
     1
 77
     6
176
     1
 78
     2
176
     1
 67
     7
176
     1
 79
     5
176
     1
170
     0
176
     1
171
     0
176
     1
290
     0
176
     1
 93
       13
176
     1
 44
0.0
176
     1
173
     0
176
     1
1001
ACAD
1000
AcDbSavedByObjectVersion
1070
     0
  0
VISUALSTYLE
  5
196
102
{ACAD_XDICTIONARY
360
C70
102
}
102
{ACAD_REACTORS
330
193
102
}
330
193
100
AcDbVisualStyle
  2
Gouraud
 70
     2
177
     2
291
     1
 71
     2
176
     1
 72
     2
176
     1
 73
     1
176
     1
 90
        2
176
     1
 40
0.6
176
     1
 41
30.0
176
     1
 63
     7
421
 16777215
176
     1
 74
     0
176
     1
 91
        0
176
     1
 64
     7
176
     1
 65
   257
176
     1
 75
     1
176
     1
175
     1
176
     1
 42
1.0
176
     1
 92
        0
176
     1
 66
     7
176
     1
 43
1.0
176
     1
 76
     1
176
     1
 77
     6
176
     1
 78
     2
176
     1
 67
     7
176
     1
 79
     5
176
     1
170
     0
176
     1
171
     0
176
     1
290
     0
176
     1
 93
       13
176
     1
 44
0.0
176
     1
173
     0
176
     1
1001
ACAD
1000
AcDbSavedByObjectVersion
1070
     0
  0
VISUALSTYLE
  5
197
102
{ACAD_XDICTIONARY
360
C72
102
}
102
{ACAD_REACTORS
330
193
102
}
330
193
100
AcDbVisualStyle
  2
GouraudWithEdges
 70
     3
177
     2
291
     1
 71
     2
176
     1
 72
     2
176
     1
 73
     1
176
     1
 90
        2
176
     1
 40
0.6
176
     1
 41
30.0
176
     1
 63
     7
421
 16777215
176
     1
 74
     1
176
     1
 91
        0
176
     1
 64
     7
176
     1
 65
   257
176
     1
 75
     1
176
     1
175
     1
176
     1
 42
1.0
176
     1
 92
        0
176
     1
 66
   257
176
     1
 43
1.0
176
     1
 76
     1
176
     1
 77
     6
176
     1
 78
     2
176
     1
 67
     7
176
     1
 79
     5
176
     1
170
     0
176
     1
171
     0
176
     1
290
     0
176
     1
 93
       13
176
     1
 44
0.0
176
     1
173
     0
176
     1
1001
ACAD
1000
AcDbSavedByObjectVersion
1070
     0
  0
VISUALSTYLE
  5
19B
102
{ACAD_XDICTIONARY
360
C7A
102
}
102
{ACAD_REACTORS
330
193
102
}
330
193
100
AcDbVisualStyle
  2
Hidden
 70
     6
177
     2
291
     0
 71
     1
176
     1
 72
     2
176
     1
 73
     2
176
     1
 90
        0
176
     1
 40
0.6
176
     1
 41
30.0
176
     1
 63
     7
421
 16777215
176
     1
 74
     2
176
     1
 91
        2
176
     1
 64
     7
176
     1
 65
   257
176
     1
 75
     2
176
     1
175
     1
176
     1
 42
40.0
176
     1
 92
        0
176
     1
 66
   257
176
     1
 43
1.0
176
     1
 76
     1
176
     1
 77
     6
176
     1
 78
     2
176
     1
 67
     7
176
     1
 79
     3
176
     1
170
     0
176
     1
171
     0
176
     1
290
     0
176
     1
 93
        1
176
     1
 44
0.0
176
     1
173
     0
176
     1
1001
ACAD
1000
AcDbSavedByObjectVersion
1070
     0
  0
VISUALSTYLE
  5
1A9
102
{ACAD_XDICTIONARY
360
C96
102
}
102
{ACAD_REACTORS
330
193
102
}
330
193
100
AcDbVisualStyle
  2
JitterOff
 70
    20
177
     2
291
     1
 71
     2
176
     0
 72
     2
176
     0
 73
     0
176
     0
 90
        0
176
     0
 40
0.6
176
     0
 41
30.0
176
     0
 63
     7
421
 16777215
176
     0
 74
     1
176
     0
 91
        4
176
     0
 64
     7
176
     0
 65
   257
176
     0
 75
     1
176
     0
175
     1
176
     0
 42
1.0
176
     0
 92
       10
176
     2
 66
     7
176
     0
 43
1.0
176
     0
 76
     1
176
     0
 77
     6
176
     0
 78
     2
176
     0
 67
     7
176
     0
 79
     5
176
     0
170
     0
176
     0
171
     0
176
     0
290
     0
176
     0
 93
        1
176
     0
 44
0.0
176
     0
173
     0
176
     0
1001
ACAD
1000
AcDbSavedByObjectVersion
1070
     0
  0
VISUALSTYLE
  5
1A1
102
{ACAD_XDICTIONARY
360
C86
102
}
102
{ACAD_REACTORS
330
193
102
}
330
193
100
AcDbVisualStyle
  2
Linepattern
 70
    14
177
     2
291
     1
 71
     2
176
     1
 72
     2
176
     1
 73
     0
176
     1
 90
        0
176
     1
 40
0.6
176
     1
 41
30.0
176
     1
 63
     7
421
 16777215
176
     1
 74
     1
176
     1
 91
        4
176
     1
 64
     7
176
     1
 65
   257
176
     1
 75
     7
176
     1
175
     7
176
     1
 42
1.0
176
     1
 92
        8
176
     1
 66
     7
176
     1
 43
1.0
176
     1
 76
     1
176
     1
 77
     6
176
     1
 78
     2
176
     1
 67
     7
176
     1
 79
     5
176
     1
170
     0
176
     1
171
     0
176
     1
290
     0
176
     1
 93
        1
176
     1
 44
0.0
176
     1
173
     0
176
     1
1001
ACAD
1000
AcDbSavedByObjectVersion
1070
     0
  0
VISUALSTYLE
  5
1AA
102
{ACAD_XDICTIONARY
360
C98
102
}
102
{ACAD_REACTORS
330
193
102
}
330
193
100
AcDbVisualStyle
  2
OverhangOff
 70
    21
177
     2
291
     1
 71
     2
176
     0
 72
     2
176
     0
 73
     0
176
     0
 90
        0
176
     0
 40
0.6
176
     0
 41
30.0
176
     0
 63
     7
421
 16777215
176
     0
 74
     1
176
     0
 91
        4
176
     0
 64
     7
176
     0
 65
   257
176
     0
 75
     1
176
     0
175
     1
176
     0
 42
1.0
176
     0
 92
        9
176
     2
 66
     7
176
     0
 43
1.0
176
     0
 76
     1
176
     0
 77
     6
176
     0
 78
     2
176
     0
 67
     7
176
     0
 79
     5
176
     0
170
     0
176
     0
171
     0
176
     0
290
     0
176
     0
 93
        1
176
     0
 44
0.0
176
     0
173
     0
176
     0
1001
ACAD
1000
AcDbSavedByObjectVersion
1070
     0
  0
VISUALSTYLE
  5
19D
102
{ACAD_XDICTIONARY
360
C7E
102
}
102
{ACAD_REACTORS
330
193
102
}
330
193
100
AcDbVisualStyle
  2
Realistic
 70
     8
177
     2
291
     0
 71
     2
176
     1
 72
     3
176
     1
 73
     0
176
     1
 90
        2
176
     1
 40
0.6
176
     1
 41
30.0
176
     1
 63
     7
421
 16777215
176
     1
 74
     0
176
     1
 91
        0
176
     1
 64
     7
176
     1
 65
   257
176
     1
 75
     1
176
     1
175
     1
176
     1
 42
1.0
176
     1
 92
        8
176
     1
 66
   257
176
     1
 43
1.0
176
     1
 76
     1
176
     1
 77
     6
176
     1
 78
     2
176
     1
 67
     7
176
     1
 79
     3
176
     1
170
     0
176
     1
171
     0
176
     1
290
     0
176
     1
 93
       13
176
     1
 44
0.0
176
     1
173
     0
176
     1
1001
ACAD
1000
AcDbSavedByObjectVersion
1070
     0
  0
VISUALSTYLE
  5
1A8
102
{ACAD_XDICTIONARY
360
C94
102
}
102
{ACAD_REACTORS
330
193
102
}
330
193
100
AcDbVisualStyle
  2
Shaded
 70
    27
177
     2
291
     0
 71
     2
176
     1
 72
     2
176
     1
 73
     1
176
     1
 90
        2
176
     1
 40
0.6
176
     1
 41
30.0
176
     1
 63
     7
421
 16777215
176
     1
 74
     0
176
     1
 91
        4
176
     1
 64
     7
176
     1
 65
   257
176
     1
 75
     1
176
     1
175
     1
176
     1
 42
1.0
176
     1
 92
        8
176
     1
 66
   257
176
     1
 43
1.0
176
     1
 76
     1
176
     1
 77
     6
176
     1
 78
     2
176
     1
 67
     8
425
  7895160
176
     1
 79
     3
176
     1
170
     0
176
     1
171
     0
176
     1
290
     0
176
     1
 93
        5
176
     1
 44
0.0
176
     1
173
     0
176
     1
1001
ACAD
1000
AcDbSavedByObjectVersion
1070
     0
  0
VISUALSTYLE
  5
1A7
102
{ACAD_XDICTIONARY
360
C92
102
}
102
{ACAD_REACTORS
330
193
102
}
330
193
100
AcDbVisualStyle
  2
Shaded with edges
 70
    26
177
     2
291
     0
 71
     2
176
     1
 72
     2
176
     1
 73
     1
176
     1
 90
        2
176
     1
 40
0.6
176
     1
 41
30.0
176
     1
 63
     7
421
 16777215
176
     1
 74
     1
176
     1
 91
        2
176
     1
 64
     7
176
     1
 65
   257
176
     1
 75
     2
176
     1
175
     1
176
     1
 42
1.0
176
     1
 92
        8
176
     1
 66
   257
176
     1
 43
1.0
176
     1
 76
     1
176
     1
 77
     6
176
     1
 78
     2
176
     1
 67
     7
176
     1
 79
     3
176
     1
170
     0
176
     1
171
     0
176
     1
290
     0
176
     1
 93
        5
176
     1
 44
0.0
176
     1
173
     0
176
     1
1001
ACAD
1000
AcDbSavedByObjectVersion
1070
     0
  0
VISUALSTYLE
  5
1A4
102
{ACAD_XDICTIONARY
360
C8C
102
}
102
{ACAD_REACTORS
330
193
102
}
330
193
100
AcDbVisualStyle
  2
Shades of Gray
 70
    23
177
     2
291
     0
 71
     2
176
     1
 72
     2
176
     1
 73
     3
176
     1
 90
        0
176
     1
 40
0.6
176
     1
 41
30.0
176
     1
 63
     7
421
 16777215
176
     1
 74
     2
176
     1
 91
        2
176
     1
 64
     7
176
     1
 65
     7
176
     1
 75
     1
176
     1
175
     1
176
     1
 42
40.0
176
     1
 92
        8
176
     1
 66
     7
176
     1
 43
1.0
176
     1
 76
     1
176
     1
 77
     6
176
     1
 78
     2
176
     1
 67
     7
176
     1
 79
     3
176
     1
170
     0
176
     1
171
     0
176
     1
290
     0
176
     1
 93
        1
176
     1
 44
0.0
176
     1
173
     0
176
     1
1001
ACAD
1000
AcDbSavedByObjectVersion
1070
     0
  0
VISUALSTYLE
  5
1A5
102
{ACAD_XDICTIONARY
360
C8E
102
}
102
{ACAD_REACTORS
330
193
102
}
330
193
100
AcDbVisualStyle
  2
Sketchy
 70
    24
177
     2
291
     0
 71
     1
176
     1
 72
     2
176
     1
 73
     2
176
     1
 90
        0
176
     1
 40
0.6
176
     1
 41
30.0
176
     1
 63
     7
421
 16777215
176
     1
 74
     2
176
     1
 91
        2
176
     1
 64
     7
176
     1
 65
     7
176
     1
 75
     1
176
     1
175
     1
176
     1
 42
40.0
176
     1
 92
       11
176
     1
 66
     7
176
     1
 43
1.0
176
     1
 76
     1
176
     1
 77
     6
176
     1
 78
     2
176
     1
 67
     7
176
     1
 79
     6
176
     1
170
     0
176
     1
171
     0
176
     1
290
     0
176
     1
 93
        1
176
     1
 44
0.0
176
     1
173
     0
176
     1
1001
ACAD
1000
AcDbSavedByObjectVersion
1070
     0
  0
VISUALSTYLE
  5
1A0
102
{ACAD_XDICTIONARY
360
C84
102
}
102
{ACAD_REACTORS
330
193
102
}
330
193
100
AcDbVisualStyle
  2
Thicken
 70
    13
177
     2
291
     1
 71
     2
176
     1
 72
     2
176
     1
 73
     0
176
     1
 90
        0
176
     1
 40
0.6
176
     1
 41
30.0
176
     1
 63
     7
421
 16777215
176
     1
 74
     1
176
     1
 91
        4
176
     1
 64
     7
176
     1
 65
   257
176
     1
 75
     1
176
     1
175
     1
176
     1
 42
1.0
176
     1
 92
       12
176
     1
 66
     7
176
     1
 43
1.0
176
     1
 76
     1
176
     1
 77
     6
176
     1
 78
     2
176
     1
 67
     7
176
     1
 79
     5
176
     1
170
     0
176
     1
171
     0
176
     1
290
     0
176
     1
 93
        1
176
     1
 44
0.0
176
     1
173
     0
176
     1
1001
ACAD
1000
AcDbSavedByObjectVersion
1070
     0
  0
VISUALSTYLE
  5
19A
102
{ACAD_XDICTIONARY
360
C78
102
}
102
{ACAD_REACTORS
330
193
102
}
330
193
100
AcDbVisualStyle
  2
Wireframe
 70
     5
177
     2
291
     0
 71
     0
176
     1
 72
     2
176
     1
 73
     0
176
     1
 90
        0
176
     1
 40
0.6
176
     1
 41
30.0
176
     1
 63
     7
421
 16777215
176
     1
 74
     1
176
     1
 91
        4
176
     1
 64
     7
176
     1
 65
   257
176
     1
 75
     1
176
     1
175
     1
176
     1
 42
1.0
176
     1
 92
        0
176
     1
 66
   257
176
     1
 43
1.0
176
     1
 76
     1
176
     1
 77
     6
176
     1
 78
     2
176
     1
 67
     7
176
     1
 79
     3
176
     1
170
     0
176
     1
171
     0
176
     1
290
     0
176
     1
 93
        1
176
     1
 44
0.0
176
     1
173
     0
176
     1
1001
ACAD
1000
AcDbSavedByObjectVersion
1070
     0
  0
VISUALSTYLE
  5
1A6
102
{ACAD_XDICTIONARY
360
C90
102
}
102
{ACAD_REACTORS
330
193
102
}
330
193
100
AcDbVisualStyle
  2
X-Ray
 70
    25
177
     2
291
     0
 71
     2
176
     1
 72
     2
176
     1
 73
     1
176
     1
 90
        1
176
     1
 40
0.5
176
     1
 41
30.0
176
     1
 63
     7
421
 16777215
176
     1
 74
     1
176
     1
 91
        0
176
     1
 64
     7
176
     1
 65
   257
176
     1
 75
     1
176
     1
175
     1
176
     1
 42
1.0
176
     1
 92
        8
176
     1
 66
     7
176
     1
 43
1.0
176
     1
 76
     1
176
     1
 77
     6
176
     1
 78
     2
176
     1
 67
     7
176
     1
 79
     3
176
     1
170
     0
176
     1
171
     0
176
     1
290
     0
176
     1
 93
       13
176
     1
 44
0.0
176
     1
173
     0
176
     1
1001
ACAD
1000
AcDbSavedByObjectVersion
1070
     0
  0
DICTIONARYVAR
  5
2D1
102
{ACAD_REACTORS
330
2CB
102
}
330
2CB
100
DictionaryVariables
280
     0
  1
1:1
  0
DICTIONARYVAR
  5
2CD
102
{ACAD_REACTORS
330
2CB
102
}
330
2CB
100
DictionaryVariables
280
     0
  1
STANDARD
  0
DICTIONARYVAR
  5
2CC
102
{ACAD_REACTORS
330
2CB
102
}
330
2CB
100
DictionaryVariables
280
     0
  1
STANDARD
  0
DICTIONARYVAR
  5
2CE
102
{ACAD_REACTORS
330
2CB
102
}
330
2CB
100
DictionaryVariables
280
     0
  1
Imperial24
  0
DICTIONARYVAR
  5
2CF
102
{ACAD_REACTORS
330
2CB
102
}
330
2CB
100
DictionaryVariables
280
     0
  1
Imperial24
  0
DICTIONARYVAR
  5
2D3
102
{ACAD_REACTORS
330
2CB
102
}
330
2CB
100
DictionaryVariables
280
     0
  1
1
  0
DICTIONARYVAR
  5
2D4
102
{ACAD_REACTORS
330
2CB
102
}
330
2CB
100
DictionaryVariables
280
     0
  1
15
  0
DICTIONARYVAR
  5
2D2
102
{ACAD_REACTORS
330
2CB
102
}
330
2CB
100
DictionaryVariables
280
     0
  1
0
  0
DICTIONARYVAR
  5
2D0
102
{ACAD_REACTORS
330
2CB
102
}
330
2CB
100
DictionaryVariables
280
     0
  1
0
  0
DICTIONARY
  5
468
330
1C7
100
AcDbDictionary
280
     1
281
     1
  3
ACAD_XREC_ROUNDTRIP
360
469
  0
DICTIONARY
  5
184
330
183
100
AcDbDictionary
280
     1
281
     1
  3
BUMPTILE
360
186
  3
DIFFUSETILE
360
185
  3
OPACITYTILE
360
189
  3
REFLECTIONTILE
360
188
  3
REFRACTIONTILE
360
18A
  3
SPECULARTILE
360
187
  0
DICTIONARY
  5
17C
330
17B
100
AcDbDictionary
280
     1
281
     1
  3
BUMPTILE
360
17E
  3
DIFFUSETILE
360
17D
  3
OPACITYTILE
360
181
  3
REFLECTIONTILE
360
180
  3
REFRACTIONTILE
360
182
  3
SPECULARTILE
360
17F
  0
DICTIONARY
  5
18C
330
18B
100
AcDbDictionary
280
     1
281
     1
  3
BUMPTILE
360
18E
  3
DIFFUSETILE
360
18D
  3
OPACITYTILE
360
191
  3
REFLECTIONTILE
360
190
  3
REFRACTIONTILE
360
192
  3
SPECULARTILE
360
18F
  0
DICTIONARY
  5
466
330
1C5
100
AcDbDictionary
280
     1
281
     1
  3
ACAD_XREC_ROUNDTRIP
360
467
  0
DICTIONARY
  5
35F
330
1AE
100
AcDbDictionary
280
     1
281
     1
  3
ACAD_ROUNDTRIP_2008_TABLESTYLE_CELLSTYLEMAP
360
C6A
  0
DICTIONARY
  5
C76
330
199
100
AcDbDictionary
280
     1
281
     1
  3
ACAD_XREC_ROUNDTRIP
360
C77
  0
DICTIONARY
  5
C74
330
198
100
AcDbDictionary
280
     1
281
     1
  3
ACAD_XREC_ROUNDTRIP
360
C75
  0
DICTIONARY
  5
C82
330
19F
100
AcDbDictionary
280
     1
281
     1
  3
ACAD_XREC_ROUNDTRIP
360
C83
  0
DICTIONARY
  5
C8A
330
1A3
100
AcDbDictionary
280
     1
281
     1
  3
ACAD_XREC_ROUNDTRIP
360
C8B
  0
DICTIONARY
  5
C7C
330
19C
100
AcDbDictionary
280
     1
281
     1
  3
ACAD_XREC_ROUNDTRIP
360
C7D
  0
DICTIONARY
  5
C80
330
19E
100
AcDbDictionary
280
     1
281
     1
  3
ACAD_XREC_ROUNDTRIP
360
C81
  0
DICTIONARY
  5
C9A
330
1AB
100
AcDbDictionary
280
     1
281
     1
  3
ACAD_XREC_ROUNDTRIP
360
C9B
  0
DICTIONARY
  5
C88
330
1A2
100
AcDbDictionary
280
     1
281
     1
  3
ACAD_XREC_ROUNDTRIP
360
C89
  0
DICTIONARY
  5
C6C
330
194
100
AcDbDictionary
280
     1
281
     1
  3
ACAD_XREC_ROUNDTRIP
360
C6D
  0
DICTIONARY
  5
C6E
330
195
100
AcDbDictionary
280
     1
281
     1
  3
ACAD_XREC_ROUNDTRIP
360
C6F
  0
DICTIONARY
  5
C70
330
196
100
AcDbDictionary
280
     1
281
     1
  3
ACAD_XREC_ROUNDTRIP
360
C71
  0
DICTIONARY
  5
C72
330
197
100
AcDbDictionary
280
     1
281
     1
  3
ACAD_XREC_ROUNDTRIP
360
C73
  0
DICTIONARY
  5
C7A
330
19B
100
AcDbDictionary
280
     1
281
     1
  3
ACAD_XREC_ROUNDTRIP
360
C7B
  0
DICTIONARY
  5
C96
330
1A9
100
AcDbDictionary
280
     1
281
     1
  3
ACAD_XREC_ROUNDTRIP
360
C97
  0
DICTIONARY
  5
C86
330
1A1
100
AcDbDictionary
280
     1
281
     1
  3
ACAD_XREC_ROUNDTRIP
360
C87
  0
DICTIONARY
  5
C98
330
1AA
100
AcDbDictionary
280
     1
281
     1
  3
ACAD_XREC_ROUNDTRIP
360
C99
  0
DICTIONARY
  5
C7E
330
19D
100
AcDbDictionary
280
     1
281
     1
  3
ACAD_XREC_ROUNDTRIP
360
C7F
  0
DICTIONARY
  5
C94
330
1A8
100
AcDbDictionary
280
     1
281
     1
  3
ACAD_XREC_ROUNDTRIP
360
C95
  0
DICTIONARY
  5
C92
330
1A7
100
AcDbDictionary
280
     1
281
     1
  3
ACAD_XREC_ROUNDTRIP
360
C93
  0
DICTIONARY
  5
C8C
330
1A4
100
AcDbDictionary
280
     1
281
     1
  3
ACAD_XREC_ROUNDTRIP
360
C8D
  0
DICTIONARY
  5
C8E
330
1A5
100
AcDbDictionary
280
     1
281
     1
  3
ACAD_XREC_ROUNDTRIP
360
C8F
  0
DICTIONARY
  5
C84
330
1A0
100
AcDbDictionary
280
     1
281
     1
  3
ACAD_XREC_ROUNDTRIP
360
C85
  0
DICTIONARY
  5
C78
330
19A
100
AcDbDictionary
280
     1
281
     1
  3
ACAD_XREC_ROUNDTRIP
360
C79
  0
DICTIONARY
  5
C90
330
1A6
100
AcDbDictionary
280
     1
281
     1
  3
ACAD_XREC_ROUNDTRIP
360
C91
  0
XRECORD
  5
469
102
{ACAD_REACTORS
330
468
102
}
330
468
100
AcDbXrecord
280
     1
102
DISPLAYNAME
  1
Imperial24
102
FLAGS
 90
        0
  0
XRECORD
  5
186
102
{ACAD_REACTORS
330
184
102
}
330
184
100
AcDbXrecord
280
     1
270
     1
271
     1
  0
XRECORD
  5
185
102
{ACAD_REACTORS
330
184
102
}
330
184
100
AcDbXrecord
280
     1
270
     1
271
     1
  0
XRECORD
  5
189
102
{ACAD_REACTORS
330
184
102
}
330
184
100
AcDbXrecord
280
     1
270
     1
271
     1
  0
XRECORD
  5
188
102
{ACAD_REACTORS
330
184
102
}
330
184
100
AcDbXrecord
280
     1
270
     1
271
     1
  0
XRECORD
  5
18A
102
{ACAD_REACTORS
330
184
102
}
330
184
100
AcDbXrecord
280
     1
270
     1
271
     1
  0
XRECORD
  5
187
102
{ACAD_REACTORS
330
184
102
}
330
184
100
AcDbXrecord
280
     1
270
     1
271
     1
  0
XRECORD
  5
17E
102
{ACAD_REACTORS
330
17C
102
}
330
17C
100
AcDbXrecord
280
     1
270
     1
271
     1
  0
XRECORD
  5
17D
102
{ACAD_REACTORS
330
17C
102
}
330
17C
100
AcDbXrecord
280
     1
270
     1
271
     1
  0
XRECORD
  5
181
102
{ACAD_REACTORS
330
17C
102
}
330
17C
100
AcDbXrecord
280
     1
270
     1
271
     1
  0
XRECORD
  5
180
102
{ACAD_REACTORS
330
17C
102
}
330
17C
100
AcDbXrecord
280
     1
270
     1
271
     1
  0
XRECORD
  5
182
102
{ACAD_REACTORS
330
17C
102
}
330
17C
100
AcDbXrecord
280
     1
270
     1
271
     1
  0
XRECORD
  5
17F
102
{ACAD_REACTORS
330
17C
102
}
330
17C
100
AcDbXrecord
280
     1
270
     1
271
     1
  0
XRECORD
  5
18E
102
{ACAD_REACTORS
330
18C
102
}
330
18C
100
AcDbXrecord
280
     1
270
     1
271
     1
  0
XRECORD
  5
18D
102
{ACAD_REACTORS
330
18C
102
}
330
18C
100
AcDbXrecord
280
     1
270
     1
271
     1
  0
XRECORD
  5
191
102
{ACAD_REACTORS
330
18C
102
}
330
18C
100
AcDbXrecord
280
     1
270
     1
271
     1
  0
XRECORD
  5
190
102
{ACAD_REACTORS
330
18C
102
}
330
18C
100
AcDbXrecord
280
     1
270
     1
271
     1
  0
XRECORD
  5
192
102
{ACAD_REACTORS
330
18C
102
}
330
18C
100
AcDbXrecord
280
     1
270
     1
271
     1
  0
XRECORD
  5
18F
102
{ACAD_REACTORS
330
18C
102
}
330
18C
100
AcDbXrecord
280
     1
270
     1
271
     1
  0
XRECORD
  5
467
102
{ACAD_REACTORS
330
466
102
}
330
466
100
AcDbXrecord
280
     1
102
DISPLAYNAME
  1
Imperial24
102
FLAGS
 90
        0
  0
CELLSTYLEMAP
  5
C6A
102
{ACAD_REACTORS
330
35F
102
}
330
35F
100
AcDbCellStyleMap
 90
        3
300
CELLSTYLE
  1
TABLEFORMAT_BEGIN
 90
        5
170
     1
 91
        0
 92
    32768
 62
   257
 93
        1
300
CONTENTFORMAT
  1
CONTENTFORMAT_BEGIN
 90
        0
 91
        0
 92
      512
 93
        0
300

 40
0.0
140
1.0
 94
        5
 62
     0
340
11
144
0.25
309
CONTENTFORMAT_END
171
     1
301
MARGIN
  1
CELLMARGIN_BEGIN
 40
0.06
 40
0.06
 40
0.06
 40
0.06
 40
0.18
 40
0.18
309
CELLMARGIN_END
 94
        6
 95
        1
302
GRIDFORMAT
  1
GRIDFORMAT_BEGIN
 90
        0
 91
        1
 62
     0
 92
       -2
340
0
 93
        0
 40
0.045
309
GRIDFORMAT_END
 95
        2
302
GRIDFORMAT
  1
GRIDFORMAT_BEGIN
 90
        0
 91
        1
 62
     0
 92
       -2
340
0
 93
        0
 40
0.045
309
GRIDFORMAT_END
 95
        4
302
GRIDFORMAT
  1
GRIDFORMAT_BEGIN
 90
        0
 91
        1
 62
     0
 92
       -2
340
0
 93
        0
 40
0.045
309
GRIDFORMAT_END
 95
        8
302
GRIDFORMAT
  1
GRIDFORMAT_BEGIN
 90
        0
 91
        1
 62
     0
 92
       -2
340
0
 93
        0
 40
0.045
309
GRIDFORMAT_END
 95
       16
302
GRIDFORMAT
  1
GRIDFORMAT_BEGIN
 90
        0
 91
        1
 62
     0
 92
       -2
340
0
 93
        0
 40
0.045
309
GRIDFORMAT_END
 95
       32
302
GRIDFORMAT
  1
GRIDFORMAT_BEGIN
 90
        0
 91
        1
 62
     0
 92
       -2
340
0
 93
        0
 40
0.045
309
GRIDFORMAT_END
309
TABLEFORMAT_END
  1
CELLSTYLE_BEGIN
 90
        1
 91
        1
300
_TITLE
309
CELLSTYLE_END
300
CELLSTYLE
  1
TABLEFORMAT_BEGIN
 90
        5
170
     1
 91
        0
 92
        0
 62
   257
 93
        1
300
CONTENTFORMAT
  1
CONTENTFORMAT_BEGIN
 90
        0
 91
        0
 92
      512
 93
        0
300

 40
0.0
140
1.0
 94
        5
 62
     0
340
11
144
0.18
309
CONTENTFORMAT_END
171
     1
301
MARGIN
  1
CELLMARGIN_BEGIN
 40
0.06
 40
0.06
 40
0.06
 40
0.06
 40
0.18
 40
0.18
309
CELLMARGIN_END
 94
        6
 95
        1
302
GRIDFORMAT
  1
GRIDFORMAT_BEGIN
 90
        0
 91
        1
 62
     0
 92
       -2
340
0
 93
        0
 40
0.045
309
GRIDFORMAT_END
 95
        2
302
GRIDFORMAT
  1
GRIDFORMAT_BEGIN
 90
        0
 91
        1
 62
     0
 92
       -2
340
0
 93
        0
 40
0.045
309
GRIDFORMAT_END
 95
        4
302
GRIDFORMAT
  1
GRIDFORMAT_BEGIN
 90
        0
 91
        1
 62
     0
 92
       -2
340
0
 93
        0
 40
0.045
309
GRIDFORMAT_END
 95
        8
302
GRIDFORMAT
  1
GRIDFORMAT_BEGIN
 90
        0
 91
        1
 62
     0
 92
       -2
340
0
 93
        0
 40
0.045
309
GRIDFORMAT_END
 95
       16
302
GRIDFORMAT
  1
GRIDFORMAT_BEGIN
 90
        0
 91
        1
 62
     0
 92
       -2
340
0
 93
        0
 40
0.045
309
GRIDFORMAT_END
 95
       32
302
GRIDFORMAT
  1
GRIDFORMAT_BEGIN
 90
        0
 91
        1
 62
     0
 92
       -2
340
0
 93
        0
 40
0.045
309
GRIDFORMAT_END
309
TABLEFORMAT_END
  1
CELLSTYLE_BEGIN
 90
        2
 91
        1
300
_HEADER
309
CELLSTYLE_END
300
CELLSTYLE
  1
TABLEFORMAT_BEGIN
 90
        5
170
     1
 91
        0
 92
        0
 62
   257
 93
        1
300
CONTENTFORMAT
  1
CONTENTFORMAT_BEGIN
 90
        0
 91
        0
 92
      512
 93
        0
300

 40
0.0
140
1.0
 94
        2
 62
     0
340
11
144
0.18
309
CONTENTFORMAT_END
171
     1
301
MARGIN
  1
CELLMARGIN_BEGIN
 40
0.06
 40
0.06
 40
0.06
 40
0.06
 40
0.18
 40
0.18
309
CELLMARGIN_END
 94
        6
 95
        1
302
GRIDFORMAT
  1
GRIDFORMAT_BEGIN
 90
        0
 91
        1
 62
     0
 92
       -2
340
0
 93
        0
 40
0.045
309
GRIDFORMAT_END
 95
        2
302
GRIDFORMAT
  1
GRIDFORMAT_BEGIN
 90
        0
 91
        1
 62
     0
 92
       -2
340
0
 93
        0
 40
0.045
309
GRIDFORMAT_END
 95
        4
302
GRIDFORMAT
  1
GRIDFORMAT_BEGIN
 90
        0
 91
        1
 62
     0
 92
       -2
340
0
 93
        0
 40
0.045
309
GRIDFORMAT_END
 95
        8
302
GRIDFORMAT
  1
GRIDFORMAT_BEGIN
 90
        0
 91
        1
 62
     0
 92
       -2
340
0
 93
        0
 40
0.045
309
GRIDFORMAT_END
 95
       16
302
GRIDFORMAT
  1
GRIDFORMAT_BEGIN
 90
        0
 91
        1
 62
     0
 92
       -2
340
0
 93
        0
 40
0.045
309
GRIDFORMAT_END
 95
       32
302
GRIDFORMAT
  1
GRIDFORMAT_BEGIN
 90
        0
 91
        1
 62
     0
 92
       -2
340
0
 93
        0
 40
0.045
309
GRIDFORMAT_END
309
TABLEFORMAT_END
  1
CELLSTYLE_BEGIN
 90
        3
 91
        2
300
_DATA
309
CELLSTYLE_END
  0
XRECORD
  5
C77
102
{ACAD_REACTORS
330
C76
102
}
330
C76
100
AcDbXrecord
280
     1
102
RTVSPost2010Prop28
280
     1
102
RTVSPost2010PropOp28
 70
     1
102
RTVSPost2010Prop29
280
     1
102
RTVSPost2010PropOp29
 70
     1
102
RTVSPost2010Prop30
280
     0
102
RTVSPost2010PropOp30
 70
     1
102
RTVSPost2010Prop31
280
     0
102
RTVSPost2010PropOp31
 70
     1
102
RTVSPost2010Prop32
280
     0
102
RTVSPost2010PropOp32
 70
     1
102
RTVSPost2010Prop33
280
     0
102
RTVSPost2010PropOp33
 70
     1
102
RTVSPost2010Prop34
280
     0
102
RTVSPost2010PropOp34
 70
     1
102
RTVSPost2010Prop35
280
     0
102
RTVSPost2010PropOp35
 70
     1
102
RTVSPost2010Prop36
280
     0
102
RTVSPost2010PropOp36
 70
     1
102
RTVSPost2010Prop37
 90
       50
102
RTVSPost2010PropOp37
 70
     1
102
RTVSPost2010Prop38
140
0.0
102
RTVSPost2010PropOp38
 70
     1
102
RTVSPost2010Prop39
140
1.0
102
RTVSPost2010PropOp39
 70
     1
102
RTVSPost2010Prop40
 90
        0
102
RTVSPost2010PropOp40
 70
     1
102
RTVSPost2010Prop41ColorIndex
 90
       18
102
RTVSPost2010Prop41ColorRGB
 90
        0
102
RTVSPost2010PropOp41
 70
     1
102
RTVSPost2010Prop42
 90
       50
102
RTVSPost2010PropOp42
 70
     1
102
RTVSPost2010Prop43
 90
        3
102
RTVSPost2010PropOp43
 70
     1
102
RTVSPost2010Prop44ColorIndex
 90
        5
102
RTVSPost2010Prop44ColorRGB
 90
      255
102
RTVSPost2010PropOp44
 70
     1
102
RTVSPost2010Prop45
280
     0
102
RTVSPost2010PropOp45
 70
     1
102
RTVSPost2010Prop46
 90
       50
102
RTVSPost2010PropOp46
 70
     1
102
RTVSPost2010Prop47
 90
       50
102
RTVSPost2010PropOp47
 70
     1
102
RTVSPost2010Prop48
 90
       50
102
RTVSPost2010PropOp48
 70
     1
102
RTVSPost2010Prop49
280
     0
102
RTVSPost2010PropOp49
 70
     1
102
RTVSPost2010Prop50
 90
       50
102
RTVSPost2010PropOp50
 70
     1
102
RTVSPost2010Prop51ColorIndex
 90
      256
102
RTVSPost2010Prop51ColorRGB
 90
-16777216
102
RTVSPost2010PropOp51
 70
     0
102
RTVSPost2010Prop52
140
1.0
102
RTVSPost2010PropOp52
 70
     0
102
RTVSPost2010Prop53
 90
        2
102
RTVSPost2010PropOp53
 70
     1
102
RTVSPost2010Prop54
  1
strokes_ogs.tif
102
RTVSPost2010PropOp54
 70
     1
102
RTVSPost2010Prop55
280
     0
102
RTVSPost2010PropOp55
 70
     1
102
RTVSPost2010Prop56
140
1.0
102
RTVSPost2010PropOp56
 70
     1
102
RTVSPost2010Prop57
140
1.0
102
RTVSPost2010PropOp57
 70
     1
  0
XRECORD
  5
C75
102
{ACAD_REACTORS
330
C74
102
}
330
C74
100
AcDbXrecord
280
     1
102
RTVSPost2010Prop28
280
     0
102
RTVSPost2010PropOp28
 70
     1
102
RTVSPost2010Prop29
280
     1
102
RTVSPost2010PropOp29
 70
     1
102
RTVSPost2010Prop30
280
     1
102
RTVSPost2010PropOp30
 70
     1
102
RTVSPost2010Prop31
280
     0
102
RTVSPost2010PropOp31
 70
     1
102
RTVSPost2010Prop32
280
     0
102
RTVSPost2010PropOp32
 70
     1
102
RTVSPost2010Prop33
280
     0
102
RTVSPost2010PropOp33
 70
     1
102
RTVSPost2010Prop34
280
     0
102
RTVSPost2010PropOp34
 70
     1
102
RTVSPost2010Prop35
280
     0
102
RTVSPost2010PropOp35
 70
     1
102
RTVSPost2010Prop36
280
     0
102
RTVSPost2010PropOp36
 70
     1
102
RTVSPost2010Prop37
 90
       50
102
RTVSPost2010PropOp37
 70
     1
102
RTVSPost2010Prop38
140
0.0
102
RTVSPost2010PropOp38
 70
     1
102
RTVSPost2010Prop39
140
1.0
102
RTVSPost2010PropOp39
 70
     1
102
RTVSPost2010Prop40
 90
        0
102
RTVSPost2010PropOp40
 70
     1
102
RTVSPost2010Prop41ColorIndex
 90
       18
102
RTVSPost2010Prop41ColorRGB
 90
        0
102
RTVSPost2010PropOp41
 70
     1
102
RTVSPost2010Prop42
 90
       50
102
RTVSPost2010PropOp42
 70
     1
102
RTVSPost2010Prop43
 90
        3
102
RTVSPost2010PropOp43
 70
     1
102
RTVSPost2010Prop44ColorIndex
 90
        5
102
RTVSPost2010Prop44ColorRGB
 90
      255
102
RTVSPost2010PropOp44
 70
     1
102
RTVSPost2010Prop45
280
     0
102
RTVSPost2010PropOp45
 70
     1
102
RTVSPost2010Prop46
 90
       50
102
RTVSPost2010PropOp46
 70
     1
102
RTVSPost2010Prop47
 90
       50
102
RTVSPost2010PropOp47
 70
     1
102
RTVSPost2010Prop48
 90
       50
102
RTVSPost2010PropOp48
 70
     1
102
RTVSPost2010Prop49
280
     0
102
RTVSPost2010PropOp49
 70
     1
102
RTVSPost2010Prop50
 90
       50
102
RTVSPost2010PropOp50
 70
     1
102
RTVSPost2010Prop51ColorIndex
 90
      256
102
RTVSPost2010Prop51ColorRGB
 90
-16777216
102
RTVSPost2010PropOp51
 70
     0
102
RTVSPost2010Prop52
140
1.0
102
RTVSPost2010PropOp52
 70
     0
102
RTVSPost2010Prop53
 90
        2
102
RTVSPost2010PropOp53
 70
     1
102
RTVSPost2010Prop54
  1
strokes_ogs.tif
102
RTVSPost2010PropOp54
 70
     1
102
RTVSPost2010Prop55
280
     0
102
RTVSPost2010PropOp55
 70
     1
102
RTVSPost2010Prop56
140
1.0
102
RTVSPost2010PropOp56
 70
     1
102
RTVSPost2010Prop57
140
1.0
102
RTVSPost2010PropOp57
 70
     1
  0
XRECORD
  5
C83
102
{ACAD_REACTORS
330
C82
102
}
330
C82
100
AcDbXrecord
280
     1
102
RTVSPost2010Prop28
280
     0
102
RTVSPost2010PropOp28
 70
     1
102
RTVSPost2010Prop29
280
     1
102
RTVSPost2010PropOp29
 70
     1
102
RTVSPost2010Prop30
280
     1
102
RTVSPost2010PropOp30
 70
     1
102
RTVSPost2010Prop31
280
     0
102
RTVSPost2010PropOp31
 70
     1
102
RTVSPost2010Prop32
280
     0
102
RTVSPost2010PropOp32
 70
     1
102
RTVSPost2010Prop33
280
     0
102
RTVSPost2010PropOp33
 70
     1
102
RTVSPost2010Prop34
280
     0
102
RTVSPost2010PropOp34
 70
     1
102
RTVSPost2010Prop35
280
     0
102
RTVSPost2010PropOp35
 70
     1
102
RTVSPost2010Prop36
280
     0
102
RTVSPost2010PropOp36
 70
     1
102
RTVSPost2010Prop37
 90
       50
102
RTVSPost2010PropOp37
 70
     1
102
RTVSPost2010Prop38
140
0.0
102
RTVSPost2010PropOp38
 70
     1
102
RTVSPost2010Prop39
140
1.0
102
RTVSPost2010PropOp39
 70
     1
102
RTVSPost2010Prop40
 90
        0
102
RTVSPost2010PropOp40
 70
     1
102
RTVSPost2010Prop41ColorIndex
 90
       18
102
RTVSPost2010Prop41ColorRGB
 90
        0
102
RTVSPost2010PropOp41
 70
     1
102
RTVSPost2010Prop42
 90
       50
102
RTVSPost2010PropOp42
 70
     1
102
RTVSPost2010Prop43
 90
        3
102
RTVSPost2010PropOp43
 70
     1
102
RTVSPost2010Prop44ColorIndex
 90
        5
102
RTVSPost2010Prop44ColorRGB
 90
      255
102
RTVSPost2010PropOp44
 70
     1
102
RTVSPost2010Prop45
280
     0
102
RTVSPost2010PropOp45
 70
     1
102
RTVSPost2010Prop46
 90
       50
102
RTVSPost2010PropOp46
 70
     1
102
RTVSPost2010Prop47
 90
       50
102
RTVSPost2010PropOp47
 70
     1
102
RTVSPost2010Prop48
 90
       50
102
RTVSPost2010PropOp48
 70
     1
102
RTVSPost2010Prop49
280
     0
102
RTVSPost2010PropOp49
 70
     1
102
RTVSPost2010Prop50
 90
       50
102
RTVSPost2010PropOp50
 70
     1
102
RTVSPost2010Prop51ColorIndex
 90
      256
102
RTVSPost2010Prop51ColorRGB
 90
-16777216
102
RTVSPost2010PropOp51
 70
     0
102
RTVSPost2010Prop52
140
1.0
102
RTVSPost2010PropOp52
 70
     0
102
RTVSPost2010Prop53
 90
        2
102
RTVSPost2010PropOp53
 70
     1
102
RTVSPost2010Prop54
  1
strokes_ogs.tif
102
RTVSPost2010PropOp54
 70
     1
102
RTVSPost2010Prop55
280
     0
102
RTVSPost2010PropOp55
 70
     1
102
RTVSPost2010Prop56
140
1.0
102
RTVSPost2010PropOp56
 70
     1
102
RTVSPost2010Prop57
140
1.0
102
RTVSPost2010PropOp57
 70
     1
  0
XRECORD
  5
C8B
102
{ACAD_REACTORS
330
C8A
102
}
330
C8A
100
AcDbXrecord
280
     1
102
RTVSPost2010Prop28
280
     0
102
RTVSPost2010PropOp28
 70
     1
102
RTVSPost2010Prop29
280
     1
102
RTVSPost2010PropOp29
 70
     1
102
RTVSPost2010Prop30
280
     1
102
RTVSPost2010PropOp30
 70
     1
102
RTVSPost2010Prop31
280
     0
102
RTVSPost2010PropOp31
 70
     1
102
RTVSPost2010Prop32
280
     0
102
RTVSPost2010PropOp32
 70
     1
102
RTVSPost2010Prop33
280
     0
102
RTVSPost2010PropOp33
 70
     1
102
RTVSPost2010Prop34
280
     0
102
RTVSPost2010PropOp34
 70
     1
102
RTVSPost2010Prop35
280
     0
102
RTVSPost2010PropOp35
 70
     1
102
RTVSPost2010Prop36
280
     0
102
RTVSPost2010PropOp36
 70
     1
102
RTVSPost2010Prop37
 90
       50
102
RTVSPost2010PropOp37
 70
     1
102
RTVSPost2010Prop38
140
0.0
102
RTVSPost2010PropOp38
 70
     1
102
RTVSPost2010Prop39
140
1.0
102
RTVSPost2010PropOp39
 70
     1
102
RTVSPost2010Prop40
 90
        0
102
RTVSPost2010PropOp40
 70
     1
102
RTVSPost2010Prop41ColorIndex
 90
       18
102
RTVSPost2010Prop41ColorRGB
 90
        0
102
RTVSPost2010PropOp41
 70
     1
102
RTVSPost2010Prop42
 90
       50
102
RTVSPost2010PropOp42
 70
     1
102
RTVSPost2010Prop43
 90
        3
102
RTVSPost2010PropOp43
 70
     1
102
RTVSPost2010Prop44ColorIndex
 90
        5
102
RTVSPost2010Prop44ColorRGB
 90
      255
102
RTVSPost2010PropOp44
 70
     1
102
RTVSPost2010Prop45
280
     0
102
RTVSPost2010PropOp45
 70
     1
102
RTVSPost2010Prop46
 90
       50
102
RTVSPost2010PropOp46
 70
     1
102
RTVSPost2010Prop47
 90
       50
102
RTVSPost2010PropOp47
 70
     1
102
RTVSPost2010Prop48
 90
       50
102
RTVSPost2010PropOp48
 70
     1
102
RTVSPost2010Prop49
280
     0
102
RTVSPost2010PropOp49
 70
     1
102
RTVSPost2010Prop50
 90
       50
102
RTVSPost2010PropOp50
 70
     1
102
RTVSPost2010Prop51ColorIndex
 90
      256
102
RTVSPost2010Prop51ColorRGB
 90
-16777216
102
RTVSPost2010PropOp51
 70
     0
102
RTVSPost2010Prop52
140
1.0
102
RTVSPost2010PropOp52
 70
     0
102
RTVSPost2010Prop53
 90
        2
102
RTVSPost2010PropOp53
 70
     1
102
RTVSPost2010Prop54
  1
strokes_ogs.tif
102
RTVSPost2010PropOp54
 70
     1
102
RTVSPost2010Prop55
280
     0
102
RTVSPost2010PropOp55
 70
     1
102
RTVSPost2010Prop56
140
1.0
102
RTVSPost2010PropOp56
 70
     1
102
RTVSPost2010Prop57
140
1.0
102
RTVSPost2010PropOp57
 70
     1
  0
XRECORD
  5
C7D
102
{ACAD_REACTORS
330
C7C
102
}
330
C7C
100
AcDbXrecord
280
     1
102
RTVSPost2010Prop28
280
     0
102
RTVSPost2010PropOp28
 70
     1
102
RTVSPost2010Prop29
280
     1
102
RTVSPost2010PropOp29
 70
     1
102
RTVSPost2010Prop30
280
     1
102
RTVSPost2010PropOp30
 70
     1
102
RTVSPost2010Prop31
280
     0
102
RTVSPost2010PropOp31
 70
     1
102
RTVSPost2010Prop32
280
     0
102
RTVSPost2010PropOp32
 70
     1
102
RTVSPost2010Prop33
280
     0
102
RTVSPost2010PropOp33
 70
     1
102
RTVSPost2010Prop34
280
     0
102
RTVSPost2010PropOp34
 70
     1
102
RTVSPost2010Prop35
280
     0
102
RTVSPost2010PropOp35
 70
     1
102
RTVSPost2010Prop36
280
     0
102
RTVSPost2010PropOp36
 70
     1
102
RTVSPost2010Prop37
 90
       50
102
RTVSPost2010PropOp37
 70
     1
102
RTVSPost2010Prop38
140
0.0
102
RTVSPost2010PropOp38
 70
     1
102
RTVSPost2010Prop39
140
1.0
102
RTVSPost2010PropOp39
 70
     1
102
RTVSPost2010Prop40
 90
        0
102
RTVSPost2010PropOp40
 70
     1
102
RTVSPost2010Prop41ColorIndex
 90
       18
102
RTVSPost2010Prop41ColorRGB
 90
        0
102
RTVSPost2010PropOp41
 70
     1
102
RTVSPost2010Prop42
 90
       50
102
RTVSPost2010PropOp42
 70
     1
102
RTVSPost2010Prop43
 90
        3
102
RTVSPost2010PropOp43
 70
     1
102
RTVSPost2010Prop44ColorIndex
 90
        5
102
RTVSPost2010Prop44ColorRGB
 90
      255
102
RTVSPost2010PropOp44
 70
     1
102
RTVSPost2010Prop45
280
     0
102
RTVSPost2010PropOp45
 70
     1
102
RTVSPost2010Prop46
 90
       50
102
RTVSPost2010PropOp46
 70
     1
102
RTVSPost2010Prop47
 90
       50
102
RTVSPost2010PropOp47
 70
     1
102
RTVSPost2010Prop48
 90
       50
102
RTVSPost2010PropOp48
 70
     1
102
RTVSPost2010Prop49
280
     0
102
RTVSPost2010PropOp49
 70
     1
102
RTVSPost2010Prop50
 90
       50
102
RTVSPost2010PropOp50
 70
     1
102
RTVSPost2010Prop51ColorIndex
 90
      256
102
RTVSPost2010Prop51ColorRGB
 90
-16777216
102
RTVSPost2010PropOp51
 70
     0
102
RTVSPost2010Prop52
140
1.0
102
RTVSPost2010PropOp52
 70
     0
102
RTVSPost2010Prop53
 90
        2
102
RTVSPost2010PropOp53
 70
     1
102
RTVSPost2010Prop54
  1
strokes_ogs.tif
102
RTVSPost2010PropOp54
 70
     1
102
RTVSPost2010Prop55
280
     0
102
RTVSPost2010PropOp55
 70
     1
102
RTVSPost2010Prop56
140
1.0
102
RTVSPost2010PropOp56
 70
     1
102
RTVSPost2010Prop57
140
1.0
102
RTVSPost2010PropOp57
 70
     1
  0
XRECORD
  5
C81
102
{ACAD_REACTORS
330
C80
102
}
330
C80
100
AcDbXrecord
280
     1
102
RTVSPost2010Prop28
280
     0
102
RTVSPost2010PropOp28
 70
     1
102
RTVSPost2010Prop29
280
     1
102
RTVSPost2010PropOp29
 70
     1
102
RTVSPost2010Prop30
280
     1
102
RTVSPost2010PropOp30
 70
     1
102
RTVSPost2010Prop31
280
     0
102
RTVSPost2010PropOp31
 70
     1
102
RTVSPost2010Prop32
280
     0
102
RTVSPost2010PropOp32
 70
     1
102
RTVSPost2010Prop33
280
     0
102
RTVSPost2010PropOp33
 70
     1
102
RTVSPost2010Prop34
280
     0
102
RTVSPost2010PropOp34
 70
     1
102
RTVSPost2010Prop35
280
     0
102
RTVSPost2010PropOp35
 70
     1
102
RTVSPost2010Prop36
280
     0
102
RTVSPost2010PropOp36
 70
     1
102
RTVSPost2010Prop37
 90
       50
102
RTVSPost2010PropOp37
 70
     1
102
RTVSPost2010Prop38
140
0.0
102
RTVSPost2010PropOp38
 70
     1
102
RTVSPost2010Prop39
140
1.0
102
RTVSPost2010PropOp39
 70
     1
102
RTVSPost2010Prop40
 90
        0
102
RTVSPost2010PropOp40
 70
     1
102
RTVSPost2010Prop41ColorIndex
 90
       18
102
RTVSPost2010Prop41ColorRGB
 90
        0
102
RTVSPost2010PropOp41
 70
     1
102
RTVSPost2010Prop42
 90
       50
102
RTVSPost2010PropOp42
 70
     1
102
RTVSPost2010Prop43
 90
        3
102
RTVSPost2010PropOp43
 70
     1
102
RTVSPost2010Prop44ColorIndex
 90
        5
102
RTVSPost2010Prop44ColorRGB
 90
      255
102
RTVSPost2010PropOp44
 70
     1
102
RTVSPost2010Prop45
280
     0
102
RTVSPost2010PropOp45
 70
     1
102
RTVSPost2010Prop46
 90
       50
102
RTVSPost2010PropOp46
 70
     1
102
RTVSPost2010Prop47
 90
       50
102
RTVSPost2010PropOp47
 70
     1
102
RTVSPost2010Prop48
 90
       50
102
RTVSPost2010PropOp48
 70
     1
102
RTVSPost2010Prop49
280
     0
102
RTVSPost2010PropOp49
 70
     1
102
RTVSPost2010Prop50
 90
       50
102
RTVSPost2010PropOp50
 70
     1
102
RTVSPost2010Prop51ColorIndex
 90
      256
102
RTVSPost2010Prop51ColorRGB
 90
-16777216
102
RTVSPost2010PropOp51
 70
     0
102
RTVSPost2010Prop52
140
1.0
102
RTVSPost2010PropOp52
 70
     0
102
RTVSPost2010Prop53
 90
        2
102
RTVSPost2010PropOp53
 70
     1
102
RTVSPost2010Prop54
  1
strokes_ogs.tif
102
RTVSPost2010PropOp54
 70
     1
102
RTVSPost2010Prop55
280
     0
102
RTVSPost2010PropOp55
 70
     1
102
RTVSPost2010Prop56
140
1.0
102
RTVSPost2010PropOp56
 70
     1
102
RTVSPost2010Prop57
140
1.0
102
RTVSPost2010PropOp57
 70
     1
  0
XRECORD
  5
C9B
102
{ACAD_REACTORS
330
C9A
102
}
330
C9A
100
AcDbXrecord
280
     1
102
RTVSPost2010Prop28
280
     0
102
RTVSPost2010PropOp28
 70
     1
102
RTVSPost2010Prop29
280
     1
102
RTVSPost2010PropOp29
 70
     1
102
RTVSPost2010Prop30
280
     1
102
RTVSPost2010PropOp30
 70
     1
102
RTVSPost2010Prop31
280
     0
102
RTVSPost2010PropOp31
 70
     1
102
RTVSPost2010Prop32
280
     0
102
RTVSPost2010PropOp32
 70
     1
102
RTVSPost2010Prop33
280
     0
102
RTVSPost2010PropOp33
 70
     1
102
RTVSPost2010Prop34
280
     0
102
RTVSPost2010PropOp34
 70
     1
102
RTVSPost2010Prop35
280
     0
102
RTVSPost2010PropOp35
 70
     1
102
RTVSPost2010Prop36
280
     0
102
RTVSPost2010PropOp36
 70
     1
102
RTVSPost2010Prop37
 90
       50
102
RTVSPost2010PropOp37
 70
     0
102
RTVSPost2010Prop38
140
0.0
102
RTVSPost2010PropOp38
 70
     0
102
RTVSPost2010Prop39
140
1.0
102
RTVSPost2010PropOp39
 70
     0
102
RTVSPost2010Prop40
 90
        0
102
RTVSPost2010PropOp40
 70
     0
102
RTVSPost2010Prop41ColorIndex
 90
       18
102
RTVSPost2010Prop41ColorRGB
 90
        0
102
RTVSPost2010PropOp41
 70
     0
102
RTVSPost2010Prop42
 90
       50
102
RTVSPost2010PropOp42
 70
     0
102
RTVSPost2010Prop43
 90
        3
102
RTVSPost2010PropOp43
 70
     0
102
RTVSPost2010Prop44ColorIndex
 90
        5
102
RTVSPost2010Prop44ColorRGB
 90
      255
102
RTVSPost2010PropOp44
 70
     0
102
RTVSPost2010Prop45
280
     0
102
RTVSPost2010PropOp45
 70
     1
102
RTVSPost2010Prop46
 90
       50
102
RTVSPost2010PropOp46
 70
     0
102
RTVSPost2010Prop47
 90
       50
102
RTVSPost2010PropOp47
 70
     0
102
RTVSPost2010Prop48
 90
       50
102
RTVSPost2010PropOp48
 70
     0
102
RTVSPost2010Prop49
280
     0
102
RTVSPost2010PropOp49
 70
     1
102
RTVSPost2010Prop50
 90
       50
102
RTVSPost2010PropOp50
 70
     0
102
RTVSPost2010Prop51ColorIndex
 90
      256
102
RTVSPost2010Prop51ColorRGB
 90
-16777216
102
RTVSPost2010PropOp51
 70
     0
102
RTVSPost2010Prop52
140
1.0
102
RTVSPost2010PropOp52
 70
     0
102
RTVSPost2010Prop53
 90
        2
102
RTVSPost2010PropOp53
 70
     0
102
RTVSPost2010Prop54
  1
strokes_ogs.tif
102
RTVSPost2010PropOp54
 70
     0
102
RTVSPost2010Prop55
280
     0
102
RTVSPost2010PropOp55
 70
     1
102
RTVSPost2010Prop56
140
1.0
102
RTVSPost2010PropOp56
 70
     0
102
RTVSPost2010Prop57
140
1.0
102
RTVSPost2010PropOp57
 70
     0
  0
XRECORD
  5
C89
102
{ACAD_REACTORS
330
C88
102
}
330
C88
100
AcDbXrecord
280
     1
102
RTVSPost2010Prop28
280
     0
102
RTVSPost2010PropOp28
 70
     1
102
RTVSPost2010Prop29
280
     1
102
RTVSPost2010PropOp29
 70
     1
102
RTVSPost2010Prop30
280
     1
102
RTVSPost2010PropOp30
 70
     1
102
RTVSPost2010Prop31
280
     0
102
RTVSPost2010PropOp31
 70
     1
102
RTVSPost2010Prop32
280
     0
102
RTVSPost2010PropOp32
 70
     1
102
RTVSPost2010Prop33
280
     0
102
RTVSPost2010PropOp33
 70
     1
102
RTVSPost2010Prop34
280
     0
102
RTVSPost2010PropOp34
 70
     1
102
RTVSPost2010Prop35
280
     0
102
RTVSPost2010PropOp35
 70
     1
102
RTVSPost2010Prop36
280
     0
102
RTVSPost2010PropOp36
 70
     1
102
RTVSPost2010Prop37
 90
       50
102
RTVSPost2010PropOp37
 70
     1
102
RTVSPost2010Prop38
140
0.0
102
RTVSPost2010PropOp38
 70
     1
102
RTVSPost2010Prop39
140
1.0
102
RTVSPost2010PropOp39
 70
     1
102
RTVSPost2010Prop40
 90
        0
102
RTVSPost2010PropOp40
 70
     1
102
RTVSPost2010Prop41ColorIndex
 90
       18
102
RTVSPost2010Prop41ColorRGB
 90
        0
102
RTVSPost2010PropOp41
 70
     1
102
RTVSPost2010Prop42
 90
       50
102
RTVSPost2010PropOp42
 70
     1
102
RTVSPost2010Prop43
 90
        3
102
RTVSPost2010PropOp43
 70
     1
102
RTVSPost2010Prop44ColorIndex
 90
        5
102
RTVSPost2010Prop44ColorRGB
 90
      255
102
RTVSPost2010PropOp44
 70
     1
102
RTVSPost2010Prop45
280
     0
102
RTVSPost2010PropOp45
 70
     1
102
RTVSPost2010Prop46
 90
       50
102
RTVSPost2010PropOp46
 70
     1
102
RTVSPost2010Prop47
 90
       50
102
RTVSPost2010PropOp47
 70
     1
102
RTVSPost2010Prop48
 90
       50
102
RTVSPost2010PropOp48
 70
     1
102
RTVSPost2010Prop49
280
     0
102
RTVSPost2010PropOp49
 70
     1
102
RTVSPost2010Prop50
 90
       50
102
RTVSPost2010PropOp50
 70
     1
102
RTVSPost2010Prop51ColorIndex
 90
      256
102
RTVSPost2010Prop51ColorRGB
 90
-16777216
102
RTVSPost2010PropOp51
 70
     0
102
RTVSPost2010Prop52
140
1.0
102
RTVSPost2010PropOp52
 70
     0
102
RTVSPost2010Prop53
 90
        2
102
RTVSPost2010PropOp53
 70
     1
102
RTVSPost2010Prop54
  1
strokes_ogs.tif
102
RTVSPost2010PropOp54
 70
     1
102
RTVSPost2010Prop55
280
     0
102
RTVSPost2010PropOp55
 70
     1
102
RTVSPost2010Prop56
140
1.0
102
RTVSPost2010PropOp56
 70
     1
102
RTVSPost2010Prop57
140
1.0
102
RTVSPost2010PropOp57
 70
     1
  0
XRECORD
  5
C6D
102
{ACAD_REACTORS
330
C6C
102
}
330
C6C
100
AcDbXrecord
280
     1
102
RTVSPost2010Prop28
280
     0
102
RTVSPost2010PropOp28
 70
     1
102
RTVSPost2010Prop29
280
     1
102
RTVSPost2010PropOp29
 70
     1
102
RTVSPost2010Prop30
280
     1
102
RTVSPost2010PropOp30
 70
     1
102
RTVSPost2010Prop31
280
     0
102
RTVSPost2010PropOp31
 70
     1
102
RTVSPost2010Prop32
280
     0
102
RTVSPost2010PropOp32
 70
     1
102
RTVSPost2010Prop33
280
     0
102
RTVSPost2010PropOp33
 70
     1
102
RTVSPost2010Prop34
280
     0
102
RTVSPost2010PropOp34
 70
     1
102
RTVSPost2010Prop35
280
     0
102
RTVSPost2010PropOp35
 70
     1
102
RTVSPost2010Prop36
280
     0
102
RTVSPost2010PropOp36
 70
     1
102
RTVSPost2010Prop37
 90
       50
102
RTVSPost2010PropOp37
 70
     1
102
RTVSPost2010Prop38
140
0.0
102
RTVSPost2010PropOp38
 70
     1
102
RTVSPost2010Prop39
140
1.0
102
RTVSPost2010PropOp39
 70
     1
102
RTVSPost2010Prop40
 90
        0
102
RTVSPost2010PropOp40
 70
     1
102
RTVSPost2010Prop41ColorIndex
 90
       18
102
RTVSPost2010Prop41ColorRGB
 90
        0
102
RTVSPost2010PropOp41
 70
     1
102
RTVSPost2010Prop42
 90
       50
102
RTVSPost2010PropOp42
 70
     1
102
RTVSPost2010Prop43
 90
        3
102
RTVSPost2010PropOp43
 70
     1
102
RTVSPost2010Prop44ColorIndex
 90
        5
102
RTVSPost2010Prop44ColorRGB
 90
      255
102
RTVSPost2010PropOp44
 70
     1
102
RTVSPost2010Prop45
280
     0
102
RTVSPost2010PropOp45
 70
     1
102
RTVSPost2010Prop46
 90
       50
102
RTVSPost2010PropOp46
 70
     1
102
RTVSPost2010Prop47
 90
       50
102
RTVSPost2010PropOp47
 70
     1
102
RTVSPost2010Prop48
 90
       50
102
RTVSPost2010PropOp48
 70
     1
102
RTVSPost2010Prop49
280
     0
102
RTVSPost2010PropOp49
 70
     1
102
RTVSPost2010Prop50
 90
       50
102
RTVSPost2010PropOp50
 70
     1
102
RTVSPost2010Prop51ColorIndex
 90
      256
102
RTVSPost2010Prop51ColorRGB
 90
-16777216
102
RTVSPost2010PropOp51
 70
     0
102
RTVSPost2010Prop52
140
1.0
102
RTVSPost2010PropOp52
 70
     0
102
RTVSPost2010Prop53
 90
        2
102
RTVSPost2010PropOp53
 70
     1
102
RTVSPost2010Prop54
  1
strokes_ogs.tif
102
RTVSPost2010PropOp54
 70
     1
102
RTVSPost2010Prop55
280
     0
102
RTVSPost2010PropOp55
 70
     1
102
RTVSPost2010Prop56
140
1.0
102
RTVSPost2010PropOp56
 70
     1
102
RTVSPost2010Prop57
140
1.0
102
RTVSPost2010PropOp57
 70
     1
  0
XRECORD
  5
C6F
102
{ACAD_REACTORS
330
C6E
102
}
330
C6E
100
AcDbXrecord
280
     1
102
RTVSPost2010Prop28
280
     0
102
RTVSPost2010PropOp28
 70
     1
102
RTVSPost2010Prop29
280
     1
102
RTVSPost2010PropOp29
 70
     1
102
RTVSPost2010Prop30
280
     1
102
RTVSPost2010PropOp30
 70
     1
102
RTVSPost2010Prop31
280
     0
102
RTVSPost2010PropOp31
 70
     1
102
RTVSPost2010Prop32
280
     0
102
RTVSPost2010PropOp32
 70
     1
102
RTVSPost2010Prop33
280
     0
102
RTVSPost2010PropOp33
 70
     1
102
RTVSPost2010Prop34
280
     0
102
RTVSPost2010PropOp34
 70
     1
102
RTVSPost2010Prop35
280
     0
102
RTVSPost2010PropOp35
 70
     1
102
RTVSPost2010Prop36
280
     0
102
RTVSPost2010PropOp36
 70
     1
102
RTVSPost2010Prop37
 90
       50
102
RTVSPost2010PropOp37
 70
     1
102
RTVSPost2010Prop38
140
0.0
102
RTVSPost2010PropOp38
 70
     1
102
RTVSPost2010Prop39
140
1.0
102
RTVSPost2010PropOp39
 70
     1
102
RTVSPost2010Prop40
 90
        0
102
RTVSPost2010PropOp40
 70
     1
102
RTVSPost2010Prop41ColorIndex
 90
       18
102
RTVSPost2010Prop41ColorRGB
 90
        0
102
RTVSPost2010PropOp41
 70
     1
102
RTVSPost2010Prop42
 90
       50
102
RTVSPost2010PropOp42
 70
     1
102
RTVSPost2010Prop43
 90
        3
102
RTVSPost2010PropOp43
 70
     1
102
RTVSPost2010Prop44ColorIndex
 90
        5
102
RTVSPost2010Prop44ColorRGB
 90
      255
102
RTVSPost2010PropOp44
 70
     1
102
RTVSPost2010Prop45
280
     0
102
RTVSPost2010PropOp45
 70
     1
102
RTVSPost2010Prop46
 90
       50
102
RTVSPost2010PropOp46
 70
     1
102
RTVSPost2010Prop47
 90
       50
102
RTVSPost2010PropOp47
 70
     1
102
RTVSPost2010Prop48
 90
       50
102
RTVSPost2010PropOp48
 70
     1
102
RTVSPost2010Prop49
280
     0
102
RTVSPost2010PropOp49
 70
     1
102
RTVSPost2010Prop50
 90
       50
102
RTVSPost2010PropOp50
 70
     1
102
RTVSPost2010Prop51ColorIndex
 90
      256
102
RTVSPost2010Prop51ColorRGB
 90
-16777216
102
RTVSPost2010PropOp51
 70
     0
102
RTVSPost2010Prop52
140
1.0
102
RTVSPost2010PropOp52
 70
     0
102
RTVSPost2010Prop53
 90
        2
102
RTVSPost2010PropOp53
 70
     1
102
RTVSPost2010Prop54
  1
strokes_ogs.tif
102
RTVSPost2010PropOp54
 70
     1
102
RTVSPost2010Prop55
280
     0
102
RTVSPost2010PropOp55
 70
     1
102
RTVSPost2010Prop56
140
1.0
102
RTVSPost2010PropOp56
 70
     1
102
RTVSPost2010Prop57
140
1.0
102
RTVSPost2010PropOp57
 70
     1
  0
XRECORD
  5
C71
102
{ACAD_REACTORS
330
C70
102
}
330
C70
100
AcDbXrecord
280
     1
102
RTVSPost2010Prop28
280
     0
102
RTVSPost2010PropOp28
 70
     1
102
RTVSPost2010Prop29
280
     1
102
RTVSPost2010PropOp29
 70
     1
102
RTVSPost2010Prop30
280
     1
102
RTVSPost2010PropOp30
 70
     1
102
RTVSPost2010Prop31
280
     0
102
RTVSPost2010PropOp31
 70
     1
102
RTVSPost2010Prop32
280
     0
102
RTVSPost2010PropOp32
 70
     1
102
RTVSPost2010Prop33
280
     0
102
RTVSPost2010PropOp33
 70
     1
102
RTVSPost2010Prop34
280
     0
102
RTVSPost2010PropOp34
 70
     1
102
RTVSPost2010Prop35
280
     0
102
RTVSPost2010PropOp35
 70
     1
102
RTVSPost2010Prop36
280
     0
102
RTVSPost2010PropOp36
 70
     1
102
RTVSPost2010Prop37
 90
       50
102
RTVSPost2010PropOp37
 70
     1
102
RTVSPost2010Prop38
140
0.0
102
RTVSPost2010PropOp38
 70
     1
102
RTVSPost2010Prop39
140
1.0
102
RTVSPost2010PropOp39
 70
     1
102
RTVSPost2010Prop40
 90
        0
102
RTVSPost2010PropOp40
 70
     1
102
RTVSPost2010Prop41ColorIndex
 90
       18
102
RTVSPost2010Prop41ColorRGB
 90
        0
102
RTVSPost2010PropOp41
 70
     1
102
RTVSPost2010Prop42
 90
       50
102
RTVSPost2010PropOp42
 70
     1
102
RTVSPost2010Prop43
 90
        3
102
RTVSPost2010PropOp43
 70
     1
102
RTVSPost2010Prop44ColorIndex
 90
        5
102
RTVSPost2010Prop44ColorRGB
 90
      255
102
RTVSPost2010PropOp44
 70
     1
102
RTVSPost2010Prop45
280
     0
102
RTVSPost2010PropOp45
 70
     1
102
RTVSPost2010Prop46
 90
       50
102
RTVSPost2010PropOp46
 70
     1
102
RTVSPost2010Prop47
 90
       50
102
RTVSPost2010PropOp47
 70
     1
102
RTVSPost2010Prop48
 90
       50
102
RTVSPost2010PropOp48
 70
     1
102
RTVSPost2010Prop49
280
     0
102
RTVSPost2010PropOp49
 70
     1
102
RTVSPost2010Prop50
 90
       50
102
RTVSPost2010PropOp50
 70
     1
102
RTVSPost2010Prop51ColorIndex
 90
      256
102
RTVSPost2010Prop51ColorRGB
 90
-16777216
102
RTVSPost2010PropOp51
 70
     0
102
RTVSPost2010Prop52
140
1.0
102
RTVSPost2010PropOp52
 70
     0
102
RTVSPost2010Prop53
 90
        2
102
RTVSPost2010PropOp53
 70
     1
102
RTVSPost2010Prop54
  1
strokes_ogs.tif
102
RTVSPost2010PropOp54
 70
     1
102
RTVSPost2010Prop55
280
     0
102
RTVSPost2010PropOp55
 70
     1
102
RTVSPost2010Prop56
140
1.0
102
RTVSPost2010PropOp56
 70
     1
102
RTVSPost2010Prop57
140
1.0
102
RTVSPost2010PropOp57
 70
     1
  0
XRECORD
  5
C73
102
{ACAD_REACTORS
330
C72
102
}
330
C72
100
AcDbXrecord
280
     1
102
RTVSPost2010Prop28
280
     0
102
RTVSPost2010PropOp28
 70
     1
102
RTVSPost2010Prop29
280
     1
102
RTVSPost2010PropOp29
 70
     1
102
RTVSPost2010Prop30
280
     1
102
RTVSPost2010PropOp30
 70
     1
102
RTVSPost2010Prop31
280
     0
102
RTVSPost2010PropOp31
 70
     1
102
RTVSPost2010Prop32
280
     0
102
RTVSPost2010PropOp32
 70
     1
102
RTVSPost2010Prop33
280
     0
102
RTVSPost2010PropOp33
 70
     1
102
RTVSPost2010Prop34
280
     0
102
RTVSPost2010PropOp34
 70
     1
102
RTVSPost2010Prop35
280
     0
102
RTVSPost2010PropOp35
 70
     1
102
RTVSPost2010Prop36
280
     0
102
RTVSPost2010PropOp36
 70
     1
102
RTVSPost2010Prop37
 90
       50
102
RTVSPost2010PropOp37
 70
     1
102
RTVSPost2010Prop38
140
0.0
102
RTVSPost2010PropOp38
 70
     1
102
RTVSPost2010Prop39
140
1.0
102
RTVSPost2010PropOp39
 70
     1
102
RTVSPost2010Prop40
 90
        0
102
RTVSPost2010PropOp40
 70
     1
102
RTVSPost2010Prop41ColorIndex
 90
       18
102
RTVSPost2010Prop41ColorRGB
 90
        0
102
RTVSPost2010PropOp41
 70
     1
102
RTVSPost2010Prop42
 90
       50
102
RTVSPost2010PropOp42
 70
     1
102
RTVSPost2010Prop43
 90
        3
102
RTVSPost2010PropOp43
 70
     1
102
RTVSPost2010Prop44ColorIndex
 90
        5
102
RTVSPost2010Prop44ColorRGB
 90
      255
102
RTVSPost2010PropOp44
 70
     1
102
RTVSPost2010Prop45
280
     0
102
RTVSPost2010PropOp45
 70
     1
102
RTVSPost2010Prop46
 90
       50
102
RTVSPost2010PropOp46
 70
     1
102
RTVSPost2010Prop47
 90
       50
102
RTVSPost2010PropOp47
 70
     1
102
RTVSPost2010Prop48
 90
       50
102
RTVSPost2010PropOp48
 70
     1
102
RTVSPost2010Prop49
280
     0
102
RTVSPost2010PropOp49
 70
     1
102
RTVSPost2010Prop50
 90
       50
102
RTVSPost2010PropOp50
 70
     1
102
RTVSPost2010Prop51ColorIndex
 90
      256
102
RTVSPost2010Prop51ColorRGB
 90
-16777216
102
RTVSPost2010PropOp51
 70
     0
102
RTVSPost2010Prop52
140
1.0
102
RTVSPost2010PropOp52
 70
     0
102
RTVSPost2010Prop53
 90
        2
102
RTVSPost2010PropOp53
 70
     1
102
RTVSPost2010Prop54
  1
strokes_ogs.tif
102
RTVSPost2010PropOp54
 70
     1
102
RTVSPost2010Prop55
280
     0
102
RTVSPost2010PropOp55
 70
     1
102
RTVSPost2010Prop56
140
1.0
102
RTVSPost2010PropOp56
 70
     1
102
RTVSPost2010Prop57
140
1.0
102
RTVSPost2010PropOp57
 70
     1
  0
XRECORD
  5
C7B
102
{ACAD_REACTORS
330
C7A
102
}
330
C7A
100
AcDbXrecord
280
     1
102
RTVSPost2010Prop28
280
     0
102
RTVSPost2010PropOp28
 70
     1
102
RTVSPost2010Prop29
280
     1
102
RTVSPost2010PropOp29
 70
     1
102
RTVSPost2010Prop30
280
     1
102
RTVSPost2010PropOp30
 70
     1
102
RTVSPost2010Prop31
280
     0
102
RTVSPost2010PropOp31
 70
     1
102
RTVSPost2010Prop32
280
     0
102
RTVSPost2010PropOp32
 70
     1
102
RTVSPost2010Prop33
280
     0
102
RTVSPost2010PropOp33
 70
     1
102
RTVSPost2010Prop34
280
     0
102
RTVSPost2010PropOp34
 70
     1
102
RTVSPost2010Prop35
280
     0
102
RTVSPost2010PropOp35
 70
     1
102
RTVSPost2010Prop36
280
     0
102
RTVSPost2010PropOp36
 70
     1
102
RTVSPost2010Prop37
 90
       50
102
RTVSPost2010PropOp37
 70
     1
102
RTVSPost2010Prop38
140
0.0
102
RTVSPost2010PropOp38
 70
     1
102
RTVSPost2010Prop39
140
1.0
102
RTVSPost2010PropOp39
 70
     1
102
RTVSPost2010Prop40
 90
        0
102
RTVSPost2010PropOp40
 70
     1
102
RTVSPost2010Prop41ColorIndex
 90
       18
102
RTVSPost2010Prop41ColorRGB
 90
        0
102
RTVSPost2010PropOp41
 70
     1
102
RTVSPost2010Prop42
 90
       50
102
RTVSPost2010PropOp42
 70
     1
102
RTVSPost2010Prop43
 90
        3
102
RTVSPost2010PropOp43
 70
     1
102
RTVSPost2010Prop44ColorIndex
 90
        5
102
RTVSPost2010Prop44ColorRGB
 90
      255
102
RTVSPost2010PropOp44
 70
     1
102
RTVSPost2010Prop45
280
     0
102
RTVSPost2010PropOp45
 70
     1
102
RTVSPost2010Prop46
 90
       50
102
RTVSPost2010PropOp46
 70
     1
102
RTVSPost2010Prop47
 90
       50
102
RTVSPost2010PropOp47
 70
     1
102
RTVSPost2010Prop48
 90
       50
102
RTVSPost2010PropOp48
 70
     1
102
RTVSPost2010Prop49
280
     0
102
RTVSPost2010PropOp49
 70
     1
102
RTVSPost2010Prop50
 90
       50
102
RTVSPost2010PropOp50
 70
     1
102
RTVSPost2010Prop51ColorIndex
 90
      256
102
RTVSPost2010Prop51ColorRGB
 90
-16777216
102
RTVSPost2010PropOp51
 70
     0
102
RTVSPost2010Prop52
140
1.0
102
RTVSPost2010PropOp52
 70
     0
102
RTVSPost2010Prop53
 90
        2
102
RTVSPost2010PropOp53
 70
     1
102
RTVSPost2010Prop54
  1
strokes_ogs.tif
102
RTVSPost2010PropOp54
 70
     1
102
RTVSPost2010Prop55
280
     0
102
RTVSPost2010PropOp55
 70
     1
102
RTVSPost2010Prop56
140
1.0
102
RTVSPost2010PropOp56
 70
     1
102
RTVSPost2010Prop57
140
1.0
102
RTVSPost2010PropOp57
 70
     1
  0
XRECORD
  5
C97
102
{ACAD_REACTORS
330
C96
102
}
330
C96
100
AcDbXrecord
280
     1
102
RTVSPost2010Prop28
280
     0
102
RTVSPost2010PropOp28
 70
     1
102
RTVSPost2010Prop29
280
     1
102
RTVSPost2010PropOp29
 70
     1
102
RTVSPost2010Prop30
280
     1
102
RTVSPost2010PropOp30
 70
     1
102
RTVSPost2010Prop31
280
     0
102
RTVSPost2010PropOp31
 70
     1
102
RTVSPost2010Prop32
280
     0
102
RTVSPost2010PropOp32
 70
     1
102
RTVSPost2010Prop33
280
     0
102
RTVSPost2010PropOp33
 70
     1
102
RTVSPost2010Prop34
280
     0
102
RTVSPost2010PropOp34
 70
     1
102
RTVSPost2010Prop35
280
     0
102
RTVSPost2010PropOp35
 70
     1
102
RTVSPost2010Prop36
280
     0
102
RTVSPost2010PropOp36
 70
     1
102
RTVSPost2010Prop37
 90
       50
102
RTVSPost2010PropOp37
 70
     0
102
RTVSPost2010Prop38
140
0.0
102
RTVSPost2010PropOp38
 70
     0
102
RTVSPost2010Prop39
140
1.0
102
RTVSPost2010PropOp39
 70
     0
102
RTVSPost2010Prop40
 90
        0
102
RTVSPost2010PropOp40
 70
     0
102
RTVSPost2010Prop41ColorIndex
 90
       18
102
RTVSPost2010Prop41ColorRGB
 90
        0
102
RTVSPost2010PropOp41
 70
     0
102
RTVSPost2010Prop42
 90
       50
102
RTVSPost2010PropOp42
 70
     0
102
RTVSPost2010Prop43
 90
        3
102
RTVSPost2010PropOp43
 70
     0
102
RTVSPost2010Prop44ColorIndex
 90
        5
102
RTVSPost2010Prop44ColorRGB
 90
      255
102
RTVSPost2010PropOp44
 70
     0
102
RTVSPost2010Prop45
280
     0
102
RTVSPost2010PropOp45
 70
     1
102
RTVSPost2010Prop46
 90
       50
102
RTVSPost2010PropOp46
 70
     0
102
RTVSPost2010Prop47
 90
       50
102
RTVSPost2010PropOp47
 70
     0
102
RTVSPost2010Prop48
 90
       50
102
RTVSPost2010PropOp48
 70
     0
102
RTVSPost2010Prop49
280
     0
102
RTVSPost2010PropOp49
 70
     1
102
RTVSPost2010Prop50
 90
       50
102
RTVSPost2010PropOp50
 70
     0
102
RTVSPost2010Prop51ColorIndex
 90
      256
102
RTVSPost2010Prop51ColorRGB
 90
-16777216
102
RTVSPost2010PropOp51
 70
     0
102
RTVSPost2010Prop52
140
1.0
102
RTVSPost2010PropOp52
 70
     0
102
RTVSPost2010Prop53
 90
        2
102
RTVSPost2010PropOp53
 70
     0
102
RTVSPost2010Prop54
  1
strokes_ogs.tif
102
RTVSPost2010PropOp54
 70
     0
102
RTVSPost2010Prop55
280
     0
102
RTVSPost2010PropOp55
 70
     1
102
RTVSPost2010Prop56
140
1.0
102
RTVSPost2010PropOp56
 70
     0
102
RTVSPost2010Prop57
140
1.0
102
RTVSPost2010PropOp57
 70
     0
  0
XRECORD
  5
C87
102
{ACAD_REACTORS
330
C86
102
}
330
C86
100
AcDbXrecord
280
     1
102
RTVSPost2010Prop28
280
     0
102
RTVSPost2010PropOp28
 70
     1
102
RTVSPost2010Prop29
280
     1
102
RTVSPost2010PropOp29
 70
     1
102
RTVSPost2010Prop30
280
     1
102
RTVSPost2010PropOp30
 70
     1
102
RTVSPost2010Prop31
280
     0
102
RTVSPost2010PropOp31
 70
     1
102
RTVSPost2010Prop32
280
     0
102
RTVSPost2010PropOp32
 70
     1
102
RTVSPost2010Prop33
280
     0
102
RTVSPost2010PropOp33
 70
     1
102
RTVSPost2010Prop34
280
     0
102
RTVSPost2010PropOp34
 70
     1
102
RTVSPost2010Prop35
280
     0
102
RTVSPost2010PropOp35
 70
     1
102
RTVSPost2010Prop36
280
     0
102
RTVSPost2010PropOp36
 70
     1
102
RTVSPost2010Prop37
 90
       50
102
RTVSPost2010PropOp37
 70
     1
102
RTVSPost2010Prop38
140
0.0
102
RTVSPost2010PropOp38
 70
     1
102
RTVSPost2010Prop39
140
1.0
102
RTVSPost2010PropOp39
 70
     1
102
RTVSPost2010Prop40
 90
        0
102
RTVSPost2010PropOp40
 70
     1
102
RTVSPost2010Prop41ColorIndex
 90
       18
102
RTVSPost2010Prop41ColorRGB
 90
        0
102
RTVSPost2010PropOp41
 70
     1
102
RTVSPost2010Prop42
 90
       50
102
RTVSPost2010PropOp42
 70
     1
102
RTVSPost2010Prop43
 90
        3
102
RTVSPost2010PropOp43
 70
     1
102
RTVSPost2010Prop44ColorIndex
 90
        5
102
RTVSPost2010Prop44ColorRGB
 90
      255
102
RTVSPost2010PropOp44
 70
     1
102
RTVSPost2010Prop45
280
     0
102
RTVSPost2010PropOp45
 70
     1
102
RTVSPost2010Prop46
 90
       50
102
RTVSPost2010PropOp46
 70
     1
102
RTVSPost2010Prop47
 90
       50
102
RTVSPost2010PropOp47
 70
     1
102
RTVSPost2010Prop48
 90
       50
102
RTVSPost2010PropOp48
 70
     1
102
RTVSPost2010Prop49
280
     0
102
RTVSPost2010PropOp49
 70
     1
102
RTVSPost2010Prop50
 90
       50
102
RTVSPost2010PropOp50
 70
     1
102
RTVSPost2010Prop51ColorIndex
 90
      256
102
RTVSPost2010Prop51ColorRGB
 90
-16777216
102
RTVSPost2010PropOp51
 70
     0
102
RTVSPost2010Prop52
140
1.0
102
RTVSPost2010PropOp52
 70
     0
102
RTVSPost2010Prop53
 90
        2
102
RTVSPost2010PropOp53
 70
     1
102
RTVSPost2010Prop54
  1
strokes_ogs.tif
102
RTVSPost2010PropOp54
 70
     1
102
RTVSPost2010Prop55
280
     0
102
RTVSPost2010PropOp55
 70
     1
102
RTVSPost2010Prop56
140
1.0
102
RTVSPost2010PropOp56
 70
     1
102
RTVSPost2010Prop57
140
1.0
102
RTVSPost2010PropOp57
 70
     1
  0
XRECORD
  5
C99
102
{ACAD_REACTORS
330
C98
102
}
330
C98
100
AcDbXrecord
280
     1
102
RTVSPost2010Prop28
280
     0
102
RTVSPost2010PropOp28
 70
     1
102
RTVSPost2010Prop29
280
     1
102
RTVSPost2010PropOp29
 70
     1
102
RTVSPost2010Prop30
280
     1
102
RTVSPost2010PropOp30
 70
     1
102
RTVSPost2010Prop31
280
     0
102
RTVSPost2010PropOp31
 70
     1
102
RTVSPost2010Prop32
280
     0
102
RTVSPost2010PropOp32
 70
     1
102
RTVSPost2010Prop33
280
     0
102
RTVSPost2010PropOp33
 70
     1
102
RTVSPost2010Prop34
280
     0
102
RTVSPost2010PropOp34
 70
     1
102
RTVSPost2010Prop35
280
     0
102
RTVSPost2010PropOp35
 70
     1
102
RTVSPost2010Prop36
280
     0
102
RTVSPost2010PropOp36
 70
     1
102
RTVSPost2010Prop37
 90
       50
102
RTVSPost2010PropOp37
 70
     0
102
RTVSPost2010Prop38
140
0.0
102
RTVSPost2010PropOp38
 70
     0
102
RTVSPost2010Prop39
140
1.0
102
RTVSPost2010PropOp39
 70
     0
102
RTVSPost2010Prop40
 90
        0
102
RTVSPost2010PropOp40
 70
     0
102
RTVSPost2010Prop41ColorIndex
 90
       18
102
RTVSPost2010Prop41ColorRGB
 90
        0
102
RTVSPost2010PropOp41
 70
     0
102
RTVSPost2010Prop42
 90
       50
102
RTVSPost2010PropOp42
 70
     0
102
RTVSPost2010Prop43
 90
        3
102
RTVSPost2010PropOp43
 70
     0
102
RTVSPost2010Prop44ColorIndex
 90
        5
102
RTVSPost2010Prop44ColorRGB
 90
      255
102
RTVSPost2010PropOp44
 70
     0
102
RTVSPost2010Prop45
280
     0
102
RTVSPost2010PropOp45
 70
     1
102
RTVSPost2010Prop46
 90
       50
102
RTVSPost2010PropOp46
 70
     0
102
RTVSPost2010Prop47
 90
       50
102
RTVSPost2010PropOp47
 70
     0
102
RTVSPost2010Prop48
 90
       50
102
RTVSPost2010PropOp48
 70
     0
102
RTVSPost2010Prop49
280
     0
102
RTVSPost2010PropOp49
 70
     1
102
RTVSPost2010Prop50
 90
       50
102
RTVSPost2010PropOp50
 70
     0
102
RTVSPost2010Prop51ColorIndex
 90
      256
102
RTVSPost2010Prop51ColorRGB
 90
-16777216
102
RTVSPost2010PropOp51
 70
     0
102
RTVSPost2010Prop52
140
1.0
102
RTVSPost2010PropOp52
 70
     0
102
RTVSPost2010Prop53
 90
        2
102
RTVSPost2010PropOp53
 70
     0
102
RTVSPost2010Prop54
  1
strokes_ogs.tif
102
RTVSPost2010PropOp54
 70
     0
102
RTVSPost2010Prop55
280
     0
102
RTVSPost2010PropOp55
 70
     1
102
RTVSPost2010Prop56
140
1.0
102
RTVSPost2010PropOp56
 70
     0
102
RTVSPost2010Prop57
140
1.0
102
RTVSPost2010PropOp57
 70
     0
  0
XRECORD
  5
C7F
102
{ACAD_REACTORS
330
C7E
102
}
330
C7E
100
AcDbXrecord
280
     1
102
RTVSPost2010Prop28
280
     0
102
RTVSPost2010PropOp28
 70
     1
102
RTVSPost2010Prop29
280
     1
102
RTVSPost2010PropOp29
 70
     1
102
RTVSPost2010Prop30
280
     1
102
RTVSPost2010PropOp30
 70
     1
102
RTVSPost2010Prop31
280
     0
102
RTVSPost2010PropOp31
 70
     1
102
RTVSPost2010Prop32
280
     0
102
RTVSPost2010PropOp32
 70
     1
102
RTVSPost2010Prop33
280
     0
102
RTVSPost2010PropOp33
 70
     1
102
RTVSPost2010Prop34
280
     0
102
RTVSPost2010PropOp34
 70
     1
102
RTVSPost2010Prop35
280
     0
102
RTVSPost2010PropOp35
 70
     1
102
RTVSPost2010Prop36
280
     0
102
RTVSPost2010PropOp36
 70
     1
102
RTVSPost2010Prop37
 90
       50
102
RTVSPost2010PropOp37
 70
     1
102
RTVSPost2010Prop38
140
0.0
102
RTVSPost2010PropOp38
 70
     1
102
RTVSPost2010Prop39
140
1.0
102
RTVSPost2010PropOp39
 70
     1
102
RTVSPost2010Prop40
 90
        0
102
RTVSPost2010PropOp40
 70
     1
102
RTVSPost2010Prop41ColorIndex
 90
       18
102
RTVSPost2010Prop41ColorRGB
 90
        0
102
RTVSPost2010PropOp41
 70
     1
102
RTVSPost2010Prop42
 90
       50
102
RTVSPost2010PropOp42
 70
     1
102
RTVSPost2010Prop43
 90
        3
102
RTVSPost2010PropOp43
 70
     1
102
RTVSPost2010Prop44ColorIndex
 90
        5
102
RTVSPost2010Prop44ColorRGB
 90
      255
102
RTVSPost2010PropOp44
 70
     1
102
RTVSPost2010Prop45
280
     0
102
RTVSPost2010PropOp45
 70
     1
102
RTVSPost2010Prop46
 90
       50
102
RTVSPost2010PropOp46
 70
     1
102
RTVSPost2010Prop47
 90
       50
102
RTVSPost2010PropOp47
 70
     1
102
RTVSPost2010Prop48
 90
       50
102
RTVSPost2010PropOp48
 70
     1
102
RTVSPost2010Prop49
280
     0
102
RTVSPost2010PropOp49
 70
     1
102
RTVSPost2010Prop50
 90
       50
102
RTVSPost2010PropOp50
 70
     1
102
RTVSPost2010Prop51ColorIndex
 90
      256
102
RTVSPost2010Prop51ColorRGB
 90
-16777216
102
RTVSPost2010PropOp51
 70
     0
102
RTVSPost2010Prop52
140
1.0
102
RTVSPost2010PropOp52
 70
     0
102
RTVSPost2010Prop53
 90
        2
102
RTVSPost2010PropOp53
 70
     1
102
RTVSPost2010Prop54
  1
strokes_ogs.tif
102
RTVSPost2010PropOp54
 70
     1
102
RTVSPost2010Prop55
280
     0
102
RTVSPost2010PropOp55
 70
     1
102
RTVSPost2010Prop56
140
1.0
102
RTVSPost2010PropOp56
 70
     1
102
RTVSPost2010Prop57
140
1.0
102
RTVSPost2010PropOp57
 70
     1
  0
XRECORD
  5
C95
102
{ACAD_REACTORS
330
C94
102
}
330
C94
100
AcDbXrecord
280
     1
102
RTVSPost2010Prop28
280
     0
102
RTVSPost2010PropOp28
 70
     1
102
RTVSPost2010Prop29
280
     1
102
RTVSPost2010PropOp29
 70
     1
102
RTVSPost2010Prop30
280
     1
102
RTVSPost2010PropOp30
 70
     1
102
RTVSPost2010Prop31
280
     0
102
RTVSPost2010PropOp31
 70
     1
102
RTVSPost2010Prop32
280
     0
102
RTVSPost2010PropOp32
 70
     1
102
RTVSPost2010Prop33
280
     0
102
RTVSPost2010PropOp33
 70
     1
102
RTVSPost2010Prop34
280
     0
102
RTVSPost2010PropOp34
 70
     1
102
RTVSPost2010Prop35
280
     0
102
RTVSPost2010PropOp35
 70
     1
102
RTVSPost2010Prop36
280
     0
102
RTVSPost2010PropOp36
 70
     1
102
RTVSPost2010Prop37
 90
       50
102
RTVSPost2010PropOp37
 70
     1
102
RTVSPost2010Prop38
140
0.0
102
RTVSPost2010PropOp38
 70
     1
102
RTVSPost2010Prop39
140
1.0
102
RTVSPost2010PropOp39
 70
     1
102
RTVSPost2010Prop40
 90
        0
102
RTVSPost2010PropOp40
 70
     1
102
RTVSPost2010Prop41ColorIndex
 90
       18
102
RTVSPost2010Prop41ColorRGB
 90
        0
102
RTVSPost2010PropOp41
 70
     1
102
RTVSPost2010Prop42
 90
       50
102
RTVSPost2010PropOp42
 70
     1
102
RTVSPost2010Prop43
 90
        3
102
RTVSPost2010PropOp43
 70
     1
102
RTVSPost2010Prop44ColorIndex
 90
        5
102
RTVSPost2010Prop44ColorRGB
 90
      255
102
RTVSPost2010PropOp44
 70
     1
102
RTVSPost2010Prop45
280
     0
102
RTVSPost2010PropOp45
 70
     1
102
RTVSPost2010Prop46
 90
       50
102
RTVSPost2010PropOp46
 70
     1
102
RTVSPost2010Prop47
 90
       50
102
RTVSPost2010PropOp47
 70
     1
102
RTVSPost2010Prop48
 90
       50
102
RTVSPost2010PropOp48
 70
     1
102
RTVSPost2010Prop49
280
     0
102
RTVSPost2010PropOp49
 70
     1
102
RTVSPost2010Prop50
 90
       50
102
RTVSPost2010PropOp50
 70
     1
102
RTVSPost2010Prop51ColorIndex
 90
      256
102
RTVSPost2010Prop51ColorRGB
 90
-16777216
102
RTVSPost2010PropOp51
 70
     0
102
RTVSPost2010Prop52
140
1.0
102
RTVSPost2010PropOp52
 70
     0
102
RTVSPost2010Prop53
 90
        2
102
RTVSPost2010PropOp53
 70
     1
102
RTVSPost2010Prop54
  1
strokes_ogs.tif
102
RTVSPost2010PropOp54
 70
     1
102
RTVSPost2010Prop55
280
     0
102
RTVSPost2010PropOp55
 70
     1
102
RTVSPost2010Prop56
140
1.0
102
RTVSPost2010PropOp56
 70
     1
102
RTVSPost2010Prop57
140
1.0
102
RTVSPost2010PropOp57
 70
     1
  0
XRECORD
  5
C93
102
{ACAD_REACTORS
330
C92
102
}
330
C92
100
AcDbXrecord
280
     1
102
RTVSPost2010Prop28
280
     0
102
RTVSPost2010PropOp28
 70
     1
102
RTVSPost2010Prop29
280
     1
102
RTVSPost2010PropOp29
 70
     1
102
RTVSPost2010Prop30
280
     1
102
RTVSPost2010PropOp30
 70
     1
102
RTVSPost2010Prop31
280
     0
102
RTVSPost2010PropOp31
 70
     1
102
RTVSPost2010Prop32
280
     0
102
RTVSPost2010PropOp32
 70
     1
102
RTVSPost2010Prop33
280
     0
102
RTVSPost2010PropOp33
 70
     1
102
RTVSPost2010Prop34
280
     0
102
RTVSPost2010PropOp34
 70
     1
102
RTVSPost2010Prop35
280
     0
102
RTVSPost2010PropOp35
 70
     1
102
RTVSPost2010Prop36
280
     0
102
RTVSPost2010PropOp36
 70
     1
102
RTVSPost2010Prop37
 90
       50
102
RTVSPost2010PropOp37
 70
     1
102
RTVSPost2010Prop38
140
0.0
102
RTVSPost2010PropOp38
 70
     1
102
RTVSPost2010Prop39
140
1.0
102
RTVSPost2010PropOp39
 70
     1
102
RTVSPost2010Prop40
 90
        0
102
RTVSPost2010PropOp40
 70
     1
102
RTVSPost2010Prop41ColorIndex
 90
       18
102
RTVSPost2010Prop41ColorRGB
 90
        0
102
RTVSPost2010PropOp41
 70
     1
102
RTVSPost2010Prop42
 90
       50
102
RTVSPost2010PropOp42
 70
     1
102
RTVSPost2010Prop43
 90
        3
102
RTVSPost2010PropOp43
 70
     1
102
RTVSPost2010Prop44ColorIndex
 90
        5
102
RTVSPost2010Prop44ColorRGB
 90
      255
102
RTVSPost2010PropOp44
 70
     1
102
RTVSPost2010Prop45
280
     0
102
RTVSPost2010PropOp45
 70
     1
102
RTVSPost2010Prop46
 90
       50
102
RTVSPost2010PropOp46
 70
     1
102
RTVSPost2010Prop47
 90
       50
102
RTVSPost2010PropOp47
 70
     1
102
RTVSPost2010Prop48
 90
       50
102
RTVSPost2010PropOp48
 70
     1
102
RTVSPost2010Prop49
280
     0
102
RTVSPost2010PropOp49
 70
     1
102
RTVSPost2010Prop50
 90
       50
102
RTVSPost2010PropOp50
 70
     1
102
RTVSPost2010Prop51ColorIndex
 90
      256
102
RTVSPost2010Prop51ColorRGB
 90
-16777216
102
RTVSPost2010PropOp51
 70
     0
102
RTVSPost2010Prop52
140
1.0
102
RTVSPost2010PropOp52
 70
     0
102
RTVSPost2010Prop53
 90
        2
102
RTVSPost2010PropOp53
 70
     1
102
RTVSPost2010Prop54
  1
strokes_ogs.tif
102
RTVSPost2010PropOp54
 70
     1
102
RTVSPost2010Prop55
280
     0
102
RTVSPost2010PropOp55
 70
     1
102
RTVSPost2010Prop56
140
1.0
102
RTVSPost2010PropOp56
 70
     1
102
RTVSPost2010Prop57
140
1.0
102
RTVSPost2010PropOp57
 70
     1
  0
XRECORD
  5
C8D
102
{ACAD_REACTORS
330
C8C
102
}
330
C8C
100
AcDbXrecord
280
     1
102
RTVSPost2010Prop28
280
     0
102
RTVSPost2010PropOp28
 70
     1
102
RTVSPost2010Prop29
280
     1
102
RTVSPost2010PropOp29
 70
     1
102
RTVSPost2010Prop30
280
     1
102
RTVSPost2010PropOp30
 70
     1
102
RTVSPost2010Prop31
280
     0
102
RTVSPost2010PropOp31
 70
     1
102
RTVSPost2010Prop32
280
     0
102
RTVSPost2010PropOp32
 70
     1
102
RTVSPost2010Prop33
280
     0
102
RTVSPost2010PropOp33
 70
     1
102
RTVSPost2010Prop34
280
     0
102
RTVSPost2010PropOp34
 70
     1
102
RTVSPost2010Prop35
280
     0
102
RTVSPost2010PropOp35
 70
     1
102
RTVSPost2010Prop36
280
     0
102
RTVSPost2010PropOp36
 70
     1
102
RTVSPost2010Prop37
 90
       50
102
RTVSPost2010PropOp37
 70
     1
102
RTVSPost2010Prop38
140
0.0
102
RTVSPost2010PropOp38
 70
     1
102
RTVSPost2010Prop39
140
1.0
102
RTVSPost2010PropOp39
 70
     1
102
RTVSPost2010Prop40
 90
        0
102
RTVSPost2010PropOp40
 70
     1
102
RTVSPost2010Prop41ColorIndex
 90
       18
102
RTVSPost2010Prop41ColorRGB
 90
        0
102
RTVSPost2010PropOp41
 70
     1
102
RTVSPost2010Prop42
 90
       50
102
RTVSPost2010PropOp42
 70
     1
102
RTVSPost2010Prop43
 90
        3
102
RTVSPost2010PropOp43
 70
     1
102
RTVSPost2010Prop44ColorIndex
 90
        5
102
RTVSPost2010Prop44ColorRGB
 90
      255
102
RTVSPost2010PropOp44
 70
     1
102
RTVSPost2010Prop45
280
     0
102
RTVSPost2010PropOp45
 70
     1
102
RTVSPost2010Prop46
 90
       50
102
RTVSPost2010PropOp46
 70
     1
102
RTVSPost2010Prop47
 90
       50
102
RTVSPost2010PropOp47
 70
     1
102
RTVSPost2010Prop48
 90
       50
102
RTVSPost2010PropOp48
 70
     1
102
RTVSPost2010Prop49
280
     0
102
RTVSPost2010PropOp49
 70
     1
102
RTVSPost2010Prop50
 90
       50
102
RTVSPost2010PropOp50
 70
     1
102
RTVSPost2010Prop51ColorIndex
 90
      256
102
RTVSPost2010Prop51ColorRGB
 90
-16777216
102
RTVSPost2010PropOp51
 70
     0
102
RTVSPost2010Prop52
140
1.0
102
RTVSPost2010PropOp52
 70
     0
102
RTVSPost2010Prop53
 90
        2
102
RTVSPost2010PropOp53
 70
     1
102
RTVSPost2010Prop54
  1
strokes_ogs.tif
102
RTVSPost2010PropOp54
 70
     1
102
RTVSPost2010Prop55
280
     0
102
RTVSPost2010PropOp55
 70
     1
102
RTVSPost2010Prop56
140
1.0
102
RTVSPost2010PropOp56
 70
     1
102
RTVSPost2010Prop57
140
1.0
102
RTVSPost2010PropOp57
 70
     1
  0
XRECORD
  5
C8F
102
{ACAD_REACTORS
330
C8E
102
}
330
C8E
100
AcDbXrecord
280
     1
102
RTVSPost2010Prop28
280
     0
102
RTVSPost2010PropOp28
 70
     1
102
RTVSPost2010Prop29
280
     1
102
RTVSPost2010PropOp29
 70
     1
102
RTVSPost2010Prop30
280
     1
102
RTVSPost2010PropOp30
 70
     1
102
RTVSPost2010Prop31
280
     0
102
RTVSPost2010PropOp31
 70
     1
102
RTVSPost2010Prop32
280
     0
102
RTVSPost2010PropOp32
 70
     1
102
RTVSPost2010Prop33
280
     0
102
RTVSPost2010PropOp33
 70
     1
102
RTVSPost2010Prop34
280
     0
102
RTVSPost2010PropOp34
 70
     1
102
RTVSPost2010Prop35
280
     0
102
RTVSPost2010PropOp35
 70
     1
102
RTVSPost2010Prop36
280
     0
102
RTVSPost2010PropOp36
 70
     1
102
RTVSPost2010Prop37
 90
       50
102
RTVSPost2010PropOp37
 70
     1
102
RTVSPost2010Prop38
140
0.0
102
RTVSPost2010PropOp38
 70
     1
102
RTVSPost2010Prop39
140
1.0
102
RTVSPost2010PropOp39
 70
     1
102
RTVSPost2010Prop40
 90
        0
102
RTVSPost2010PropOp40
 70
     1
102
RTVSPost2010Prop41ColorIndex
 90
       18
102
RTVSPost2010Prop41ColorRGB
 90
        0
102
RTVSPost2010PropOp41
 70
     1
102
RTVSPost2010Prop42
 90
       50
102
RTVSPost2010PropOp42
 70
     1
102
RTVSPost2010Prop43
 90
        3
102
RTVSPost2010PropOp43
 70
     1
102
RTVSPost2010Prop44ColorIndex
 90
        5
102
RTVSPost2010Prop44ColorRGB
 90
      255
102
RTVSPost2010PropOp44
 70
     1
102
RTVSPost2010Prop45
280
     0
102
RTVSPost2010PropOp45
 70
     1
102
RTVSPost2010Prop46
 90
       50
102
RTVSPost2010PropOp46
 70
     1
102
RTVSPost2010Prop47
 90
       50
102
RTVSPost2010PropOp47
 70
     1
102
RTVSPost2010Prop48
 90
       50
102
RTVSPost2010PropOp48
 70
     1
102
RTVSPost2010Prop49
280
     0
102
RTVSPost2010PropOp49
 70
     1
102
RTVSPost2010Prop50
 90
       50
102
RTVSPost2010PropOp50
 70
     1
102
RTVSPost2010Prop51ColorIndex
 90
      256
102
RTVSPost2010Prop51ColorRGB
 90
-16777216
102
RTVSPost2010PropOp51
 70
     0
102
RTVSPost2010Prop52
140
1.0
102
RTVSPost2010PropOp52
 70
     0
102
RTVSPost2010Prop53
 90
        2
102
RTVSPost2010PropOp53
 70
     1
102
RTVSPost2010Prop54
  1
strokes_ogs.tif
102
RTVSPost2010PropOp54
 70
     1
102
RTVSPost2010Prop55
280
     0
102
RTVSPost2010PropOp55
 70
     1
102
RTVSPost2010Prop56
140
1.0
102
RTVSPost2010PropOp56
 70
     1
102
RTVSPost2010Prop57
140
1.0
102
RTVSPost2010PropOp57
 70
     1
  0
XRECORD
  5
C85
102
{ACAD_REACTORS
330
C84
102
}
330
C84
100
AcDbXrecord
280
     1
102
RTVSPost2010Prop28
280
     0
102
RTVSPost2010PropOp28
 70
     1
102
RTVSPost2010Prop29
280
     1
102
RTVSPost2010PropOp29
 70
     1
102
RTVSPost2010Prop30
280
     1
102
RTVSPost2010PropOp30
 70
     1
102
RTVSPost2010Prop31
280
     0
102
RTVSPost2010PropOp31
 70
     1
102
RTVSPost2010Prop32
280
     0
102
RTVSPost2010PropOp32
 70
     1
102
RTVSPost2010Prop33
280
     0
102
RTVSPost2010PropOp33
 70
     1
102
RTVSPost2010Prop34
280
     0
102
RTVSPost2010PropOp34
 70
     1
102
RTVSPost2010Prop35
280
     0
102
RTVSPost2010PropOp35
 70
     1
102
RTVSPost2010Prop36
280
     0
102
RTVSPost2010PropOp36
 70
     1
102
RTVSPost2010Prop37
 90
       50
102
RTVSPost2010PropOp37
 70
     1
102
RTVSPost2010Prop38
140
0.0
102
RTVSPost2010PropOp38
 70
     1
102
RTVSPost2010Prop39
140
1.0
102
RTVSPost2010PropOp39
 70
     1
102
RTVSPost2010Prop40
 90
        0
102
RTVSPost2010PropOp40
 70
     1
102
RTVSPost2010Prop41ColorIndex
 90
       18
102
RTVSPost2010Prop41ColorRGB
 90
        0
102
RTVSPost2010PropOp41
 70
     1
102
RTVSPost2010Prop42
 90
       50
102
RTVSPost2010PropOp42
 70
     1
102
RTVSPost2010Prop43
 90
        3
102
RTVSPost2010PropOp43
 70
     1
102
RTVSPost2010Prop44ColorIndex
 90
        5
102
RTVSPost2010Prop44ColorRGB
 90
      255
102
RTVSPost2010PropOp44
 70
     1
102
RTVSPost2010Prop45
280
     0
102
RTVSPost2010PropOp45
 70
     1
102
RTVSPost2010Prop46
 90
       50
102
RTVSPost2010PropOp46
 70
     1
102
RTVSPost2010Prop47
 90
       50
102
RTVSPost2010PropOp47
 70
     1
102
RTVSPost2010Prop48
 90
       50
102
RTVSPost2010PropOp48
 70
     1
102
RTVSPost2010Prop49
280
     0
102
RTVSPost2010PropOp49
 70
     1
102
RTVSPost2010Prop50
 90
       50
102
RTVSPost2010PropOp50
 70
     1
102
RTVSPost2010Prop51ColorIndex
 90
      256
102
RTVSPost2010Prop51ColorRGB
 90
-16777216
102
RTVSPost2010PropOp51
 70
     0
102
RTVSPost2010Prop52
140
1.0
102
RTVSPost2010PropOp52
 70
     0
102
RTVSPost2010Prop53
 90
        2
102
RTVSPost2010PropOp53
 70
     1
102
RTVSPost2010Prop54
  1
strokes_ogs.tif
102
RTVSPost2010PropOp54
 70
     1
102
RTVSPost2010Prop55
280
     0
102
RTVSPost2010PropOp55
 70
     1
102
RTVSPost2010Prop56
140
1.0
102
RTVSPost2010PropOp56
 70
     1
102
RTVSPost2010Prop57
140
1.0
102
RTVSPost2010PropOp57
 70
     1
  0
XRECORD
  5
C79
102
{ACAD_REACTORS
330
C78
102
}
330
C78
100
AcDbXrecord
280
     1
102
RTVSPost2010Prop28
280
     0
102
RTVSPost2010PropOp28
 70
     1
102
RTVSPost2010Prop29
280
     1
102
RTVSPost2010PropOp29
 70
     1
102
RTVSPost2010Prop30
280
     1
102
RTVSPost2010PropOp30
 70
     1
102
RTVSPost2010Prop31
280
     0
102
RTVSPost2010PropOp31
 70
     1
102
RTVSPost2010Prop32
280
     0
102
RTVSPost2010PropOp32
 70
     1
102
RTVSPost2010Prop33
280
     0
102
RTVSPost2010PropOp33
 70
     1
102
RTVSPost2010Prop34
280
     0
102
RTVSPost2010PropOp34
 70
     1
102
RTVSPost2010Prop35
280
     0
102
RTVSPost2010PropOp35
 70
     1
102
RTVSPost2010Prop36
280
     0
102
RTVSPost2010PropOp36
 70
     1
102
RTVSPost2010Prop37
 90
       50
102
RTVSPost2010PropOp37
 70
     1
102
RTVSPost2010Prop38
140
0.0
102
RTVSPost2010PropOp38
 70
     1
102
RTVSPost2010Prop39
140
1.0
102
RTVSPost2010PropOp39
 70
     1
102
RTVSPost2010Prop40
 90
        0
102
RTVSPost2010PropOp40
 70
     1
102
RTVSPost2010Prop41ColorIndex
 90
       18
102
RTVSPost2010Prop41ColorRGB
 90
        0
102
RTVSPost2010PropOp41
 70
     1
102
RTVSPost2010Prop42
 90
       50
102
RTVSPost2010PropOp42
 70
     1
102
RTVSPost2010Prop43
 90
        3
102
RTVSPost2010PropOp43
 70
     1
102
RTVSPost2010Prop44ColorIndex
 90
        5
102
RTVSPost2010Prop44ColorRGB
 90
      255
102
RTVSPost2010PropOp44
 70
     1
102
RTVSPost2010Prop45
280
     0
102
RTVSPost2010PropOp45
 70
     1
102
RTVSPost2010Prop46
 90
       50
102
RTVSPost2010PropOp46
 70
     1
102
RTVSPost2010Prop47
 90
       50
102
RTVSPost2010PropOp47
 70
     1
102
RTVSPost2010Prop48
 90
       50
102
RTVSPost2010PropOp48
 70
     1
102
RTVSPost2010Prop49
280
     0
102
RTVSPost2010PropOp49
 70
     1
102
RTVSPost2010Prop50
 90
       50
102
RTVSPost2010PropOp50
 70
     1
102
RTVSPost2010Prop51ColorIndex
 90
      256
102
RTVSPost2010Prop51ColorRGB
 90
-16777216
102
RTVSPost2010PropOp51
 70
     0
102
RTVSPost2010Prop52
140
1.0
102
RTVSPost2010PropOp52
 70
     0
102
RTVSPost2010Prop53
 90
        2
102
RTVSPost2010PropOp53
 70
     1
102
RTVSPost2010Prop54
  1
strokes_ogs.tif
102
RTVSPost2010PropOp54
 70
     1
102
RTVSPost2010Prop55
280
     0
102
RTVSPost2010PropOp55
 70
     1
102
RTVSPost2010Prop56
140
1.0
102
RTVSPost2010PropOp56
 70
     1
102
RTVSPost2010Prop57
140
1.0
102
RTVSPost2010PropOp57
 70
     1
  0
XRECORD
  5
C91
102
{ACAD_REACTORS
330
C90
102
}
330
C90
100
AcDbXrecord
280
     1
102
RTVSPost2010Prop28
280
     0
102
RTVSPost2010PropOp28
 70
     1
102
RTVSPost2010Prop29
280
     1
102
RTVSPost2010PropOp29
 70
     1
102
RTVSPost2010Prop30
280
     1
102
RTVSPost2010PropOp30
 70
     1
102
RTVSPost2010Prop31
280
     0
102
RTVSPost2010PropOp31
 70
     1
102
RTVSPost2010Prop32
280
     0
102
RTVSPost2010PropOp32
 70
     1
102
RTVSPost2010Prop33
280
     0
102
RTVSPost2010PropOp33
 70
     1
102
RTVSPost2010Prop34
280
     0
102
RTVSPost2010PropOp34
 70
     1
102
RTVSPost2010Prop35
280
     0
102
RTVSPost2010PropOp35
 70
     1
102
RTVSPost2010Prop36
280
     0
102
RTVSPost2010PropOp36
 70
     1
102
RTVSPost2010Prop37
 90
       50
102
RTVSPost2010PropOp37
 70
     1
102
RTVSPost2010Prop38
140
0.0
102
RTVSPost2010PropOp38
 70
     1
102
RTVSPost2010Prop39
140
1.0
102
RTVSPost2010PropOp39
 70
     1
102
RTVSPost2010Prop40
 90
        0
102
RTVSPost2010PropOp40
 70
     1
102
RTVSPost2010Prop41ColorIndex
 90
       18
102
RTVSPost2010Prop41ColorRGB
 90
        0
102
RTVSPost2010PropOp41
 70
     1
102
RTVSPost2010Prop42
 90
       50
102
RTVSPost2010PropOp42
 70
     1
102
RTVSPost2010Prop43
 90
        3
102
RTVSPost2010PropOp43
 70
     1
102
RTVSPost2010Prop44ColorIndex
 90
        5
102
RTVSPost2010Prop44ColorRGB
 90
      255
102
RTVSPost2010PropOp44
 70
     1
102
RTVSPost2010Prop45
280
     0
102
RTVSPost2010PropOp45
 70
     1
102
RTVSPost2010Prop46
 90
       50
102
RTVSPost2010PropOp46
 70
     1
102
RTVSPost2010Prop47
 90
       50
102
RTVSPost2010PropOp47
 70
     1
102
RTVSPost2010Prop48
 90
       50
102
RTVSPost2010PropOp48
 70
     1
102
RTVSPost2010Prop49
280
     0
102
RTVSPost2010PropOp49
 70
     1
102
RTVSPost2010Prop50
 90
       50
102
RTVSPost2010PropOp50
 70
     1
102
RTVSPost2010Prop51ColorIndex
 90
      256
102
RTVSPost2010Prop51ColorRGB
 90
-16777216
102
RTVSPost2010PropOp51
 70
     0
102
RTVSPost2010Prop52
140
1.0
102
RTVSPost2010PropOp52
 70
     0
102
RTVSPost2010Prop53
 90
        2
102
RTVSPost2010PropOp53
 70
     1
102
RTVSPost2010Prop54
  1
strokes_ogs.tif
102
RTVSPost2010PropOp54
 70
     1
102
RTVSPost2010Prop55
280
     0
102
RTVSPost2010PropOp55
 70
     1
102
RTVSPost2010Prop56
140
1.0
102
RTVSPost2010PropOp56
 70
     1
102
RTVSPost2010Prop57
140
1.0
102
RTVSPost2010PropOp57
 70
     1
  0
ENDSEC
  0
EOF
