  0
SECTION
  2
HEADER
  9
$ACADVER
  1
AC1027
  9
$ACADMAINTVER
 70
   125
  9
$DWGCODEPAGE
  3
ANSI_1252
  9
$LASTSAVEDBY
  1
kaschu
  9
$REQUIREDVERSIONS
160
                 0
  9
$INSBASE
 10
0.0
 20
0.0
 30
0.0
  9
$EXTMIN
 10
4.596020253075224
 20
53.79413716748678
 30
0.0
  9
$EXTMAX
 10
1363.58276486837
 20
861.8856360924437
 30
0.0000000000000823
  9
$LIMMIN
 10
-0.5
 20
-0.5
  9
$LIMMAX
 10
5.0
 20
5.0
  9
$ORTHOMODE
 70
     1
  9
$REGENMODE
 70
     1
  9
$FILLMODE
 70
     1
  9
$QTEXTMODE
 70
     0
  9
$MIRRTEXT
 70
     1
  9
$LTSCALE
 40
1.0
  9
$ATTMODE
 70
     1
  9
$TEXTSIZE
 40
25.0
  9
$TRACEWID
 40
0.05
  9
$TEXTSTYLE
  7
Standard
  9
$CLAYER
  8
0
  9
$CELTYPE
  6
BYLAYER
  9
$CECOLOR
 62
   256
  9
$CELTSCALE
 40
1.0
  9
$DISPSILH
 70
     0
  9
$DIMSCALE
 40
1.0
  9
$DIMASZ
 40
0.18
  9
$DIMEXO
 40
0.0625
  9
$DIMDLI
 40
0.38
  9
$DIMRND
 40
0.0
  9
$DIMDLE
 40
0.0
  9
$DIMEXE
 40
0.18
  9
$DIMTP
 40
0.0
  9
$DIMTM
 40
0.0
  9
$DIMTXT
 40
0.18
  9
$DIMCEN
 40
0.09
  9
$DIMTSZ
 40
0.0
  9
$DIMTOL
 70
     0
  9
$DIMLIM
 70
     0
  9
$DIMTIH
 70
     1
  9
$DIMTOH
 70
     1
  9
$DIMSE1
 70
     0
  9
$DIMSE2
 70
     0
  9
$DIMTAD
 70
     0
  9
$DIMZIN
 70
     0
  9
$DIMBLK
  1

  9
$DIMASO
 70
     1
  9
$DIMSHO
 70
     1
  9
$DIMPOST
  1

  9
$DIMAPOST
  1

  9
$DIMALT
 70
     0
  9
$DIMALTD
 70
     2
  9
$DIMALTF
 40
25.4
  9
$DIMLFAC
 40
1.0
  9
$DIMTOFL
 70
     0
  9
$DIMTVP
 40
0.0
  9
$DIMTIX
 70
     0
  9
$DIMSOXD
 70
     0
  9
$DIMSAH
 70
     0
  9
$DIMBLK1
  1

  9
$DIMBLK2
  1

  9
$DIMSTYLE
  2
Standard
  9
$DIMCLRD
 70
     0
  9
$DIMCLRE
 70
     0
  9
$DIMCLRT
 70
     0
  9
$DIMTFAC
 40
1.0
  9
$DIMGAP
 40
0.09
  9
$DIMJUST
 70
     0
  9
$DIMSD1
 70
     0
  9
$DIMSD2
 70
     0
  9
$DIMTOLJ
 70
     1
  9
$DIMTZIN
 70
     0
  9
$DIMALTZ
 70
     0
  9
$DIMALTTZ
 70
     0
  9
$DIMUPT
 70
     0
  9
$DIMDEC
 70
     4
  9
$DIMTDEC
 70
     4
  9
$DIMALTU
 70
     2
  9
$DIMALTTD
 70
     2
  9
$DIMTXSTY
  7
Standard
  9
$DIMAUNIT
 70
     0
  9
$DIMADEC
 70
     0
  9
$DIMALTRND
 40
0.0
  9
$DIMAZIN
 70
     0
  9
$DIMDSEP
 70
    46
  9
$DIMATFIT
 70
     3
  9
$DIMFRAC
 70
     0
  9
$DIMLDRBLK
  1

  9
$DIMLUNIT
 70
     2
  9
$DIMLWD
 70
    -2
  9
$DIMLWE
 70
    -2
  9
$DIMTMOVE
 70
     0
  9
$DIMFXL
 40
1.0
  9
$DIMFXLON
 70
     0
  9
$DIMJOGANG
 40
0.7853981633974483
  9
$DIMTFILL
 70
     0
  9
$DIMTFILLCLR
 70
     0
  9
$DIMARCSYM
 70
     0
  9
$DIMLTYPE
  6

  9
$DIMLTEX1
  6

  9
$DIMLTEX2
  6

  9
$DIMTXTDIRECTION
 70
     0
  9
$LUNITS
 70
     2
  9
$LUPREC
 70
     4
  9
$SKETCHINC
 40
0.1
  9
$FILLETRAD
 40
0.5
  9
$AUNITS
 70
     0
  9
$AUPREC
 70
     0
  9
$MENU
  1
.
  9
$ELEVATION
 40
0.0
  9
$PELEVATION
 40
0.0
  9
$THICKNESS
 40
0.0
  9
$LIMCHECK
 70
     0
  9
$CHAMFERA
 40
0.5
  9
$CHAMFERB
 40
0.5
  9
$CHAMFERC
 40
1.0
  9
$CHAMFERD
 40
0.0
  9
$SKPOLY
 70
     0
  9
$TDCREATE
 40
2455694.560428241
  9
$TDUCREATE
 40
2455694.477100590
  9
$TDUPDATE
 40
2459478.687523148
  9
$TDUUPDATE
 40
2459478.604189815
  9
$TDINDWG
 40
0.0195981250
  9
$TDUSRTIMER
 40
0.0195981250
  9
$USRTIMER
 70
     1
  9
$ANGBASE
 50
0.0
  9
$ANGDIR
 70
     0
  9
$PDMODE
 70
     0
  9
$PDSIZE
 40
0.0
  9
$PLINEWID
 40
0.0
  9
$SPLFRAME
 70
     0
  9
$SPLINETYPE
 70
     6
  9
$SPLINESEGS
 70
     8
  9
$HANDSEED
  5
CF5
  9
$SURFTAB1
 70
     6
  9
$SURFTAB2
 70
     6
  9
$SURFTYPE
 70
     6
  9
$SURFU
 70
     6
  9
$SURFV
 70
     6
  9
$UCSBASE
  2

  9
$UCSNAME
  2

  9
$UCSORG
 10
0.0
 20
0.0
 30
0.0
  9
$UCSXDIR
 10
1.0
 20
0.0
 30
0.0
  9
$UCSYDIR
 10
0.0
 20
1.0
 30
0.0
  9
$UCSORTHOREF
  2

  9
$UCSORTHOVIEW
 70
     0
  9
$UCSORGTOP
 10
0.0
 20
0.0
 30
0.0
  9
$UCSORGBOTTOM
 10
0.0
 20
0.0
 30
0.0
  9
$UCSORGLEFT
 10
0.0
 20
0.0
 30
0.0
  9
$UCSORGRIGHT
 10
0.0
 20
0.0
 30
0.0
  9
$UCSORGFRONT
 10
0.0
 20
0.0
 30
0.0
  9
$UCSORGBACK
 10
0.0
 20
0.0
 30
0.0
  9
$PUCSBASE
  2

  9
$PUCSNAME
  2

  9
$PUCSORG
 10
0.0
 20
0.0
 30
0.0
  9
$PUCSXDIR
 10
1.0
 20
0.0
 30
0.0
  9
$PUCSYDIR
 10
0.0
 20
1.0
 30
0.0
  9
$PUCSORTHOREF
  2

  9
$PUCSORTHOVIEW
 70
     0
  9
$PUCSORGTOP
 10
0.0
 20
0.0
 30
0.0
  9
$PUCSORGBOTTOM
 10
0.0
 20
0.0
 30
0.0
  9
$PUCSORGLEFT
 10
0.0
 20
0.0
 30
0.0
  9
$PUCSORGRIGHT
 10
0.0
 20
0.0
 30
0.0
  9
$PUCSORGFRONT
 10
0.0
 20
0.0
 30
0.0
  9
$PUCSORGBACK
 10
0.0
 20
0.0
 30
0.0
  9
$USERI1
 70
     0
  9
$USERI2
 70
     0
  9
$USERI3
 70
     0
  9
$USERI4
 70
     0
  9
$USERI5
 70
     0
  9
$USERR1
 40
0.0
  9
$USERR2
 40
0.0
  9
$USERR3
 40
0.0
  9
$USERR4
 40
0.0
  9
$USERR5
 40
0.0
  9
$WORLDVIEW
 70
     1
  9
$SHADEDGE
 70
     3
  9
$SHADEDIF
 70
    70
  9
$TILEMODE
 70
     1
  9
$MAXACTVP
 70
    64
  9
$PINSBASE
 10
0.0
 20
0.0
 30
0.0
  9
$PLIMCHECK
 70
     0
  9
$PEXTMIN
 10
-0.5
 20
-0.5
 30
-0.5
  9
$PEXTMAX
 10
5.0
 20
5.0
 30
5.0
  9
$PLIMMIN
 10
-0.5
 20
-0.5
  9
$PLIMMAX
 10
5.0
 20
5.0
  9
$UNITMODE
 70
     0
  9
$VISRETAIN
 70
     1
  9
$PLINEGEN
 70
     0
  9
$PSLTSCALE
 70
     1
  9
$TREEDEPTH
 70
  3020
  9
$CMLSTYLE
  2
Standard
  9
$CMLJUST
 70
     0
  9
$CMLSCALE
 40
1.0
  9
$PROXYGRAPHICS
 70
     1
  9
$MEASUREMENT
 70
     1
  9
$CELWEIGHT
370
    -1
  9
$ENDCAPS
280
     0
  9
$JOINSTYLE
280
     0
  9
$LWDISPLAY
290
     0
  9
$INSUNITS
 70
     4
  9
$HYPERLINKBASE
  1

  9
$STYLESHEET
  1

  9
$XEDIT
290
     1
  9
$CEPSNTYPE
380
     0
  9
$PSTYLEMODE
290
     1
  9
$FINGERPRINTGUID
  2
{F00BE011-E78A-4A73-80CF-EFD0DEF1625D}
  9
$VERSIONGUID
  2
{35D99A72-FD65-CA40-9A71-65206B0C579D}
  9
$EXTNAMES
290
     1
  9
$PSVPSCALE
 40
0.0
  9
$OLESTARTUP
290
     0
  9
$SORTENTS
280
   127
  9
$INDEXCTL
280
     0
  9
$HIDETEXT
280
     0
  9
$XCLIPFRAME
280
     2
  9
$HALOGAP
280
     0
  9
$OBSCOLOR
 70
   257
  9
$OBSLTYPE
280
     0
  9
$INTERSECTIONDISPLAY
280
     0
  9
$INTERSECTIONCOLOR
 70
   257
  9
$DIMASSOC
280
     1
  9
$PROJECTNAME
  1

  9
$CAMERADISPLAY
290
     0
  9
$LENSLENGTH
 40
50.0
  9
$CAMERAHEIGHT
 40
0.0
  9
$STEPSPERSEC
 40
2.0
  9
$STEPSIZE
 40
6.0
  9
$3DDWFPREC
 40
2.0
  9
$PSOLWIDTH
 40
0.25
  9
$PSOLHEIGHT
 40
4.0
  9
$LOFTANG1
 40
1.570796326794896
  9
$LOFTANG2
 40
1.570796326794896
  9
$LOFTMAG1
 40
0.0
  9
$LOFTMAG2
 40
0.0
  9
$LOFTPARAM
 70
     7
  9
$LOFTNORMALS
280
     1
  9
$LATITUDE
 40
37.795
  9
$LONGITUDE
 40
-122.394
  9
$NORTHDIRECTION
 40
0.0
  9
$TIMEZONE
 70
 -8000
  9
$LIGHTGLYPHDISPLAY
280
     1
  9
$TILEMODELIGHTSYNCH
280
     1
  9
$CMATERIAL
347
6DA
  9
$SOLIDHIST
280
     0
  9
$SHOWHIST
280
     1
  9
$DWFFRAME
280
     2
  9
$DGNFRAME
280
     0
  9
$REALWORLDSCALE
290
     1
  9
$INTERFERECOLOR
 62
     1
  9
$INTERFEREOBJVS
345
33
  9
$INTERFEREVPVS
346
715
  9
$CSHADOW
280
     0
  9
$SHADOWPLANELOCATION
 40
0.0
  0
ENDSEC
  0
SECTION
  2
CLASSES
  0
CLASS
  1
ACDBDICTIONARYWDFLT
  2
AcDbDictionaryWithDefault
  3
ObjectDBX Classes
 90
        0
 91
        1
280
     0
281
     0
  0
CLASS
  1
VISUALSTYLE
  2
AcDbVisualStyle
  3
ObjectDBX Classes
 90
     4095
 91
       26
280
     0
281
     0
  0
CLASS
  1
MATERIAL
  2
AcDbMaterial
  3
ObjectDBX Classes
 90
     1153
 91
        3
280
     0
281
     0
  0
CLASS
  1
TABLESTYLE
  2
AcDbTableStyle
  3
ObjectDBX Classes
 90
     4095
 91
        1
280
     0
281
     0
  0
CLASS
  1
DICTIONARYVAR
  2
AcDbDictionaryVar
  3
ObjectDBX Classes
 90
        0
 91
       12
280
     0
281
     0
  0
CLASS
  1
SCALE
  2
AcDbScale
  3
ObjectDBX Classes
 90
     1153
 91
       17
280
     0
281
     0
  0
CLASS
  1
MLEADERSTYLE
  2
AcDbMLeaderStyle
  3
ACDB_MLEADERSTYLE_CLASS
 90
     4095
 91
        1
280
     0
281
     0
  0
CLASS
  1
ACDBSECTIONVIEWSTYLE
  2
AcDbSectionViewStyle
  3
ObjectDBX Classes
 90
     1025
 91
        2
280
     0
281
     0
  0
CLASS
  1
ACDBDETAILVIEWSTYLE
  2
AcDbDetailViewStyle
  3
ObjectDBX Classes
 90
     1025
 91
        2
280
     0
281
     0
  0
CLASS
  1
SORTENTSTABLE
  2
AcDbSortentsTable
  3
ObjectDBX Classes
 90
        0
 91
        0
280
     0
281
     0
  0
CLASS
  1
CELLSTYLEMAP
  2
AcDbCellStyleMap
  3
ObjectDBX Classes
 90
     1152
 91
        2
280
     0
281
     0
  0
ENDSEC
  0
SECTION
  2
TABLES
  0
TABLE
  2
VPORT
  5
8
330
0
100
AcDbSymbolTable
 70
    17
1001
ACAD
1000
DbSaveVer
1071
      224
  0
VPORT
  5
29
330
8
100
AcDbSymbolTableRecord
100
AcDbViewportTableRecord
  2
DUMMY
 70
     0
 10
0.0
 20
0.0
 11
1.0
 21
1.0
 12
10.42990654205607
 22
4.5
 13
0.0
 23
0.0
 14
0.5
 24
0.5
 15
0.5
 25
0.5
 16
0.0
 26
0.0
 36
1.0
 17
0.0
 27
0.0
 37
0.0
 40
9.0
 41
1.972972972850327
 42
50.0
 43
0.0
 44
0.0
 50
0.0
 51
0.0
 71
     0
 72
   100
 73
     1
 74
     3
 75
     0
 76
     0
 77
     0
 78
     0
281
     0
 65
     1
110
0.0
120
0.0
130
0.0
111
1.0
121
0.0
131
0.0
112
0.0
122
1.0
132
0.0
 79
     0
146
0.0
348
2F
 60
     3
 61
     5
292
     1
282
     1
141
0.0
142
0.0
 63
   250
421
  3355443
  0
VPORT
  5
6C2
330
8
100
AcDbSymbolTableRecord
100
AcDbViewportTableRecord
  2
*ACTIVE
 70
     0
 10
0.0
 20
0.0
 11
1.0
 21
1.0
 12
1428.912943816146
 22
263.8440206236373
 13
0.0
 23
0.0
 14
0.5
 24
0.5
 15
0.5
 25
0.5
 16
0.0
 26
0.0
 36
1.0
 17
0.0
 27
0.0
 37
0.0
 40
1743.924147926933
 41
2.14188422247446
 42
50.0
 43
1767.948756937242
 44
-1767.948756937242
 50
0.0
 51
0.0
 71
     0
 72
 10000
 73
     1
 74
     3
 75
     0
 76
     0
 77
     0
 78
     0
281
     0
 65
     1
110
0.0
120
0.0
130
0.0
111
1.0
121
0.0
131
0.0
112
0.0
122
1.0
132
0.0
 79
     0
146
0.0
348
2F
 60
     3
 61
     5
292
     1
282
     1
141
0.0
142
0.0
 63
   250
421
  3355443
1001
ACAD_NAV_VCDISPLAY
1070
     3
  0
VPORT
  5
6C3
330
8
100
AcDbSymbolTableRecord
100
AcDbViewportTableRecord
  2
L1
 70
     0
 10
0.0
 20
0.0
 11
1.0
 21
1.0
 12
460.8737472285888
 22
404.664939769725
 13
0.0
 23
0.0
 14
0.5
 24
0.5
 15
0.5
 25
0.5
 16
0.0
 26
0.0
 36
1.0
 17
0.0
 27
0.0
 37
0.0
 40
254.0
 41
0.069908491163988
 42
50.0
 43
1767.948756937242
 44
-1767.948756937242
 50
0.0
 51
0.0
 71
     0
 72
   100
 73
     1
 74
     3
 75
     0
 76
     0
 77
     0
 78
     0
281
     0
 65
     1
110
0.0
120
0.0
130
0.0
111
1.0
121
0.0
131
0.0
112
0.0
122
1.0
132
0.0
 79
     0
146
0.0
348
2F
 60
     3
 61
     5
292
     1
282
     1
141
0.0
142
0.0
 63
   250
421
  3355443
  0
VPORT
  5
6C4
330
8
100
AcDbSymbolTableRecord
100
AcDbViewportTableRecord
  2
L2
 70
     0
 10
0.0
 20
0.0
 11
0.5
 21
1.0
 12
0.0
 22
0.0
 13
0.0
 23
0.0
 14
0.5
 24
0.5
 15
0.5
 25
0.5
 16
0.0
 26
-1.0
 36
0.0
 17
0.0
 27
0.0
 37
0.0
 40
1319.822715367485
 41
0.0134538953973897
 42
50.0
 43
672.0208330104061
 44
-672.0208330104061
 50
0.0
 51
0.0
 71
     0
 72
   100
 73
     1
 74
     3
 75
     0
 76
     0
 77
     0
 78
     0
281
     0
 65
     1
110
0.0
120
0.0
130
0.0
111
1.0
121
0.0
131
0.0
112
0.0
122
1.0
132
0.0
 79
     0
146
0.0
348
2F
 60
     3
 61
     5
292
     1
282
     1
141
0.0
142
0.0
 63
   250
421
  3355443
  0
VPORT
  5
6C5
330
8
100
AcDbSymbolTableRecord
100
AcDbViewportTableRecord
  2
L2
 70
     0
 10
0.5
 20
0.0
 11
1.0
 21
1.0
 12
0.0
 22
0.0
 13
0.0
 23
0.0
 14
0.5
 24
0.5
 15
0.5
 25
0.5
 16
1.0
 26
0.0
 36
0.0
 17
0.0
 27
0.0
 37
0.0
 40
1319.822715367485
 41
0.0134538953973897
 42
50.0
 43
672.0208330104061
 44
-672.0208330104061
 50
0.0
 51
0.0
 71
     0
 72
   100
 73
     1
 74
     3
 75
     0
 76
     0
 77
     0
 78
     0
281
     0
 65
     1
110
0.0
120
0.0
130
0.0
111
1.0
121
0.0
131
0.0
112
0.0
122
1.0
132
0.0
 79
     0
146
0.0
348
2F
 60
     3
 61
     5
292
     1
282
     1
141
0.0
142
0.0
 63
   250
421
  3355443
  0
VPORT
  5
6C6
330
8
100
AcDbSymbolTableRecord
100
AcDbViewportTableRecord
  2
L3
 70
     0
 10
0.0
 20
0.5
 11
1.0
 21
1.0
 12
460.8737472285888
 22
404.664939769725
 13
0.0
 23
0.0
 14
0.5
 24
0.5
 15
0.5
 25
0.5
 16
0.0
 26
0.0
 36
1.0
 17
0.0
 27
0.0
 37
0.0
 40
254.0
 41
0.069908491163988
 42
50.0
 43
1767.948756937242
 44
-1767.948756937242
 50
0.0
 51
0.0
 71
     0
 72
   100
 73
     1
 74
     3
 75
     0
 76
     0
 77
     0
 78
     0
281
     0
 65
     1
110
0.0
120
0.0
130
0.0
111
1.0
121
0.0
131
0.0
112
0.0
122
1.0
132
0.0
 79
     0
146
0.0
348
2F
 60
     3
 61
     5
292
     1
282
     1
141
0.0
142
0.0
 63
   250
421
  3355443
  0
VPORT
  5
6C7
330
8
100
AcDbSymbolTableRecord
100
AcDbViewportTableRecord
  2
L3
 70
     0
 10
0.0
 20
0.0
 11
1.0
 21
0.5
 12
0.0
 22
0.0
 13
0.0
 23
0.0
 14
0.5
 24
0.5
 15
0.5
 25
0.5
 16
0.0
 26
-1.0
 36
0.0
 17
0.0
 27
0.0
 37
0.0
 40
1319.822715367485
 41
0.0134538953973897
 42
50.0
 43
672.0208330104061
 44
-672.0208330104061
 50
0.0
 51
0.0
 71
     0
 72
   100
 73
     1
 74
     3
 75
     0
 76
     0
 77
     0
 78
     0
281
     0
 65
     1
110
0.0
120
0.0
130
0.0
111
1.0
121
0.0
131
0.0
112
0.0
122
1.0
132
0.0
 79
     0
146
0.0
348
2F
 60
     3
 61
     5
292
     1
282
     1
141
0.0
142
0.0
 63
   250
421
  3355443
  0
VPORT
  5
6C8
330
8
100
AcDbSymbolTableRecord
100
AcDbViewportTableRecord
  2
L4
 70
     0
 10
0.0
 20
0.5
 11
0.5
 21
1.0
 12
460.8737472285888
 22
404.664939769725
 13
0.0
 23
0.0
 14
0.5
 24
0.5
 15
0.5
 25
0.5
 16
0.0
 26
0.0
 36
1.0
 17
0.0
 27
0.0
 37
0.0
 40
254.0
 41
0.069908491163988
 42
50.0
 43
1767.948756937242
 44
-1767.948756937242
 50
0.0
 51
0.0
 71
     0
 72
   100
 73
     1
 74
     3
 75
     0
 76
     0
 77
     0
 78
     0
281
     0
 65
     1
110
0.0
120
0.0
130
0.0
111
1.0
121
0.0
131
0.0
112
0.0
122
1.0
132
0.0
 79
     0
146
0.0
348
2F
 60
     3
 61
     5
292
     1
282
     1
141
0.0
142
0.0
 63
   250
421
  3355443
  0
VPORT
  5
6C9
330
8
100
AcDbSymbolTableRecord
100
AcDbViewportTableRecord
  2
L4
 70
     0
 10
0.0
 20
0.0
 11
0.5
 21
0.5
 12
0.0
 22
0.0
 13
0.0
 23
0.0
 14
0.5
 24
0.5
 15
0.5
 25
0.5
 16
0.0
 26
-1.0
 36
0.0
 17
0.0
 27
0.0
 37
0.0
 40
1319.822715367485
 41
0.0134538953973897
 42
50.0
 43
672.0208330104061
 44
-672.0208330104061
 50
0.0
 51
0.0
 71
     0
 72
   100
 73
     1
 74
     3
 75
     0
 76
     0
 77
     0
 78
     0
281
     0
 65
     1
110
0.0
120
0.0
130
0.0
111
1.0
121
0.0
131
0.0
112
0.0
122
1.0
132
0.0
 79
     0
146
0.0
348
2F
 60
     3
 61
     5
292
     1
282
     1
141
0.0
142
0.0
 63
   250
421
  3355443
  0
VPORT
  5
6CA
330
8
100
AcDbSymbolTableRecord
100
AcDbViewportTableRecord
  2
L4
 70
     0
 10
0.5
 20
0.0
 11
1.0
 21
0.5
 12
0.0
 22
0.0
 13
0.0
 23
0.0
 14
0.5
 24
0.5
 15
0.5
 25
0.5
 16
1.0
 26
0.0
 36
0.0
 17
0.0
 27
0.0
 37
0.0
 40
1319.822715367485
 41
0.0134538953973897
 42
50.0
 43
672.0208330104061
 44
-672.0208330104061
 50
0.0
 51
0.0
 71
     0
 72
   100
 73
     1
 74
     3
 75
     0
 76
     0
 77
     0
 78
     0
281
     0
 65
     1
110
0.0
120
0.0
130
0.0
111
1.0
121
0.0
131
0.0
112
0.0
122
1.0
132
0.0
 79
     0
146
0.0
348
2F
 60
     3
 61
     5
292
     1
282
     1
141
0.0
142
0.0
 63
   250
421
  3355443
  0
VPORT
  5
6CB
330
8
100
AcDbSymbolTableRecord
100
AcDbViewportTableRecord
  2
L4
 70
     0
 10
0.5
 20
0.5
 11
1.0
 21
1.0
 12
0.0
 22
0.0
 13
0.0
 23
0.0
 14
0.5
 24
0.5
 15
0.5
 25
0.5
 16
0.577350269189626
 26
-0.577350269189626
 36
0.577350269189626
 17
0.0
 27
0.0
 37
0.0
 40
1285.020866083941
 41
0.0138182633638986
 42
50.0
 43
667.1414067255757
 44
-667.1414067255757
 50
0.0
 51
0.0
 71
     0
 72
   100
 73
     1
 74
     3
 75
     0
 76
     0
 77
     0
 78
     0
281
     0
 65
     1
110
0.0
120
0.0
130
0.0
111
1.0
121
0.0
131
0.0
112
0.0
122
1.0
132
0.0
 79
     0
146
0.0
348
2F
 60
     3
 61
     5
292
     1
282
     1
141
0.0
142
0.0
 63
   250
421
  3355443
  0
VPORT
  5
6CC
330
8
100
AcDbSymbolTableRecord
100
AcDbViewportTableRecord
  2
L6
 70
     0
 10
0.0
 20
0.5
 11
0.3333333333333334
 21
1.0
 12
0.0
 22
0.0
 13
0.0
 23
0.0
 14
0.5
 24
0.5
 15
0.5
 25
0.5
 16
0.7188730927569436
 26
-0.5850486126764432
 36
0.3754192287502549
 17
0.0
 27
0.0
 37
0.0
 40
1357.434191666423
 41
0.0130811179390246
 42
50.0
 43
701.8394773188865
 44
-701.8394773188865
 50
0.0
 51
0.0
 71
     0
 72
   100
 73
     1
 74
     3
 75
     0
 76
     0
 77
     0
 78
     0
281
     0
 65
     1
110
0.0
120
0.0
130
0.0
111
1.0
121
0.0
131
0.0
112
0.0
122
1.0
132
0.0
 79
     0
146
0.0
348
2F
 60
     3
 61
     5
292
     1
282
     1
141
0.0
142
0.0
 63
   250
421
  3355443
  0
VPORT
  5
6CD
330
8
100
AcDbSymbolTableRecord
100
AcDbViewportTableRecord
  2
L6
 70
     0
 10
0.0
 20
0.0
 11
0.3333333333333334
 21
0.5
 12
0.0
 22
0.0
 13
0.0
 23
0.0
 14
0.5
 24
0.5
 15
0.5
 25
0.5
 16
-1.0
 26
0.0
 36
0.0
 17
0.0
 27
0.0
 37
0.0
 40
1319.822715367485
 41
0.0134538953973897
 42
50.0
 43
672.0208330104061
 44
-672.0208330104061
 50
0.0
 51
0.0
 71
     0
 72
   100
 73
     1
 74
     3
 75
     0
 76
     0
 77
     0
 78
     0
281
     0
 65
     1
110
0.0
120
0.0
130
0.0
111
1.0
121
0.0
131
0.0
112
0.0
122
1.0
132
0.0
 79
     0
146
0.0
348
2F
 60
     3
 61
     5
292
     1
282
     1
141
0.0
142
0.0
 63
   250
421
  3355443
  0
VPORT
  5
6CE
330
8
100
AcDbSymbolTableRecord
100
AcDbViewportTableRecord
  2
L6
 70
     0
 10
0.3333333333333334
 20
0.5
 11
0.6666666666666666
 21
1.0
 12
460.8737472285888
 22
404.664939769725
 13
0.0
 23
0.0
 14
0.5
 24
0.5
 15
0.5
 25
0.5
 16
0.0
 26
0.0
 36
1.0
 17
0.0
 27
0.0
 37
0.0
 40
254.0
 41
0.069908491163988
 42
50.0
 43
1767.948756937242
 44
-1767.948756937242
 50
0.0
 51
0.0
 71
     0
 72
   100
 73
     1
 74
     3
 75
     0
 76
     0
 77
     0
 78
     0
281
     0
 65
     1
110
0.0
120
0.0
130
0.0
111
1.0
121
0.0
131
0.0
112
0.0
122
1.0
132
0.0
 79
     0
146
0.0
348
2F
 60
     3
 61
     5
292
     1
282
     1
141
0.0
142
0.0
 63
   250
421
  3355443
  0
VPORT
  5
6CF
330
8
100
AcDbSymbolTableRecord
100
AcDbViewportTableRecord
  2
L6
 70
     0
 10
0.3333333333333334
 20
0.0
 11
0.6666666666666666
 21
0.5
 12
0.0
 22
0.0
 13
0.0
 23
0.0
 14
0.5
 24
0.5
 15
0.5
 25
0.5
 16
0.0
 26
-1.0
 36
0.0
 17
0.0
 27
0.0
 37
0.0
 40
1319.822715367485
 41
0.0134538953973897
 42
50.0
 43
672.0208330104061
 44
-672.0208330104061
 50
0.0
 51
0.0
 71
     0
 72
   100
 73
     1
 74
     3
 75
     0
 76
     0
 77
     0
 78
     0
281
     0
 65
     1
110
0.0
120
0.0
130
0.0
111
1.0
121
0.0
131
0.0
112
0.0
122
1.0
132
0.0
 79
     0
146
0.0
348
2F
 60
     3
 61
     5
292
     1
282
     1
141
0.0
142
0.0
 63
   250
421
  3355443
  0
VPORT
  5
6D0
330
8
100
AcDbSymbolTableRecord
100
AcDbViewportTableRecord
  2
L6
 70
     0
 10
0.6666666666666666
 20
0.5
 11
1.0
 21
1.0
 12
0.0
 22
0.0
 13
0.0
 23
0.0
 14
0.5
 24
0.5
 15
0.5
 25
0.5
 16
0.577350269189626
 26
-0.577350269189626
 36
0.577350269189626
 17
0.0
 27
0.0
 37
0.0
 40
1285.020866083941
 41
0.0138182633638986
 42
50.0
 43
667.1414067255757
 44
-667.1414067255757
 50
0.0
 51
0.0
 71
     0
 72
   100
 73
     1
 74
     3
 75
     0
 76
     0
 77
     0
 78
     0
281
     0
 65
     1
110
0.0
120
0.0
130
0.0
111
1.0
121
0.0
131
0.0
112
0.0
122
1.0
132
0.0
 79
     0
146
0.0
348
2F
 60
     3
 61
     5
292
     1
282
     1
141
0.0
142
0.0
 63
   250
421
  3355443
  0
VPORT
  5
6D1
330
8
100
AcDbSymbolTableRecord
100
AcDbViewportTableRecord
  2
L6
 70
     0
 10
0.6666666666666666
 20
0.0
 11
1.0
 21
0.5
 12
0.0
 22
0.0
 13
0.0
 23
0.0
 14
0.5
 24
0.5
 15
0.5
 25
0.5
 16
1.0
 26
0.0
 36
0.0
 17
0.0
 27
0.0
 37
0.0
 40
1319.822715367485
 41
0.0134538953973897
 42
50.0
 43
672.0208330104061
 44
-672.0208330104061
 50
0.0
 51
0.0
 71
     0
 72
   100
 73
     1
 74
     3
 75
     0
 76
     0
 77
     0
 78
     0
281
     0
 65
     1
110
0.0
120
0.0
130
0.0
111
1.0
121
0.0
131
0.0
112
0.0
122
1.0
132
0.0
 79
     0
146
0.0
348
2F
 60
     3
 61
     5
292
     1
282
     1
141
0.0
142
0.0
 63
   250
421
  3355443
  0
ENDTAB
  0
TABLE
  2
LTYPE
  5
5
330
0
100
AcDbSymbolTable
 70
     8
  0
LTYPE
  5
14
330
5
100
AcDbSymbolTableRecord
100
AcDbLinetypeTableRecord
  2
BYBLOCK
 70
     0
  3

 72
    65
 73
     0
 40
0.0
  0
LTYPE
  5
15
330
5
100
AcDbSymbolTableRecord
100
AcDbLinetypeTableRecord
  2
BYLAYER
 70
     0
  3

 72
    65
 73
     0
 40
0.0
  0
LTYPE
  5
16
330
5
100
AcDbSymbolTableRecord
100
AcDbLinetypeTableRecord
  2
CONTINUOUS
 70
     0
  3
Solid line
 72
    65
 73
     0
 40
0.0
  0
LTYPE
  5
3B
330
5
100
AcDbSymbolTableRecord
100
AcDbLinetypeTableRecord
  2
DASHED
 70
     0
  3
__ __ __ __ __ __ __ __ __
 72
    65
 73
     2
 40
25.72
 49
12.86
 74
     4
 75
     0
340
0
 46
0.0
 50
0.0
 44
0.0
 45
0.0
 49
-12.86
 74
     4
 75
     0
340
0
 46
0.0
 50
0.0
 44
0.0
 45
0.0
  0
LTYPE
  5
3C
330
5
100
AcDbSymbolTableRecord
100
AcDbLinetypeTableRecord
  2
HIDDEN
 70
     0
  3
_ _ _ _ _ _ _ _ _ _ _ _ _ _ _
 72
    65
 73
     2
 40
0.5
 49
0.25
 74
     4
 75
     0
340
0
 46
0.0
 50
0.0
 44
0.0
 45
0.0
 49
-0.25
 74
     4
 75
     0
340
0
 46
0.0
 50
0.0
 44
0.0
 45
0.0
  0
LTYPE
  5
3D
330
5
100
AcDbSymbolTableRecord
100
AcDbLinetypeTableRecord
  2
PHANTOM
 70
     0
  3
____ _ _ ____ _ _ _____ _ _ ____
 72
    65
 73
     6
 40
50.5
 49
18.0
 74
     4
 75
     0
340
0
 46
0.0
 50
0.0
 44
0.0
 45
0.0
 49
-6.5
 74
     4
 75
     0
340
0
 46
0.0
 50
0.0
 44
0.0
 45
0.0
 49
6.5
 74
     4
 75
     0
340
0
 46
0.0
 50
0.0
 44
0.0
 45
0.0
 49
-6.5
 74
     4
 75
     0
340
0
 46
0.0
 50
0.0
 44
0.0
 45
0.0
 49
6.5
 74
     4
 75
     0
340
0
 46
0.0
 50
0.0
 44
0.0
 45
0.0
 49
-6.5
 74
     4
 75
     0
340
0
 46
0.0
 50
0.0
 44
0.0
 45
0.0
  0
LTYPE
  5
3E
330
5
100
AcDbSymbolTableRecord
100
AcDbLinetypeTableRecord
  2
CENTER
 70
     0
  3
____ _ ____ _ ____ _ ____
 72
    65
 73
     4
 40
47.4
 49
22.0
 74
     4
 75
     0
340
0
 46
0.0
 50
0.0
 44
0.0
 45
0.0
 49
-8.5
 74
     4
 75
     0
340
0
 46
0.0
 50
0.0
 44
0.0
 45
0.0
 49
8.5
 74
     4
 75
     0
340
0
 46
0.0
 50
0.0
 44
0.0
 45
0.0
 49
-8.5
 74
     4
 75
     0
340
0
 46
0.0
 50
0.0
 44
0.0
 45
0.0
  0
LTYPE
  5
3F
330
5
100
AcDbSymbolTableRecord
100
AcDbLinetypeTableRecord
  2
DOT
 70
     0
  3
.........................
 72
    65
 73
     2
 40
10.0
 49
0.0
 74
     4
 75
     0
340
0
 46
0.0
 50
0.0
 44
0.0
 45
0.0
 49
-10.0
 74
     4
 75
     0
340
0
 46
0.0
 50
0.0
 44
0.0
 45
0.0
  0
LTYPE
  5
40
330
5
100
AcDbSymbolTableRecord
100
AcDbLinetypeTableRecord
  2
DASHDOT
 70
     0
  3
_._._._._._._._._._._._._._._._.
 72
    65
 73
     4
 40
70.0
 49
31.0
 74
     4
 75
     0
340
0
 46
0.0
 50
0.0
 44
0.0
 45
0.0
 49
-13.0
 74
     4
 75
     0
340
0
 46
0.0
 50
0.0
 44
0.0
 45
0.0
 49
13.0
 74
     4
 75
     0
340
0
 46
0.0
 50
0.0
 44
0.0
 45
0.0
 49
-13.0
 74
     4
 75
     0
340
0
 46
0.0
 50
0.0
 44
0.0
 45
0.0
  0
LTYPE
  5
748
330
5
100
AcDbSymbolTableRecord
100
AcDbLinetypeTableRecord
  2
CUSTOM
 70
     0
  3

 72
    65
 73
     0
 40
0.0
  0
ENDTAB
  0
TABLE
  2
LAYER
  5
2
102
{ACAD_XDICTIONARY
360
843
102
}
330
0
100
AcDbSymbolTable
 70
     6
  0
LAYER
  5
10
102
{ACAD_XDICTIONARY
360
739
102
}
330
2
100
AcDbSymbolTableRecord
100
AcDbLayerTableRecord
  2
0
 70
     0
 62
     7
  6
CONTINUOUS
370
    -3
390
F
347
6DC
348
0
  0
LAYER
  5
42
102
{ACAD_XDICTIONARY
360
73B
102
}
330
2
100
AcDbSymbolTableRecord
100
AcDbLayerTableRecord
  2
1
 70
     0
 62
     7
  6
CONTINUOUS
370
    -3
390
F
347
6DC
348
0
  0
LAYER
  5
6BD
102
{ACAD_XDICTIONARY
360
73D
102
}
330
2
100
AcDbSymbolTableRecord
100
AcDbLayerTableRecord
  2
TOP
 70
     0
 62
     7
  6
CONTINUOUS
370
    -3
390
F
347
6DC
348
0
  0
LAYER
  5
6E4
330
2
100
AcDbSymbolTableRecord
100
AcDbLayerTableRecord
  2
Defpoints
 70
     0
 62
     7
  6
CONTINUOUS
290
     0
370
    -3
390
F
347
6DC
348
0
  0
LAYER
  5
840
330
2
100
AcDbSymbolTableRecord
100
AcDbLayerTableRecord
  2
HEWI
 70
     0
 62
   250
  6
CONTINUOUS
370
    -3
390
F
347
6DC
348
0
1001
AcAecLayerStandard
1000

1000

1001
AcCmTransparency
1071
        0
  0
LAYER
  5
89B
330
2
100
AcDbSymbolTableRecord
100
AcDbLayerTableRecord
  2
VD
 70
     0
 62
   183
  6
HIDDEN
370
    -3
390
F
347
6DC
348
0
1001
AcAecLayerStandard
1000

1000

1001
AcCmTransparency
1071
        0
  0
ENDTAB
  0
TABLE
  2
STYLE
  5
3
330
0
100
AcDbSymbolTable
 70
     3
  0
STYLE
  5
11
330
3
100
AcDbSymbolTableRecord
100
AcDbTextStyleTableRecord
  2
Standard
 70
     0
 40
0.0
 41
1.0
 50
0.0
 71
     0
 42
25.0
  3
txt
  4

  0
STYLE
  5
852
330
3
100
AcDbSymbolTableRecord
100
AcDbTextStyleTableRecord
  2
HEWI
 70
     0
 40
0.0
 41
1.0
 50
0.0
 71
     0
 42
90.0
  3
arial.ttf
  4

1001
ACAD
1000
Arial
1071
       34
  0
STYLE
  5
8CB
330
3
100
AcDbSymbolTableRecord
100
AcDbTextStyleTableRecord
  2
ARIAL
 70
     0
 40
0.0
 41
1.0
 50
0.0
 71
     0
 42
0.0
  3
Arial
  4

  0
ENDTAB
  0
TABLE
  2
VIEW
  5
6
330
0
100
AcDbSymbolTable
 70
     0
  0
ENDTAB
  0
TABLE
  2
UCS
  5
7
330
0
100
AcDbSymbolTable
 70
     0
  0
ENDTAB
  0
TABLE
  2
APPID
  5
9
330
0
100
AcDbSymbolTable
 70
     6
  0
APPID
  5
12
330
9
100
AcDbSymbolTableRecord
100
AcDbRegAppTableRecord
  2
ACAD
 70
     0
  0
APPID
  5
73F
330
9
100
AcDbSymbolTableRecord
100
AcDbRegAppTableRecord
  2
ACAD_NAV_VCDISPLAY
 70
     0
  0
APPID
  5
841
330
9
100
AcDbSymbolTableRecord
100
AcDbRegAppTableRecord
  2
AcAecLayerStandard
 70
     0
  0
APPID
  5
842
330
9
100
AcDbSymbolTableRecord
100
AcDbRegAppTableRecord
  2
AcCmTransparency
 70
     0
  0
APPID
  5
853
330
9
100
AcDbSymbolTableRecord
100
AcDbRegAppTableRecord
  2
ACAD_PSEXT
 70
     0
  0
APPID
  5
89C
330
9
100
AcDbSymbolTableRecord
100
AcDbRegAppTableRecord
  2
ACAD_EXEMPT_FROM_CAD_STANDARDS
 70
     0
  0
ENDTAB
  0
TABLE
  2
DIMSTYLE
  5
A
330
0
100
AcDbSymbolTable
 70
     2
100
AcDbDimStyleTable
 71
     2
340
749
340
27
  0
DIMSTYLE
105
27
330
A
100
AcDbSymbolTableRecord
100
AcDbDimStyleTableRecord
  2
Standard
 70
     0
340
11
  0
DIMSTYLE
105
749
102
{ACAD_REACTORS
330
8EB
102
}
330
A
100
AcDbSymbolTableRecord
100
AcDbDimStyleTableRecord
  2
ISO-25
 70
     0
 41
2.5
 42
0.625
 43
3.75
 44
1.25
 73
     0
 74
     0
 77
     1
 78
     8
140
2.5
141
2.5
143
0.03937007874016
147
0.625
171
     3
172
     1
271
     2
272
     2
274
     3
278
    44
283
     0
284
     8
340
11
  0
ENDTAB
  0
TABLE
  2
BLOCK_RECORD
  5
1
330
0
100
AcDbSymbolTable
 70
     9
  0
BLOCK_RECORD
  5
1F
330
1
100
AcDbSymbolTableRecord
100
AcDbBlockTableRecord
  2
*Model_Space
340
22
 70
     0
280
     1
281
     0
  0
BLOCK_RECORD
  5
1B
330
1
100
AcDbSymbolTableRecord
100
AcDbBlockTableRecord
  2
*Paper_Space
340
1E
 70
     0
280
     1
281
     0
  0
BLOCK_RECORD
  5
23
330
1
100
AcDbSymbolTableRecord
100
AcDbBlockTableRecord
  2
*Paper_Space0
340
26
 70
     0
280
     1
281
     0
  0
BLOCK_RECORD
  5
6E5
330
1
100
AcDbSymbolTableRecord
100
AcDbBlockTableRecord
  2
*D1
340
0
 70
     0
280
     1
281
     0
  0
BLOCK_RECORD
  5
6F1
330
1
100
AcDbSymbolTableRecord
100
AcDbBlockTableRecord
  2
*D2
340
0
 70
     0
280
     1
281
     0
  0
BLOCK_RECORD
  5
832
330
1
100
AcDbSymbolTableRecord
100
AcDbBlockTableRecord
  2
*D3
340
0
 70
     0
280
     1
281
     0
  0
BLOCK_RECORD
  5
88E
330
1
100
AcDbSymbolTableRecord
100
AcDbBlockTableRecord
  2
*D4
340
0
 70
     0
280
     1
281
     0
  0
BLOCK_RECORD
  5
8BA
330
1
100
AcDbSymbolTableRecord
100
AcDbBlockTableRecord
  2
_Dot
340
0
102
{BLKREFS
331
8C4
331
8C5
331
8E5
331
8E6
331
90E
331
90F
102
}
 70
     0
280
     1
281
     0
  0
BLOCK_RECORD
  5
8BF
330
1
100
AcDbSymbolTableRecord
100
AcDbBlockTableRecord
  2
*D6
340
0
 70
     0
280
     1
281
     0
  0
BLOCK_RECORD
  5
8D6
330
1
100
AcDbSymbolTableRecord
100
AcDbBlockTableRecord
  2
*D7
340
0
 70
     0
280
     1
281
     0
  0
BLOCK_RECORD
  5
8EC
330
1
100
AcDbSymbolTableRecord
100
AcDbBlockTableRecord
  2
*D8
340
0
 70
     0
280
     1
281
     0
  0
ENDTAB
  0
ENDSEC
  0
SECTION
  2
BLOCKS
  0
BLOCK
  5
20
330
1F
100
AcDbEntity
  8
0
100
AcDbBlockBegin
  2
*Model_Space
 70
     0
 10
0.0
 20
0.0
 30
0.0
  3
*Model_Space
  1

  0
ENDBLK
  5
21
330
1F
100
AcDbEntity
  8
0
100
AcDbBlockEnd
  0
BLOCK
  5
1C
330
1B
100
AcDbEntity
 67
     1
  8
0
100
AcDbBlockBegin
  2
*Paper_Space
 70
     0
 10
0.0
 20
0.0
 30
0.0
  3
*Paper_Space
  1

  0
ENDBLK
  5
1D
330
1B
100
AcDbEntity
 67
     1
  8
0
100
AcDbBlockEnd
  0
BLOCK
  5
24
330
23
100
AcDbEntity
 67
     1
  8
0
100
AcDbBlockBegin
  2
*Paper_Space0
 70
     0
 10
0.0
 20
0.0
 30
0.0
  3
*Paper_Space0
  1

  0
ENDBLK
  5
25
330
23
100
AcDbEntity
 67
     1
  8
0
100
AcDbBlockEnd
  0
BLOCK
  5
6EE
330
6E5
100
AcDbEntity
  8
0
100
AcDbBlockBegin
  2
*D1
 70
     1
 10
0.0
 20
0.0
 30
0.0
  3
*D1
  1

  0
LINE
  5
6E6
330
6E5
100
AcDbEntity
  8
0
 62
     0
370
    -2
100
AcDbLine
 10
197.7955681797262
 20
729.269403322281
 30
0.0
 11
197.9755681797261
 21
729.269403322281
 31
0.0
  0
LINE
  5
6E7
330
6E5
100
AcDbEntity
  8
0
 62
     0
370
    -2
100
AcDbLine
 10
197.9755681797261
 20
729.269403322281
 30
0.0
 11
229.3197234096654
 21
718.3681070254327
 31
0.0
  0
MTEXT
  5
6E8
330
6E5
100
AcDbEntity
  8
0
 62
     0
100
AcDbMText
 10
197.1205681797261
 20
729.2694033222809
 30
0.0
 40
0.18
 41
0.0
 46
0.0
 71
     5
 72
     1
  1
\A1;∅23.6000
 73
     1
 44
1.0
1001
ACAD
1000
MTEXTBEGIN
1070
    73
1070
     1
1070
    44
1040
1.0
1070
    74
1070
     0
1000
MTEXTEND
  0
SOLID
  5
6E9
330
6E5
100
AcDbEntity
  8
0
 62
     0
100
AcDbTrace
 10
229.3295782070002
 20
718.3964422150294
 30
0.0
 11
229.3098686123305
 21
718.3397718358357
 31
0.0
 12
229.4897345472465
 22
718.3089782414238
 32
0.0
 13
229.4897345472465
 23
718.3089782414238
 33
0.0
  0
LINE
  5
6EA
330
6E5
100
AcDbEntity
  8
0
 62
     0
370
    -2
100
AcDbLine
 10
240.5449091220069
 20
714.4327579563887
 30
0.0
 11
240.7249091220069
 21
714.4327579563887
 31
0.0
  0
LINE
  5
6EB
330
6E5
100
AcDbEntity
  8
0
 62
     0
370
    -2
100
AcDbLine
 10
240.6349091220069
 20
714.3427579563891
 30
0.0
 11
240.6349091220068
 21
714.522757956389
 31
0.0
  0
POINT
  5
6EC
330
6E5
100
AcDbEntity
  8
Defpoints
 62
     0
100
AcDbPoint
 10
229.4897345472465
 20
718.3089782414238
 30
0.0
  0
POINT
  5
6ED
330
6E5
100
AcDbEntity
  8
Defpoints
 62
     0
100
AcDbPoint
 10
251.7800836967673
 20
710.5565376713546
 30
0.0
  0
ENDBLK
  5
6EF
330
6E5
100
AcDbEntity
  8
0
100
AcDbBlockEnd
  0
BLOCK
  5
6FC
330
6F1
100
AcDbEntity
  8
0
100
AcDbBlockBegin
  2
*D2
 70
     1
 10
0.0
 20
0.0
 30
0.0
  3
*D2
  1

  0
LINE
  5
6F2
330
6F1
100
AcDbEntity
  8
0
 62
     0
370
    -2
100
AcDbLine
 10
228.1362870747628
 20
714.1846591413504
 30
0.0
 11
228.1362870747628
 21
711.0397278630072
 31
0.0
  0
LINE
  5
6F3
330
6F1
100
AcDbEntity
  8
0
 62
     0
370
    -2
100
AcDbLine
 10
253.1349091220068
 20
714.3702579563893
 30
0.0
 11
253.1349091220068
 21
711.0397278630072
 31
0.0
  0
LINE
  5
6F4
330
6F1
100
AcDbEntity
  8
0
 62
     0
370
    -2
100
AcDbLine
 10
228.3162870747628
 20
711.2197278630072
 30
0.0
 11
240.0055980983848
 21
711.2197278630072
 31
0.0
  0
LINE
  5
6F5
330
6F1
100
AcDbEntity
  8
0
 62
     0
370
    -2
100
AcDbLine
 10
252.9549091220069
 20
711.2197278630072
 30
0.0
 11
241.2655980983848
 21
711.2197278630072
 31
0.0
  0
SOLID
  5
6F6
330
6F1
100
AcDbEntity
  8
0
 62
     0
100
AcDbTrace
 10
228.3162870747628
 20
711.249727863007
 30
0.0
 11
228.3162870747628
 21
711.189727863007
 31
0.0
 12
228.1362870747628
 22
711.2197278630072
 32
0.0
 13
228.1362870747628
 23
711.2197278630072
 33
0.0
  0
SOLID
  5
6F7
330
6F1
100
AcDbEntity
  8
0
 62
     0
100
AcDbTrace
 10
252.9549091220069
 20
711.249727863007
 30
0.0
 11
252.9549091220069
 21
711.189727863007
 31
0.0
 12
253.1349091220068
 22
711.2197278630072
 32
0.0
 13
253.1349091220068
 23
711.2197278630072
 33
0.0
  0
MTEXT
  5
6F8
330
6F1
100
AcDbEntity
  8
0
 62
     0
100
AcDbMText
 10
240.6355980983848
 20
711.2197278630072
 30
0.0
 40
0.18
 41
0.0
 46
0.0
 71
     5
 72
     1
  1
\A1;24.9986
 73
     1
 44
1.0
1001
ACAD
1000
MTEXTBEGIN
1070
    73
1070
     1
1070
    44
1040
1.0
1070
    74
1070
     0
1000
MTEXTEND
  0
POINT
  5
6F9
330
6F1
100
AcDbEntity
  8
Defpoints
 62
     0
100
AcDbPoint
 10
228.1362870747628
 20
714.2471591413506
 30
0.0
  0
POINT
  5
6FA
330
6F1
100
AcDbEntity
  8
Defpoints
 62
     0
100
AcDbPoint
 10
253.1349091220068
 20
714.4327579563893
 30
0.0
  0
POINT
  5
6FB
330
6F1
100
AcDbEntity
  8
Defpoints
 62
     0
100
AcDbPoint
 10
253.1349091220068
 20
711.2197278630072
 30
0.0
  0
ENDBLK
  5
6FD
330
6F1
100
AcDbEntity
  8
0
100
AcDbBlockEnd
  0
BLOCK
  5
833
330
832
100
AcDbEntity
  8
0
100
AcDbBlockBegin
  2
*D3
 70
     1
 10
0.0
 20
0.0
 30
0.0
  3
*D3
  1

  0
LINE
  5
835
330
832
100
AcDbEntity
  8
0
 62
     0
440
 16777216
370
    -2
100
AcDbLine
 10
683.9660740363707
 20
698.5360695271556
 30
0.0
 11
931.2838988099775
 21
698.5360695271557
 31
0.0
  0
LINE
  5
836
330
832
100
AcDbEntity
  8
0
 62
     0
440
 16777216
370
    -2
100
AcDbLine
 10
743.2960477928137
 20
70.90478901870854
 30
0.0
 11
931.2838988099775
 21
70.90478901870857
 31
0.0
  0
LINE
  5
837
330
832
100
AcDbEntity
  8
0
 62
     0
440
 16777216
370
    -2
100
AcDbLine
 10
931.1038988099776
 20
698.3560695271558
 30
0.0
 11
931.1038988099776
 21
384.9004292729322
 31
0.0
  0
LINE
  5
838
330
832
100
AcDbEntity
  8
0
 62
     0
440
 16777216
370
    -2
100
AcDbLine
 10
931.1038988099776
 20
71.08478901870856
 30
0.0
 11
931.1038988099776
 21
384.5404292729322
 31
0.0
  0
SOLID
  5
839
330
832
100
AcDbEntity
  8
0
 62
     0
440
 16777216
100
AcDbTrace
 10
931.0738988099775
 20
698.3560695271558
 30
0.0
 11
931.1338988099775
 21
698.3560695271558
 31
0.0
 12
931.1038988099776
 22
698.5360695271557
 32
0.0
 13
931.1038988099776
 23
698.5360695271557
 33
0.0
  0
SOLID
  5
83A
330
832
100
AcDbEntity
  8
0
 62
     0
440
 16777216
100
AcDbTrace
 10
931.0738988099775
 20
71.08478901870856
 30
0.0
 11
931.1338988099775
 21
71.08478901870856
 31
0.0
 12
931.1038988099776
 22
70.90478901870857
 32
0.0
 13
931.1038988099776
 23
70.90478901870857
 33
0.0
  0
MTEXT
  5
83B
330
832
100
AcDbEntity
  8
0
 62
     0
440
 16777216
100
AcDbMText
 10
931.1038988099774
 20
384.7204292729318
 30
0.0
 40
0.18
 41
0.0
 46
0.0
 71
     5
 72
     1
  1
\A1;627.6313
 73
     1
 44
1.0
  0
POINT
  5
83C
330
832
100
AcDbEntity
  8
Defpoints
 62
     0
440
 16777216
100
AcDbPoint
 10
683.9035740363707
 20
698.5360695271556
 30
0.0
  0
POINT
  5
83D
330
832
100
AcDbEntity
  8
Defpoints
 62
     0
440
 16777216
100
AcDbPoint
 10
743.2335477928137
 20
70.90478901870854
 30
0.0
  0
POINT
  5
83E
330
832
100
AcDbEntity
  8
Defpoints
 62
     0
440
 16777216
100
AcDbPoint
 10
931.1038988099776
 20
70.90478901870857
 30
0.0
  0
ENDBLK
  5
834
330
832
100
AcDbEntity
  8
0
100
AcDbBlockEnd
  0
BLOCK
  5
88F
330
88E
100
AcDbEntity
  8
0
100
AcDbBlockBegin
  2
*D4
 70
     1
 10
0.0
 20
0.0
 30
0.0
  3
*D4
  1

  0
LINE
  5
891
330
88E
100
AcDbEntity
  8
0
 62
     0
440
 16777216
370
    -2
100
AcDbLine
 10
724.7872616534862
 20
822.735636092444
 30
0.0
 11
442.6772192546708
 21
822.735636092444
 31
0.0
  0
LINE
  5
892
330
88E
100
AcDbEntity
  8
0
 62
     0
440
 16777216
370
    -2
100
AcDbLine
 10
697.4297366889961
 20
62.35615820247002
 30
0.0
 11
442.6772192546708
 21
62.35615820246998
 31
0.0
  0
LINE
  5
893
330
88E
100
AcDbEntity
  8
0
 62
     0
440
 16777216
370
    -2
100
AcDbLine
 10
442.8572192546709
 20
822.5556360924437
 30
0.0
 11
442.8572192546709
 21
442.725897147457
 31
0.0
  0
LINE
  5
894
330
88E
100
AcDbEntity
  8
0
 62
     0
440
 16777216
370
    -2
100
AcDbLine
 10
442.857219254671
 20
62.53615820246999
 30
0.0
 11
442.8572192546709
 21
442.3658971474567
 31
0.0
  0
SOLID
  5
895
330
88E
100
AcDbEntity
  8
0
 62
     0
440
 16777216
100
AcDbTrace
 10
442.8272192546709
 20
822.5556360924437
 30
0.0
 11
442.8872192546708
 21
822.5556360924437
 31
0.0
 12
442.8572192546709
 22
822.735636092444
 32
0.0
 13
442.8572192546709
 23
822.735636092444
 33
0.0
  0
SOLID
  5
896
330
88E
100
AcDbEntity
  8
0
 62
     0
440
 16777216
100
AcDbTrace
 10
442.827219254671
 20
62.53615820246999
 30
0.0
 11
442.887219254671
 21
62.53615820246999
 31
0.0
 12
442.857219254671
 22
62.35615820246998
 32
0.0
 13
442.857219254671
 23
62.35615820246998
 33
0.0
  0
MTEXT
  5
897
330
88E
100
AcDbEntity
  8
0
 62
     0
440
 16777216
100
AcDbMText
 10
442.8572192546709
 20
442.5458971474568
 30
0.0
 40
0.18
 41
0.0
 46
0.0
 71
     5
 72
     1
  1
\A1;760.3795
 73
     1
 44
1.0
  0
POINT
  5
898
330
88E
100
AcDbEntity
  8
Defpoints
 62
     0
440
 16777216
100
AcDbPoint
 10
724.8497616534862
 20
822.735636092444
 30
0.0000000000001063
  0
POINT
  5
899
330
88E
100
AcDbEntity
  8
Defpoints
 62
     0
440
 16777216
100
AcDbPoint
 10
697.4922366889963
 20
62.35615820247002
 30
0.0
  0
POINT
  5
89A
330
88E
100
AcDbEntity
  8
Defpoints
 62
     0
440
 16777216
100
AcDbPoint
 10
442.857219254671
 20
62.35615820246998
 30
0.0
  0
ENDBLK
  5
890
330
88E
100
AcDbEntity
  8
0
100
AcDbBlockEnd
  0
BLOCK
  5
8BB
330
8BA
100
AcDbEntity
  8
0
100
AcDbBlockBegin
  2
_Dot
 70
     0
 10
0.0
 20
0.0
 30
0.0
  3
_Dot
  1

  0
LWPOLYLINE
  5
8BC
330
8BA
100
AcDbEntity
  8
0
  6
ByBlock
 62
     0
100
AcDbPolyline
 90
        2
 70
     1
 43
0.5
 10
-0.25
 20
0.0
 42
1.0
 10
0.25
 20
0.0
 42
1.0
  0
LINE
  5
8BD
330
8BA
100
AcDbEntity
  8
0
  6
ByBlock
 62
     0
370
    -2
100
AcDbLine
 10
-0.5
 20
0.0
 30
0.0
 11
-1.0
 21
0.0
 31
0.0
  0
ENDBLK
  5
8BE
330
8BA
100
AcDbEntity
  8
0
100
AcDbBlockEnd
  0
BLOCK
  5
8C0
330
8BF
100
AcDbEntity
  8
0
100
AcDbBlockBegin
  2
*D6
 70
     1
 10
0.0
 20
0.0
 30
0.0
  3
*D6
  1

  0
LINE
  5
8C1
330
8BF
100
AcDbEntity
  8
0
 62
     0
440
 16777216
370
    -2
100
AcDbLine
 10
21833.66388734562
 20
-62336.93462033389
 30
0.0
 11
21960.19945650409
 21
-62336.93462033389
 31
0.0
  0
LINE
  5
8C2
330
8BF
100
AcDbEntity
  8
0
 62
     0
440
 16777216
370
    -2
100
AcDbLine
 10
21833.66388734562
 20
-61486.93462033389
 30
0.0
 11
21960.19945650409
 21
-61486.93462033389
 31
0.0
  0
LINE
  5
8C3
330
8BF
100
AcDbEntity
  8
0
 62
     0
440
 16777216
370
    -2
100
AcDbLine
 10
21958.94945650409
 20
-62318.93462033387
 30
0.0
 11
21958.94945650409
 21
-61504.93462033389
 31
0.0
  0
INSERT
  5
8C4
330
8BF
100
AcDbEntity
  8
0
 62
     0
440
 16777216
370
    -2
100
AcDbBlockReference
  2
_Dot
 10
21958.94945650409
 20
-62336.93462033389
 30
0.0
 41
18.0
 42
18.0
 43
18.0
 50
270.0
  0
INSERT
  5
8C5
330
8BF
100
AcDbEntity
  8
0
 62
     0
440
 16777216
370
    -2
100
AcDbBlockReference
  2
_Dot
 10
21958.94945650409
 20
-61486.93462033389
 30
0.0
 41
18.0
 42
18.0
 43
18.0
 50
90.0
  0
MTEXT
  5
8C6
330
8BF
100
AcDbEntity
  8
0
 62
     0
440
 16777216
100
AcDbMText
 10
21923.5265369952
 20
-61911.93462033388
 30
0.0
 40
40.0
 41
0.0
 46
0.0
 71
     5
 72
     1
  1
850
  7
ARIAL
 11
0.0000000000000001
 21
1.0
 31
0.0
 73
     1
 44
1.0
  0
POINT
  5
8C7
330
8BF
100
AcDbEntity
  8
Defpoints
 62
     0
440
 16777216
100
AcDbPoint
 10
21833.03888734562
 20
-62336.93462033389
 30
0.0
  0
POINT
  5
8C8
330
8BF
100
AcDbEntity
  8
Defpoints
 62
     0
440
 16777216
100
AcDbPoint
 10
21833.03888734562
 20
-61486.93462033389
 30
0.0
  0
POINT
  5
8C9
330
8BF
100
AcDbEntity
  8
Defpoints
 62
     0
440
 16777216
100
AcDbPoint
 10
21958.94945650409
 20
-61486.93462033389
 30
0.0
  0
ENDBLK
  5
8CA
330
8BF
100
AcDbEntity
  8
0
100
AcDbBlockEnd
  0
BLOCK
  5
8D7
330
8D6
100
AcDbEntity
  8
0
100
AcDbBlockBegin
  2
*D7
 70
     1
 10
0.0
 20
0.0
 30
0.0
  3
*D7
  1

  0
LINE
  5
8E2
330
8D6
100
AcDbEntity
  8
0
 62
     0
440
 16777216
370
    -2
100
AcDbLine
 10
1372.749753103641
 20
64.76389630970882
 30
0.0
 11
1499.285322262118
 21
64.76389630970884
 31
0.0
  0
LINE
  5
8E3
330
8D6
100
AcDbEntity
  8
0
 62
     0
440
 16777216
370
    -2
100
AcDbLine
 10
1372.749753103641
 20
914.7638963097094
 30
0.0
 11
1499.285322262118
 21
914.7638963097094
 31
0.0
  0
LINE
  5
8E4
330
8D6
100
AcDbEntity
  8
0
 62
     0
440
 16777216
370
    -2
100
AcDbLine
 10
1498.035322262118
 20
82.76389630970884
 30
0.0
 11
1498.035322262118
 21
896.7638963097094
 31
0.0
  0
INSERT
  5
8E5
330
8D6
100
AcDbEntity
  8
0
 62
     0
440
 16777216
370
    -2
100
AcDbBlockReference
  2
_Dot
 10
1498.035322262118
 20
64.76389630970884
 30
0.0
 41
18.0
 42
18.0
 43
18.0
 50
270.0
  0
INSERT
  5
8E6
330
8D6
100
AcDbEntity
  8
0
 62
     0
440
 16777216
370
    -2
100
AcDbBlockReference
  2
_Dot
 10
1498.035322262118
 20
914.7638963097094
 30
0.0
 41
18.0
 42
18.0
 43
18.0
 50
90.0
  0
MTEXT
  5
8E7
330
8D6
100
AcDbEntity
  8
0
 62
     0
440
 16777216
100
AcDbMText
 10
1462.612402753251
 20
489.7638963097084
 30
0.0
 40
40.0
 41
0.0
 46
0.0
 71
     5
 72
     1
  1
850
  7
ARIAL
 11
0.0000000000000001
 21
1.0
 31
0.0
 73
     1
 44
1.0
  0
POINT
  5
8E8
330
8D6
100
AcDbEntity
  8
Defpoints
 62
     0
440
 16777216
100
AcDbPoint
 10
1372.124753103641
 20
64.76389630970882
 30
0.0
  0
POINT
  5
8E9
330
8D6
100
AcDbEntity
  8
Defpoints
 62
     0
440
 16777216
100
AcDbPoint
 10
1372.124753103641
 20
914.7638963097094
 30
0.0
  0
POINT
  5
8EA
330
8D6
100
AcDbEntity
  8
Defpoints
 62
     0
440
 16777216
100
AcDbPoint
 10
1498.035322262118
 20
914.7638963097094
 30
0.0
  0
ENDBLK
  5
8D8
330
8D6
100
AcDbEntity
  8
0
100
AcDbBlockEnd
  0
BLOCK
  5
8ED
330
8EC
100
AcDbEntity
  8
0
100
AcDbBlockBegin
  2
*D8
 70
     1
 10
0.0
 20
0.0
 30
0.0
  3
*D8
  1

  0
LINE
  5
90B
330
8EC
100
AcDbEntity
  8
0
 62
     0
440
 16777216
370
    -2
100
AcDbLine
 10
228.6365987562132
 20
822.735636092444
 30
0.0
 11
69.61477877967803
 21
822.735636092444
 31
0.0
  0
LINE
  5
90C
330
8EC
100
AcDbEntity
  8
0
 62
     0
440
 16777216
370
    -2
100
AcDbLine
 10
228.6365987562132
 20
62.79413716748681
 30
0.0
 11
69.6147787796782
 21
62.79413716748678
 31
0.0
  0
LINE
  5
90D
330
8EC
100
AcDbEntity
  8
0
 62
     0
440
 16777216
370
    -2
100
AcDbLine
 10
70.86477877967803
 20
804.7356360924441
 30
0.0
 11
70.8647787796782
 21
80.79413716748678
 31
0.0
  0
INSERT
  5
90E
330
8EC
100
AcDbEntity
  8
0
 62
     0
440
 16777216
370
    -2
100
AcDbBlockReference
  2
_Dot
 10
70.86477877967803
 20
822.735636092444
 30
0.0
 41
18.0
 42
18.0
 43
18.0
 50
90.0
  0
INSERT
  5
90F
330
8EC
100
AcDbEntity
  8
0
 62
     0
440
 16777216
370
    -2
100
AcDbBlockReference
  2
_Dot
 10
70.8647787796782
 20
62.79413716748678
 30
0.0
 41
18.0
 42
18.0
 43
18.0
 50
270.0
  0
MTEXT
  5
910
330
8EC
100
AcDbEntity
  8
0
 62
     0
440
 16777216
100
AcDbMText
 10
35.44185927081057
 20
442.7648866299652
 30
0.0
 40
40.0
 41
0.0
 46
0.0
 71
     5
 72
     1
  1
760
  7
ARIAL
 11
0.0000000000000001
 21
1.0
 31
0.0
 73
     1
 44
1.0
  0
POINT
  5
911
330
8EC
100
AcDbEntity
  8
Defpoints
 62
     0
440
 16777216
100
AcDbPoint
 10
229.2615987562132
 20
822.735636092444
 30
0.0000000000000152
  0
POINT
  5
912
330
8EC
100
AcDbEntity
  8
Defpoints
 62
     0
440
 16777216
100
AcDbPoint
 10
229.2615987562132
 20
62.79413716748681
 30
0.0
  0
POINT
  5
913
330
8EC
100
AcDbEntity
  8
Defpoints
 62
     0
440
 16777216
100
AcDbPoint
 10
70.8647787796782
 20
62.79413716748678
 30
0.0
  0
ENDBLK
  5
8EE
330
8EC
100
AcDbEntity
  8
0
100
AcDbBlockEnd
  0
ENDSEC
  0
SECTION
  2
ENTITIES
  0
POINT
  5
41
330
1F
100
AcDbEntity
  8
1
  6
Continuous
 62
     8
 60
     1
100
AcDbPoint
 10
404.3575923400498
 20
781.375311787343
 30
0.0
  0
POINT
  5
43
330
1F
100
AcDbEntity
  8
1
  6
Continuous
 62
     8
 60
     1
100
AcDbPoint
 10
406.2557024266769
 20
781.375311787343
 30
0.0
  0
POINT
  5
44
330
1F
100
AcDbEntity
  8
1
  6
Continuous
 62
     8
 60
     1
100
AcDbPoint
 10
459.0720825317583
 20
781.375311787343
 30
0.0
  0
POINT
  5
45
330
1F
100
AcDbEntity
  8
1
  6
Continuous
 62
     8
 60
     1
100
AcDbPoint
 10
407.4516212075916
 20
781.375311787343
 30
0.0
  0
POINT
  5
46
330
1F
100
AcDbEntity
  8
1
  6
Continuous
 62
     8
 60
     1
100
AcDbPoint
 10
458.1666053598187
 20
768.375311787343
 30
0.0
  0
POINT
  5
47
330
1F
100
AcDbEntity
  8
1
  6
Continuous
 62
     8
 60
     1
100
AcDbPoint
 10
458.1666053598187
 20
794.772511787343
 30
0.0
  0
POINT
  5
48
330
1F
100
AcDbEntity
  8
1
  6
Continuous
 62
     8
 60
     1
100
AcDbPoint
 10
404.3575923400498
 20
27.05471422462955
 30
0.0
  0
POINT
  5
49
330
1F
100
AcDbEntity
  8
1
  6
Continuous
 62
     8
 60
     1
100
AcDbPoint
 10
406.3864360407983
 20
27.05471422462955
 30
0.0
  0
POINT
  5
4A
330
1F
100
AcDbEntity
  8
1
  6
Continuous
 62
     8
 60
     1
100
AcDbPoint
 10
459.0720825317583
 20
27.05471422462955
 30
0.0
  0
POINT
  5
4B
330
1F
100
AcDbEntity
  8
1
  6
Continuous
 62
     8
 60
     1
100
AcDbPoint
 10
407.4690523561413
 20
27.05471422462955
 30
0.0
  0
TEXT
  5
89E
330
1F
100
AcDbEntity
  8
0
100
AcDbText
 10
249.3118312891265
 20
640.3703623412032
 30
0.0
 40
25.0
  1
900.50...
100
AcDbText
  0
LINE
  5
8B3
330
1F
100
AcDbEntity
  8
0
100
AcDbLine
 10
1363.58276486837
 20
62.79413716748678
 30
0.0
 11
12.71910588966057
 21
62.79413716748678
 31
0.0
  0
DIMENSION
  5
8EB
330
1F
100
AcDbEntity
  8
0
100
AcDbDimension
280
     0
  2
*D8
 10
70.8647787796782
 20
62.79413716748678
 30
0.0
 11
35.44185927081057
 21
442.7648866299652
 31
0.0
 70
    32
 71
     5
 42
759.9414989249571
 73
     0
 74
     0
 75
     0
  3
ISO-25
100
AcDbAlignedDimension
 13
229.261598756213
 23
822.7356360924437
 33
0.0000000000000152
 14
229.261598756213
 24
62.79413716748678
 34
0.0
 50
90.0
100
AcDbRotatedDimension
1001
ACAD
1000
DSTYLE
1002
{
1070
   271
1070
     0
1070
    41
1040
18.0
1070
   140
1040
40.0
1070
   147
1040
15.0
1070
   173
1070
     1
1070
   340
1005
8CB
1070
   343
1005
8BA
1070
   344
1005
8BA
1002
}
  0
LINE
  5
9D6
330
1F
100
AcDbEntity
  8
VD
100
AcDbLine
 10
896.7705750901911
 20
822.6356360924437
 30
0.0000000000000152
 11
896.5705750901907
 21
822.4356360924437
 31
0.0000000000000152
  0
LINE
  5
9D7
330
1F
100
AcDbEntity
  8
VD
100
AcDbLine
 10
896.5705750901907
 20
789.3356360924436
 30
0.0000000000000152
 11
896.7705750901911
 21
789.1356360924437
 31
0.0000000000000152
  0
LINE
  5
9D8
330
1F
100
AcDbEntity
  8
VD
100
AcDbLine
 10
896.7705750901911
 20
789.1356360924437
 30
0.0000000000000152
 11
898.5705750901907
 21
789.1356360924437
 31
0.0000000000000152
  0
LINE
  5
9D9
330
1F
100
AcDbEntity
  8
VD
100
AcDbLine
 10
898.5705750901907
 20
822.6356360924437
 30
0.0000000000000152
 11
896.7705750901911
 21
822.6356360924437
 31
0.0000000000000152
  0
LINE
  5
9DA
330
1F
100
AcDbEntity
  8
VD
100
AcDbLine
 10
706.0705750901907
 20
790.6774400924437
 30
0.0000000000000152
 11
670.0705750901907
 21
790.6774400924437
 31
0.0000000000000152
  0
LINE
  5
9DB
330
1F
100
AcDbEntity
  8
VD
100
AcDbLine
 10
670.0705750901907
 20
713.7279400924436
 30
0.0000000000000152
 11
706.0705750901907
 21
713.7279400924436
 31
0.0000000000000152
  0
LINE
  5
9DC
330
1F
100
AcDbEntity
  8
VD
100
AcDbLine
 10
167.3705750901899
 20
717.0856360924436
 30
0.0000000000000152
 11
159.670575090191
 21
717.0856360924436
 31
0.0000000000000152
  0
LINE
  5
9DD
330
1F
100
AcDbEntity
  8
VD
100
AcDbLine
 10
159.670575090191
 20
690.0856360924437
 30
0.0000000000000152
 11
167.3705750901899
 21
690.0856360924437
 31
0.0000000000000152
  0
LINE
  5
9DE
330
1F
100
AcDbEntity
  8
VD
100
AcDbLine
 10
159.670575090191
 20
717.0856360924436
 30
0.0000000000000152
 11
158.9705750901903
 21
716.3856360924437
 31
0.0000000000000152
  0
LINE
  5
9DF
330
1F
100
AcDbEntity
  8
VD
100
AcDbLine
 10
158.9705750901903
 20
690.7856360924437
 30
0.0000000000000152
 11
159.670575090191
 21
690.0856360924437
 31
0.0000000000000152
  0
LINE
  5
9E0
330
1F
100
AcDbEntity
  8
VD
100
AcDbLine
 10
167.3705750901899
 20
690.0856360924437
 30
0.0000000000000152
 11
168.0705750901907
 21
690.7856360924437
 31
0.0000000000000152
  0
LINE
  5
9E1
330
1F
100
AcDbEntity
  8
VD
100
AcDbLine
 10
168.0705750901907
 20
716.3856360924437
 30
0.0000000000000152
 11
167.3705750901899
 21
717.0856360924436
 31
0.0000000000000152
  0
LINE
  5
9E2
330
1F
100
AcDbEntity
  8
VD
100
AcDbLine
 10
158.4705750901903
 20
691.5856360924436
 30
0.0000000000000152
 11
158.9705750901903
 21
691.5856360924436
 31
0.0000000000000152
  0
LINE
  5
9E3
330
1F
100
AcDbEntity
  8
VD
100
AcDbLine
 10
158.9705750901903
 20
715.5856360924436
 30
0.0000000000000152
 11
158.4705750901903
 21
715.5856360924436
 31
0.0000000000000152
  0
LINE
  5
9E4
330
1F
100
AcDbEntity
  8
VD
100
AcDbLine
 10
838.2705750901912
 20
716.0356360924437
 30
0.0000000000000152
 11
838.0705750901906
 21
715.8356360924436
 31
0.0000000000000152
  0
LINE
  5
9E5
330
1F
100
AcDbEntity
  8
VD
100
AcDbLine
 10
838.0705750901906
 20
691.2356360924436
 30
0.0000000000000152
 11
838.2705750901912
 21
691.0356360924437
 31
0.0000000000000152
  0
LINE
  5
9E6
330
1F
100
AcDbEntity
  8
VD
100
AcDbLine
 10
840.87057509019
 20
691.0356360924437
 30
0.0000000000000152
 11
841.0705750901907
 21
691.2356360924436
 31
0.0000000000000152
  0
LINE
  5
9E7
330
1F
100
AcDbEntity
  8
VD
100
AcDbLine
 10
841.0705750901907
 20
715.8356360924436
 30
0.0000000000000152
 11
840.87057509019
 21
716.0356360924437
 31
0.0000000000000152
  0
LINE
  5
9E8
330
1F
100
AcDbEntity
  8
VD
100
AcDbLine
 10
838.2705750901912
 20
691.0356360924437
 30
0.0000000000000152
 11
840.87057509019
 21
691.0356360924437
 31
0.0000000000000152
  0
LINE
  5
9E9
330
1F
100
AcDbEntity
  8
VD
100
AcDbLine
 10
840.87057509019
 20
716.0356360924437
 30
0.0000000000000152
 11
838.2705750901912
 21
716.0356360924437
 31
0.0000000000000152
  0
LINE
  5
9EA
330
1F
100
AcDbEntity
  8
VD
100
AcDbLine
 10
708.0720690901907
 20
789.0356360924437
 30
0.0000000000000152
 11
896.5705750901907
 21
789.0356360924437
 31
0.0000000000000152
  0
LINE
  5
9EB
330
1F
100
AcDbEntity
  8
VD
100
AcDbLine
 10
339.0777690901905
 20
789.0356360924437
 30
0.0000000000000152
 11
818.0705750901907
 21
789.0356360924437
 31
0.0000000000000152
  0
LINE
  5
9EC
330
1F
100
AcDbEntity
  8
VD
100
AcDbLine
 10
205.4814770901903
 20
789.0356360924437
 30
0.0000000000000152
 11
299.0698850901917
 21
789.0356360924437
 31
0.0000000000000152
  0
LINE
  5
9ED
330
1F
100
AcDbEntity
  8
VD
100
AcDbLine
 10
896.5705750901907
 20
822.7356360924437
 30
0.0000000000000152
 11
205.4935750901914
 21
822.7356360924437
 31
0.0000000000000152
  0
LINE
  5
9EE
330
1F
100
AcDbEntity
  8
VD
100
AcDbLine
 10
301.0705750901907
 20
713.7279400924436
 30
0.0000000000000152
 11
337.0705750901907
 21
713.7279400924436
 31
0.0000000000000152
  0
LINE
  5
9EF
330
1F
100
AcDbEntity
  8
VD
100
AcDbLine
 10
337.0705750901907
 20
790.6774400924437
 30
0.0000000000000152
 11
301.0705750901907
 21
790.6774400924437
 31
0.0000000000000152
  0
LINE
  5
9F0
330
1F
100
AcDbEntity
  8
VD
100
AcDbLine
 10
169.0705750901907
 20
715.9356360924436
 30
0.0000000000000152
 11
168.2705750901914
 21
715.9356360924436
 31
0.0000000000000152
  0
LINE
  5
9F1
330
1F
100
AcDbEntity
  8
VD
100
AcDbLine
 10
168.2705750901914
 20
691.1356360924437
 30
0.0000000000000152
 11
169.0705750901907
 21
691.1356360924437
 31
0.0000000000000152
  0
LINE
  5
9F2
330
1F
100
AcDbEntity
  8
VD
100
AcDbLine
 10
168.2705750901914
 20
715.9356360924436
 30
0.0000000000000152
 11
168.0705750901907
 21
715.7356360924437
 31
0.0000000000000152
  0
LINE
  5
9F3
330
1F
100
AcDbEntity
  8
VD
100
AcDbLine
 10
168.0705750901907
 20
691.3356360924437
 30
0.0000000000000152
 11
168.2705750901914
 21
691.1356360924437
 31
0.0000000000000152
  0
LINE
  5
9F4
330
1F
100
AcDbEntity
  8
VD
100
AcDbLine
 10
733.0705750901906
 20
691.0356360924437
 30
0.0000000000000152
 11
838.0705750901906
 21
691.0356360924437
 31
0.0000000000000152
  0
LINE
  5
9F5
330
1F
100
AcDbEntity
  8
VD
100
AcDbLine
 10
695.5886170901902
 20
691.0356360924437
 30
0.0000000000000152
 11
733.0705750901906
 21
691.0356360924437
 31
0.0000000000000152
  0
LINE
  5
9F6
330
1F
100
AcDbEntity
  8
VD
100
AcDbLine
 10
326.5886170901904
 20
691.0356360924437
 30
0.0000000000000152
 11
788.0705750901905
 21
691.0356360924437
 31
0.0000000000000152
  0
LINE
  5
9F7
330
1F
100
AcDbEntity
  8
VD
100
AcDbLine
 10
169.0705750901907
 20
691.0356360924437
 30
0.0000000000000152
 11
311.5205750901913
 21
691.0356360924437
 31
0.0000000000000152
  0
LINE
  5
9F8
330
1F
100
AcDbEntity
  8
VD
100
AcDbLine
 10
299.069931090191
 20
716.0356360924437
 30
0.0000000000000152
 11
169.0705750901907
 21
716.0356360924437
 31
0.0000000000000152
  0
LINE
  5
9F9
330
1F
100
AcDbEntity
  8
VD
100
AcDbLine
 10
788.0705750901905
 20
716.0356360924437
 30
0.0000000000000152
 11
339.0761550901916
 21
716.0356360924437
 31
0.0000000000000152
  0
LINE
  5
9FA
330
1F
100
AcDbEntity
  8
VD
100
AcDbLine
 10
840.87057509019
 20
716.0356360924437
 30
0.0000000000000152
 11
838.2705750901912
 21
716.0356360924437
 31
0.0000000000000152
  0
LINE
  5
9FB
330
1F
100
AcDbEntity
  8
VD
100
AcDbLine
 10
838.0705750901906
 20
716.0356360924437
 30
0.0000000000000152
 11
708.0718390901912
 21
716.0356360924437
 31
0.0000000000000152
  0
LINE
  5
9FC
330
1F
100
AcDbEntity
  8
VD
100
AcDbLine
 10
896.5705750901907
 20
805.8856360924437
 30
0.0000000000000152
 11
896.5705750901907
 21
822.7356360924437
 31
0.0000000000000152
  0
LINE
  5
9FD
330
1F
100
AcDbEntity
  8
VD
100
AcDbLine
 10
896.5705750901907
 20
789.0356360924437
 30
0.0000000000000152
 11
896.5705750901907
 21
805.8856360924437
 31
0.0000000000000152
  0
LINE
  5
9FE
330
1F
100
AcDbEntity
  8
VD
100
AcDbLine
 10
337.0705750901907
 20
713.7279400924436
 30
0.0000000000000152
 11
337.0705750901907
 21
713.9279400924436
 31
0.0000000000000152
  0
LINE
  5
9FF
330
1F
100
AcDbEntity
  8
VD
100
AcDbLine
 10
337.0705750901907
 20
790.6774400924437
 30
0.0000000000000152
 11
337.0705750901907
 21
790.4774400924436
 31
0.0000000000000152
  0
LINE
  5
A00
330
1F
100
AcDbEntity
  8
VD
100
AcDbLine
 10
339.0705750901907
 20
789.7470960924437
 30
0.0000000000000152
 11
339.0705750901907
 21
714.9829060924437
 31
0.0000000000000152
  0
LINE
  5
A01
330
1F
100
AcDbEntity
  8
VD
100
AcDbLine
 10
337.0705750901907
 20
713.9279400924436
 30
0.0000000000000152
 11
337.0705750901907
 21
790.4774400924436
 31
0.0000000000000152
  0
LINE
  5
A02
330
1F
100
AcDbEntity
  8
VD
100
AcDbLine
 10
301.0705750901907
 20
713.9279400924436
 30
0.0000000000000152
 11
337.0705750901907
 21
713.9279400924436
 31
0.0000000000000152
  0
LINE
  5
A03
330
1F
100
AcDbEntity
  8
VD
100
AcDbLine
 10
337.0705750901907
 20
790.4774400924436
 30
0.0000000000000152
 11
301.0705750901907
 21
790.4774400924436
 31
0.0000000000000152
  0
LINE
  5
A04
330
1F
100
AcDbEntity
  8
VD
100
AcDbLine
 10
299.0705750901907
 20
714.9829060924437
 30
0.0000000000000152
 11
299.0705750901907
 21
789.7470960924437
 31
0.0000000000000152
  0
LINE
  5
A05
330
1F
100
AcDbEntity
  8
VD
100
AcDbLine
 10
301.0705750901907
 20
790.4774400924436
 30
0.0000000000000152
 11
301.0705750901907
 21
713.9279400924436
 31
0.0000000000000152
  0
LINE
  5
A06
330
1F
100
AcDbEntity
  8
VD
100
AcDbLine
 10
301.0705750901907
 20
713.7279400924436
 30
0.0000000000000152
 11
301.0705750901907
 21
713.9279400924436
 31
0.0000000000000152
  0
LINE
  5
A07
330
1F
100
AcDbEntity
  8
VD
100
AcDbLine
 10
301.0705750901907
 20
790.6774400924437
 30
0.0000000000000152
 11
301.0705750901907
 21
790.4774400924436
 31
0.0000000000000152
  0
LINE
  5
A08
330
1F
100
AcDbEntity
  8
VD
100
AcDbLine
 10
896.7705750901911
 20
789.1356360924437
 30
0.0000000000000152
 11
896.7705750901911
 21
822.6356360924437
 31
0.0000000000000152
  0
LINE
  5
A09
330
1F
100
AcDbEntity
  8
VD
100
AcDbLine
 10
668.0705750901907
 20
715.2071240924437
 30
0.0000000000000152
 11
668.0705750901907
 21
714.7071240924437
 31
0.0000000000000152
  0
LINE
  5
A0A
330
1F
100
AcDbEntity
  8
VD
100
AcDbLine
 10
668.0705750901907
 20
790.2650800924436
 30
0.0000000000000152
 11
668.0705750901907
 21
789.7650800924436
 31
0.0000000000000152
  0
LINE
  5
A0B
330
1F
100
AcDbEntity
  8
VD
100
AcDbLine
 10
668.0705750901907
 20
789.7650800924436
 30
0.0000000000000152
 11
668.0705750901907
 21
715.2071240924437
 31
0.0000000000000152
  0
LINE
  5
A0C
330
1F
100
AcDbEntity
  8
VD
100
AcDbLine
 10
706.0705750901907
 20
713.7279400924436
 30
0.0000000000000152
 11
706.0705750901907
 21
713.9279400924436
 31
0.0000000000000152
  0
LINE
  5
A0D
330
1F
100
AcDbEntity
  8
VD
100
AcDbLine
 10
670.0705750901907
 20
713.9279400924436
 30
0.0000000000000152
 11
706.0705750901907
 21
713.9279400924436
 31
0.0000000000000152
  0
LINE
  5
A0E
330
1F
100
AcDbEntity
  8
VD
100
AcDbLine
 10
706.0705750901907
 20
790.4774400924436
 30
0.0000000000000152
 11
670.0705750901907
 21
790.4774400924436
 31
0.0000000000000152
  0
LINE
  5
A0F
330
1F
100
AcDbEntity
  8
VD
100
AcDbLine
 10
670.0705750901907
 20
713.7279400924436
 30
0.0000000000000152
 11
670.0705750901907
 21
713.9279400924436
 31
0.0000000000000152
  0
LINE
  5
A10
330
1F
100
AcDbEntity
  8
VD
100
AcDbLine
 10
670.0705750901907
 20
790.4774400924436
 30
0.0000000000000152
 11
670.0705750901907
 21
713.9279400924436
 31
0.0000000000000152
  0
LINE
  5
A11
330
1F
100
AcDbEntity
  8
VD
100
AcDbLine
 10
670.0705750901907
 20
790.6774400924437
 30
0.0000000000000152
 11
670.0705750901907
 21
790.4774400924436
 31
0.0000000000000152
  0
LINE
  5
A12
330
1F
100
AcDbEntity
  8
VD
100
AcDbLine
 10
168.0705750901907
 20
716.3856360924437
 30
0.0000000000000152
 11
168.0705750901907
 21
690.7856360924437
 31
0.0000000000000152
  0
LINE
  5
A13
330
1F
100
AcDbEntity
  8
VD
100
AcDbLine
 10
167.3705750901899
 20
703.5856360924436
 30
0.0000000000000152
 11
167.3705750901899
 21
717.0856360924436
 31
0.0000000000000152
  0
LINE
  5
A14
330
1F
100
AcDbEntity
  8
VD
100
AcDbLine
 10
167.3705750901899
 20
690.0856360924437
 30
0.0000000000000152
 11
167.3705750901899
 21
703.5856360924436
 31
0.0000000000000152
  0
LINE
  5
A15
330
1F
100
AcDbEntity
  8
VD
100
AcDbLine
 10
159.670575090191
 20
690.0856360924437
 30
0.0000000000000152
 11
159.670575090191
 21
717.0856360924436
 31
0.0000000000000152
  0
LINE
  5
A16
330
1F
100
AcDbEntity
  8
VD
100
AcDbLine
 10
158.9705750901903
 20
716.3856360924437
 30
0.0000000000000152
 11
158.9705750901903
 21
703.5856360924436
 31
0.0000000000000152
  0
LINE
  5
A17
330
1F
100
AcDbEntity
  8
VD
100
AcDbLine
 10
158.9705750901903
 20
703.5856360924436
 30
0.0000000000000152
 11
158.9705750901903
 21
690.7856360924437
 31
0.0000000000000152
  0
LINE
  5
A18
330
1F
100
AcDbEntity
  8
VD
100
AcDbLine
 10
158.4705750901903
 20
691.5856360924436
 30
0.0000000000000152
 11
158.4705750901903
 21
715.5856360924436
 31
0.0000000000000152
  0
LINE
  5
A19
330
1F
100
AcDbEntity
  8
VD
100
AcDbLine
 10
150.4705990901912
 20
861.8856360924437
 30
0.0000000000000152
 11
150.2705750901914
 21
861.8856360924437
 31
0.0000000000000152
  0
LINE
  5
A1A
330
1F
100
AcDbEntity
  8
VD
100
AcDbLine
 10
150.2705750901914
 20
861.8856360924437
 30
0.0000000000000152
 11
150.2705750901914
 21
860.3856360924437
 31
0.0000000000000152
  0
LINE
  5
A1B
330
1F
100
AcDbEntity
  8
VD
100
AcDbLine
 10
147.670575090191
 20
861.8856360924437
 30
0.0000000000000152
 11
150.2705750901914
 21
861.8856360924437
 31
0.0000000000000152
  0
LINE
  5
A1C
330
1F
100
AcDbEntity
  8
VD
100
AcDbLine
 10
147.670575090191
 20
860.3856360924437
 30
0.0000000000000152
 11
150.2705750901914
 21
860.3856360924437
 31
0.0000000000000152
  0
LINE
  5
A1D
330
1F
100
AcDbEntity
  8
VD
100
AcDbLine
 10
137.670575090191
 20
860.3856360924437
 30
0.0000000000000152
 11
137.670575090191
 21
861.8856360924437
 31
0.0000000000000152
  0
LINE
  5
A1E
330
1F
100
AcDbEntity
  8
VD
100
AcDbLine
 10
147.670575090191
 20
861.8856360924437
 30
0.0000000000000152
 11
147.670575090191
 21
860.3856360924437
 31
0.0000000000000152
  0
LINE
  5
A1F
330
1F
100
AcDbEntity
  8
VD
100
AcDbLine
 10
137.670575090191
 20
861.8856360924437
 30
0.0000000000000152
 11
147.670575090191
 21
861.8856360924437
 31
0.0000000000000152
  0
LINE
  5
A20
330
1F
100
AcDbEntity
  8
VD
100
AcDbLine
 10
147.670575090191
 20
860.3856360924437
 30
0.0000000000000152
 11
147.4705570901915
 21
860.3856360924437
 31
0.0000000000000152
  0
LINE
  5
A21
330
1F
100
AcDbEntity
  8
VD
100
AcDbLine
 10
838.2705750901912
 20
691.0356360924437
 30
0.0000000000000152
 11
838.2705750901912
 21
716.0356360924437
 31
0.0000000000000152
  0
LINE
  5
A22
330
1F
100
AcDbEntity
  8
VD
100
AcDbLine
 10
838.0705750901906
 20
716.0356360924437
 30
0.0000000000000152
 11
838.0705750901906
 21
703.5356360924437
 31
0.0000000000000152
  0
LINE
  5
A23
330
1F
100
AcDbEntity
  8
VD
100
AcDbLine
 10
838.0705750901906
 20
703.5356360924437
 30
0.0000000000000152
 11
838.0705750901906
 21
691.0356360924437
 31
0.0000000000000152
  0
LINE
  5
A24
330
1F
100
AcDbEntity
  8
VD
100
AcDbLine
 10
323.5788610901909
 20
692.5856360924436
 30
0.0000000000000152
 11
314.5931850901907
 21
692.5856360924436
 31
0.0000000000000152
  0
LINE
  5
A25
330
1F
100
AcDbEntity
  8
VD
100
AcDbLine
 10
324.7705750901914
 20
691.7856360924437
 30
0.0000000000000152
 11
313.37057509019
 21
691.7856360924437
 31
0.0000000000000152
  0
LINE
  5
A26
330
1F
100
AcDbEntity
  8
VD
100
AcDbLine
 10
168.2705750901914
 20
715.9356360924436
 30
0.0000000000000152
 11
168.2705750901914
 21
691.1356360924437
 31
0.0000000000000152
  0
LINE
  5
A27
330
1F
100
AcDbEntity
  8
VD
100
AcDbLine
 10
161.4705750901903
 20
828.2856360924437
 30
0.0000000000000152
 11
190.5705750901907
 21
828.2856360924437
 31
0.0000000000000152
  0
LINE
  5
A28
330
1F
100
AcDbEntity
  8
VD
100
AcDbLine
 10
161.4705750901903
 20
783.4856360924436
 30
0.0000000000000152
 11
190.5705750901907
 21
783.4856360924436
 31
0.0000000000000152
  0
LINE
  5
A29
330
1F
100
AcDbEntity
  8
VD
100
AcDbLine
 10
147.4705750901903
 20
651.8856360924437
 30
0.0000000000000152
 11
154.4705750901903
 21
651.8856360924437
 31
0.0000000000000152
  0
LINE
  5
A2A
330
1F
100
AcDbEntity
  8
VD
100
AcDbLine
 10
150.4705750901903
 20
861.8856360924437
 30
0.0000000000000152
 11
154.4705750901903
 21
861.8856360924437
 31
0.0000000000000152
  0
LINE
  5
A2B
330
1F
100
AcDbEntity
  8
VD
100
AcDbLine
 10
150.4705750901903
 20
860.3856360924437
 30
0.0000000000000152
 11
150.4705750901903
 21
861.8856360924437
 31
0.0000000000000152
  0
LINE
  5
A2C
330
1F
100
AcDbEntity
  8
VD
100
AcDbLine
 10
147.4705750901903
 20
860.3856360924437
 30
0.0000000000000152
 11
150.4705750901903
 21
860.3856360924437
 31
0.0000000000000152
  0
LINE
  5
A2D
330
1F
100
AcDbEntity
  8
VD
100
AcDbLine
 10
137.4705750901903
 20
651.8856360924437
 30
0.0000000000000152
 11
137.4705750901903
 21
860.3856360924437
 31
0.0000000000000152
  0
LINE
  5
A2E
330
1F
100
AcDbEntity
  8
VD
100
AcDbLine
 10
137.4705750901903
 20
860.3856360924437
 30
0.0000000000000152
 11
147.4705750901903
 21
860.3856360924437
 31
0.0000000000000152
  0
LINE
  5
A2F
330
1F
100
AcDbEntity
  8
VD
100
AcDbLine
 10
137.4705750901903
 20
651.8856360924437
 30
0.0000000000000152
 11
147.4705750901903
 21
651.8856360924437
 31
0.0000000000000152
  0
LINE
  5
A30
330
1F
100
AcDbEntity
  8
VD
100
AcDbLine
 10
147.4705750901903
 20
860.3856360924437
 30
0.0000000000000152
 11
147.4705750901903
 21
651.8856360924437
 31
0.0000000000000152
  0
LINE
  5
A31
330
1F
100
AcDbEntity
  8
VD
100
AcDbLine
 10
680.5205730901907
 20
691.0356340924437
 30
0.0000000000000152
 11
680.5205730901907
 21
691.0356340924437
 31
0.0000000000000152
  0
LINE
  5
A32
330
1F
100
AcDbEntity
  8
VD
100
AcDbLine
 10
311.5205730901907
 20
691.0356340924437
 30
0.0000000000000152
 11
311.5205730901907
 21
691.0356340924437
 31
0.0000000000000152
  0
LINE
  5
A33
330
1F
100
AcDbEntity
  8
VD
100
AcDbLine
 10
169.0705750901907
 20
691.0356360924437
 30
0.0000000000000152
 11
169.0705750901907
 21
716.0356360924437
 31
0.0000000000000152
  0
LINE
  5
A34
330
1F
100
AcDbEntity
  8
VD
100
AcDbLine
 10
692.5461130901894
 20
692.5856360924436
 30
0.0000000000000152
 11
683.5466830901913
 21
692.5856360924436
 31
0.0000000000000152
  0
LINE
  5
A35
330
1F
100
AcDbEntity
  8
VD
100
AcDbLine
 10
693.7705750901913
 20
691.7856360924437
 30
0.0000000000000152
 11
682.3705750901901
 21
691.7856360924437
 31
0.0000000000000152
  0
LINE
  5
A36
330
1F
100
AcDbEntity
  8
VD
100
AcDbLine
 10
899.5705750901905
 20
821.6356360924438
 30
0.0000000000000152
 11
899.5705750901905
 21
790.1356360924437
 31
0.0000000000000152
  0
LINE
  5
A37
330
1F
100
AcDbEntity
  8
VD
100
AcDbLine
 10
898.5705750901907
 20
805.8856360924437
 30
0.0000000000000152
 11
898.5705750901907
 21
822.6356360924437
 31
0.0000000000000152
  0
LINE
  5
A38
330
1F
100
AcDbEntity
  8
VD
100
AcDbLine
 10
898.5705750901907
 20
789.1356360924437
 30
0.0000000000000152
 11
898.5705750901907
 21
805.8856360924437
 31
0.0000000000000152
  0
LINE
  5
A39
330
1F
100
AcDbEntity
  8
VD
100
AcDbLine
 10
708.0705750901906
 20
789.7470960924437
 30
0.0000000000000152
 11
708.0705750901906
 21
714.9829060924437
 31
0.0000000000000152
  0
LINE
  5
A3A
330
1F
100
AcDbEntity
  8
VD
100
AcDbLine
 10
706.0705750901907
 20
713.9279400924436
 30
0.0000000000000152
 11
706.0705750901907
 21
790.4774400924436
 31
0.0000000000000152
  0
LINE
  5
A3B
330
1F
100
AcDbEntity
  8
VD
100
AcDbLine
 10
706.0705750901907
 20
790.6774400924437
 30
0.0000000000000152
 11
706.0705750901907
 21
790.4774400924436
 31
0.0000000000000152
  0
LINE
  5
A3C
330
1F
100
AcDbEntity
  8
VD
100
AcDbLine
 10
841.0705750901907
 20
715.8356360924448
 30
0.0000000000000152
 11
841.0705750901907
 21
703.5356360924437
 31
0.0000000000000152
  0
LINE
  5
A3D
330
1F
100
AcDbEntity
  8
VD
100
AcDbLine
 10
841.0705750901907
 20
703.5356360924437
 30
0.0000000000000152
 11
841.0705750901907
 21
691.2356360924436
 31
0.0000000000000152
  0
LINE
  5
A3E
330
1F
100
AcDbEntity
  8
VD
100
AcDbLine
 10
840.87057509019
 20
703.5356360924437
 30
0.0000000000000152
 11
840.87057509019
 21
716.0356360924447
 31
0.0000000000000152
  0
LINE
  5
A3F
330
1F
100
AcDbEntity
  8
VD
100
AcDbLine
 10
840.87057509019
 20
691.0356360924437
 30
0.0000000000000152
 11
840.87057509019
 21
703.5356360924437
 31
0.0000000000000152
  0
LINE
  5
A40
330
1F
100
AcDbEntity
  8
VD
100
AcDbLine
 10
157.9705750901903
 20
779.9856360924437
 30
0.0000000000000152
 11
157.9705750901903
 21
655.3856360924437
 31
0.0000000000000152
  0
LINE
  5
A41
330
1F
100
AcDbEntity
  8
VD
100
AcDbLine
 10
157.9705750901903
 20
858.3856360924437
 30
0.0000000000000152
 11
157.9705750901903
 21
831.7856360924437
 31
0.0000000000000152
  0
ARC
  5
A42
330
1F
100
AcDbEntity
  8
VD
100
AcDbCircle
 10
898.5705750901907
 20
821.6356360924438
 30
0.0000000000000152
 40
1.0
100
AcDbArc
 50
0.0
 51
90.0
  0
ARC
  5
A43
330
1F
100
AcDbEntity
  8
VD
100
AcDbCircle
 10
898.5705750901907
 20
790.1356360924437
 30
0.0000000000000152
 40
1.0
100
AcDbArc
 50
270.0
 51
0.0
  0
ARC
  5
A44
330
1F
100
AcDbEntity
  8
VD
100
AcDbCircle
 10
158.4705750901903
 20
692.0856360924436
 30
0.0000000000000152
 40
0.5
100
AcDbArc
 50
180.0
 51
270.0
  0
ARC
  5
A45
330
1F
100
AcDbEntity
  8
VD
100
AcDbCircle
 10
158.4705750901903
 20
715.0856360924437
 30
0.0000000000000152
 40
0.5
100
AcDbArc
 50
90.0
 51
180.0
  0
ARC
  5
A46
330
1F
100
AcDbEntity
  8
VD
100
AcDbCircle
 10
313.37057509019
 20
692.5856360924436
 30
0.0000000000000152
 40
0.8
100
AcDbArc
 50
245.0166049999619
 51
270.0
  0
ARC
  5
A47
330
1F
100
AcDbEntity
  8
VD
100
AcDbCircle
 10
324.7705750901914
 20
692.5856360924436
 30
0.0000000000000152
 40
0.8
100
AcDbArc
 50
270.0
 51
295.6430129999431
  0
ARC
  5
A48
330
1F
100
AcDbEntity
  8
VD
100
AcDbCircle
 10
682.3705750901901
 20
692.5856360924436
 30
0.0000000000000152
 40
0.8
100
AcDbArc
 50
245.0166049999619
 51
270.0
  0
ARC
  5
A49
330
1F
100
AcDbEntity
  8
VD
100
AcDbCircle
 10
693.7705750901913
 20
692.5856360924436
 30
0.0000000000000152
 40
0.8
100
AcDbArc
 50
270.0
 51
295.6430129999431
  0
CIRCLE
  5
A4A
330
1F
100
AcDbEntity
  8
VD
100
AcDbCircle
 10
190.5705750901907
 20
799.8856360924437
 30
0.0000000000000152
 40
1.149999999999999
  0
CIRCLE
  5
A4B
330
1F
100
AcDbEntity
  8
VD
100
AcDbCircle
 10
-190.5705750901907
 20
799.8856360924437
 30
-0.0000000000000152
 40
1.45
210
0.0
220
0.0
230
-1.0
  0
CIRCLE
  5
A4C
330
1F
100
AcDbEntity
  8
VD
100
AcDbCircle
 10
190.5705750901907
 20
811.8856360924437
 30
0.0000000000000152
 40
1.149999999999999
  0
CIRCLE
  5
A4D
330
1F
100
AcDbEntity
  8
VD
100
AcDbCircle
 10
-190.5705750901907
 20
811.8856360924437
 30
-0.0000000000000152
 40
1.45
210
0.0
220
0.0
230
-1.0
  0
ARC
  5
A4E
330
1F
100
AcDbEntity
  8
VD
100
AcDbCircle
 10
-190.5705750901907
 20
805.8856360924437
 30
-0.0000000000000152
 40
4.891099999999998
210
0.0
220
0.0
230
-1.0
100
AcDbArc
 50
86.78250399998004
 51
93.22314000004483
  0
ARC
  5
A4F
330
1F
100
AcDbEntity
  8
VD
100
AcDbCircle
 10
-190.5705750901907
 20
805.8856360924437
 30
-0.0000000000000152
 40
4.891099999999998
210
0.0
220
0.0
230
-1.0
100
AcDbArc
 50
266.7768790000018
 51
273.217514999962
  0
ARC
  5
A50
330
1F
100
AcDbEntity
  8
VD
100
AcDbCircle
 10
190.5705750901907
 20
805.8856360924437
 30
0.0000000000000152
 40
5.5
100
AcDbArc
 50
78.55876000002417
 51
101.4468819999607
  0
ARC
  5
A51
330
1F
100
AcDbEntity
  8
VD
100
AcDbCircle
 10
190.5705750901907
 20
805.8856360924437
 30
0.0000000000000152
 40
5.5
100
AcDbArc
 50
258.5531300000024
 51
281.4412520000192
  0
ARC
  5
A52
330
1F
100
AcDbEntity
  8
VD
100
AcDbCircle
 10
190.5705750901907
 20
805.8856360924437
 30
0.0000000000000152
 40
5.099999999999996
100
AcDbArc
 50
82.58062099998518
 51
97.42499200001327
  0
ARC
  5
A53
330
1F
100
AcDbEntity
  8
VD
100
AcDbCircle
 10
190.5705750901907
 20
805.8856360924437
 30
0.0000000000000152
 40
5.099999999999996
100
AcDbArc
 50
262.57499799998
 51
277.4193680000001
  0
CIRCLE
  5
A54
330
1F
100
AcDbEntity
  8
VD
100
AcDbCircle
 10
-190.5705750901907
 20
805.8856360924437
 30
-0.0000000000000152
 40
21.0
210
0.0
220
0.0
230
-1.0
  0
CIRCLE
  5
A55
330
1F
100
AcDbEntity
  8
VD
100
AcDbCircle
 10
190.5705750901907
 20
805.8856360924437
 30
0.0000000000000152
 40
20.8
  0
ARC
  5
A56
330
1F
100
AcDbEntity
  8
VD
100
AcDbCircle
 10
-190.5705750901907
 20
805.8856360924437
 30
-0.0000000000000152
 40
22.5
210
0.0
220
0.0
230
-1.0
100
AcDbArc
 50
84.59999900005366
 51
270.0
  0
ARC
  5
A57
330
1F
100
AcDbEntity
  8
VD
100
AcDbCircle
 10
-190.5705750901907
 20
805.8856360924437
 30
-0.0000000000000152
 40
22.5
210
0.0
220
0.0
230
-1.0
100
AcDbArc
 50
270.0
 51
275.400002000002
  0
ARC
  5
A58
330
1F
100
AcDbEntity
  8
VD
100
AcDbCircle
 10
190.5705750901907
 20
805.8856360924437
 30
0.0000000000000152
 40
22.4
100
AcDbArc
 50
270.0
 51
90.0
  0
ARC
  5
A59
330
1F
100
AcDbEntity
  8
VD
100
AcDbCircle
 10
-161.4705750901903
 20
779.9856360924437
 30
-0.0000000000000662
 40
3.5
210
0.0000000000000001
220
0.0
230
-1.0
100
AcDbArc
 50
0.0
 51
90.0
  0
ARC
  5
A5A
330
1F
100
AcDbEntity
  8
VD
100
AcDbCircle
 10
-161.4705750901903
 20
831.7856360924437
 30
-0.0000000000000662
 40
3.5
210
0.0000000000000001
220
0.0
230
-1.0
100
AcDbArc
 50
270.0
 51
0.0
  0
ARC
  5
A5B
330
1F
100
AcDbEntity
  8
VD
100
AcDbCircle
 10
154.4705750901903
 20
655.3856360924437
 30
0.0000000000000152
 40
3.5
100
AcDbArc
 50
270.0
 51
0.0
  0
ARC
  5
A5C
330
1F
100
AcDbEntity
  8
VD
100
AcDbCircle
 10
154.4705750901903
 20
858.3856360924437
 30
0.0000000000000152
 40
3.5
100
AcDbArc
 50
0.0
 51
90.0
  0
ELLIPSE
  5
A5D
330
1F
100
AcDbEntity
  8
VD
100
AcDbEllipse
 10
338.87057509019
 20
714.9829060924437
 30
0.0000000000000152
 11
-0.2
 21
0.0
 31
0.0
210
0.0
220
0.0
230
1.0
 40
0.90136
 41
2.514698896745267
 42
3.141592653589792
  0
ELLIPSE
  5
A5E
330
1F
100
AcDbEntity
  8
VD
100
AcDbEllipse
 10
299.2705750901913
 20
714.9829060924437
 30
0.0000000000000152
 11
-0.2
 21
0.0
 31
0.0
210
0.0
220
0.0
230
1.0
 40
0.90136
 41
0.0
 42
0.6599300405254424
  0
ELLIPSE
  5
A5F
330
1F
100
AcDbEntity
  8
VD
100
AcDbEllipse
 10
707.87057509019
 20
714.9829060924437
 30
0.0000000000000152
 11
-0.2
 21
0.0
 31
0.0
210
0.0
220
0.0
230
1.0
 40
0.90136
 41
2.514698896745267
 42
3.141592653589792
  0
ELLIPSE
  5
A60
330
1F
100
AcDbEntity
  8
VD
100
AcDbEllipse
 10
668.2705750901913
 20
714.9829060924437
 30
0.0000000000000152
 11
-0.2
 21
0.0
 31
0.0
210
0.0
220
0.0
230
1.0
 40
0.90136
 41
0.0
 42
0.6599300405254424
  0
SPLINE
  5
A61
330
1F
100
AcDbEntity
  8
VD
100
AcDbSpline
210
0.0000000000000001
220
0.0000000000000013
230
1.0
 70
     8
 71
     3
 72
    10
 73
     6
 74
     0
 42
0.000000001
 43
0.0000000001
 40
0.0
 40
0.0
 40
0.0
 40
0.0
 40
0.0691533484577913
 40
0.5486690255593603
 40
1.0
 40
1.0
 40
1.0
 40
1.0
 10
707.3161782056668
 20
790.4572496509597
 30
0.000000000000015
 10
707.2962744983778
 20
790.4678828956924
 30
0.000000000000015
 10
707.1331293253315
 20
790.5490694720655
 30
0.000000000000015
 10
706.6941524216437
 20
790.6420447694626
 30
0.0000000000000148
 10
706.285489311409
 20
790.6723210529537
 30
0.0000000000000148
 10
706.0694604764575
 20
790.6713282143124
 30
0.0000000000000148
  0
SPLINE
  5
A62
330
1F
100
AcDbEntity
  8
VD
100
AcDbSpline
210
0.0000000000000001
220
0.0000000000000013
230
1.0
 70
     8
 71
     3
 72
    10
 73
     6
 74
     0
 42
0.000000001
 43
0.0000000001
 40
0.0
 40
0.0
 40
0.0
 40
0.0
 40
0.0691533484577913
 40
0.5486690255593603
 40
1.0
 40
1.0
 40
1.0
 40
1.0
 10
707.3161782056668
 20
790.4572496509597
 30
0.000000000000015
 10
707.2962744983778
 20
790.4678828956924
 30
0.000000000000015
 10
707.1331293253315
 20
790.5490694720655
 30
0.000000000000015
 10
706.6941524216437
 20
790.6420447694626
 30
0.0000000000000148
 10
706.285489311409
 20
790.6723210529537
 30
0.0000000000000148
 10
706.0694604764575
 20
790.6713282143124
 30
0.0000000000000148
  0
SPLINE
  5
A63
330
1F
100
AcDbEntity
  8
VD
100
AcDbSpline
210
0.0
220
0.0
230
1.0
 70
     8
 71
     3
 72
    11
 73
     7
 74
     0
 42
0.000000001
 43
0.0000000001
 40
0.0
 40
0.0
 40
0.0
 40
0.0
 40
0.0085407042298158
 40
0.294495578516009
 40
0.6285837272446312
 40
1.0
 40
1.0
 40
1.0
 40
1.0
 10
708.0683750400912
 20
789.7476952705805
 30
0.000000000000015
 10
708.069123709134
 20
789.7503364339897
 30
0.000000000000015
 10
708.0937112322208
 20
789.8412527259477
 30
0.000000000000015
 10
707.982560170145
 20
790.0378487988746
 30
0.000000000000015
 10
707.7578089964971
 20
790.2624671267826
 30
0.000000000000015
 10
707.4847643831707
 20
790.3972022269286
 30
0.000000000000015
 10
707.3161782056668
 20
790.4572496509597
 30
0.000000000000015
  0
SPLINE
  5
A64
330
1F
100
AcDbEntity
  8
VD
100
AcDbSpline
210
0.0
220
0.0
230
1.0
 70
     8
 71
     3
 72
    12
 73
     8
 74
     0
 42
0.000000001
 43
0.0000000001
 40
0.0
 40
0.0
 40
0.0
 40
0.0
 40
0.129584674490289
 40
0.3660981216981058
 40
0.6122957521584437
 40
0.8793126725148667
 40
1.0
 40
1.0
 40
1.0
 40
1.0
 10
669.8019936366107
 20
790.6546228840275
 30
0.0000000000000152
 10
669.6757084436065
 20
790.6515750479894
 30
0.0000000000000152
 10
669.3352505351886
 20
790.6270213104777
 30
0.0000000000000152
 10
668.8258854428567
 20
790.4846827894126
 30
0.0000000000000152
 10
668.3693092141728
 20
790.2536001103856
 30
0.0000000000000152
 10
668.1028055607603
 20
790.0109760211485
 30
0.0000000000000152
 10
668.0879029618209
 20
789.8107422262848
 30
0.0000000000000152
 10
668.0939444328904
 20
789.7445747474696
 30
0.0000000000000152
  0
SPLINE
  5
A65
330
1F
100
AcDbEntity
  8
VD
100
AcDbSpline
210
0.0000000000000001
220
0.0000000000000013
230
1.0
 70
     8
 71
     3
 72
    10
 73
     6
 74
     0
 42
0.000000001
 43
0.0000000001
 40
0.0
 40
0.0
 40
0.0
 40
0.0
 40
0.0691533484577662
 40
0.5486690255593675
 40
1.0
 40
1.0
 40
1.0
 40
1.0
 10
338.3161782056668
 20
790.4572496509597
 30
0.0000000000000152
 10
338.2962744983779
 20
790.4678828956924
 30
0.0000000000000152
 10
338.1331293253315
 20
790.5490694720665
 30
0.000000000000015
 10
337.6941524216436
 20
790.6420447694626
 30
0.000000000000015
 10
337.285489311409
 20
790.6723210529537
 30
0.000000000000015
 10
337.0694604764576
 20
790.6713282143124
 30
0.000000000000015
  0
SPLINE
  5
A66
330
1F
100
AcDbEntity
  8
VD
100
AcDbSpline
210
0.0000000000000001
220
0.0000000000000013
230
1.0
 70
     8
 71
     3
 72
    10
 73
     6
 74
     0
 42
0.000000001
 43
0.0000000001
 40
0.0
 40
0.0
 40
0.0
 40
0.0
 40
0.0691533484577662
 40
0.5486690255593675
 40
1.0
 40
1.0
 40
1.0
 40
1.0
 10
338.3161782056668
 20
790.4572496509597
 30
0.0000000000000152
 10
338.2962744983779
 20
790.4678828956924
 30
0.0000000000000152
 10
338.1331293253315
 20
790.5490694720665
 30
0.000000000000015
 10
337.6941524216436
 20
790.6420447694626
 30
0.000000000000015
 10
337.285489311409
 20
790.6723210529537
 30
0.000000000000015
 10
337.0694604764576
 20
790.6713282143124
 30
0.000000000000015
  0
SPLINE
  5
A67
330
1F
100
AcDbEntity
  8
VD
100
AcDbSpline
210
0.0
220
0.0
230
1.0
 70
     8
 71
     3
 72
    11
 73
     7
 74
     0
 42
0.000000001
 43
0.0000000001
 40
0.0
 40
0.0
 40
0.0
 40
0.0
 40
0.0085407042298183
 40
0.2944955785160063
 40
0.6285837272446198
 40
1.0
 40
1.0
 40
1.0
 40
1.0
 10
339.0683750400913
 20
789.7476952705805
 30
0.0000000000000152
 10
339.0691237091323
 20
789.7503364339897
 30
0.0000000000000152
 10
339.093711232219
 20
789.8412527259477
 30
0.0000000000000152
 10
338.982560170145
 20
790.0378487988746
 30
0.0000000000000152
 10
338.7578089964973
 20
790.2624671267826
 30
0.0000000000000152
 10
338.4847643831708
 20
790.3972022269286
 30
0.0000000000000152
 10
338.3161782056668
 20
790.4572496509597
 30
0.0000000000000152
  0
SPLINE
  5
A68
330
1F
100
AcDbEntity
  8
VD
100
AcDbSpline
210
0.0
220
0.0
230
1.0
 70
     8
 71
     3
 72
    12
 73
     8
 74
     0
 42
0.000000001
 43
0.0000000001
 40
0.0
 40
0.0
 40
0.0
 40
0.0
 40
0.1295846744902901
 40
0.3660981216981005
 40
0.6122957521584405
 40
0.8793126725148658
 40
1.0
 40
1.0
 40
1.0
 40
1.0
 10
300.8019936366109
 20
790.6546228840275
 30
0.0000000000000154
 10
300.6757084436067
 20
790.6515750479894
 30
0.0000000000000154
 10
300.3352505351887
 20
790.6270213104777
 30
0.0000000000000154
 10
299.8258854428568
 20
790.4846827894126
 30
0.0000000000000154
 10
299.3693092141748
 20
790.2536001103856
 30
0.0000000000000154
 10
299.1028055607585
 20
790.0109760211485
 30
0.0000000000000154
 10
299.0879029618209
 20
789.8107422262848
 30
0.0000000000000154
 10
299.0939444328906
 20
789.7445747474696
 30
0.0000000000000154
  0
SPLINE
  5
A69
330
1F
100
AcDbEntity
  8
VD
100
AcDbSpline
210
0.0000000000000001
220
-0.0000000000000006
230
1.0
 70
     8
 71
     3
 72
    16
 73
    12
 74
     0
 42
0.000000001
 43
0.0000000001
 40
0.0
 40
0.0
 40
0.0
 40
0.0
 40
0.0127710530080071
 40
0.0127710530080071
 40
0.298714081222836
 40
0.298714081222836
 40
0.5432081856598872
 40
0.5432081856598872
 40
0.7705827780638037
 40
0.7705827780638037
 40
1.0
 40
1.0
 40
1.0
 40
1.0
 10
338.7611150325138
 20
714.4895549218936
 30
0.0000000000000152
 10
338.7580711050869
 20
714.4850477313325
 30
0.0000000000000152
 10
338.7549664168109
 20
714.4805430911235
 30
0.0000000000000152
 10
338.6807754948677
 20
714.3750285927526
 30
0.0000000000000152
 10
338.5777474632796
 20
714.2731834494597
 30
0.0000000000000152
 10
338.3367262569736
 20
714.0995675015268
 30
0.0000000000000152
 10
338.2035225824929
 20
714.0240018704847
 30
0.000000000000015
 10
337.914564819026
 20
713.9012967572355
 30
0.000000000000015
 10
337.7579042332109
 20
713.8514493009198
 30
0.000000000000015
 10
337.4265840346525
 20
713.7830967762766
 30
0.000000000000015
 10
337.247377915428
 20
713.7642825341687
 30
0.000000000000015
 10
337.0705749088065
 20
713.7642825341687
 30
0.000000000000015
  0
SPLINE
  5
A6A
330
1F
100
AcDbEntity
  8
VD
100
AcDbSpline
210
-0.0000000000000002
220
-0.0000000000000002
230
1.0
 70
     8
 71
     3
 72
    16
 73
    12
 74
     0
 42
0.000000001
 43
0.0000000001
 40
0.0
 40
0.0
 40
0.0
 40
0.0
 40
0.2318639328501264
 40
0.2318639328501264
 40
0.4638696371680758
 40
0.4638696371680758
 40
0.6950310216224952
 40
0.6950310216224952
 40
0.9111144293793211
 40
0.9111144293793211
 40
1.0
 40
1.0
 40
1.0
 40
1.0
 10
339.0705749088065
 20
789.7470952065446
 30
0.0000000000000152
 10
339.0705749088065
 20
789.8201169688716
 30
0.0000000000000152
 10
339.0269937821795
 20
789.8987463885116
 30
0.0000000000000152
 10
338.8611934043056
 20
790.0526470149186
 30
0.0000000000000152
 10
338.7365247525214
 20
790.1301118910096
 30
0.0000000000000152
 10
338.4230999997981
 20
790.2682115009707
 30
0.0000000000000152
 10
338.2295408493336
 20
790.3308991657686
 30
0.0000000000000152
 10
337.8143421228668
 20
790.4223775523466
 30
0.000000000000015
 10
337.5889353031835
 20
790.4542499500204
 30
0.000000000000015
 10
337.2643740691365
 20
790.4744206061287
 30
0.000000000000015
 10
337.1673264553757
 20
790.4774401617485
 30
0.000000000000015
 10
337.0705749088065
 20
790.4774401617485
 30
0.000000000000015
  0
SPLINE
  5
A6B
330
1F
100
AcDbEntity
  8
VD
100
AcDbSpline
210
-0.0000000000000002
220
0.0000000000000002
230
1.0
 70
     8
 71
     3
 72
    16
 73
    12
 74
     0
 42
0.000000001
 43
0.0000000001
 40
0.0
 40
0.0
 40
0.0
 40
0.0
 40
0.1771404143545236
 40
0.1771404143545236
 40
0.3522186943510297
 40
0.3522186943510297
 40
0.539954319336339
 40
0.539954319336339
 40
0.7594025013289695
 40
0.7594025013289695
 40
1.0
 40
1.0
 40
1.0
 40
1.0
 10
337.0705749088065
 20
713.9279408781907
 30
0.000000000000015
 10
337.2669267185575
 20
713.9279408781907
 30
0.000000000000015
 10
337.4658952985555
 20
713.9470098727505
 30
0.000000000000015
 10
337.8339744108598
 20
714.0164457677006
 30
0.000000000000015
 10
338.0080811180615
 20
714.0670462326206
 30
0.000000000000015
 10
338.3291985551058
 20
714.1917353066207
 30
0.0000000000000152
 10
338.4773168173451
 20
714.2685291992137
 30
0.0000000000000152
 10
338.7452312572623
 20
714.4449974980744
 30
0.0000000000000152
 10
338.8597532182394
 20
714.5485454157277
 30
0.0000000000000152
 10
339.0248628299778
 20
714.7632641528566
 30
0.0000000000000152
 10
339.0705749088065
 20
714.8772332178157
 30
0.0000000000000152
 10
339.0705749088065
 20
714.9829064497818
 30
0.0000000000000152
  0
SPLINE
  5
A6C
330
1F
100
AcDbEntity
  8
VD
100
AcDbSpline
210
0.0
220
0.0
230
1.0
 70
     8
 71
     3
 72
    16
 73
    12
 74
     0
 42
0.000000001
 43
0.0000000001
 40
0.0
 40
0.0
 40
0.0
 40
0.0
 40
0.1945552639644179
 40
0.1945552639644179
 40
0.3878946385599321
 40
0.3878946385599321
 40
0.5892372746630514
 40
0.5892372746630514
 40
0.8080348914056751
 40
0.8080348914056751
 40
1.0
 40
1.0
 40
1.0
 40
1.0
 10
301.0705749088065
 20
790.4774401617485
 30
0.0000000000000154
 10
300.8615577008277
 20
790.4774401617485
 30
0.0000000000000154
 10
300.6497297583355
 20
790.4629239146879
 30
0.0000000000000154
 10
300.256463204536
 20
790.4092458760247
 30
0.0000000000000154
 10
300.0697228203171
 20
790.3696763844475
 30
0.0000000000000154
 10
299.7338158868733
 20
790.2727022368635
 30
0.0000000000000154
 10
299.5821483876516
 20
790.2135225654648
 30
0.0000000000000154
 10
299.3260389401385
 20
790.0827168921656
 30
0.0000000000000154
 10
299.2232519200588
 20
790.0087712932847
 30
0.0000000000000154
 10
299.1004187671951
 20
789.8721100735436
 30
0.0000000000000154
 10
299.0705749088065
 20
789.8077500381148
 30
0.0000000000000154
 10
299.0705749088065
 20
789.7470952065446
 30
0.0000000000000154
  0
SPLINE
  5
A6D
330
1F
100
AcDbEntity
  8
VD
100
AcDbSpline
210
0.0
220
0.0
230
1.0
 70
     8
 71
     3
 72
    16
 73
    12
 74
     0
 42
0.000000001
 43
0.0000000001
 40
0.0
 40
0.0
 40
0.0
 40
0.0
 40
0.2481016251448624
 40
0.2481016251448624
 40
0.4963851440995061
 40
0.4963851440995061
 40
0.7438538839225557
 40
0.7438538839225557
 40
0.9181884979193776
 40
0.9181884979193776
 40
1.0
 40
1.0
 40
1.0
 40
1.0
 10
299.0705749088065
 20
714.9829064497818
 30
0.0000000000000154
 10
299.0705749088065
 20
714.8739184877656
 30
0.0000000000000154
 10
299.1192584059936
 20
714.7560404535644
 30
0.0000000000000154
 10
299.302593306862
 20
714.5246670273357
 30
0.0000000000000154
 10
299.4400365876227
 20
714.4076639798107
 30
0.0000000000000154
 10
299.7874510816564
 20
714.1999421811415
 30
0.0000000000000154
 10
300.0038286369309
 20
714.1057290527327
 30
0.0000000000000154
 10
300.4161941247985
 20
713.9913916751567
 30
0.0000000000000154
 10
300.6042572216466
 20
713.9566587823665
 30
0.0000000000000154
 10
300.8863580219768
 20
713.9319911131776
 30
0.0000000000000154
 10
300.9786151735789
 20
713.9279408781907
 30
0.0000000000000154
 10
301.0705749088065
 20
713.9279408781907
 30
0.0000000000000154
  0
SPLINE
  5
A6E
330
1F
100
AcDbEntity
  8
VD
100
AcDbSpline
210
0.0
220
0.0
230
1.0
 70
     8
 71
     3
 72
    16
 73
    12
 74
     0
 42
0.000000001
 43
0.0000000001
 40
0.0
 40
0.0
 40
0.0
 40
0.0
 40
0.1053123592843669
 40
0.1053123592843669
 40
0.3301327988397534
 40
0.3301327988397534
 40
0.6504275187068417
 40
0.6504275187068417
 40
0.9722491720567552
 40
0.9722491720567552
 40
1.0
 40
1.0
 40
1.0
 40
1.0
 10
301.0705749088065
 20
713.7642825341687
 30
0.0000000000000154
 10
300.987801967789
 20
713.7642825341687
 30
0.0000000000000154
 10
300.904753134997
 20
713.7682715273186
 30
0.0000000000000154
 10
300.6506782085453
 20
713.7925683446447
 30
0.0000000000000154
 10
300.481370195248
 20
713.8268135542057
 30
0.0000000000000154
 10
300.1100463740204
 20
713.9394094369357
 30
0.0000000000000154
 10
299.9155319944439
 20
714.0321517055438
 30
0.0000000000000154
 10
299.6030744144118
 20
714.2364614068354
 30
0.0000000000000154
 10
299.4794590734036
 20
714.3515181129718
 30
0.0000000000000154
 10
299.3897478924482
 20
714.4753346593536
 30
0.0000000000000154
 10
299.3829121990748
 20
714.4851830648906
 30
0.0000000000000154
 10
299.376367314213
 20
714.4950420797917
 30
0.0000000000000154
  0
SPLINE
  5
A6F
330
1F
100
AcDbEntity
  8
VD
100
AcDbSpline
210
0.0
220
0.0
230
1.0
 70
     8
 71
     3
 72
     8
 73
     4
 74
     0
 42
0.000000001
 43
0.0000000001
 40
0.0
 40
0.0
 40
0.0
 40
0.0
 40
1.0
 40
1.0
 40
1.0
 40
1.0
 10
300.8117375227412
 20
790.6493344840507
 30
0.0000000000000154
 10
300.8975307242745
 20
790.6551638817445
 30
0.0000000000000154
 10
300.9843204187728
 20
790.6581814622886
 30
0.0000000000000154
 10
301.0705749088065
 20
790.6581814622886
 30
0.0000000000000154
  0
SPLINE
  5
A70
330
1F
100
AcDbEntity
  8
VD
100
AcDbSpline
210
-0.0000000000000002
220
0.0000000000000002
230
1.0
 70
     8
 71
     3
 72
    16
 73
    12
 74
     0
 42
0.000000001
 43
0.0000000001
 40
0.0
 40
0.0
 40
0.0
 40
0.0
 40
0.1771404143545236
 40
0.1771404143545236
 40
0.3522186943510297
 40
0.3522186943510297
 40
0.539954319336339
 40
0.539954319336339
 40
0.7594025013289695
 40
0.7594025013289695
 40
1.0
 40
1.0
 40
1.0
 40
1.0
 10
706.0705749088083
 20
713.9279408781907
 30
0.0000000000000148
 10
706.2669267185574
 20
713.9279408781907
 30
0.0000000000000148
 10
706.4658952985554
 20
713.9470098727505
 30
0.0000000000000148
 10
706.8339744108596
 20
714.0164457677006
 30
0.0000000000000148
 10
707.0080811180615
 20
714.0670462326206
 30
0.0000000000000148
 10
707.3291985551057
 20
714.1917353066207
 30
0.000000000000015
 10
707.4773168173451
 20
714.2685291992137
 30
0.000000000000015
 10
707.7452312572622
 20
714.4449974980744
 30
0.000000000000015
 10
707.8597532182392
 20
714.5485454157277
 30
0.000000000000015
 10
708.0248628299776
 20
714.7632641528566
 30
0.000000000000015
 10
708.0705749088064
 20
714.8772332178157
 30
0.000000000000015
 10
708.0705749088064
 20
714.9829064497808
 30
0.000000000000015
  0
SPLINE
  5
A71
330
1F
100
AcDbEntity
  8
VD
100
AcDbSpline
210
-0.0000000000000002
220
0.0000000000000003
230
1.0
 70
     8
 71
     3
 72
    16
 73
    12
 74
     0
 42
0.000000001
 43
0.0000000001
 40
0.0
 40
0.0
 40
0.0
 40
0.0
 40
0.012771053008153
 40
0.012771053008153
 40
0.2987140812229396
 40
0.2987140812229396
 40
0.5432081856599547
 40
0.5432081856599547
 40
0.7705827780638374
 40
0.7705827780638374
 40
1.0
 40
1.0
 40
1.0
 40
1.0
 10
707.7611150325138
 20
714.4895549218936
 30
0.000000000000015
 10
707.7580711050869
 20
714.4850477313325
 30
0.000000000000015
 10
707.7549664168109
 20
714.4805430911235
 30
0.000000000000015
 10
707.6807754948677
 20
714.3750285927526
 30
0.000000000000015
 10
707.5777474632795
 20
714.2731834494597
 30
0.000000000000015
 10
707.3367262569735
 20
714.0995675015268
 30
0.000000000000015
 10
707.2035225824928
 20
714.0240018704847
 30
0.000000000000015
 10
706.914564819026
 20
713.9012967572355
 30
0.0000000000000148
 10
706.7579042332107
 20
713.8514493009198
 30
0.0000000000000148
 10
706.4265840346523
 20
713.7830967762766
 30
0.0000000000000148
 10
706.2473779154278
 20
713.7642825341687
 30
0.0000000000000148
 10
706.0705749088083
 20
713.7642825341687
 30
0.0000000000000148
  0
SPLINE
  5
A72
330
1F
100
AcDbEntity
  8
VD
100
AcDbSpline
210
0.0
220
0.0
230
1.0
 70
     8
 71
     3
 72
    16
 73
    12
 74
     0
 42
0.000000001
 43
0.0000000001
 40
0.0
 40
0.0
 40
0.0
 40
0.0
 40
0.1053123592843732
 40
0.1053123592843732
 40
0.3301327988397731
 40
0.3301327988397731
 40
0.6504275187068807
 40
0.6504275187068807
 40
0.9722491720568131
 40
0.9722491720568131
 40
1.0
 40
1.0
 40
1.0
 40
1.0
 10
670.0705749088065
 20
713.7642825341687
 30
0.0000000000000152
 10
669.9878019677888
 20
713.7642825341687
 30
0.0000000000000152
 10
669.904753134997
 20
713.7682715273186
 30
0.0000000000000152
 10
669.6506782085451
 20
713.7925683446447
 30
0.0000000000000152
 10
669.481370195248
 20
713.8268135542057
 30
0.0000000000000152
 10
669.1100463740204
 20
713.9394094369357
 30
0.0000000000000152
 10
668.9155319944439
 20
714.0321517055438
 30
0.0000000000000152
 10
668.6030744144118
 20
714.2364614068354
 30
0.0000000000000152
 10
668.4794590734036
 20
714.3515181129718
 30
0.0000000000000152
 10
668.3897478924483
 20
714.4753346593536
 30
0.0000000000000152
 10
668.3829121990728
 20
714.4851830648906
 30
0.0000000000000152
 10
668.3763673142148
 20
714.4950420797917
 30
0.0000000000000152
  0
SPLINE
  5
A73
330
1F
100
AcDbEntity
  8
VD
100
AcDbSpline
210
0.0
220
0.0
230
1.0
 70
     8
 71
     3
 72
    16
 73
    12
 74
     0
 42
0.000000001
 43
0.0000000001
 40
0.0
 40
0.0
 40
0.0
 40
0.0
 40
0.1945552639644179
 40
0.1945552639644179
 40
0.3878946385599321
 40
0.3878946385599321
 40
0.5892372746630514
 40
0.5892372746630514
 40
0.8080348914056751
 40
0.8080348914056751
 40
1.0
 40
1.0
 40
1.0
 40
1.0
 10
670.0705749088065
 20
790.4774401617485
 30
0.0000000000000152
 10
669.8615577008276
 20
790.4774401617485
 30
0.0000000000000152
 10
669.6497297583355
 20
790.4629239146879
 30
0.0000000000000152
 10
669.256463204536
 20
790.4092458760247
 30
0.0000000000000152
 10
669.0697228203171
 20
790.3696763844475
 30
0.0000000000000152
 10
668.7338158868732
 20
790.2727022368635
 30
0.0000000000000152
 10
668.5821483876516
 20
790.2135225654648
 30
0.0000000000000152
 10
668.3260389401383
 20
790.0827168921656
 30
0.0000000000000152
 10
668.2232519200587
 20
790.0087712932847
 30
0.0000000000000152
 10
668.1004187671951
 20
789.8721100735436
 30
0.0000000000000152
 10
668.0705749088065
 20
789.8077500381148
 30
0.0000000000000152
 10
668.0705749088065
 20
789.7470952065446
 30
0.0000000000000152
  0
SPLINE
  5
A74
330
1F
100
AcDbEntity
  8
VD
100
AcDbSpline
210
0.0
220
0.0
230
1.0
 70
     8
 71
     3
 72
    16
 73
    12
 74
     0
 42
0.000000001
 43
0.0000000001
 40
0.0
 40
0.0
 40
0.0
 40
0.0
 40
0.2481016251448624
 40
0.2481016251448624
 40
0.4963851440995061
 40
0.4963851440995061
 40
0.7438538839225557
 40
0.7438538839225557
 40
0.9181884979193776
 40
0.9181884979193776
 40
1.0
 40
1.0
 40
1.0
 40
1.0
 10
668.0705749088065
 20
714.9829064497808
 30
0.0000000000000152
 10
668.0705749088065
 20
714.8739184877656
 30
0.0000000000000152
 10
668.1192584059934
 20
714.7560404535644
 30
0.0000000000000152
 10
668.302593306862
 20
714.5246670273357
 30
0.0000000000000152
 10
668.4400365876228
 20
714.4076639798107
 30
0.0000000000000152
 10
668.7874510816547
 20
714.1999421811415
 30
0.0000000000000152
 10
669.0038286369307
 20
714.1057290527327
 30
0.0000000000000152
 10
669.4161941247983
 20
713.9913916751567
 30
0.0000000000000152
 10
669.6042572216465
 20
713.9566587823665
 30
0.0000000000000152
 10
669.8863580219767
 20
713.9319911131776
 30
0.0000000000000152
 10
669.9786151735787
 20
713.9279408781907
 30
0.0000000000000152
 10
670.0705749088065
 20
713.9279408781907
 30
0.0000000000000152
  0
SPLINE
  5
A75
330
1F
100
AcDbEntity
  8
VD
100
AcDbSpline
210
0.0
220
0.0
230
1.0
 70
     8
 71
     3
 72
     8
 73
     4
 74
     0
 42
0.000000001
 43
0.0000000001
 40
0.0
 40
0.0
 40
0.0
 40
0.0
 40
1.0
 40
1.0
 40
1.0
 40
1.0
 10
669.811737522741
 20
790.6493344840507
 30
0.0000000000000152
 10
669.8975307242744
 20
790.6551638817445
 30
0.0000000000000152
 10
669.9843204187746
 20
790.6581814622886
 30
0.0000000000000152
 10
670.0705749088065
 20
790.6581814622886
 30
0.0000000000000152
  0
SPLINE
  5
A76
330
1F
100
AcDbEntity
  8
VD
100
AcDbSpline
210
0.0
220
-0.0000000000000002
230
1.0
 70
     8
 71
     3
 72
    14
 73
    10
 74
     0
 42
0.000000001
 43
0.0000000001
 40
0.0
 40
0.0
 40
0.0
 40
0.0
 40
0.2499087050623483
 40
0.2499087050623483
 40
0.4999391367082322
 40
0.4999391367082322
 40
0.7499695683541161
 40
0.7499695683541161
 40
1.0
 40
1.0
 40
1.0
 40
1.0
 10
695.6205430444023
 20
691.0356553081355
 30
0.000000000000015
 10
695.6264420841907
 20
691.0321323571147
 30
0.000000000000015
 10
694.7742081530705
 20
691.5879752052155
 30
0.000000000000015
 10
692.0506349103106
 20
692.8750837282028
 30
0.0000000000000148
 10
690.1147322967099
 20
693.5704087753046
 30
0.0000000000000156
 10
686.0550113115769
 20
693.5762348720125
 30
0.0000000000000154
 10
684.1195673926923
 20
692.8873794431908
 30
0.0000000000000152
 10
681.3673654440536
 20
691.5895937955497
 30
0.000000000000015
 10
680.5205615118794
 20
691.0356272821617
 30
0.000000000000015
 10
680.5205722934206
 20
691.0356343218317
 30
0.000000000000015
  0
SPLINE
  5
A77
330
1F
100
AcDbEntity
  8
VD
100
AcDbSpline
210
0.0
220
-0.0000000000000002
230
1.0
 70
     8
 71
     3
 72
    14
 73
    10
 74
     0
 42
0.000000001
 43
0.0000000001
 40
0.0
 40
0.0
 40
0.0
 40
0.0
 40
0.249909423420967
 40
0.249909423420967
 40
0.4999405692898073
 40
0.4999405692898073
 40
0.7499717151586476
 40
0.7499717151586476
 40
1.0
 40
1.0
 40
1.0
 40
1.0
 10
326.6205430440859
 20
691.0356553083256
 30
0.0000000000000152
 10
326.6264421147698
 20
691.0321323371705
 30
0.0000000000000152
 10
325.7742081774959
 20
691.5879751936735
 30
0.0000000000000152
 10
323.0506349103107
 20
692.8750837282028
 30
0.000000000000015
 10
321.1147322967099
 20
693.5704087753046
 30
0.000000000000015
 10
317.0550113115769
 20
693.5762348720125
 30
0.0000000000000156
 10
315.1195673926904
 20
692.8873794431908
 30
0.0000000000000154
 10
312.3673811903426
 20
691.5896012206246
 30
0.0000000000000152
 10
311.5205808913688
 20
691.0356399599025
 30
0.0000000000000152
 10
311.5205722933843
 20
691.0356343218077
 30
0.0000000000000152
  0
SPLINE
  5
A78
330
1F
100
AcDbEntity
  8
VD
100
AcDbSpline
210
-0.0000000000000002
220
-0.0000000000000002
230
1.0
 70
     8
 71
     3
 72
    16
 73
    12
 74
     0
 42
0.000000001
 43
0.0000000001
 40
0.0
 40
0.0
 40
0.0
 40
0.0
 40
0.2318639328501264
 40
0.2318639328501264
 40
0.4638696371680758
 40
0.4638696371680758
 40
0.6950310216224952
 40
0.6950310216224952
 40
0.9111144293793211
 40
0.9111144293793211
 40
1.0
 40
1.0
 40
1.0
 40
1.0
 10
708.0705749088064
 20
789.7470952065446
 30
0.000000000000015
 10
708.0705749088064
 20
789.8201169688716
 30
0.000000000000015
 10
708.0269937821793
 20
789.8987463885116
 30
0.000000000000015
 10
707.8611934043055
 20
790.0526470149186
 30
0.000000000000015
 10
707.7365247525212
 20
790.1301118910096
 30
0.000000000000015
 10
707.4230999997979
 20
790.2682115009707
 30
0.000000000000015
 10
707.2295408493338
 20
790.3308991657686
 30
0.000000000000015
 10
706.8143421228668
 20
790.4223775523466
 30
0.0000000000000148
 10
706.5889353031852
 20
790.4542499500204
 30
0.0000000000000148
 10
706.2643740691363
 20
790.4744206061277
 30
0.0000000000000148
 10
706.1673264553754
 20
790.4774401617485
 30
0.0000000000000148
 10
706.0705749088083
 20
790.4774401617485
 30
0.0000000000000148
  0
LWPOLYLINE
  5
B29
330
1F
100
AcDbEntity
  8
0
  6
CUSTOM
 62
    18
420
        0
370
     9
100
AcDbPolyline
 90
      104
 70
     1
 43
0.0
 10
684.4564770913668
 20
667.6419018059403
 10
684.748250882646
 20
667.387611997762
 10
685.0348661398993
 20
667.1275216959096
 10
685.0659380635907
 20
667.1107378750059
 10
685.0925611584069
 20
667.08753503128
 10
685.4367120686137
 20
666.9104604606965
 10
685.7772424914339
 20
666.7265194302597
 10
685.8114281527877
 20
666.7176593146668
 10
685.8428304328725
 20
666.7015020269619
 10
686.2193576620474
 20
666.6119336243759
 10
686.5940128600367
 20
666.5148318494451
 10
686.6293255126721
 20
666.5144103568756
 10
686.6636819916521
 20
666.5062376280241
 10
687.0507031458537
 20
666.5093807834254
 10
687.437709520721
 20
666.5047614662093
 10
687.4720969216241
 20
666.5128030922796
 10
687.5074109258211
 20
666.5130898915747
 10
687.8824337423347
 20
666.6087619361966
 10
688.2592998902826
 20
666.6968935346216
 10
688.290763568707
 20
666.712930929254
 10
688.3249827765584
 20
666.721660588964
 10
688.6662122924381
 20
666.9043014113267
 10
689.0110361228026
 20
667.0800620372375
 10
689.0377475241247
 20
667.1031631653502
 10
689.0688832396507
 20
667.1198283493829
 10
689.356488435752
 20
667.3788235287636
 10
689.6492300408963
 20
667.6319986134456
 10
689.6696367955599
 20
667.6608209214415
 10
689.695879524147
 20
667.6844531098776
 10
689.9131458318779
 20
668.0047507878588
 10
690.1367921337814
 20
668.320626715645
 10
690.1497082753857
 20
668.3534951557488
 10
690.1695328850392
 20
668.3827209316945
 10
690.3038335763222
 20
668.7457065714676
 10
690.4453870648402
 20
669.1059257815965
 10
690.4500619541786
 20
669.1409301595411
 10
690.4623163106471
 20
669.1740510271309
 10
690.5058463174673
 20
669.5586292227106
 10
690.5570804183764
 20
669.9422570840336
 10
690.5532423678732
 20
669.9773630726081
 10
690.5572142924965
 20
670.0124541674071
 10
690.507443809086
 20
670.3962746319519
 10
690.4653809826659
 20
670.7810160875992
 10
690.4532530458699
 20
670.8141834543531
 10
690.4487117048293
 20
670.8492054094821
 10
690.3085332107738
 20
671.2099618927226
 10
690.1756179956017
 20
671.5734571677711
 10
690.1559050041149
 20
671.6027583459066
 10
690.1431143236432
 20
671.6356758126331
 10
689.9206744834927
 20
671.9524024590606
 10
689.7046314287499
 20
672.2735265293747
 10
689.6784790299816
 20
672.2972586409248
 10
689.6581823579353
 20
672.3261585757332
 10
689.3664085666578
 20
672.5804483839113
 10
689.0797933094026
 20
672.8405386857637
 10
689.0487213857113
 20
672.8573225066676
 10
689.0220982908967
 20
672.8805253503931
 10
688.6779473806883
 20
673.0575999209764
 10
688.3374169578683
 20
673.2415409514136
 10
688.3032312965141
 20
673.2504010670067
 10
688.2718290164311
 20
673.2665583547111
 10
687.8953017872563
 20
673.3561267572976
 10
687.520646589267
 20
673.4532285322278
 10
687.4853339366299
 20
673.4536500247978
 10
687.4509774576536
 20
673.4618227536493
 10
687.0639563034483
 20
673.4586795982482
 10
686.6769499285809
 20
673.4632989154642
 10
686.6425625276778
 20
673.4552572893939
 10
686.6072485234808
 20
673.4549704900985
 10
686.2322257069673
 20
673.3592984454767
 10
685.8553595590191
 20
673.2711668470517
 10
685.823895880595
 20
673.255129452419
 10
685.7896766727454
 20
673.246399792709
 10
685.4484471568638
 20
673.0637589703466
 10
685.1036233264994
 20
672.8879983444361
 10
685.076911925179
 20
672.8648972163231
 10
685.0457762096548
 20
672.8482320322896
 10
684.7581710135517
 20
672.5892368529098
 10
684.4654294084092
 20
672.3360617682277
 10
684.4450226537437
 20
672.3072394602314
 10
684.4187799251549
 20
672.2836072717956
 10
684.2015136174258
 20
671.963309593814
 10
683.9778673155223
 20
671.6474336660286
 10
683.9649511739199
 20
671.6145652259245
 10
683.9451265642629
 20
671.5853394499784
 10
683.8108258729797
 20
671.2223538102056
 10
683.6692723844635
 20
670.8621346000764
 10
683.6645974951252
 20
670.8271302221322
 10
683.6523431386567
 20
670.7940093545421
 10
683.6088131318347
 20
670.4094311589628
 10
683.5575790309292
 20
670.0258032976391
 10
683.5614170814288
 20
669.9906973090648
 10
683.5574451568054
 20
669.9556062142661
 10
683.607215640216
 20
669.5717857497217
 10
683.6492784666376
 20
669.1870442940738
 10
683.6614064034338
 20
669.1538769273202
 10
683.6659477444762
 20
669.1188549721912
 10
683.8061262385298
 20
668.758098488951
 10
683.9390414537001
 20
668.3946032139024
 10
683.958754445187
 20
668.3653020357663
 10
683.9715451256588
 20
668.33238456904
 10
684.1939849658128
 20
668.0156579226125
 10
684.4100280205521
 20
667.6945338522982
 10
684.4361804193204
 20
667.670801740748
  0
LINE
  5
B2A
330
1F
100
AcDbEntity
  8
0
  6
CUSTOM
 62
    18
420
        0
370
     9
100
AcDbLine
 10
1151.697344054734
 20
79.32476763127971
 30
0.0
 11
1151.697344054734
 21
93.66691662370561
 31
0.0
  0
LWPOLYLINE
  5
B2B
330
1F
100
AcDbEntity
  8
0
  6
CUSTOM
 62
    18
420
        0
370
     9
100
AcDbPolyline
 90
        3
 70
     0
 43
0.0
 10
1161.670094038972
 20
79.59813617891467
 10
1162.290940872974
 20
79.52712594921689
 10
1162.676796088312
 20
79.44964120112371
  0
LINE
  5
B2C
330
1F
100
AcDbEntity
  8
0
  6
CUSTOM
 62
    18
420
        0
370
     9
100
AcDbLine
 10
733.7216316883558
 20
79.30338245828686
 30
0.0
 11
732.4578734237684
 21
93.74820536346467
 31
0.0
  0
LWPOLYLINE
  5
B2D
330
1F
100
AcDbEntity
  8
0
  6
CUSTOM
 62
    18
420
        0
370
     9
100
AcDbPolyline
 90
        4
 70
     0
 43
0.0
 10
1150.683592236796
 20
79.45086264466687
 10
1150.792718455884
 20
79.48000125147057
 10
1151.621304829615
 20
79.59591711122192
 10
1151.697344057348
 20
79.60236876366066
  0
LINE
  5
B2E
330
1F
100
AcDbEntity
  8
0
  6
CUSTOM
 62
    18
420
        0
370
     9
100
AcDbLine
 10
742.4088242745848
 20
94.6188007447477
 30
0.0
 11
743.6725825813799
 21
80.17397735712467
 31
0.0
  0
LINE
  5
B2F
330
1F
100
AcDbEntity
  8
0
  6
CUSTOM
 62
    18
420
        0
370
     9
100
AcDbLine
 10
1161.670094045565
 20
79.32922176800882
 30
0.0
 11
1161.670094045565
 21
93.6669164258039
 31
0.0
  0
LWPOLYLINE
  5
B30
330
1F
100
AcDbEntity
  8
0
  6
CUSTOM
 62
    18
420
        0
370
     9
100
AcDbPolyline
 90
        3
 70
     0
 43
0.0
 10
687.8867105032831
 20
671.0833637713906
 10
687.8188320618928
 20
671.2101816805906
 10
687.2109967922433
 20
671.2297337294971
  0
LWPOLYLINE
  5
B31
330
1F
100
AcDbEntity
  8
0
  6
CUSTOM
 62
    18
420
        0
370
     9
100
AcDbPolyline
 90
        3
 70
     0
 43
0.0
 10
686.2279489460188
 20
668.8846966102826
 10
686.2958273874128
 20
668.7578787010826
 10
686.9036626570622
 20
668.7383266521758
  0
LINE
  5
B32
330
1F
100
AcDbEntity
  8
0
  6
CUSTOM
 62
    18
420
        0
370
     9
100
AcDbLine
 10
686.9036626570622
 20
668.7383266521758
 30
0.0
 11
687.5946901536817
 21
668.7160985846644
 31
0.0
  0
LWPOLYLINE
  5
B33
330
1F
100
AcDbEntity
  8
0
  6
CUSTOM
 62
    18
420
        0
370
     9
100
AcDbPolyline
 90
        3
 70
     0
 43
0.0
 10
685.6905885169898
 20
670.1526282164543
 10
685.6147002054686
 20
670.030434807879
 10
685.901685269061
 20
669.494258004317
  0
LWPOLYLINE
  5
B34
330
1F
100
AcDbEntity
  8
0
  6
CUSTOM
 62
    18
420
        0
370
     9
100
AcDbPolyline
 90
        3
 70
     0
 43
0.0
 10
686.519969295622
 20
671.2519617970084
 10
686.3762025427085
 20
671.2565862976331
 10
686.0553523366515
 20
670.7399615429777
  0
LWPOLYLINE
  5
B35
330
1F
100
AcDbEntity
  8
0
  6
CUSTOM
 62
    18
420
        0
370
     9
100
AcDbPolyline
 90
        3
 70
     0
 43
0.0
 10
687.5946901536817
 20
668.7160985846644
 10
687.7384569065934
 20
668.7114740840402
 10
688.0593071126522
 20
669.2280988386953
  0
LWPOLYLINE
  5
B36
330
1F
100
AcDbEntity
  8
0
  6
CUSTOM
 62
    18
420
        0
370
     9
100
AcDbPolyline
 90
        3
 70
     0
 43
0.0
 10
688.4240709323139
 20
669.8154321652188
 10
688.4999592438315
 20
669.9376255737941
 10
688.2129741802428
 20
670.473802377356
  0
LINE
  5
B37
330
1F
100
AcDbEntity
  8
0
  6
CUSTOM
 62
    18
420
        0
370
     9
100
AcDbLine
 10
688.0593071126522
 20
669.2280988386953
 30
0.0
 11
688.4240709323139
 21
669.8154321652188
 31
0.0
  0
LINE
  5
B38
330
1F
100
AcDbEntity
  8
0
  6
CUSTOM
 62
    18
420
        0
370
     9
100
AcDbLine
 10
688.2129741802428
 20
670.473802377356
 30
0.0
 11
687.8867105032831
 21
671.0833637713906
 31
0.0
  0
LINE
  5
B39
330
1F
100
AcDbEntity
  8
0
  6
CUSTOM
 62
    18
420
        0
370
     9
100
AcDbLine
 10
687.2109967922433
 20
671.2297337294971
 30
0.0
 11
686.519969295622
 21
671.2519617970084
 31
0.0
  0
LINE
  5
B3A
330
1F
100
AcDbEntity
  8
0
  6
CUSTOM
 62
    18
420
        0
370
     9
100
AcDbLine
 10
685.901685269061
 20
669.494258004317
 30
0.0
 11
686.2279489460188
 21
668.8846966102826
 31
0.0
  0
LINE
  5
B3B
330
1F
100
AcDbEntity
  8
0
  6
CUSTOM
 62
    18
420
        0
370
     9
100
AcDbLine
 10
686.0553523366515
 20
670.7399615429777
 30
0.0
 11
685.6905885169898
 21
670.1526282164543
 31
0.0
  0
LWPOLYLINE
  5
B3C
330
1F
100
AcDbEntity
  8
0
  6
CUSTOM
 62
    18
420
        0
370
     9
100
AcDbPolyline
 90
        3
 70
     0
 43
0.0
 10
686.9036626256029
 20
668.7383266560566
 10
687.4980276664857
 20
668.6095780814031
 10
687.5946901778578
 20
668.716098585109
  0
LWPOLYLINE
  5
B3D
330
1F
100
AcDbEntity
  8
0
  6
CUSTOM
 62
    18
420
        0
370
     9
100
AcDbPolyline
 90
        9
 70
     0
 43
0.0
 10
1150.7359152821
 20
79.43473239727467
 10
1151.743339322435
 20
79.31950685598287
 10
1153.037880275001
 20
79.22864214241184
 10
1154.544304125088
 20
79.16741898343565
 10
1156.175062994162
 20
79.13939544651673
 10
1157.835383104327
 20
79.14620015775965
 10
1159.42877268579
 20
79.18743765208062
 10
1160.862629727809
 20
79.26071135620276
 10
1162.053623670969
 20
79.36176286877952
  0
LINE
  5
B3E
330
1F
100
AcDbEntity
  8
0
  6
CUSTOM
 62
    18
420
        0
370
     9
100
AcDbLine
 10
686.519969271444
 20
671.2519617965644
 30
0.0
 11
686.0553523557418
 21
670.7399615682807
 31
0.0
  0
LWPOLYLINE
  5
B3F
330
1F
100
AcDbEntity
  8
0
  6
CUSTOM
 62
    18
420
        0
370
     9
100
AcDbPolyline
 90
        3
 70
     0
 43
0.0
 10
685.9016852566938
 20
669.4942580335008
 10
686.0873682395694
 20
668.915148527249
 10
686.2279489584935
 20
668.8846965895669
  0
LWPOLYLINE
  5
B40
330
1F
100
AcDbEntity
  8
0
  6
CUSTOM
 62
    18
420
        0
370
     9
100
AcDbPolyline
 90
       36
 70
     0
 43
0.0
 10
1161.670094084525
 20
80.16631059614388
 10
1161.699471799285
 20
80.16424855428175
 10
1162.722265628576
 20
80.04726507176377
 10
1163.394121079954
 20
79.91234775475965
 10
1163.675992356678
 20
79.76733750732972
 10
1165.673784729973
 20
77.7831359588817
 10
1165.454170296859
 20
73.60307600138781
 10
1165.234555863749
 20
69.42301604389371
 10
1165.014941429882
 20
65.2429560864354
 10
1164.769222908323
 20
64.38394970697942
 10
1164.625264205794
 20
64.21434148916688
 10
1164.039290911972
 20
63.55942173723969
 10
1163.226220813972
 20
63.23479617849551
 10
1162.727396557081
 20
63.10160138802956
 10
1161.877335731364
 20
62.98268133988784
 10
1160.725440782162
 20
62.88494723501168
 10
1159.338655656959
 20
62.81407902432789
 10
1157.797575266465
 20
62.77419531064566
 10
1156.191761601388
 20
62.76761399043373
 10
1154.614538715036
 20
62.79471754609852
 10
1153.157569068596
 20
62.85393081750356
 10
1151.905526442052
 20
62.94181254454764
 10
1150.931175001867
 20
63.05325536068977
 10
1150.291140512124
 20
63.18178261453447
 10
1149.496702138848
 20
63.49981990701673
 10
1149.194810594404
 20
63.65512969262368
 10
1148.59821519198
 20
64.31767391031877
 10
1148.352496670418
 20
65.17466616782764
 10
1148.285125979774
 20
69.53229540190472
 10
1148.06942168132
 20
73.71516202321283
 10
1147.693653370329
 20
77.70944558962054
 10
1147.853717382865
 20
77.89802864452048
 10
1149.815939975594
 20
79.85669848504875
 10
1150.339564564018
 20
79.99651539726762
 10
1151.231888351113
 20
80.12134786161453
 10
1151.697344045994
 20
80.16084008764705
  0
LWPOLYLINE
  5
B41
330
1F
100
AcDbEntity
  8
0
  6
CUSTOM
 62
    18
420
        0
370
     9
100
AcDbPolyline
 90
        3
 70
     0
 43
0.0
 10
688.2129741926119
 20
670.4738023481723
 10
688.0272912097344
 20
671.052911854424
 10
687.8867104908104
 20
671.0833637921062
  0
LINE
  5
B42
330
1F
100
AcDbEntity
  8
0
  6
CUSTOM
 62
    18
420
        0
370
     9
100
AcDbLine
 10
687.8867104908104
 20
671.0833637921062
 30
0.0
 11
687.2109968236992
 21
671.2297337256166
 31
0.0
  0
LWPOLYLINE
  5
B43
330
1F
100
AcDbEntity
  8
0
  6
CUSTOM
 62
    18
420
        0
370
     9
100
AcDbPolyline
 90
        3
 70
     0
 43
0.0
 10
687.2109968236992
 20
671.2297337256166
 10
686.61663178282
 20
671.3584823002697
 10
686.519969271444
 20
671.2519617965644
  0
LWPOLYLINE
  5
B44
330
1F
100
AcDbEntity
  8
0
  6
CUSTOM
 62
    18
420
        0
370
     9
100
AcDbPolyline
 90
        3
 70
     0
 43
0.0
 10
688.0593070935637
 20
669.2280988133924
 10
688.4679891515652
 20
669.678459744991
 10
688.4240709440153
 20
669.8154321863784
  0
LWPOLYLINE
  5
B45
330
1F
100
AcDbEntity
  8
0
  6
CUSTOM
 62
    18
420
        0
370
     9
100
AcDbPolyline
 90
        3
 70
     0
 43
0.0
 10
686.0553523557418
 20
670.7399615682807
 10
685.6466702977385
 20
670.2896006366818
 10
685.6905885052865
 20
670.1526281952945
  0
LINE
  5
B46
330
1F
100
AcDbEntity
  8
0
  6
CUSTOM
 62
    18
420
        0
370
     9
100
AcDbLine
 10
688.4240709440153
 20
669.8154321863784
 30
0.0
 11
688.2129741926119
 21
670.4738023481723
 31
0.0
  0
LINE
  5
B47
330
1F
100
AcDbEntity
  8
0
  6
CUSTOM
 62
    18
420
        0
370
     9
100
AcDbLine
 10
687.5946901778578
 20
668.716098585109
 30
0.0
 11
688.0593070935637
 21
669.2280988133924
 31
0.0
  0
LINE
  5
B48
330
1F
100
AcDbEntity
  8
0
  6
CUSTOM
 62
    18
420
        0
370
     9
100
AcDbLine
 10
686.2279489584935
 20
668.8846965895669
 30
0.0
 11
686.9036626256029
 21
668.7383266560566
 31
0.0
  0
LINE
  5
B49
330
1F
100
AcDbEntity
  8
0
  6
CUSTOM
 62
    18
420
        0
370
     9
100
AcDbLine
 10
685.6905885052865
 20
670.1526281952945
 30
0.0
 11
685.9016852566938
 21
669.4942580335008
 31
0.0
  0
LWPOLYLINE
  5
B4A
330
1F
100
AcDbEntity
  8
0
  6
CUSTOM
 62
    18
420
        0
370
     9
100
AcDbPolyline
 90
       29
 70
     1
 43
0.0
 10
734.3231950114285
 20
79.35601242139757
 10
733.1505492722453
 20
79.25341921400269
 10
732.3002493139309
 20
79.17902760786279
 10
731.8217114793469
 20
79.13716097272374
 10
731.7427466480284
 20
79.13025244524039
 10
729.9300979996361
 20
76.96402659333859
 10
730.6131968486814
 20
72.81264171323851
 10
731.194769486029
 20
68.6523744406615
 10
731.6822563324048
 20
64.48387572810434
 10
732.0017077568362
 20
63.64725743228046
 10
732.6532473841989
 20
63.03418043339247
 10
733.5061912297342
 20
62.76761399043362
 10
740.1787547357223
 20
62.80337051983752
 10
746.7561560651237
 20
63.92683569304171
 10
747.5498529995393
 20
64.33746453557848
 10
748.0850345711798
 20
65.05436618501659
 10
748.2543555666169
 20
65.93374652615847
 10
748.1071501112153
 20
70.1320160025104
 10
747.959944655061
 20
74.33028547883663
 10
747.8127391989082
 20
78.52855495516365
 10
745.6514675807948
 20
80.34710783777045
 10
745.3262702598792
 20
80.31865675909152
 10
744.6158100729762
 20
80.25649954752672
 10
743.5613763837327
 20
80.16424855428164
 10
742.2242490454562
 20
80.04726507176364
 10
740.682137038785
 20
79.91234775475954
 10
739.0246623081974
 20
79.76733750732961
 10
737.3481512603675
 20
79.6206617979638
 10
735.7500366235155
 20
79.4808448857446
  0
LWPOLYLINE
  5
B4B
330
1F
100
AcDbEntity
  8
0
  6
CUSTOM
 62
    18
420
        0
370
     9
100
AcDbPolyline
 90
        3
 70
     0
 43
0.0
 10
1162.040925214039
 20
79.36068545096572
 10
1162.849422087824
 20
79.47379087497181
 10
1163.358317886802
 20
79.60967494212986
  0
LINE
  5
B4C
330
1F
100
AcDbEntity
  8
0
  6
CUSTOM
 62
    18
420
        0
370
     9
100
AcDbLine
 10
1163.282382656881
 20
79.58939890858886
 30
0.0
 11
1163.350096410538
 21
79.66917740671163
 31
0.0
  0
LINE
  5
B4D
330
1F
100
AcDbEntity
  8
0
  6
CUSTOM
 62
    18
420
        0
370
     9
100
AcDbLine
 10
1149.944842523443
 20
79.67188683026455
 30
0.0
 11
1150.176550961379
 21
79.55268313449476
 31
0.0
  0
LINE
  5
B4E
330
1F
100
AcDbEntity
  8
0
  6
CUSTOM
 62
    18
420
        0
370
     9
100
AcDbLine
 10
1150.162070480014
 20
79.55559100220688
 30
0.0
 11
1150.800969931803
 21
79.42729167875262
 31
0.0
  0
LWPOLYLINE
  5
B4F
330
1F
100
AcDbEntity
  8
0
  6
CUSTOM
 62
    18
420
        0
370
     9
100
AcDbPolyline
 90
       17
 70
     0
 43
0.0
 10
696.2761156684746
 20
655.7332801704764
 10
745.3273682088555
 20
95.07490421481548
 10
745.1470130946372
 20
94.85836122249049
 10
744.69872296672
 20
94.81914091875367
 10
743.8281957036532
 20
94.74297965277362
 10
742.5860231857233
 20
94.63430364049287
 10
741.0443959645643
 20
94.49942873672561
 10
739.2929078106817
 20
94.34619338062661
 10
737.4333488491783
 20
94.18350305410676
 10
735.573789887675
 20
94.02081272758657
 10
733.8223017337904
 20
93.86757737148769
 10
732.2806745126318
 20
93.73270246772046
 10
731.0385019947053
 20
93.6240264554396
 10
730.1679747316365
 20
93.54786518945951
 10
729.7196846037178
 20
93.50864488572248
 10
729.5044671925288
 20
93.69057976684787
 10
680.4532154109901
 20
654.3489470488921
  0
LWPOLYLINE
  5
B50
330
1F
100
AcDbEntity
  8
0
  6
CUSTOM
 62
    18
420
        0
370
     9
100
AcDbPolyline
 90
       16
 70
     1
 43
0.0
 10
1171.483718996204
 20
670.811957205263
 10
1171.483718996204
 20
671.5523820388747
 10
1171.483718996204
 20
672.2016599638058
 10
1171.483718996204
 20
672.6260039164068
 10
1171.483718996204
 20
672.1522028671692
 10
1171.483718996204
 20
671.493836063742
 10
1171.483718996204
 20
670.7477248309019
 10
1171.483718996204
 20
669.9572304414988
 10
1171.483718996204
 20
669.1682935561138
 10
1171.483718996204
 20
668.4267643188572
 10
1171.483718996204
 20
667.7757377136486
 10
1171.483718996204
 20
667.3468633219195
 10
1171.483718996204
 20
667.8253622145005
 10
1171.483718996204
 20
668.4854276125845
 10
1171.483718996204
 20
669.2325863453175
 10
1171.483718996204
 20
670.023416262965
  0
LWPOLYLINE
  5
B51
330
1F
100
AcDbEntity
  8
0
  6
CUSTOM
 62
    18
420
        0
370
     9
100
AcDbPolyline
 90
       18
 70
     0
 43
0.0
 10
1148.683719079311
 20
653.9439588848845
 10
1148.683719079311
 20
94.38274199083293
 10
1148.883719078582
 20
94.18350305410688
 10
1149.110372901835
 20
94.02081272758669
 10
1149.777162075229
 20
93.86757737148782
 10
1150.845335235696
 20
93.73270246772056
 10
1152.252814041799
 20
93.62402645543971
 10
1153.9178009413
 20
93.54786518945962
 10
1155.743532947587
 20
93.50864488572261
 10
1157.623905152714
 20
93.50864488572261
 10
1159.449637159002
 20
93.54786518945962
 10
1161.114624058505
 20
93.62402645543971
 10
1162.522102864602
 20
93.73270246772056
 10
1163.590276025071
 20
93.86757737148782
 10
1164.257065198468
 20
94.02081272758669
 10
1164.483719021721
 20
94.18350305410688
 10
1164.683719020991
 20
94.38274199083293
 10
1164.683719020991
 20
653.9439595983433
  0
LWPOLYLINE
  5
B52
330
1F
100
AcDbEntity
  8
0
  6
CUSTOM
 62
    18
420
        0
370
     9
100
AcDbPolyline
 90
       12
 70
     0
 43
0.0
 10
702.0422194206941
 20
690.7520734500383
 10
702.0573296699778
 20
683.234029998454
 10
701.615761271617
 20
683.234029998454
 10
700.3170537633621
 20
683.234029998454
 10
698.2376695713983
 20
683.234029998454
 10
698.2376695713983
 20
660.9272966465844
 10
698.2244740290724
 20
660.6979405120345
 10
698.1861489216234
 20
660.4767838315871
 10
698.1768453713765
 20
660.4378099657829
 10
698.0750923107652
 20
660.1374699813407
 10
697.9980723546313
 20
659.9780959208711
 10
697.8474756202623
 20
659.7404840093233
  0
LWPOLYLINE
  5
B53
330
1F
100
AcDbEntity
  8
0
  6
CUSTOM
 62
    18
420
        0
370
     9
100
AcDbPolyline
 90
       10
 70
     0
 43
0.0
 10
689.3502605783606
 20
703.0340297109691
 10
687.8253813281672
 20
703.0340297109691
 10
686.2892781211366
 20
703.0340297109691
 10
684.764398870945
 20
703.0340297109691
 10
682.4898824537386
 20
701.6635036472706
 10
680.4111404767182
 20
700.0478930066702
 10
678.8422592243959
 20
698.6720449914117
 10
677.4197444608279
 20
697.2420027700472
 10
675.5639331901175
 20
695.1223707887736
 10
674.0465074831326
 20
693.2074902394758
  0
LWPOLYLINE
  5
B54
330
1F
100
AcDbEntity
  8
0
  6
CUSTOM
 62
    18
420
        0
370
     9
100
AcDbPolyline
 90
       12
 70
     0
 43
0.0
 10
674.0465074831326
 20
693.2074902394758
 10
673.05718458295
 20
691.9531174281686
 10
672.3599545048955
 20
691.098632861733
 10
672.0724400286115
 20
690.7520734500383
 10
672.0573297793277
 20
683.234029998454
 10
672.498898177685
 20
683.234029998454
 10
673.7976056859432
 20
683.234029998454
 10
675.8769898779054
 20
683.234029998454
 10
675.8769898779054
 20
670.2340301872066
 10
676.0338653722238
 20
668.3062056629132
 10
676.212052232854
 20
667.4181414224793
 10
676.4801158162127
 20
666.4797722122383
  0
LWPOLYLINE
  5
B55
330
1F
100
AcDbEntity
  8
0
  6
CUSTOM
 62
    18
420
        0
370
     9
100
AcDbPolyline
 90
       29
 70
     1
 43
0.0
 10
688.9228587433254
 20
673.062940211951
 10
688.3458096351942
 20
673.3451973055693
 10
687.7264208999612
 20
673.5212972426966
 10
686.8710208629718
 20
673.5789969108489
 10
686.0284240367863
 20
673.4334589693546
 10
685.2456301414413
 20
673.0948245224797
 10
684.5651635827989
 20
672.5818269832249
 10
684.0252364835023
 20
671.9242079369102
 10
683.6539537948656
 20
671.1567572361346
 10
683.473035755288
 20
670.3198938362966
 10
683.4954736777717
 20
669.4629911431455
 10
683.7185897592271
 20
668.6386089364502
 10
684.1279620590567
 20
667.8915981837725
 10
684.7016042533606
 20
667.2619122332
 10
685.4069453934489
 20
666.7849730312861
 10
686.2065507616744
 20
666.4862547851111
 10
687.0573297246509
 20
666.3840302431066
 10
687.7098786997167
 20
666.4438009564543
 10
688.3376736703112
 20
666.6196494388035
 10
688.9228587433254
 20
666.9052779600008
 10
689.3867135690152
 20
667.2394855059122
 10
689.7930294305122
 20
667.6442358687601
 10
690.2056839043154
 20
668.2387687404196
 10
690.4923641968661
 20
668.906756099515
 10
690.6385598448713
 20
669.6202657698303
 10
690.6386944082286
 20
670.3482496737291
 10
690.4918785082363
 20
671.0623021926009
 10
690.1660222668388
 20
671.7988325969384
 10
689.6240262814434
 20
672.5081489981969
  0
LWPOLYLINE
  5
B56
330
1F
100
AcDbEntity
  8
0
  6
CUSTOM
 62
    18
420
        0
370
     9
100
AcDbPolyline
 90
        3
 70
     0
 43
0.0
 10
693.7035189725873
 20
700.0478930066702
 10
691.6193876527622
 20
701.6664349786239
 10
689.3502605783606
 20
703.0340297109691
  0
LINE
  5
B57
330
1F
100
AcDbEntity
  8
0
  6
CUSTOM
 62
    18
420
        0
370
     9
100
AcDbLine
 10
697.8474756202623
 20
659.7404840093233
 30
0.0
 11
697.498145969851
 21
659.3744832020249
 31
0.0
  0
LWPOLYLINE
  5
B58
330
1F
100
AcDbEntity
  8
0
  6
CUSTOM
 62
    18
420
        0
370
     9
100
AcDbPolyline
 90
        5
 70
     0
 43
0.0
 10
700.0681519661712
 20
693.2074902394756
 10
699.2662277752014
 20
694.235908722736
 10
698.3606943527728
 20
695.352623412613
 10
696.2390099383691
 20
697.7200311658935
 10
693.7035189725873
 20
700.0478930066702
  0
LINE
  5
B59
330
1F
100
AcDbEntity
  8
0
  6
CUSTOM
 62
    18
420
        0
370
     9
100
AcDbLine
 10
677.3717290282501
 20
664.4327045853309
 30
0.0
 11
676.4801158162127
 21
666.4797722122383
 31
0.0
  0
LWPOLYLINE
  5
B5A
330
1F
100
AcDbEntity
  8
0
  6
CUSTOM
 62
    18
420
        0
370
     9
100
AcDbPolyline
 90
        7
 70
     0
 43
0.0
 10
702.0422194206941
 20
690.7520734500383
 10
702.0396475897314
 20
690.755139772693
 10
701.878293408362
 20
690.9491227442889
 10
701.560675483136
 20
691.3345618272436
 10
701.1044964403034
 20
691.8947505249084
 10
700.6203603583443
 20
692.5003426970323
 10
700.0681519661712
 20
693.2074902394756
  0
LWPOLYLINE
  5
B5B
330
1F
100
AcDbEntity
  8
0
  6
CUSTOM
 62
    18
420
        0
370
     9
100
AcDbPolyline
 90
        3
 70
     0
 43
0.0
 10
689.3502605783606
 20
703.0340297109691
 10
691.6247769955653
 20
701.6635036472706
 10
693.7035189725873
 20
700.0478930066702
  0
LINE
  5
B5C
330
1F
100
AcDbEntity
  8
0
  6
CUSTOM
 62
    18
420
        0
370
     9
100
AcDbLine
 10
696.9861370958579
 20
659.0726555083275
 30
0.0
 11
696.4119810635484
 21
658.9349072793297
 31
0.0
  0
LWPOLYLINE
  5
B5D
330
1F
100
AcDbEntity
  8
0
  6
CUSTOM
 62
    18
420
        0
370
     9
100
AcDbPolyline
 90
        5
 70
     0
 43
0.0
 10
696.4119810635484
 20
658.9349072793297
 10
694.1232522987856
 20
658.7346694607042
 10
691.5988066264427
 20
658.5138090850891
 10
688.9228587433254
 20
658.2796939836761
 10
686.8027821154401
 20
658.2845055776686
  0
LINE
  5
B5E
330
1F
100
AcDbEntity
  8
0
  6
CUSTOM
 62
    18
420
        0
370
     9
100
AcDbLine
 10
697.498145969851
 20
659.3744832020249
 30
0.0
 11
696.9861370958579
 21
659.0726555083275
 31
0.0
  0
LWPOLYLINE
  5
B5F
330
1F
100
AcDbEntity
  8
0
  6
CUSTOM
 62
    18
420
        0
370
     9
100
AcDbPolyline
 90
        3
 70
     0
 43
0.0
 10
693.7035189725873
 20
700.0478930066702
 10
695.272400224906
 20
698.6720449914117
 10
696.012918198402
 20
697.9276084520533
  0
LWPOLYLINE
  5
B60
330
1F
100
AcDbEntity
  8
0
  6
CUSTOM
 62
    18
420
        0
370
     9
100
AcDbPolyline
 90
        3
 70
     0
 43
0.0
 10
674.0465074831326
 20
693.2074902394756
 10
674.8484316741024
 20
694.235908722736
 10
675.4212551778445
 20
694.9423215458213
  0
LWPOLYLINE
  5
B61
330
1F
100
AcDbEntity
  8
0
  6
CUSTOM
 62
    18
420
        0
370
     9
100
AcDbPolyline
 90
        3
 70
     0
 43
0.0
 10
675.6089291377365
 20
695.1737633266887
 10
675.753965096529
 20
695.352623412613
 10
676.2552525867057
 20
695.9119676217749
  0
LWPOLYLINE
  5
B62
330
1F
100
AcDbEntity
  8
0
  6
CUSTOM
 62
    18
420
        0
370
     9
100
AcDbPolyline
 90
        3
 70
     0
 43
0.0
 10
677.6973087844371
 20
697.5210358696239
 10
677.8756495109346
 20
697.7200311658935
 10
678.1017412464562
 20
697.9276084480601
  0
LWPOLYLINE
  5
B63
330
1F
100
AcDbEntity
  8
0
  6
CUSTOM
 62
    18
420
        0
370
     9
100
AcDbPolyline
 90
        3
 70
     0
 43
0.0
 10
684.7325677839243
 20
658.6542326919931
 10
686.0884826465689
 20
658.3680604447923
 10
686.8027821154401
 20
658.2845055776686
  0
LINE
  5
B64
330
1F
100
AcDbEntity
  8
0
  6
CUSTOM
 62
    18
420
        0
370
     9
100
AcDbLine
 10
701.8120397460287
 20
691.0295235933022
 30
0.0
 11
702.0422194206941
 21
690.7520734500383
 31
0.0
  0
LWPOLYLINE
  5
B65
330
1F
100
AcDbEntity
  8
0
  6
CUSTOM
 62
    18
420
        0
370
     9
100
AcDbPolyline
 90
        3
 70
     0
 43
0.0
 10
683.1414533071083
 20
659.2080993607257
 10
683.3539834552002
 20
659.119066869266
 10
684.7325677839243
 20
658.6542326919931
  0
LWPOLYLINE
  5
B66
330
1F
100
AcDbEntity
  8
0
  6
CUSTOM
 62
    18
420
        0
370
     9
100
AcDbPolyline
 90
        3
 70
     0
 43
0.0
 10
696.4173506337782
 20
697.5210358996346
 10
696.6949149884758
 20
697.2420027700472
 10
697.859406911607
 20
695.9119675659478
  0
LWPOLYLINE
  5
B67
330
1F
100
AcDbEntity
  8
0
  6
CUSTOM
 62
    18
420
        0
370
     9
100
AcDbPolyline
 90
        3
 70
     0
 43
0.0
 10
698.5057303010536
 20
695.1737633378916
 10
698.550726259188
 20
695.1223707887736
 10
698.6934042590283
 20
694.9423215610234
  0
LINE
  5
B68
330
1F
100
AcDbEntity
  8
0
  6
CUSTOM
 62
    18
420
        0
370
     9
100
AcDbLine
 10
680.1497710403554
 20
661.0532528189688
 30
0.0
 11
678.6004061383163
 21
662.6200354898542
 31
0.0
  0
LINE
  5
B69
330
1F
100
AcDbEntity
  8
0
  6
CUSTOM
 62
    18
420
        0
370
     9
100
AcDbLine
 10
673.0393773737713
 20
691.9312939499482
 30
0.0
 11
673.0836572429168
 21
691.9866823895555
 31
0.0
  0
LINE
  5
B6A
330
1F
100
AcDbEntity
  8
0
  6
CUSTOM
 62
    18
420
        0
370
     9
100
AcDbLine
 10
681.7807698794848
 20
659.8985804645263
 30
0.0
 11
680.1497710403554
 21
661.0532528189688
 31
0.0
  0
LINE
  5
B6B
330
1F
100
AcDbEntity
  8
0
  6
CUSTOM
 62
    18
420
        0
370
     9
100
AcDbLine
 10
700.0681519661712
 20
693.2074902394756
 30
0.0
 11
701.0310021953872
 21
691.9866824034633
 31
0.0
  0
LWPOLYLINE
  5
B6C
330
1F
100
AcDbEntity
  8
0
  6
CUSTOM
 62
    18
420
        0
370
     9
100
AcDbPolyline
 90
        3
 70
     0
 43
0.0
 10
697.498145969851
 20
659.3744832020249
 10
697.7122242469349
 20
659.5761162509716
 10
697.8474756202623
 20
659.7404840093233
  0
LWPOLYLINE
  5
B6D
330
1F
100
AcDbEntity
  8
0
  6
CUSTOM
 62
    18
420
        0
370
     9
100
AcDbPolyline
 90
        3
 70
     0
 43
0.0
 10
677.3717290282501
 20
664.4327045853309
 10
677.1985281673487
 20
664.7595023784559
 10
676.4801158162127
 20
666.4797722122383
  0
LWPOLYLINE
  5
B6E
330
1F
100
AcDbEntity
  8
0
  6
CUSTOM
 62
    18
420
        0
370
     9
100
AcDbPolyline
 90
        3
 70
     0
 43
0.0
 10
696.9861370958579
 20
659.0726555083275
 10
696.8943039267205
 20
659.0381615994786
 10
696.4119810635484
 20
658.9349072793297
  0
LINE
  5
B6F
330
1F
100
AcDbEntity
  8
0
  6
CUSTOM
 62
    18
420
        0
370
     9
100
AcDbLine
 10
684.7325677839243
 20
658.6542326919931
 30
0.0
 11
683.1414533071083
 21
659.2080993607257
 31
0.0
  0
LINE
  5
B70
330
1F
100
AcDbEntity
  8
0
  6
CUSTOM
 62
    18
420
        0
370
     9
100
AcDbLine
 10
701.0752820756724
 20
691.9312939497869
 30
0.0
 11
701.7157185363439
 21
691.1464123322964
 31
0.0
  0
LWPOLYLINE
  5
B71
330
1F
100
AcDbEntity
  8
0
  6
CUSTOM
 62
    18
420
        0
370
     9
100
AcDbPolyline
 90
        3
 70
     0
 43
0.0
 10
696.9861370958579
 20
659.0726555083275
 10
697.3366875308247
 20
659.2563210480207
 10
697.498145969851
 20
659.3744832020249
  0
LWPOLYLINE
  5
B72
330
1F
100
AcDbEntity
  8
0
  6
CUSTOM
 62
    18
420
        0
370
     9
100
AcDbPolyline
 90
        3
 70
     0
 43
0.0
 10
680.1497710403554
 20
661.0532528189688
 10
680.872065792878
 20
660.4907742600828
 10
681.7807698794848
 20
659.8985804645263
  0
LWPOLYLINE
  5
B73
330
1F
100
AcDbEntity
  8
0
  6
CUSTOM
 62
    18
420
        0
370
     9
100
AcDbPolyline
 90
        3
 70
     0
 43
0.0
 10
678.6004061383163
 20
662.6200354898542
 10
678.7813291895753
 20
662.4065813655196
 10
679.1026539277563
 20
662.1121414941415
  0
LINE
  5
B74
330
1F
100
AcDbEntity
  8
0
  6
CUSTOM
 62
    18
420
        0
370
     9
100
AcDbLine
 10
683.1414533071083
 20
659.2080993607257
 30
0.0
 11
681.7807698794848
 21
659.8985804645263
 31
0.0
  0
LINE
  5
B75
330
1F
100
AcDbEntity
  8
0
  6
CUSTOM
 62
    18
420
        0
370
     9
100
AcDbLine
 10
678.6004061383163
 20
662.6200354898542
 30
0.0
 11
677.3717290282501
 21
664.4327045853309
 31
0.0
  0
LINE
  5
B76
330
1F
100
AcDbEntity
  8
0
  6
CUSTOM
 62
    18
420
        0
370
     9
100
AcDbLine
 10
686.8027821154401
 20
658.2845055776686
 30
0.0
 11
684.7325677839243
 21
658.6542326919931
 31
0.0
  0
LINE
  5
B77
330
1F
100
AcDbEntity
  8
0
  6
CUSTOM
 62
    18
420
        0
370
     9
100
AcDbLine
 10
683.9264507313481
 20
671.7200152912274
 30
0.0
 11
684.1537783314024
 21
672.0807690141103
 31
0.0
  0
LINE
  5
B78
330
1F
100
AcDbEntity
  8
0
  6
CUSTOM
 62
    18
420
        0
370
     9
100
AcDbLine
 10
686.4496763863488
 20
666.4570422554976
 30
0.0
 11
686.0347232346367
 21
666.5504464742386
 31
0.0
  0
LINE
  5
B79
330
1F
100
AcDbEntity
  8
0
  6
CUSTOM
 62
    18
420
        0
370
     9
100
AcDbLine
 10
690.0867039369414
 20
671.9026374104251
 30
0.0
 11
690.2422719517317
 21
671.6264860131111
 31
0.0
  0
LINE
  5
B7A
330
1F
100
AcDbEntity
  8
0
  6
CUSTOM
 62
    18
420
        0
370
     9
100
AcDbLine
 10
688.3596553262768
 20
666.6303786731551
 30
0.0
 11
687.6152920324592
 21
666.4351372206866
 31
0.0
  0
LWPOLYLINE
  5
B7B
330
1F
100
AcDbEntity
  8
0
  6
CUSTOM
 62
    18
420
        0
370
     9
100
AcDbPolyline
 90
       26
 70
     0
 43
0.0
 10
698.2376695840092
 20
683.1595422890557
 10
698.3464520162697
 20
683.1595422890557
 10
699.2896982969076
 20
683.1595422890557
 10
700.5429680233472
 20
683.1595422890557
 10
700.9618573149063
 20
683.1595422890557
 10
703.3075862780122
 20
656.3484460586563
 10
702.8793934396626
 20
656.3109840399053
 10
701.6193548541259
 20
656.200744949264
 10
699.5996839152058
 20
656.0240466399772
 10
696.9361288980405
 20
655.7910157738318
 10
693.7813393719343
 20
655.5150074574883
 10
690.3161177829779
 20
655.2118398551463
 10
686.7390575822891
 20
654.8988876422393
 10
683.2551617435211
 20
654.5940862547571
 10
680.0640939476843
 20
654.3149040011142
 10
677.3487357652729
 20
654.0773409453244
 10
675.2647056289434
 20
653.8950119359323
 10
673.9884272873086
 20
668.4829399750581
 10
673.9381332252389
 20
669.7767012460806
 10
673.9421402788403
 20
670.0097462786693
 10
674.0077443168438
 20
671.0335333409305
 10
674.0601944696052
 20
671.4767134677705
 10
674.4379919719548
 20
673.3039679375273
 10
674.4585230729671
 20
673.3766573062552
 10
674.8067065679178
 20
674.4273681551838
 10
675.263193784297
 20
675.4945304799726
  0
LWPOLYLINE
  5
B7C
330
1F
100
AcDbEntity
  8
0
  6
CUSTOM
 62
    18
420
        0
370
     9
100
AcDbPolyline
 90
       10
 70
     0
 43
0.0
 10
675.263193784297
 20
675.4945304799726
 10
676.8683810041448
 20
657.1471568009147
 10
679.5693958438412
 20
657.3834649768329
 10
682.7707241453926
 20
657.663544908398
 10
686.2844889282378
 20
657.9709594898505
 10
689.9044771908982
 20
658.2876674214863
 10
693.418241973747
 20
658.595082002939
 10
696.6195702752965
 20
658.8751619345035
 10
699.3205851149932
 20
659.1114701104228
 10
698.2376696225848
 20
671.489250693524
  0
LINE
  5
B7D
330
1F
100
AcDbEntity
  8
0
  6
CUSTOM
 62
    18
420
        0
370
     9
100
AcDbLine
 10
689.569825132995
 20
672.5510350698251
 30
0.0
 11
689.7403306285623
 21
672.3559401579376
 31
0.0
  0
LINE
  5
B7E
330
1F
100
AcDbEntity
  8
0
  6
CUSTOM
 62
    18
420
        0
370
     9
100
AcDbLine
 10
689.0563204410564
 20
667.001437154522
 30
0.0
 11
688.4637465810016
 21
666.6811855599432
 31
0.0
  0
LINE
  5
B7F
330
1F
100
AcDbEntity
  8
0
  6
CUSTOM
 62
    18
420
        0
370
     9
100
AcDbLine
 10
687.5107013210937
 20
673.535848269291
 30
0.0
 11
687.9988626438126
 21
673.4438386613213
 31
0.0
  0
LINE
  5
B80
330
1F
100
AcDbEntity
  8
0
  6
CUSTOM
 62
    18
420
        0
370
     9
100
AcDbLine
 10
685.0684542619046
 20
672.9612532405641
 30
0.0
 11
685.437848257311
 21
673.177977539175
 31
0.0
  0
LINE
  5
B81
330
1F
100
AcDbEntity
  8
0
  6
CUSTOM
 62
    18
420
        0
370
     9
100
AcDbLine
 10
688.2218795233082
 20
673.3804321808464
 30
0.0
 11
688.9222023534119
 21
673.0632612775833
 31
0.0
  0
LINE
  5
B82
330
1F
100
AcDbEntity
  8
0
  6
CUSTOM
 62
    18
420
        0
370
     9
100
AcDbLine
 10
675.263193784297
 20
675.4945304799726
 30
0.0
 11
675.876989891126
 21
676.4749902647211
 31
0.0
  0
LWPOLYLINE
  5
B83
330
1F
100
AcDbEntity
  8
0
  6
CUSTOM
 62
    18
420
        0
370
     9
100
AcDbPolyline
 90
       26
 70
     0
 43
0.0
 10
1149.219236284459
 20
693.2074902394758
 10
1148.0095194091
 20
694.2359087227361
 10
1146.988684806873
 20
695.3526234126131
 10
1145.474147895817
 20
697.7200311658937
 10
1144.596596499264
 20
700.0478930066702
 10
1144.287505743367
 20
701.6660071104048
 10
1144.18531919812
 20
703.0340297109692
 10
1143.999964578565
 20
703.0340297109692
 10
1142.959533377939
 20
700.0478930066702
 10
1141.78567302763
 20
693.2074902394758
 10
1141.685610297297
 20
675.1289820160193
 10
1141.744415720916
 20
674.962431544445
 10
1141.869505563328
 20
674.5745909071082
 10
1142.039101816687
 20
673.9848789263302
 10
1142.229070011619
 20
673.2139564567033
 10
1142.402612987286
 20
672.2971069572711
 10
1142.532532679927
 20
671.2767596757609
 10
1142.593728233437
 20
670.1950900957681
 10
1142.565328183357
 20
669.1007639450622
 10
1142.458405376957
 20
668.0502876153497
 10
1142.298601852591
 20
667.0885947604944
 10
1142.111720150101
 20
666.2602239171063
 10
1141.931479586087
 20
665.600716754233
 10
1141.786484378083
 20
665.1320851923296
 10
1141.711283632378
 20
664.9103779050782
 10
1141.683719104826
 20
664.8340302656118
  0
LINE
  5
B84
330
1F
100
AcDbEntity
  8
0
  6
CUSTOM
 62
    18
420
        0
370
     9
100
AcDbLine
 10
683.5557663787284
 20
669.2402181865548
 30
0.0
 11
683.4903078260695
 21
669.6602747461005
 31
0.0
  0
LINE
  5
B85
330
1F
100
AcDbEntity
  8
0
  6
CUSTOM
 62
    18
420
        0
370
     9
100
AcDbLine
 10
672.302619701205
 20
691.0295235907978
 30
0.0
 11
672.398940896116
 21
691.1464123117621
 31
0.0
  0
LINE
  5
B86
330
1F
100
AcDbEntity
  8
0
  6
CUSTOM
 62
    18
420
        0
370
     9
100
AcDbLine
 10
683.6054542982119
 20
670.9324155764979
 30
0.0
 11
683.7407422580281
 21
671.3361511800216
 31
0.0
  0
LINE
  5
B87
330
1F
100
AcDbEntity
  8
0
  6
CUSTOM
 62
    18
420
        0
370
     9
100
AcDbLine
 10
684.2886088919722
 20
667.715256461193
 30
0.0
 11
684.0349404174238
 21
668.0613413883464
 31
0.0
  0
LINE
  5
B88
330
1F
100
AcDbEntity
  8
0
  6
CUSTOM
 62
    18
420
        0
370
     9
100
AcDbLine
 10
690.4219872898893
 20
671.2202767836328
 30
0.0
 11
690.5278831039203
 21
670.8871905679272
 31
0.0
  0
LINE
  5
B89
330
1F
100
AcDbEntity
  8
0
  6
CUSTOM
 62
    18
420
        0
370
     9
100
AcDbLine
 10
683.8307316540804
 20
668.4339756425463
 30
0.0
 11
683.6677119871827
 21
668.8265950621536
 31
0.0
  0
LINE
  5
B8A
330
1F
100
AcDbEntity
  8
0
  6
CUSTOM
 62
    18
420
        0
370
     9
100
AcDbLine
 10
690.6008995623132
 20
670.5320683504643
 30
0.0
 11
690.6386605991073
 21
670.1653408227615
 31
0.0
  0
LINE
  5
B8B
330
1F
100
AcDbEntity
  8
0
  6
CUSTOM
 62
    18
420
        0
370
     9
100
AcDbLine
 10
690.638598243061
 20
669.8280021599627
 30
0.0
 11
690.5784254270793
 21
669.3267789907252
 31
0.0
  0
LINE
  5
B8C
330
1F
100
AcDbEntity
  8
0
  6
CUSTOM
 62
    18
420
        0
370
     9
100
AcDbLine
 10
685.6341132888529
 20
666.7001071724756
 30
0.0
 11
685.2528069079735
 21
666.8891987495288
 31
0.0
  0
LINE
  5
B8D
330
1F
100
AcDbEntity
  8
0
  6
CUSTOM
 62
    18
420
        0
370
     9
100
AcDbLine
 10
689.7303152681169
 20
667.5817633386349
 30
0.0
 11
689.2111615548665
 21
667.1130002270427
 31
0.0
  0
LINE
  5
B8E
330
1F
100
AcDbEntity
  8
0
  6
CUSTOM
 62
    18
420
        0
370
     9
100
AcDbLine
 10
684.9014110428314
 20
667.1268064178027
 30
0.0
 11
684.573139275998
 21
667.4029279938397
 31
0.0
  0
LINE
  5
B8F
330
1F
100
AcDbEntity
  8
0
  6
CUSTOM
 62
    18
420
        0
370
     9
100
AcDbLine
 10
690.2272347201077
 20
668.2889838152426
 30
0.0
 11
689.7792700640537
 21
667.6305295139011
 31
0.0
  0
LINE
  5
B90
330
1F
100
AcDbEntity
  8
0
  6
CUSTOM
 62
    18
420
        0
370
     9
100
AcDbLine
 10
683.4790890583034
 20
670.088718577345
 30
0.0
 11
683.515092474553
 21
670.5144334776554
 31
0.0
  0
LINE
  5
B91
330
1F
100
AcDbEntity
  8
0
  6
CUSTOM
 62
    18
420
        0
370
     9
100
AcDbLine
 10
686.6586225415002
 20
673.5423103083225
 30
0.0
 11
687.0831484686831
 21
673.5646881737594
 31
0.0
  0
LINE
  5
B92
330
1F
100
AcDbEntity
  8
0
  6
CUSTOM
 62
    18
420
        0
370
     9
100
AcDbLine
 10
684.4224384184443
 20
672.4079909472193
 30
0.0
 11
684.7306682391273
 21
672.7065994374596
 31
0.0
  0
LINE
  5
B93
330
1F
100
AcDbEntity
  8
0
  6
CUSTOM
 62
    18
420
        0
370
     9
100
AcDbLine
 10
685.8291571526852
 20
673.3472566743119
 30
0.0
 11
686.2354421070913
 21
673.4692162640391
 31
0.0
  0
LINE
  5
B94
330
1F
100
AcDbEntity
  8
0
  6
CUSTOM
 62
    18
420
        0
370
     9
100
AcDbLine
 10
687.3965350822644
 20
666.4151000121733
 30
0.0
 11
686.8749576919535
 21
666.4059429788826
 31
0.0
  0
LINE
  5
B95
330
1F
100
AcDbEntity
  8
0
  6
CUSTOM
 62
    18
420
        0
370
     9
100
AcDbLine
 10
690.5185461780265
 20
669.0345375824295
 30
0.0
 11
690.3217253859393
 21
668.509154412964
 31
0.0
  0
LWPOLYLINE
  5
B96
330
1F
100
AcDbEntity
  8
0
  6
CUSTOM
 62
    18
420
        0
370
     9
100
AcDbPolyline
 90
        9
 70
     0
 43
0.0
 10
1166.6837190137
 20
670.2340301872067
 10
1166.6837190137
 20
683.2340299984541
 10
1163.696544213878
 20
683.2340299984541
 10
1160.296483815816
 20
683.2340299984541
 10
1156.683719050151
 20
683.2340299984541
 10
1153.070954284482
 20
683.2340299984541
 10
1149.67089388642
 20
683.2340299984541
 10
1146.683719086602
 20
683.2340299984541
 10
1146.683719086602
 20
670.2340301872067
  0
LWPOLYLINE
  5
B97
330
1F
100
AcDbEntity
  8
0
  6
CUSTOM
 62
    18
420
        0
370
     9
100
AcDbPolyline
 90
       21
 70
     0
 43
0.0
 10
1168.770841601038
 20
700.0478930066702
 10
1169.079745356916
 20
701.6635036472707
 10
1169.18211890218
 20
703.0340297109692
 10
1169.367473521734
 20
703.0340297109692
 10
1170.407904722363
 20
700.0478930066702
 10
1171.592676831475
 20
693.2074902394758
 10
1171.68246978656
 20
673.5789969108491
 10
1171.648234542473
 20
673.4334589693546
 10
1171.573883778167
 20
673.0948245224798
 10
1171.475222771917
 20
672.581826983225
 10
1171.374069217533
 20
671.9242079369104
 10
1171.292561255715
 20
671.1567572361347
 10
1171.249187303197
 20
670.3198938362967
 10
1171.25474295195
 20
669.4629911431457
 10
1171.307470081002
 20
668.6386089364503
 10
1171.394891412471
 20
667.8915981837726
 10
1171.497571607065
 20
667.2619122332001
 10
1171.592548214118
 20
666.7849730312862
 10
1171.659468960747
 20
666.4862547851112
 10
1171.683718995474
 20
666.3840302431067
 10
1171.678950710074
 20
658.2845055776687
  0
LWPOLYLINE
  5
B98
330
1F
100
AcDbEntity
  8
0
  6
CUSTOM
 62
    18
420
        0
370
     9
100
AcDbPolyline
 90
        9
 70
     0
 43
0.0
 10
1164.148201815841
 20
693.2074902394759
 10
1162.067074275072
 20
691.9531174281687
 10
1159.676095505428
 20
691.0986328617332
 10
1157.345897777909
 20
690.7520734500384
 10
1155.967568901745
 20
690.7551397726932
 10
1154.38382746198
 20
690.9491227442891
 10
1152.856048198636
 20
691.3345618272437
 10
1151.423487164365
 20
691.8947505249085
 10
1150.277725107621
 20
692.5003426970325
  0
LWPOLYLINE
  5
B99
330
1F
100
AcDbEntity
  8
0
  6
CUSTOM
 62
    18
420
        0
370
     9
100
AcDbPolyline
 90
        4
 70
     0
 43
0.0
 10
1168.316146349822
 20
698.6720449914119
 10
1167.642359614546
 20
697.2420027700474
 10
1166.186266078409
 20
695.1223707887737
 10
1164.148201815841
 20
693.2074902394759
  0
LWPOLYLINE
  5
B9A
330
1F
100
AcDbEntity
  8
0
  6
CUSTOM
 62
    18
420
        0
370
     9
100
AcDbPolyline
 90
        9
 70
     0
 43
0.0
 10
1146.048099881273
 20
666.4832934381189
 10
1145.47505849173
 20
664.9779209215438
 10
1144.693913313519
 20
663.3514751345917
 10
1143.781924226371
 20
661.7342297196246
 10
1142.938100101996
 20
660.3623056794167
 10
1142.253408064397
 20
659.2859353857919
 10
1141.89603445762
 20
658.7060568560532
 10
1141.709800058929
 20
658.3511539528687
 10
1141.694121854459
 20
658.2394374698923
  0
LWPOLYLINE
  5
B9B
330
1F
100
AcDbEntity
  8
0
  6
CUSTOM
 62
    18
420
        0
370
     9
100
AcDbPolyline
 90
        8
 70
     0
 43
0.0
 10
1171.678950710074
 20
658.2845055776687
 10
1171.501474673015
 20
658.6542326919932
 10
1171.163219968973
 20
659.2080993607257
 10
1170.723654017695
 20
659.8985804645264
 10
1169.998273976484
 20
661.053252818969
 10
1169.071682617133
 20
662.6200354898543
 10
1168.137082934959
 20
664.4327045853311
 10
1167.320811559854
 20
666.4797722122385
  0
LINE
  5
B9C
330
1F
100
AcDbEntity
  8
0
  6
CUSTOM
 62
    18
420
        0
370
     9
100
AcDbLine
 10
1146.683719086602
 20
670.2340301872067
 30
0.0
 11
1146.509033219187
 21
668.3070367884531
 31
0.0
  0
LINE
  5
B9D
330
1F
100
AcDbEntity
  8
0
  6
CUSTOM
 62
    18
420
        0
370
     9
100
AcDbLine
 10
1141.694121854459
 20
658.2394374698923
 30
0.0
 11
1141.683719104826
 21
664.8340302656118
 31
0.0
  0
LINE
  5
B9E
330
1F
100
AcDbEntity
  8
0
  6
CUSTOM
 62
    18
420
        0
370
     9
100
AcDbLine
 10
1166.859094892757
 20
668.3062056629133
 30
0.0
 11
1166.6837190137
 21
670.2340301872067
 31
0.0
  0
LWPOLYLINE
  5
B9F
330
1F
100
AcDbEntity
  8
0
  6
CUSTOM
 62
    18
420
        0
370
     9
100
AcDbPolyline
 90
        9
 70
     0
 43
0.0
 10
1141.694121854459
 20
658.2394374698923
 10
1146.683719086602
 20
658.2796939836762
 10
1146.683719086602
 20
658.3680604447923
 10
1146.683719086602
 20
659.1190668692661
 10
1146.683719086602
 20
660.4907742600829
 10
1146.683719086602
 20
662.4065813655197
 10
1146.683719086602
 20
664.759502378456
 10
1146.683719086602
 20
667.4181414224793
 10
1146.683719086602
 20
670.2340301872067
  0
LWPOLYLINE
  5
BA0
330
1F
100
AcDbEntity
  8
0
  6
CUSTOM
 62
    18
420
        0
370
     9
100
AcDbPolyline
 90
       10
 70
     0
 43
0.0
 10
1166.6837190137
 20
670.2340301872067
 10
1166.6837190137
 20
667.4181414224793
 10
1166.6837190137
 20
664.759502378456
 10
1166.6837190137
 20
662.4065813655197
 10
1166.6837190137
 20
660.4907742600829
 10
1166.6837190137
 20
659.1190668692661
 10
1166.6837190137
 20
658.3680604447923
 10
1166.6837190137
 20
658.2796939836762
 10
1171.567260290064
 20
658.2796939836762
 10
1171.678950710074
 20
658.2845055776687
  0
LINE
  5
BA1
330
1F
100
AcDbEntity
  8
0
  6
CUSTOM
 62
    18
420
        0
370
     9
100
AcDbLine
 10
1159.43281166225
 20
691.0624503923858
 30
0.0
 11
1159.915838396376
 21
691.1843118326538
 31
0.0
  0
LINE
  5
BA2
330
1F
100
AcDbEntity
  8
0
  6
CUSTOM
 62
    18
420
        0
370
     9
100
AcDbLine
 10
1166.058734436535
 20
695.0025473496042
 30
0.0
 11
1166.240682277693
 21
695.2015843204999
 31
0.0
  0
LINE
  5
BA3
330
1F
100
AcDbEntity
  8
0
  6
CUSTOM
 62
    18
420
        0
370
     9
100
AcDbLine
 10
1159.645015874547
 20
691.0940105342533
 30
0.0
 11
1159.701206904111
 21
691.1076071354263
 31
0.0
  0
LINE
  5
BA4
330
1F
100
AcDbEntity
  8
0
  6
CUSTOM
 62
    18
420
        0
370
     9
100
AcDbLine
 10
1166.843731985081
 20
696.0794423839399
 30
0.0
 11
1167.795760591229
 21
697.5675803666375
 31
0.0
  0
LINE
  5
BA5
330
1F
100
AcDbEntity
  8
0
  6
CUSTOM
 62
    18
420
        0
370
     9
100
AcDbLine
 10
1171.48371899595
 20
672.6206667770992
 30
0.0
 11
1171.540213524214
 21
672.9197527480651
 31
0.0
  0
LINE
  5
BA6
330
1F
100
AcDbEntity
  8
0
  6
CUSTOM
 62
    18
420
        0
370
     9
100
AcDbLine
 10
1157.200250513019
 20
690.7523974663381
 30
0.0
 11
1157.420704354998
 21
690.7631990839011
 31
0.0
  0
LINE
  5
BA7
330
1F
100
AcDbEntity
  8
0
  6
CUSTOM
 62
    18
420
        0
370
     9
100
AcDbLine
 10
1145.371286409338
 20
697.9928896313842
 30
0.0
 11
1145.571677530687
 21
697.5675803319949
 31
0.0
  0
LINE
  5
BA8
330
1F
100
AcDbEntity
  8
0
  6
CUSTOM
 62
    18
420
        0
370
     9
100
AcDbLine
 10
1142.433719103554
 20
667.9302688263101
 30
0.0
 11
1142.407437852481
 21
667.7435665657042
 31
0.0
  0
LINE
  5
BA9
330
1F
100
AcDbEntity
  8
0
  6
CUSTOM
 62
    18
420
        0
370
     9
100
AcDbLine
 10
1141.962569810589
 20
665.7144770828123
 30
0.0
 11
1141.878280197276
 21
665.4287737428679
 31
0.0
  0
LINE
  5
BAA
330
1F
100
AcDbEntity
  8
0
  6
CUSTOM
 62
    18
420
        0
370
     9
100
AcDbLine
 10
1167.996151685381
 20
697.9928896186331
 30
0.0
 11
1168.770841601038
 21
700.0478930066702
 31
0.0
  0
LINE
  5
BAB
330
1F
100
AcDbEntity
  8
0
  6
CUSTOM
 62
    18
420
        0
370
     9
100
AcDbLine
 10
1154.379218569784
 20
690.950285508695
 30
0.0
 11
1154.39498113818
 21
690.9477565975163
 31
0.0
  0
LINE
  5
BAC
330
1F
100
AcDbEntity
  8
0
  6
CUSTOM
 62
    18
420
        0
370
     9
100
AcDbLine
 10
1141.717852089779
 20
664.9297430704242
 30
0.0
 11
1141.683719104826
 21
664.8340302656118
 31
0.0
  0
LINE
  5
BAD
330
1F
100
AcDbEntity
  8
0
  6
CUSTOM
 62
    18
420
        0
370
     9
100
AcDbLine
 10
1142.361916991008
 20
672.5121090554847
 30
0.0
 11
1142.433719103154
 21
672.0438538041597
 31
0.0
  0
LINE
  5
BAE
330
1F
100
AcDbEntity
  8
0
  6
CUSTOM
 62
    18
420
        0
370
     9
100
AcDbLine
 10
1146.523706129407
 20
696.0794423626261
 30
0.0
 11
1147.126755859049
 21
695.2015842707388
 31
0.0
  0
LINE
  5
BAF
330
1F
100
AcDbEntity
  8
0
  6
CUSTOM
 62
    18
420
        0
370
     9
100
AcDbLine
 10
1168.770841601038
 20
700.0478930066702
 30
0.0
 11
1169.079932345262
 21
701.666007026085
 31
0.0
  0
LINE
  5
BB0
330
1F
100
AcDbEntity
  8
0
  6
CUSTOM
 62
    18
420
        0
370
     9
100
AcDbLine
 10
1142.328968384378
 20
667.2713396455937
 30
0.0
 11
1142.23884249771
 21
666.8237057610898
 31
0.0
  0
LINE
  5
BB1
330
1F
100
AcDbEntity
  8
0
  6
CUSTOM
 62
    18
420
        0
370
     9
100
AcDbLine
 10
1164.148201815841
 20
693.2074902394759
 30
0.0
 11
1161.183804571744
 21
691.6374557515958
 31
0.0
  0
LINE
  5
BB2
330
1F
100
AcDbEntity
  8
0
  6
CUSTOM
 62
    18
420
        0
370
     9
100
AcDbLine
 10
1154.399204938402
 20
690.9472392495363
 30
0.0
 11
1154.355390891454
 21
690.9562969255394
 31
0.0
  0
LINE
  5
BB3
330
1F
100
AcDbEntity
  8
0
  6
CUSTOM
 62
    18
420
        0
370
     9
100
AcDbLine
 10
1152.521385397501
 20
691.4654283762455
 30
0.0
 11
1149.219236284459
 21
693.2074902394758
 31
0.0
  0
LINE
  5
BB4
330
1F
100
AcDbEntity
  8
0
  6
CUSTOM
 62
    18
420
        0
370
     9
100
AcDbLine
 10
1171.499681575321
 20
667.2513167127831
 30
0.0
 11
1171.492290961806
 21
667.2942957725481
 31
0.0
  0
LINE
  5
BB5
330
1F
100
AcDbEntity
  8
0
  6
CUSTOM
 62
    18
420
        0
370
     9
100
AcDbLine
 10
1153.934626421737
 20
691.0624503957917
 30
0.0
 11
1155.965790049092
 21
690.7603649274907
 31
0.0
  0
LINE
  5
BB6
330
1F
100
AcDbEntity
  8
0
  6
CUSTOM
 62
    18
420
        0
370
     9
100
AcDbLine
 10
1156.683719043701
 20
690.7535465771342
 30
0.0
 11
1157.24938665659
 21
690.7548049991596
 31
0.0
  0
LINE
  5
BB7
330
1F
100
AcDbEntity
  8
0
  6
CUSTOM
 62
    18
420
        0
370
     9
100
AcDbLine
 10
1142.141130961193
 20
666.3905901213031
 30
0.0
 11
1142.047550237813
 21
666.0254237369512
 31
0.0
  0
LINE
  5
BB8
330
1F
100
AcDbEntity
  8
0
  6
CUSTOM
 62
    18
420
        0
370
     9
100
AcDbLine
 10
1141.809395299085
 20
665.2061344028123
 30
0.0
 11
1141.740292549969
 21
664.9959021689523
 31
0.0
  0
LINE
  5
BB9
330
1F
100
AcDbEntity
  8
0
  6
CUSTOM
 62
    18
420
        0
370
     9
100
AcDbLine
 10
1142.182507750339
 20
673.4029138414647
 30
0.0
 11
1142.278129465991
 21
672.9547691535822
 31
0.0
  0
LINE
  5
BBA
330
1F
100
AcDbEntity
  8
0
  6
CUSTOM
 62
    18
420
        0
370
     9
100
AcDbLine
 10
1147.308703629977
 20
695.0025473856424
 30
0.0
 11
1149.219236284459
 21
693.2074902394758
 31
0.0
  0
LINE
  5
BBB
330
1F
100
AcDbEntity
  8
0
  6
CUSTOM
 62
    18
420
        0
370
     9
100
AcDbLine
 10
1152.219801754797
 20
691.6245300184487
 30
0.0
 11
1153.451599645072
 21
691.1843118535824
 31
0.0
  0
LINE
  5
BBC
330
1F
100
AcDbEntity
  8
0
  6
CUSTOM
 62
    18
420
        0
370
     9
100
AcDbLine
 10
1156.036644846242
 20
690.7549861017166
 30
0.0
 11
1155.858269978353
 21
690.7685271415105
 31
0.0
  0
LINE
  5
BBD
330
1F
100
AcDbEntity
  8
0
  6
CUSTOM
 62
    18
420
        0
370
     9
100
AcDbLine
 10
1152.844074396961
 20
691.3392440629872
 30
0.0
 11
1152.871490469616
 21
691.3306659407878
 31
0.0
  0
LINE
  5
BBE
330
1F
100
AcDbEntity
  8
0
  6
CUSTOM
 62
    18
420
        0
370
     9
100
AcDbLine
 10
1157.422807762964
 20
690.7635119133312
 30
0.0
 11
1157.410805692293
 21
690.7627140770356
 31
0.0
  0
LINE
  5
BBF
330
1F
100
AcDbEntity
  8
0
  6
CUSTOM
 62
    18
420
        0
370
     9
100
AcDbLine
 10
1146.783719086236
 20
659.1114701104229
 30
0.0
 11
1146.683719084057
 21
659.1017027209431
 31
0.0
  0
LWPOLYLINE
  5
BC0
330
1F
100
AcDbEntity
  8
0
  6
CUSTOM
 62
    18
420
        0
370
     9
100
AcDbPolyline
 90
       32
 70
     1
 43
0.0
 10
1144.210823267775
 20
654.3149040011143
 10
1142.587863777914
 20
654.5940862547572
 10
1141.772744269735
 20
654.8988876422395
 10
1141.794164200349
 20
658.2402446201657
 10
1141.794164200349
 20
657.9709594898506
 10
1142.667990419818
 20
657.6635449083981
 10
1144.364360448401
 20
657.383464976833
 10
1146.783719086236
 20
657.1471568009148
 10
1146.783719086236
 20
675.4945304799727
 10
1146.783719086236
 20
678.0610726121226
 10
1146.783719086236
 20
680.2049466429694
 10
1146.783719086236
 20
681.8182975565405
 10
1146.783719086236
 20
682.8199601416106
 10
1146.783719086236
 20
683.1595422890558
 10
1166.583719014065
 20
683.1595422890558
 10
1166.583719014065
 20
682.8199601416106
 10
1166.583719014065
 20
681.8182975565405
 10
1166.583719014065
 20
680.2049466429694
 10
1166.583719014065
 20
678.0610726121226
 10
1166.583719014065
 20
675.4945304799727
 10
1166.583719014065
 20
657.1471568009148
 10
1169.0030776519
 20
657.383464976833
 10
1170.699447680482
 20
657.6635449083981
 10
1171.573273899953
 20
657.9709594898506
 10
1171.573322647987
 20
658.2799551485472
 10
1171.594693830567
 20
654.8988876422395
 10
1170.779574322389
 20
654.5940862547572
 10
1169.156614832524
 20
654.3149040011143
 10
1166.818827919577
 20
654.0773409453245
 10
1163.900193232211
 20
653.8950119359324
 10
1149.467244868089
 20
653.8950119359324
 10
1146.548610180722
 20
654.0773409453245
  0
LWPOLYLINE
  5
BC1
330
1F
100
AcDbEntity
  8
0
  6
CUSTOM
 62
    18
420
        0
370
     9
100
AcDbPolyline
 90
        5
 70
     0
 43
0.0
 10
1142.43371910209
 20
667.90172634707
 10
1142.43371910209
 20
668.9510388005844
 10
1142.43371910209
 20
670.1518188011091
 10
1142.43371910209
 20
671.3428475374914
 10
1142.43371910209
 20
672.0528095564532
  0
LINE
  5
BC2
330
1F
100
AcDbEntity
  8
0
  6
CUSTOM
 62
    18
420
        0
370
     9
100
AcDbLine
 10
1171.642673719933
 20
673.4081319120783
 30
0.0
 11
1171.663049487025
 21
673.4964389945762
 31
0.0
  0
LINE
  5
BC3
330
1F
100
AcDbEntity
  8
0
  6
CUSTOM
 62
    18
420
        0
370
     9
100
AcDbLine
 10
1141.834537839563
 20
674.6830082175634
 30
0.0
 11
1141.912184448218
 21
674.4261899291741
 31
0.0
  0
LINE
  5
BC4
330
1F
100
AcDbEntity
  8
0
  6
CUSTOM
 62
    18
420
        0
370
     9
100
AcDbLine
 10
1166.683718946647
 20
671.9721837477667
 30
0.0
 11
1166.583718952973
 21
671.9721837477667
 31
0.0
  0
LINE
  5
BC5
330
1F
100
AcDbEntity
  8
0
  6
CUSTOM
 62
    18
420
        0
370
     9
100
AcDbLine
 10
1141.721403554968
 20
675.0276072859604
 30
0.0
 11
1141.772970161279
 21
674.8738985976042
 31
0.0
  0
LINE
  5
BC6
330
1F
100
AcDbEntity
  8
0
  6
CUSTOM
 62
    18
420
        0
370
     9
100
AcDbLine
 10
1146.683719076976
 20
673.9688089253466
 30
0.0
 11
1146.783719095477
 21
673.9688089253466
 31
0.0
  0
LINE
  5
BC7
330
1F
100
AcDbEntity
  8
0
  6
CUSTOM
 62
    18
420
        0
370
     9
100
AcDbLine
 10
1171.571788882275
 20
673.0839319066299
 30
0.0
 11
1171.588509537309
 21
673.1614383079303
 31
0.0
  0
LINE
  5
BC8
330
1F
100
AcDbEntity
  8
0
  6
CUSTOM
 62
    18
420
        0
370
     9
100
AcDbLine
 10
1166.683718989204
 20
659.1017027235842
 30
0.0
 11
1166.583719014065
 21
659.1114701104229
 31
0.0
  0
LINE
  5
BC9
330
1F
100
AcDbEntity
  8
0
  6
CUSTOM
 62
    18
420
        0
370
     9
100
AcDbLine
 10
1166.583719127312
 20
667.9967201549438
 30
0.0
 11
1166.68371912099
 21
667.9967201549438
 31
0.0
  0
LINE
  5
BCA
330
1F
100
AcDbEntity
  8
0
  6
CUSTOM
 62
    18
420
        0
370
     9
100
AcDbLine
 10
1171.666668840726
 20
666.4559041303058
 30
0.0
 11
1171.652799286988
 21
666.5160266174102
 31
0.0
  0
LINE
  5
BCB
330
1F
100
AcDbEntity
  8
0
  6
CUSTOM
 62
    18
420
        0
370
     9
100
AcDbLine
 10
1141.997000885711
 20
674.1312702700959
 30
0.0
 11
1142.081763027833
 21
673.8117526497167
 31
0.0
  0
LINE
  5
BCC
330
1F
100
AcDbEntity
  8
0
  6
CUSTOM
 62
    18
420
        0
370
     9
100
AcDbLine
 10
1171.610818894171
 20
666.7034170748775
 30
0.0
 11
1171.584508460307
 21
666.8253458551127
 31
0.0
  0
LINE
  5
BCD
330
1F
100
AcDbEntity
  8
0
  6
CUSTOM
 62
    18
420
        0
370
     9
100
AcDbLine
 10
1146.783718570183
 20
665.9992514563266
 30
0.0
 11
1146.683719602267
 21
665.9992514563266
 31
0.0
  0
LINE
  5
C58
330
1F
100
AcDbEntity
  8
VD
100
AcDbLine
 10
1109.096187316038
 20
784.7356366870848
 30
0.0000000000000152
 11
1109.296187316038
 21
784.9356366870847
 31
0.0000000000000152
  0
LINE
  5
C59
330
1F
100
AcDbEntity
  8
VD
100
AcDbLine
 10
1115.096187316037
 20
783.2356366870848
 30
0.0000000000000152
 11
1149.296701316038
 21
783.2356366870848
 31
0.0000000000000152
  0
LINE
  5
C5A
330
1F
100
AcDbEntity
  8
VD
100
AcDbLine
 10
1164.295671316038
 20
783.2356366870848
 30
0.0000000000000152
 11
1198.496187316039
 21
783.2356366870848
 31
0.0000000000000152
  0
LINE
  5
C5B
330
1F
100
AcDbEntity
  8
VD
100
AcDbLine
 10
1109.296187316038
 20
826.5356366870847
 30
0.0000000000000152
 11
1109.096187316038
 21
826.7356366870847
 31
0.0000000000000152
  0
LINE
  5
C5C
330
1F
100
AcDbEntity
  8
VD
100
AcDbLine
 10
1106.496187316037
 20
826.7356366870847
 30
0.0000000000000152
 11
1106.296187316038
 21
826.5356366870847
 31
0.0000000000000152
  0
LINE
  5
C5D
330
1F
100
AcDbEntity
  8
VD
100
AcDbLine
 10
1106.296187316038
 20
784.9356366870847
 30
0.0000000000000152
 11
1106.496187316037
 21
784.7356366870848
 31
0.0000000000000152
  0
LINE
  5
C5E
330
1F
100
AcDbEntity
  8
VD
100
AcDbLine
 10
1109.096187316038
 20
826.7356366870847
 30
0.0000000000000152
 11
1106.496187316037
 21
826.7356366870847
 31
0.0000000000000152
  0
LINE
  5
C5F
330
1F
100
AcDbEntity
  8
VD
100
AcDbLine
 10
1106.496187316037
 20
784.7356366870848
 30
0.0000000000000152
 11
1109.096187316038
 21
784.7356366870848
 31
0.0000000000000152
  0
LINE
  5
C60
330
1F
100
AcDbEntity
  8
VD
100
AcDbLine
 10
1207.096187316037
 20
784.7356366870848
 30
0.0000000000000152
 11
1207.296187316038
 21
784.9356366870847
 31
0.0000000000000152
  0
LINE
  5
C61
330
1F
100
AcDbEntity
  8
VD
100
AcDbLine
 10
1207.296187316038
 20
826.5356366870847
 30
0.0000000000000152
 11
1207.096187316037
 21
826.7356366870847
 31
0.0000000000000152
  0
LINE
  5
C62
330
1F
100
AcDbEntity
  8
VD
100
AcDbLine
 10
1204.496187316039
 20
826.7356366870847
 30
0.0000000000000152
 11
1204.296187316038
 21
826.5356366870847
 31
0.0000000000000152
  0
LINE
  5
C63
330
1F
100
AcDbEntity
  8
VD
100
AcDbLine
 10
1204.296187316038
 20
784.9356366870847
 30
0.0000000000000152
 11
1204.496187316039
 21
784.7356366870848
 31
0.0000000000000152
  0
LINE
  5
C64
330
1F
100
AcDbEntity
  8
VD
100
AcDbLine
 10
1204.496187316039
 20
784.7356366870848
 30
0.0000000000000152
 11
1207.096187316037
 21
784.7356366870848
 31
0.0000000000000152
  0
LINE
  5
C65
330
1F
100
AcDbEntity
  8
VD
100
AcDbLine
 10
1207.096187316037
 20
826.7356366870847
 30
0.0000000000000152
 11
1204.496187316039
 21
826.7356366870847
 31
0.0000000000000152
  0
LINE
  5
C66
330
1F
100
AcDbEntity
  8
VD
100
AcDbLine
 10
1198.796187316038
 20
784.7356366870848
 30
0.0000000000000152
 11
1199.296187316038
 21
785.2356366870846
 31
0.0000000000000152
  0
LINE
  5
C67
330
1F
100
AcDbEntity
  8
VD
100
AcDbLine
 10
1199.296187316038
 20
826.2356366870848
 30
0.0000000000000152
 11
1198.796187316038
 21
826.7356366870847
 31
0.0000000000000152
  0
LINE
  5
C68
330
1F
100
AcDbEntity
  8
VD
100
AcDbLine
 10
1198.496187316039
 20
828.2356366870846
 30
0.0000000000000152
 11
1115.096187316037
 21
828.2356366870846
 31
0.0000000000000152
  0
LINE
  5
C69
330
1F
100
AcDbEntity
  8
VD
100
AcDbLine
 10
1114.796187316038
 20
826.7356366870847
 30
0.0000000000000152
 11
1114.296187316038
 21
826.2356366870848
 31
0.0000000000000152
  0
LINE
  5
C6A
330
1F
100
AcDbEntity
  8
VD
100
AcDbLine
 10
1114.296187316038
 20
785.2356366870846
 30
0.0000000000000152
 11
1114.796187316038
 21
784.7356366870848
 31
0.0000000000000152
  0
LINE
  5
C6B
330
1F
100
AcDbEntity
  8
VD
100
AcDbLine
 10
1152.796187316038
 20
789.4300726870848
 30
0.0000000000000152
 11
1152.796187316038
 21
789.8579126870847
 31
0.0000000000000152
  0
LINE
  5
C6C
330
1F
100
AcDbEntity
  8
VD
100
AcDbLine
 10
1160.796187316038
 20
789.4300726870848
 30
0.0000000000000152
 11
1160.796187316038
 21
789.8580306870846
 31
0.0000000000000152
  0
LINE
  5
C6D
330
1F
100
AcDbEntity
  8
VD
100
AcDbLine
 10
1152.796187316038
 20
789.4300726870848
 30
0.0000000000000152
 11
1152.796187316038
 21
789.8579126870847
 31
0.0000000000000152
  0
LINE
  5
C6E
330
1F
100
AcDbEntity
  8
VD
100
AcDbLine
 10
1160.796187316038
 20
789.4300726870848
 30
0.0000000000000152
 11
1160.796187316038
 21
789.8580306870846
 31
0.0000000000000152
  0
LINE
  5
C6F
330
1F
100
AcDbEntity
  8
VD
100
AcDbLine
 10
1109.096187316038
 20
805.7356366870846
 30
0.0000000000000152
 11
1109.096187316038
 21
826.7356366870847
 31
0.0000000000000152
  0
LINE
  5
C70
330
1F
100
AcDbEntity
  8
VD
100
AcDbLine
 10
1109.096187316038
 20
784.7356366870848
 30
0.0000000000000152
 11
1109.096187316038
 21
805.7356366870846
 31
0.0000000000000152
  0
LINE
  5
C71
330
1F
100
AcDbEntity
  8
VD
100
AcDbLine
 10
1106.496187316037
 20
784.7356366870848
 30
0.0000000000000152
 11
1106.496187316037
 21
826.7356366870847
 31
0.0000000000000152
  0
LINE
  5
C72
330
1F
100
AcDbEntity
  8
VD
100
AcDbLine
 10
1106.296187316038
 20
826.5356366870847
 30
0.0000000000000152
 11
1106.296187316038
 21
805.7356366870846
 31
0.0000000000000152
  0
LINE
  5
C73
330
1F
100
AcDbEntity
  8
VD
100
AcDbLine
 10
1106.296187316038
 20
805.7356366870846
 30
0.0000000000000152
 11
1106.296187316038
 21
784.9356366870847
 31
0.0000000000000152
  0
LINE
  5
C74
330
1F
100
AcDbEntity
  8
VD
100
AcDbLine
 10
1139.961965316039
 20
807.9265266870848
 30
0.0000000000000152
 11
1140.089803316039
 21
807.9265266870848
 31
0.0000000000000152
  0
LINE
  5
C75
330
1F
100
AcDbEntity
  8
VD
100
AcDbLine
 10
1173.502569316039
 20
807.9265266870848
 30
0.0000000000000152
 11
1173.615949316037
 21
807.9265266870848
 31
0.0000000000000152
  0
LINE
  5
C76
330
1F
100
AcDbEntity
  8
VD
100
AcDbLine
 10
1164.296187316038
 20
790.3274406870848
 30
0.0000000000000152
 11
1164.296187316038
 21
713.3856366870848
 31
0.0000000000000152
  0
LINE
  5
C77
330
1F
100
AcDbEntity
  8
VD
100
AcDbLine
 10
1162.296187316038
 20
714.6106088474066
 30
0.0000000000000152
 11
1162.296187316038
 21
789.5970966870848
 31
0.0000000000000152
  0
LINE
  5
C78
330
1F
100
AcDbEntity
  8
VD
100
AcDbLine
 10
1151.296187316038
 20
789.5970966870848
 30
0.0000000000000152
 11
1151.296187316038
 21
714.6106088474066
 31
0.0000000000000152
  0
LINE
  5
C79
330
1F
100
AcDbEntity
  8
VD
100
AcDbLine
 10
1149.296187316038
 20
713.3856366870848
 30
0.0000000000000152
 11
1149.296187316038
 21
790.3274406870848
 31
0.0000000000000152
  0
LINE
  5
C7A
330
1F
100
AcDbEntity
  8
VD
100
AcDbLine
 10
1162.231669316037
 20
789.7864046870847
 30
0.0000000000000152
 11
1162.296187316038
 21
789.5970966870848
 31
0.0000000000000152
  0
LINE
  5
C7B
330
1F
100
AcDbEntity
  8
VD
100
AcDbLine
 10
1151.360703316039
 20
789.7864046870847
 30
0.0000000000000152
 11
1151.296187316038
 21
789.5970966870848
 31
0.0000000000000152
  0
LINE
  5
C7C
330
1F
100
AcDbEntity
  8
VD
100
AcDbLine
 10
1114.496187316037
 20
655.2356366870847
 30
0.0000000000000152
 11
1199.096187316037
 21
655.2356366870847
 31
0.0000000000000152
  0
LINE
  5
C7D
330
1F
100
AcDbEntity
  8
VD
100
AcDbLine
 10
1114.496187316037
 20
858.2356366870849
 30
0.0000000000000152
 11
1114.496187316037
 21
826.4344186870847
 31
0.0000000000000152
  0
LINE
  5
C7E
330
1F
100
AcDbEntity
  8
VD
100
AcDbLine
 10
1114.496187316037
 20
785.0351046870847
 30
0.0000000000000152
 11
1114.496187316037
 21
655.2356366870847
 31
0.0000000000000152
  0
LINE
  5
C7F
330
1F
100
AcDbEntity
  8
VD
100
AcDbLine
 10
1199.096187316037
 20
858.2356366870849
 30
0.0000000000000152
 11
1114.496187316037
 21
858.2356366870849
 31
0.0000000000000152
  0
LINE
  5
C80
330
1F
100
AcDbEntity
  8
VD
100
AcDbLine
 10
1199.096187316037
 20
858.2356366870849
 30
0.0000000000000152
 11
1199.096187316037
 21
826.4344186870847
 31
0.0000000000000152
  0
LINE
  5
C81
330
1F
100
AcDbEntity
  8
VD
100
AcDbLine
 10
1199.096187316037
 20
785.0351046870847
 30
0.0000000000000152
 11
1199.096187316037
 21
655.2356366870847
 31
0.0000000000000152
  0
LINE
  5
C82
330
1F
100
AcDbEntity
  8
VD
100
AcDbLine
 10
1114.496187316037
 20
861.7356366870849
 30
0.0000000000000152
 11
1114.496187316037
 21
858.2356366870849
 31
0.0000000000000152
  0
LINE
  5
C83
330
1F
100
AcDbEntity
  8
VD
100
AcDbLine
 10
1114.496187316037
 20
861.7356366870849
 30
0.0000000000000152
 11
1199.096187316037
 21
861.7356366870849
 31
0.0000000000000152
  0
LINE
  5
C84
330
1F
100
AcDbEntity
  8
VD
100
AcDbLine
 10
1199.096187316037
 20
861.7356366870849
 30
0.0000000000000152
 11
1199.096187316037
 21
858.2356366870849
 31
0.0000000000000152
  0
LINE
  5
C85
330
1F
100
AcDbEntity
  8
VD
100
AcDbLine
 10
1199.096187316037
 20
651.7356366870846
 30
0.0000000000000152
 11
1114.496187316037
 21
651.7356366870846
 31
0.0000000000000152
  0
LINE
  5
C86
330
1F
100
AcDbEntity
  8
VD
100
AcDbLine
 10
1114.496187316037
 20
651.7356366870846
 30
0.0000000000000152
 11
1114.496187316037
 21
655.2356366870847
 31
0.0000000000000152
  0
LINE
  5
C87
330
1F
100
AcDbEntity
  8
VD
100
AcDbLine
 10
1199.096187316037
 20
651.7356366870846
 30
0.0000000000000152
 11
1199.096187316037
 21
655.2356366870847
 31
0.0000000000000152
  0
LINE
  5
C88
330
1F
100
AcDbEntity
  8
VD
100
AcDbLine
 10
1114.496187316037
 20
861.7356366870849
 30
0.0000000000000152
 11
1114.296149316038
 21
861.7356366870849
 31
0.0000000000000152
  0
LINE
  5
C89
330
1F
100
AcDbEntity
  8
VD
100
AcDbLine
 10
1114.496187316037
 20
860.2356366870846
 30
0.0000000000000152
 11
1114.296149316038
 21
860.2356366870846
 31
0.0000000000000152
  0
LINE
  5
C8A
330
1F
100
AcDbEntity
  8
VD
100
AcDbLine
 10
1199.096187316037
 20
861.7356366870849
 30
0.0000000000000152
 11
1199.296223316038
 21
861.7356366870849
 31
0.0000000000000152
  0
LINE
  5
C8B
330
1F
100
AcDbEntity
  8
VD
100
AcDbLine
 10
1199.096187316037
 20
860.2356366870846
 30
0.0000000000000152
 11
1199.296223316038
 21
860.2356366870846
 31
0.0000000000000152
  0
LINE
  5
C8C
330
1F
100
AcDbEntity
  8
VD
100
AcDbLine
 10
1207.096187316037
 20
805.7356366870846
 30
0.0000000000000152
 11
1207.096187316037
 21
826.7356366870847
 31
0.0000000000000152
  0
LINE
  5
C8D
330
1F
100
AcDbEntity
  8
VD
100
AcDbLine
 10
1207.096187316037
 20
784.7356366870848
 30
0.0000000000000152
 11
1207.096187316037
 21
805.7356366870846
 31
0.0000000000000152
  0
LINE
  5
C8E
330
1F
100
AcDbEntity
  8
VD
100
AcDbLine
 10
1207.296187316038
 20
826.5356366870847
 30
0.0000000000000152
 11
1207.296187316038
 21
784.9356366870847
 31
0.0000000000000152
  0
LINE
  5
C8F
330
1F
100
AcDbEntity
  8
VD
100
AcDbLine
 10
1204.496187316039
 20
784.7356366870848
 30
0.0000000000000152
 11
1204.496187316039
 21
826.7356366870847
 31
0.0000000000000152
  0
LINE
  5
C90
330
1F
100
AcDbEntity
  8
VD
100
AcDbLine
 10
1115.096187316037
 20
783.2356366870848
 30
0.0000000000000152
 11
1115.096187316037
 21
828.2356366870846
 31
0.0000000000000152
  0
LINE
  5
C91
330
1F
100
AcDbEntity
  8
VD
100
AcDbLine
 10
1198.496187316039
 20
828.2356366870846
 30
0.0000000000000152
 11
1198.496187316039
 21
805.7356366870846
 31
0.0000000000000152
  0
LINE
  5
C92
330
1F
100
AcDbEntity
  8
VD
100
AcDbLine
 10
1198.496187316039
 20
805.7356366870846
 30
0.0000000000000152
 11
1198.496187316039
 21
783.2356366870848
 31
0.0000000000000152
  0
LINE
  5
C93
330
1F
100
AcDbEntity
  8
VD
100
AcDbLine
 10
1198.796187316038
 20
827.9356366870848
 30
0.0000000000000152
 11
1198.796187316038
 21
783.5356366870848
 31
0.0000000000000152
  0
LINE
  5
C94
330
1F
100
AcDbEntity
  8
VD
100
AcDbLine
 10
1114.796187316038
 20
805.7356366870846
 30
0.0000000000000152
 11
1114.796187316038
 21
827.9356266870847
 31
0.0000000000000152
  0
LINE
  5
C95
330
1F
100
AcDbEntity
  8
VD
100
AcDbLine
 10
1114.796187316038
 20
783.5356366870848
 30
0.0000000000000152
 11
1114.796187316038
 21
805.7356366870846
 31
0.0000000000000152
  0
LINE
  5
C96
330
1F
100
AcDbEntity
  8
VD
100
AcDbLine
 10
1204.296187316038
 20
783.3356366870848
 30
0.0000000000000152
 11
1199.296187316038
 21
783.3356366870848
 31
0.0000000000000152
  0
LINE
  5
C97
330
1F
100
AcDbEntity
  8
VD
100
AcDbLine
 10
1199.296187316038
 20
828.1356366870848
 30
0.0000000000000152
 11
1204.296187316038
 21
828.1356366870848
 31
0.0000000000000152
  0
LINE
  5
C98
330
1F
100
AcDbEntity
  8
VD
100
AcDbLine
 10
1204.296187316038
 20
828.1356366870848
 30
0.0000000000000152
 11
1204.296187316038
 21
783.3356366870848
 31
0.0000000000000152
  0
LINE
  5
C99
330
1F
100
AcDbEntity
  8
VD
100
AcDbLine
 10
1199.296187316038
 20
783.3356366870848
 30
0.0000000000000152
 11
1199.296187316038
 21
828.1356366870848
 31
0.0000000000000152
  0
LINE
  5
C9A
330
1F
100
AcDbEntity
  8
VD
100
AcDbLine
 10
1114.296187316038
 20
783.3356366870848
 30
0.0000000000000152
 11
1109.296187316038
 21
783.3356366870848
 31
0.0000000000000152
  0
LINE
  5
C9B
330
1F
100
AcDbEntity
  8
VD
100
AcDbLine
 10
1109.296187316038
 20
828.1356366870848
 30
0.0000000000000152
 11
1114.296187316038
 21
828.1356366870848
 31
0.0000000000000152
  0
LINE
  5
C9C
330
1F
100
AcDbEntity
  8
VD
100
AcDbLine
 10
1109.296187316038
 20
783.3356366870848
 30
0.0000000000000152
 11
1109.296187316038
 21
828.1356366870848
 31
0.0000000000000152
  0
LINE
  5
C9D
330
1F
100
AcDbEntity
  8
VD
100
AcDbLine
 10
1114.296187316038
 20
828.1356366870848
 30
0.0000000000000152
 11
1114.296187316038
 21
783.3356366870848
 31
0.0000000000000152
  0
LINE
  5
C9E
330
1F
100
AcDbEntity
  8
VD
100
AcDbLine
 10
1114.296187316038
 20
779.8356366870848
 30
0.0000000000000152
 11
1109.296187316038
 21
779.8356366870848
 31
0.0000000000000152
  0
LINE
  5
C9F
330
1F
100
AcDbEntity
  8
VD
100
AcDbLine
 10
1109.296187316038
 20
779.8356366870848
 30
0.0000000000000152
 11
1109.296187316038
 21
783.3356366870848
 31
0.0000000000000152
  0
LINE
  5
CA0
330
1F
100
AcDbEntity
  8
VD
100
AcDbLine
 10
1114.296187316038
 20
783.3356366870848
 30
0.0000000000000152
 11
1114.296187316038
 21
779.8356366870848
 31
0.0000000000000152
  0
LINE
  5
CA1
330
1F
100
AcDbEntity
  8
VD
100
AcDbLine
 10
1204.296187316038
 20
779.8356366870848
 30
0.0000000000000152
 11
1199.296187316038
 21
779.8356366870848
 31
0.0000000000000152
  0
LINE
  5
CA2
330
1F
100
AcDbEntity
  8
VD
100
AcDbLine
 10
1204.296187316038
 20
783.3356366870848
 30
0.0000000000000152
 11
1204.296187316038
 21
779.8356366870848
 31
0.0000000000000152
  0
LINE
  5
CA3
330
1F
100
AcDbEntity
  8
VD
100
AcDbLine
 10
1199.296187316038
 20
779.8356366870848
 30
0.0000000000000152
 11
1199.296187316038
 21
783.3356366870848
 31
0.0000000000000152
  0
LINE
  5
CA4
330
1F
100
AcDbEntity
  8
VD
100
AcDbLine
 10
1109.296187316038
 20
831.6356366870847
 30
0.0000000000000152
 11
1114.296187316038
 21
831.6356366870847
 31
0.0000000000000152
  0
LINE
  5
CA5
330
1F
100
AcDbEntity
  8
VD
100
AcDbLine
 10
1109.296187316038
 20
828.1356366870848
 30
0.0000000000000152
 11
1109.296187316038
 21
831.6356366870847
 31
0.0000000000000152
  0
LINE
  5
CA6
330
1F
100
AcDbEntity
  8
VD
100
AcDbLine
 10
1114.296187316038
 20
831.6356366870847
 30
0.0000000000000152
 11
1114.296187316038
 21
828.1356366870848
 31
0.0000000000000152
  0
LINE
  5
CA7
330
1F
100
AcDbEntity
  8
VD
100
AcDbLine
 10
1199.296187316038
 20
831.6356366870847
 30
0.0000000000000152
 11
1204.296187316038
 21
831.6356366870847
 31
0.0000000000000152
  0
LINE
  5
CA8
330
1F
100
AcDbEntity
  8
VD
100
AcDbLine
 10
1204.296187316038
 20
831.6356366870847
 30
0.0000000000000152
 11
1204.296187316038
 21
828.1356366870848
 31
0.0000000000000152
  0
LINE
  5
CA9
330
1F
100
AcDbEntity
  8
VD
100
AcDbLine
 10
1199.296187316038
 20
828.1356366870848
 30
0.0000000000000152
 11
1199.296187316038
 21
831.6356366870847
 31
0.0000000000000152
  0
LINE
  5
CAA
330
1F
100
AcDbEntity
  8
VD
100
AcDbLine
 10
1109.296187316038
 20
655.2356366870847
 30
0.0000000000000152
 11
1114.296187316038
 21
655.2356366870847
 31
0.0000000000000152
  0
LINE
  5
CAB
330
1F
100
AcDbEntity
  8
VD
100
AcDbLine
 10
1109.296187316038
 20
779.8356366870848
 30
0.0000000000000152
 11
1109.296187316038
 21
655.2356366870847
 31
0.0000000000000152
  0
LINE
  5
CAC
330
1F
100
AcDbEntity
  8
VD
100
AcDbLine
 10
1114.296187316038
 20
779.8356366870848
 30
0.0000000000000152
 11
1114.296187316038
 21
655.2356366870847
 31
0.0000000000000152
  0
LINE
  5
CAD
330
1F
100
AcDbEntity
  8
VD
100
AcDbLine
 10
1199.296187316038
 20
655.2356366870847
 30
0.0000000000000152
 11
1204.296187316038
 21
655.2356366870847
 31
0.0000000000000152
  0
LINE
  5
CAE
330
1F
100
AcDbEntity
  8
VD
100
AcDbLine
 10
1204.296187316038
 20
651.7356366870846
 30
0.0000000000000152
 11
1199.296187316038
 21
651.7356366870846
 31
0.0000000000000152
  0
LINE
  5
CAF
330
1F
100
AcDbEntity
  8
VD
100
AcDbLine
 10
1204.296187316038
 20
655.2356366870847
 30
0.0000000000000152
 11
1204.296187316038
 21
651.7356366870846
 31
0.0000000000000152
  0
LINE
  5
CB0
330
1F
100
AcDbEntity
  8
VD
100
AcDbLine
 10
1199.296187316038
 20
651.7356366870846
 30
0.0000000000000152
 11
1199.296187316038
 21
655.2356366870847
 31
0.0000000000000152
  0
LINE
  5
CB1
330
1F
100
AcDbEntity
  8
VD
100
AcDbLine
 10
1114.296187316038
 20
651.7356366870846
 30
0.0000000000000152
 11
1109.296187316038
 21
651.7356366870846
 31
0.0000000000000152
  0
LINE
  5
CB2
330
1F
100
AcDbEntity
  8
VD
100
AcDbLine
 10
1109.296187316038
 20
651.7356366870846
 30
0.0000000000000152
 11
1109.296187316038
 21
655.2356366870847
 31
0.0000000000000152
  0
LINE
  5
CB3
330
1F
100
AcDbEntity
  8
VD
100
AcDbLine
 10
1114.296187316038
 20
655.2356366870847
 30
0.0000000000000152
 11
1114.296187316038
 21
651.7356366870846
 31
0.0000000000000152
  0
LINE
  5
CB4
330
1F
100
AcDbEntity
  8
VD
100
AcDbLine
 10
1204.296187316038
 20
655.2356366870847
 30
0.0000000000000152
 11
1204.296187316038
 21
779.8356366870848
 31
0.0000000000000152
  0
LINE
  5
CB5
330
1F
100
AcDbEntity
  8
VD
100
AcDbLine
 10
1199.296187316038
 20
655.2356366870847
 30
0.0000000000000152
 11
1199.296187316038
 21
779.8356366870848
 31
0.0000000000000152
  0
LINE
  5
CB6
330
1F
100
AcDbEntity
  8
VD
100
AcDbLine
 10
1204.296187316038
 20
858.2356366870849
 30
0.0000000000000152
 11
1199.296187316038
 21
858.2356366870849
 31
0.0000000000000152
  0
LINE
  5
CB7
330
1F
100
AcDbEntity
  8
VD
100
AcDbLine
 10
1204.296187316038
 20
831.6356366870847
 30
0.0000000000000152
 11
1204.296187316038
 21
858.2356366870849
 31
0.0000000000000152
  0
LINE
  5
CB8
330
1F
100
AcDbEntity
  8
VD
100
AcDbLine
 10
1199.296187316038
 20
831.6356366870847
 30
0.0000000000000152
 11
1199.296187316038
 21
858.2356366870849
 31
0.0000000000000152
  0
LINE
  5
CB9
330
1F
100
AcDbEntity
  8
VD
100
AcDbLine
 10
1114.296187316038
 20
858.2356366870849
 30
0.0000000000000152
 11
1109.296187316038
 21
858.2356366870849
 31
0.0000000000000152
  0
LINE
  5
CBA
330
1F
100
AcDbEntity
  8
VD
100
AcDbLine
 10
1109.296187316038
 20
858.2356366870849
 30
0.0000000000000152
 11
1109.296187316038
 21
831.6356366870847
 31
0.0000000000000152
  0
LINE
  5
CBB
330
1F
100
AcDbEntity
  8
VD
100
AcDbLine
 10
1114.296187316038
 20
858.2356366870849
 30
0.0000000000000152
 11
1114.296187316038
 21
831.6356366870847
 31
0.0000000000000152
  0
LINE
  5
CBC
330
1F
100
AcDbEntity
  8
VD
100
AcDbLine
 10
1199.296187316038
 20
861.7356366870849
 30
0.0000000000000152
 11
1204.296187316038
 21
861.7356366870849
 31
0.0000000000000152
  0
LINE
  5
CBD
330
1F
100
AcDbEntity
  8
VD
100
AcDbLine
 10
1204.296187316038
 20
861.7356366870849
 30
0.0000000000000152
 11
1204.296187316038
 21
858.2356366870849
 31
0.0000000000000152
  0
LINE
  5
CBE
330
1F
100
AcDbEntity
  8
VD
100
AcDbLine
 10
1199.296187316038
 20
858.2356366870849
 30
0.0000000000000152
 11
1199.296187316038
 21
861.7356366870849
 31
0.0000000000000152
  0
LINE
  5
CBF
330
1F
100
AcDbEntity
  8
VD
100
AcDbLine
 10
1109.296187316038
 20
861.7356366870849
 30
0.0000000000000152
 11
1114.296187316038
 21
861.7356366870849
 31
0.0000000000000152
  0
LINE
  5
CC0
330
1F
100
AcDbEntity
  8
VD
100
AcDbLine
 10
1109.296187316038
 20
858.2356366870849
 30
0.0000000000000152
 11
1109.296187316038
 21
861.7356366870849
 31
0.0000000000000152
  0
LINE
  5
CC1
330
1F
100
AcDbEntity
  8
VD
100
AcDbLine
 10
1114.296187316038
 20
861.7356366870849
 30
0.0000000000000152
 11
1114.296187316038
 21
858.2356366870849
 31
0.0000000000000152
  0
LINE
  5
CC2
330
1F
100
AcDbEntity
  8
VD
100
AcDbLine
 10
1199.296187316038
 20
651.7356366870846
 30
0.0000000000000152
 11
1199.096179316038
 21
651.7356366870846
 31
0.0000000000000152
  0
LINE
  5
CC3
330
1F
100
AcDbEntity
  8
VD
100
AcDbLine
 10
1114.496193316039
 20
651.7356366870846
 30
0.0000000000000152
 11
1114.296187316038
 21
651.7356366870846
 31
0.0000000000000152
  0
ARC
  5
CC4
330
1F
100
AcDbEntity
  8
VD
100
AcDbCircle
 10
1198.496187316039
 20
827.9356366870848
 30
0.0000000000000152
 40
0.3
100
AcDbArc
 50
0.0
 51
90.0
  0
ARC
  5
CC5
330
1F
100
AcDbEntity
  8
VD
100
AcDbCircle
 10
1198.496187316039
 20
783.5356366870848
 30
0.0000000000000152
 40
0.3
100
AcDbArc
 50
270.0
 51
0.0
  0
ARC
  5
CC6
330
1F
100
AcDbEntity
  8
VD
100
AcDbCircle
 10
1115.096187316037
 20
783.5356366870848
 30
0.0000000000000152
 40
0.3
100
AcDbArc
 50
180.0
 51
270.0
  0
ARC
  5
CC7
330
1F
100
AcDbEntity
  8
VD
100
AcDbCircle
 10
1115.096187316037
 20
827.9356366870848
 30
0.0000000000000152
 40
0.3
100
AcDbArc
 50
90.0
 51
180.0
  0
CIRCLE
  5
CC8
330
1F
100
AcDbEntity
  8
VD
100
AcDbCircle
 10
-1156.796187316038
 20
805.7356366870846
 30
-0.0000000000000152
 40
16.85
210
0.0
220
0.0
230
-1.0
  0
CIRCLE
  5
CC9
330
1F
100
AcDbEntity
  8
VD
100
AcDbCircle
 10
1156.796187316038
 20
805.7356366870846
 30
0.0000000000000152
 40
15.75
  0
CIRCLE
  5
CCA
330
1F
100
AcDbEntity
  8
VD
100
AcDbCircle
 10
-1156.796187316038
 20
805.7356366870846
 30
-0.0000000000000152
 40
16.75
210
0.0
220
0.0
230
-1.0
  0
ARC
  5
CCB
330
1F
100
AcDbEntity
  8
VD
100
AcDbCircle
 10
-1156.796187316038
 20
805.7356366870846
 30
-0.0000000000000152
 40
17.04999999999999
210
0.0
220
0.0
230
-1.0
100
AcDbArc
 50
251.1809369999967
 51
288.8190630000033
  0
ARC
  5
CCC
330
1F
100
AcDbEntity
  8
VD
100
AcDbCircle
 10
-1164.096187316038
 20
790.3274406870848
 30
-0.0000000000000152
 40
0.2
210
0.0
220
0.0
230
-1.0
100
AcDbArc
 50
64.64963000000534
 51
180.0
  0
ARC
  5
CCD
330
1F
100
AcDbEntity
  8
VD
100
AcDbCircle
 10
-1149.496187316039
 20
790.3274406870848
 30
-0.0000000000000152
 40
0.2
210
0.0
220
0.0
230
-1.0
100
AcDbArc
 50
0.0
 51
115.3503699999946
  0
SPLINE
  5
CCE
330
1F
100
AcDbEntity
  8
VD
100
AcDbSpline
210
0.0
220
0.0
230
1.0
 70
     8
 71
     3
 72
    16
 73
    12
 74
     0
 42
0.000000001
 43
0.0000000001
 40
0.0
 40
0.0
 40
0.0
 40
0.0
 40
0.1945552639644181
 40
0.1945552639644181
 40
0.3878946385599309
 40
0.3878946385599309
 40
0.5892372746630532
 40
0.5892372746630532
 40
0.8080348914056749
 40
0.8080348914056749
 40
1.0
 40
1.0
 40
1.0
 40
1.0
 10
1164.296195523062
 20
790.3274447007606
 30
0.0000000000000152
 10
1164.296177142427
 20
790.3274368120174
 30
0.0000000000000152
 10
1164.262363725415
 20
790.3129245093277
 30
0.0000000000000152
 10
1164.134595997801
 20
790.2592464706656
 30
0.0000000000000152
 10
1164.039540420201
 20
790.2196769790898
 30
0.0000000000000152
 10
1163.798698092585
 20
790.1227028315048
 30
0.0000000000000152
 10
1163.648061169069
 20
790.0635231601055
 30
0.0000000000000152
 10
1163.29978724109
 20
789.9327174868068
 30
0.0000000000000152
 10
1163.094539895075
 20
789.8587718879245
 30
0.0000000000000152
 10
1162.692643699636
 20
789.7221106681845
 30
0.0000000000000152
 10
1162.49393996418
 20
789.6577506327554
 30
0.0000000000000152
 10
1162.296186332743
 20
789.5970958011858
 30
0.0000000000000152
  0
SPLINE
  5
CCF
330
1F
100
AcDbEntity
  8
VD
100
AcDbSpline
210
0.0
220
0.0
230
1.0
 70
     8
 71
     3
 72
    16
 73
    12
 74
     0
 42
0.000000001
 43
0.0000000001
 40
0.0
 40
0.0
 40
0.0
 40
0.0
 40
0.2320133565498035
 40
0.2320133565498035
 40
0.464168575931434
 40
0.464168575931434
 40
0.6954789313312828
 40
0.6954789313312828
 40
0.9117015930972556
 40
0.9117015930972556
 40
1.0
 40
1.0
 40
1.0
 40
1.0
 10
1151.296186332743
 20
789.5970958011858
 30
0.0000000000000152
 10
1151.058112657489
 20
789.6701175635118
 30
0.0000000000000152
 10
1150.818151018597
 20
789.7487469831526
 30
0.0000000000000152
 10
1150.374324876533
 20
789.9026476095586
 30
0.0000000000000152
 10
1150.163981614936
 20
789.9801124856494
 30
0.0000000000000152
 10
1149.803736715592
 20
790.1182120956116
 30
0.0000000000000152
 10
1149.648145524668
 20
790.1808997604097
 30
0.0000000000000152
 10
1149.425725310267
 20
790.2723781469876
 30
0.0000000000000152
 10
1149.350712506337
 20
790.3042505446626
 30
0.0000000000000152
 10
1149.30335819078
 20
790.3243781735227
 30
0.0000000000000152
 10
1149.296269214968
 20
790.3274053624953
 30
0.0000000000000152
 10
1149.296195561786
 20
790.3274368150808
 30
0.0000000000000152
  0
SPLINE
  5
CD0
330
1F
100
AcDbEntity
  8
VD
100
AcDbSpline
210
0.0
220
0.0
230
1.0
 70
     8
 71
     3
 72
    12
 73
     8
 74
     0
 42
0.000000001
 43
0.0000000001
 40
0.0
 40
0.0
 40
0.0
 40
0.0
 40
0.3456277780081103
 40
0.3456277780081103
 40
0.6912555560162207
 40
0.6912555560162207
 40
1.0
 40
1.0
 40
1.0
 40
1.0
 10
1139.796186316533
 20
805.7356366286683
 30
0.0000000000000152
 10
1139.796186316533
 20
803.3771994019826
 30
0.0000000000000152
 10
1140.294941798722
 20
801.0758317932307
 30
0.0000000000000152
 10
1142.062300990974
 20
796.9653758027735
 30
0.0000000000000152
 10
1143.324024104453
 20
795.1507322888337
 30
0.0000000000000152
 10
1146.19122911361
 20
792.3133750732476
 30
0.0000000000000152
 10
1147.739743453132
 20
791.2168474225933
 30
0.0000000000000152
 10
1149.487447015852
 20
790.3865554863628
 30
0.0000000000000152
  0
SPLINE
  5
CD1
330
1F
100
AcDbEntity
  8
VD
100
AcDbSpline
210
0.0
220
0.0
230
1.0
 70
     8
 71
     3
 72
     8
 73
     4
 74
     0
 42
0.000000001
 43
0.0000000001
 40
0.0
 40
0.0
 40
0.0
 40
0.0
 40
1.0
 40
1.0
 40
1.0
 40
1.0
 10
1163.550346561889
 20
790.1349379431165
 30
0.0000000000000152
 10
1163.72241150581
 20
790.2093907864617
 30
0.0000000000000152
 10
1163.892650478627
 20
790.2863550267364
 30
0.0000000000000152
 10
1164.061060013193
 20
790.3658010882815
 30
0.0000000000000152
  0
SPLINE
  5
CD2
330
1F
100
AcDbEntity
  8
VD
100
AcDbSpline
210
0.0
220
0.0
230
1.0
 70
     8
 71
     3
 72
    22
 73
    18
 74
     0
 42
0.000000001
 43
0.0000000001
 40
0.0
 40
0.0
 40
0.0
 40
0.0
 40
0.1261546713333348
 40
0.1261546713333348
 40
0.271709779130951
 40
0.271709779130951
 40
0.4172648869285673
 40
0.4172648869285673
 40
0.5628199947261832
 40
0.5628199947261832
 40
0.7083751025237996
 40
0.7083751025237996
 40
0.8539302103214152
 40
0.8539302103214152
 40
0.9994853181190311
 40
0.9994853181190311
 40
1.0
 40
1.0
 40
1.0
 40
1.0
 10
1164.21667070255
 20
790.4401669012306
 30
0.0000000000000152
 10
1165.907429947218
 20
791.2586400480766
 30
0.0000000000000152
 10
1167.411183216369
 20
792.3297238004518
 30
0.0000000000000152
 10
1170.239460283659
 20
795.1148990221773
 30
0.0000000000000152
 10
1171.504750327613
 20
796.9232801268757
 30
0.0000000000000152
 10
1173.283208782137
 20
801.0263296094356
 30
0.0000000000000152
 10
1173.788149217604
 20
803.3475479935326
 30
0.0000000000000152
 10
1173.804026109734
 20
808.0078945650466
 30
0.0000000000000152
 10
1173.311518939492
 20
810.3515141813556
 30
0.0000000000000152
 10
1171.542048715484
 20
814.4890405002806
 30
0.0000000000000152
 10
1170.279308460463
 20
816.3063282478606
 30
0.0000000000000152
 10
1167.255600786984
 20
819.3052627470088
 30
0.0000000000000152
 10
1165.48106113148
 20
820.5106773776376
 30
0.0000000000000152
 10
1161.482298231944
 20
822.2210615489206
 30
0.0000000000000152
 10
1159.160192853194
 20
822.7322045519715
 30
0.0000000000000152
 10
1156.81272579468
 20
822.7356305951834
 30
0.0000000000000152
 10
1156.804454976489
 20
822.7356364495166
 30
0.0000000000000152
 10
1156.796184730476
 20
822.7356360924437
 30
0.0000000000000152
  0
SPLINE
  5
CD3
330
1F
100
AcDbEntity
  8
VD
100
AcDbSpline
210
0.0
220
0.0
230
1.0
 70
     8
 71
     3
 72
    14
 73
    10
 74
     0
 42
0.000000001
 43
0.0000000001
 40
0.0
 40
0.0
 40
0.0
 40
0.0
 40
0.2493364146684839
 40
0.2493364146684839
 40
0.4995576097789893
 40
0.4995576097789893
 40
0.7497788048894947
 40
0.7497788048894947
 40
1.0
 40
1.0
 40
1.0
 40
1.0
 10
1156.796184731005
 20
822.7356360924437
 30
0.0000000000000152
 10
1154.465580043921
 20
822.7355354673637
 30
0.0000000000000152
 10
1152.180414697972
 20
822.2421585124507
 30
0.0000000000000152
 10
1148.150528554828
 20
820.5362153909765
 30
0.0000000000000152
 10
1146.387247163633
 20
819.3457581555707
 30
0.0000000000000152
 10
1143.338369125145
 20
816.3407570291635
 30
0.0000000000000152
 10
1142.094267831971
 20
814.5650792022626
 30
0.0000000000000152
 10
1140.298339853649
 20
810.4182134165196
 30
0.0000000000000152
 10
1139.796186316533
 20
808.0940738553547
 30
0.0000000000000152
 10
1139.796186316533
 20
805.7356366286683
 30
0.0000000000000152
  0
SPLINE
  5
CD4
330
1F
100
AcDbEntity
  8
VD
100
AcDbSpline
210
0.0
220
0.0
230
1.0
 70
    24
 71
     1
 72
     5
 73
     3
 74
     0
 42
0.000000001
 43
0.0000000001
 40
0.0
 40
0.0
 40
0.2666666666666667
 40
1.0
 40
1.0
 10
1100.296186332744
 20
805.7356366274186
 30
0.0000000000000152
 10
1104.296186332743
 20
805.7356366274186
 30
0.0000000000000152
 10
1115.296186332743
 20
805.7356366274186
 30
0.0000000000000152
  0
SPLINE
  5
CD5
330
1F
100
AcDbEntity
  8
VD
100
AcDbSpline
210
0.0
220
0.0
230
1.0
 70
    24
 71
     1
 72
     5
 73
     3
 74
     0
 42
0.000000001
 43
0.0000000001
 40
0.0
 40
0.0
 40
0.2666666666666667
 40
1.0
 40
1.0
 10
1213.296186332744
 20
805.7356366274186
 30
0.0000000000000152
 10
1209.296186332744
 20
805.7356366274186
 30
0.0000000000000152
 10
1198.296186332743
 20
805.7356366274186
 30
0.0000000000000152
  0
SPLINE
  5
CD6
330
1F
100
AcDbEntity
  8
VD
100
AcDbSpline
210
0.0
220
0.0
230
1.0
 70
    24
 71
     1
 72
     5
 73
     3
 74
     0
 42
0.000000001
 43
0.0000000001
 40
0.0
 40
0.0
 40
0.2149255813020745
 40
1.0
 40
1.0
 10
1156.796186332743
 20
783.2745435422346
 30
0.0000000000000152
 10
1156.796186332743
 20
787.2745435422346
 30
0.0000000000000152
 10
1156.796186332743
 20
801.8856366274189
 30
0.0000000000000152
  0
SPLINE
  5
CD7
330
1F
100
AcDbEntity
  8
VD
100
AcDbSpline
210
0.0
220
0.0
230
1.0
 70
    24
 71
     1
 72
     5
 73
     3
 74
     0
 42
0.000000001
 43
0.0000000001
 40
0.0
 40
0.0
 40
0.6800000000000001
 40
1.0
 40
1.0
 10
1205.296186332745
 20
805.7356366274186
 30
0.0000000000000152
 10
1196.796186332745
 20
805.7356366274186
 30
0.0000000000000152
 10
1192.796186332745
 20
805.7356366274186
 30
0.0000000000000152
  0
SPLINE
  5
CD8
330
1F
100
AcDbEntity
  8
VD
100
AcDbSpline
210
0.0
220
0.0
230
1.0
 70
    24
 71
     1
 72
     5
 73
     3
 74
     0
 42
0.000000001
 43
0.0000000001
 40
0.0
 40
0.0
 40
0.6800000000000001
 40
1.0
 40
1.0
 10
1108.296186332744
 20
805.7356366274186
 30
0.0000000000000152
 10
1116.796186332743
 20
805.7356366274186
 30
0.0000000000000152
 10
1120.796186332744
 20
805.7356366274186
 30
0.0000000000000152
  0
LINE
  5
CD9
330
1F
100
AcDbEntity
  8
VD
100
AcDbLine
 10
1135.946187316038
 20
805.7356366870846
 30
0.0000000000000152
 11
1177.646187316039
 21
805.7356366870846
 31
0.0000000000000152
  0
LINE
  5
CDA
330
1F
100
AcDbEntity
  8
VD
100
AcDbLine
 10
1156.796187316038
 20
784.8856366870847
 30
0.0000000000000152
 11
1156.796187316038
 21
826.5856366870847
 31
0.0000000000000152
  0
CIRCLE
  5
CDB
330
1F
100
AcDbEntity
  8
0
100
AcDbCircle
 10
1156.796187316038
 20
703.3856366870848
 30
0.0000000000000152
 40
12.5
  0
ENDSEC
  0
SECTION
  2
OBJECTS
  0
DICTIONARY
  5
C
330
0
100
AcDbDictionary
281
     1
  3
ACAD_CIP_PREVIOUS_PRODUCT_INFO
350
738
  3
ACAD_COLOR
350
6DD
  3
ACAD_DETAILVIEWSTYLE
350
734
  3
ACAD_GROUP
350
D
  3
ACAD_LAYOUT
350
1A
  3
ACAD_MATERIAL
350
6D9
  3
ACAD_MLEADERSTYLE
350
6D3
  3
ACAD_MLINESTYLE
350
17
  3
ACAD_PLOTSETTINGS
350
19
  3
ACAD_PLOTSTYLENAME
350
E
  3
ACAD_SCALELIST
350
71F
  3
ACAD_SECTIONVIEWSTYLE
350
732
  3
ACAD_TABLESTYLE
350
6D2
  3
ACAD_VISUALSTYLE
350
2A
  3
ACDB_RECOMPOSE_DATA
350
CEC
  3
AcDbVariableDictionary
350
6E1
  0
DICTIONARY
  5
843
330
2
100
AcDbDictionary
280
     1
281
     1
  3
ACAD_LAYERSTATES
360
844
  0
DICTIONARY
  5
739
330
10
100
AcDbDictionary
280
     1
281
     1
  3
ADSK_XREC_LAYER_RECONCILED
360
73A
  0
DICTIONARY
  5
73B
330
42
100
AcDbDictionary
280
     1
281
     1
  3
ADSK_XREC_LAYER_RECONCILED
360
73C
  0
DICTIONARY
  5
73D
330
6BD
100
AcDbDictionary
280
     1
281
     1
  3
ADSK_XREC_LAYER_RECONCILED
360
73E
  0
XRECORD
  5
738
102
{ACAD_REACTORS
330
C
102
}
330
C
100
AcDbXrecord
280
     1
300
ACDLT
300
2021
300

  0
DICTIONARY
  5
6DD
102
{ACAD_REACTORS
330
C
102
}
330
C
100
AcDbDictionary
281
     1
  0
DICTIONARY
  5
734
102
{ACAD_REACTORS
330
C
102
}
330
C
100
AcDbDictionary
281
     1
  3
Imperial24
350
8CD
  3
Metric50
350
735
  0
DICTIONARY
  5
D
102
{ACAD_REACTORS
330
C
102
}
330
C
100
AcDbDictionary
281
     1
  0
DICTIONARY
  5
1A
102
{ACAD_REACTORS
330
C
102
}
330
C
100
AcDbDictionary
281
     1
  3
Layout1
350
1E
  3
Layout2
350
26
  3
Model
350
22
  0
DICTIONARY
  5
6D9
102
{ACAD_REACTORS
330
C
102
}
330
C
100
AcDbDictionary
281
     1
  3
ByBlock
350
6DB
  3
ByLayer
350
6DA
  3
Global
350
6DC
  0
DICTIONARY
  5
6D3
102
{ACAD_REACTORS
330
C
102
}
330
C
100
AcDbDictionary
281
     1
  3
Standard
350
731
  0
DICTIONARY
  5
17
102
{ACAD_REACTORS
330
C
102
}
330
C
100
AcDbDictionary
281
     1
  3
Standard
350
18
  0
DICTIONARY
  5
19
102
{ACAD_REACTORS
330
C
102
}
330
C
100
AcDbDictionary
281
     1
  0
ACDBDICTIONARYWDFLT
  5
E
102
{ACAD_REACTORS
330
C
102
}
330
C
100
AcDbDictionary
281
     1
  3
Normal
350
F
100
AcDbDictionaryWithDefault
340
F
  0
DICTIONARY
  5
71F
102
{ACAD_REACTORS
330
C
102
}
330
C
100
AcDbDictionary
281
     1
  3
A0
350
720
  3
A1
350
721
  3
A2
350
722
  3
A3
350
723
  3
A4
350
724
  3
A5
350
725
  3
A6
350
726
  3
A7
350
727
  3
A8
350
728
  3
A9
350
729
  3
B0
350
72A
  3
B1
350
72B
  3
B2
350
72C
  3
B3
350
72D
  3
B4
350
72E
  3
B5
350
72F
  3
B6
350
730
  0
DICTIONARY
  5
732
102
{ACAD_REACTORS
330
C
102
}
330
C
100
AcDbDictionary
281
     1
  3
Imperial24
350
8CC
  3
Metric50
350
733
  0
DICTIONARY
  5
6D2
102
{ACAD_REACTORS
330
C
102
}
330
C
100
AcDbDictionary
281
     1
  3
Standard
350
6DE
  0
DICTIONARY
  5
2A
102
{ACAD_REACTORS
330
C
102
}
330
C
100
AcDbDictionary
281
     1
  3
2dWireframe
350
2F
  3
3D Hidden
350
31
  3
3dWireframe
350
30
  3
Basic
350
32
  3
Brighten
350
36
  3
ColorChange
350
3A
  3
Conceptual
350
34
  3
Dim
350
35
  3
EdgeColorOff
350
71E
  3
Facepattern
350
39
  3
Flat
350
2B
  3
FlatWithEdges
350
2C
  3
Gouraud
350
2D
  3
GouraudWithEdges
350
2E
  3
Hidden
350
716
  3
JitterOff
350
71C
  3
Linepattern
350
38
  3
OverhangOff
350
71D
  3
Realistic
350
33
  3
Shaded
350
71B
  3
Shaded with edges
350
71A
  3
Shades of Gray
350
717
  3
Sketchy
350
718
  3
Thicken
350
37
  3
Wireframe
350
715
  3
X-Ray
350
719
  0
XRECORD
  5
CEC
102
{ACAD_REACTORS
330
C
102
}
330
C
100
AcDbXrecord
280
     1
 90
        1
330
6DE
  0
DICTIONARY
  5
6E1
102
{ACAD_REACTORS
330
C
102
}
330
C
100
AcDbDictionary
281
     1
  3
CANNOSCALE
350
8A3
  3
CMLEADERSTYLE
350
89F
  3
CTABLESTYLE
350
6E2
  3
CVIEWDETAILSTYLE
350
8A0
  3
CVIEWSECTIONSTYLE
350
8A1
  3
DIMASSOC
350
703
  3
INDEXCTL
350
702
  3
LAYEREVAL
350
8A5
  3
LAYERNOTIFY
350
8A6
  3
LIGHTINGUNITS
350
8A4
  3
MSLTSCALE
350
8A2
  3
SORTENTS
350
701
  0
DICTIONARY
  5
844
102
{ACAD_REACTORS
330
843
102
}
330
843
100
AcDbDictionary
281
     1
  0
XRECORD
  5
73A
102
{ACAD_REACTORS
330
739
102
}
330
739
100
AcDbXrecord
280
     1
290
     1
  0
XRECORD
  5
73C
102
{ACAD_REACTORS
330
73B
102
}
330
73B
100
AcDbXrecord
280
     1
290
     1
  0
XRECORD
  5
73E
102
{ACAD_REACTORS
330
73D
102
}
330
73D
100
AcDbXrecord
280
     1
290
     1
  0
ACDBDETAILVIEWSTYLE
  5
8CD
102
{ACAD_XDICTIONARY
360
CF3
102
}
102
{ACAD_REACTORS
330
734
102
}
330
734
100
AcDbModelDocViewStyle
 70
     0
  3
Imperial24
290
     0
100
AcDbDetailViewStyle
 70
     0
 71
     0
 90
        3
 71
     1
340
11
 62
   256
 40
0.24
340
0
 62
   256
 40
0.24
300

 40
0.36
280
     3
 71
     2
340
16
 90
       25
 62
   256
 71
     3
340
11
 62
   256
 40
0.24
 90
        1
 40
0.75
 90
        1
300
%<\AcVar ViewType \f "%tc1">% %<\AcVar ViewDetailId>%\PVARIA %<\AcVar ViewScale \f "%sn">%
 71
     4
340
16
 90
       25
 62
   256
340
16
 90
       25
 62
   256
280
     0
  0
ACDBDETAILVIEWSTYLE
  5
735
102
{ACAD_XDICTIONARY
360
CEF
102
}
102
{ACAD_REACTORS
330
734
102
}
330
734
100
AcDbModelDocViewStyle
 70
     0
  3
Metric50
290
     0
100
AcDbDetailViewStyle
 70
     0
 71
     0
 90
        3
 71
     1
340
11
 62
   256
 40
5.0
340
0
 62
   256
 40
5.0
300

 40
0.0
280
     1
 71
     2
340
16
 90
       25
 62
   256
 71
     3
340
11
 62
   256
 40
5.0
 90
        0
 40
15.0
 90
        1
300
%<\AcVar ViewDetailId>% (%<\AcVar ViewScale \f "%sn">%)
 71
     4
340
16
 90
       25
 62
   256
340
16
 90
       25
 62
   256
280
     0
  0
LAYOUT
  5
1E
102
{ACAD_REACTORS
330
1A
102
}
330
1A
100
AcDbPlotSettings
  1

  2
none_device
  4

  6

 40
0.0
 41
0.0
 42
0.0
 43
0.0
 44
0.0
 45
0.0
 46
0.0
 47
0.0
 48
0.0
 49
0.0
140
0.0
141
0.0
142
1.0
143
1.0
 70
   688
 72
     0
 73
     0
 74
     5
  7

 75
    16
147
1.0
 76
     0
 77
     2
 78
   300
148
0.0
149
0.0
100
AcDbLayout
  1
Layout1
 70
     1
 71
     1
 10
-0.5
 20
-0.5
 11
5.0
 21
5.0
 12
0.0
 22
0.0
 32
0.0
 14
-0.5
 24
-0.5
 34
-0.5
 15
5.0
 25
5.0
 35
5.0
146
0.0
 13
0.0
 23
0.0
 33
0.0
 16
1.0
 26
0.0
 36
0.0
 17
0.0
 27
1.0
 37
0.0
 76
     0
330
1B
  0
LAYOUT
  5
26
102
{ACAD_REACTORS
330
1A
102
}
330
1A
100
AcDbPlotSettings
  1

  2
none_device
  4

  6

 40
0.0
 41
0.0
 42
0.0
 43
0.0
 44
0.0
 45
0.0
 46
0.0
 47
0.0
 48
0.0
 49
0.0
140
0.0
141
0.0
142
1.0
143
1.0
 70
   688
 72
     0
 73
     0
 74
     5
  7

 75
    16
147
1.0
 76
     0
 77
     2
 78
   300
148
0.0
149
0.0
100
AcDbLayout
  1
Layout2
 70
     1
 71
     2
 10
0.0
 20
0.0
 11
0.0
 21
0.0
 12
0.0
 22
0.0
 32
0.0
 14
0.0
 24
0.0
 34
0.0
 15
0.0
 25
0.0
 35
0.0
146
0.0
 13
0.0
 23
0.0
 33
0.0
 16
1.0
 26
0.0
 36
0.0
 17
0.0
 27
1.0
 37
0.0
 76
     0
330
23
  0
LAYOUT
  5
22
102
{ACAD_REACTORS
330
1A
102
}
330
1A
100
AcDbPlotSettings
  1

  2
none_device
  4

  6

 40
0.0
 41
0.0
 42
0.0
 43
0.0
 44
0.0
 45
0.0
 46
0.0
 47
0.0
 48
0.0
 49
0.0
140
0.0
141
0.0
142
1.0
143
1.0
 70
  1712
 72
     0
 73
     0
 74
     0
  7

 75
     0
147
1.0
 76
     0
 77
     2
 78
   300
148
0.0
149
0.0
100
AcDbLayout
  1
Model
 70
     1
 71
     0
 10
-0.5
 20
-0.5
 11
5.0
 21
5.0
 12
0.0
 22
0.0
 32
0.0
 14
-0.5
 24
-0.5
 34
-0.5
 15
5.0
 25
5.0
 35
5.0
146
0.0
 13
0.0
 23
0.0
 33
0.0
 16
1.0
 26
0.0
 36
0.0
 17
0.0
 27
1.0
 37
0.0
 76
     0
330
1F
331
6C2
  0
MATERIAL
  5
6DB
102
{ACAD_XDICTIONARY
360
70D
102
}
102
{ACAD_REACTORS
330
6D9
102
}
330
6D9
100
AcDbMaterial
  1
ByBlock
  0
MATERIAL
  5
6DA
102
{ACAD_XDICTIONARY
360
70B
102
}
102
{ACAD_REACTORS
330
6D9
102
}
330
6D9
100
AcDbMaterial
  1
ByLayer
  0
MATERIAL
  5
6DC
102
{ACAD_XDICTIONARY
360
70F
102
}
102
{ACAD_REACTORS
330
6D9
102
}
330
6D9
100
AcDbMaterial
  1
Global
  0
MLEADERSTYLE
  5
731
102
{ACAD_REACTORS
330
6D3
102
}
330
6D3
100
AcDbMLeaderStyle
179
     2
170
     2
171
     1
172
     0
 90
        2
 40
0.0
 41
0.0
173
     1
 91
-1056964608
340
14
 92
       -2
290
     1
 42
2.0
291
     1
 43
0.36
  3
Standard
 44
4.0
300

342
11
174
     1
178
     6
175
     1
176
     0
 93
-1056964608
 45
4.0
292
     0
297
     0
 46
4.0
 94
-1056964608
 47
1.0
 49
1.0
140
1.0
293
     1
141
0.0
294
     1
177
     0
142
1.0
295
     0
296
     0
143
0.125
271
     0
272
     9
273
     9
298
     0
  0
MLINESTYLE
  5
18
102
{ACAD_REACTORS
330
17
102
}
330
17
100
AcDbMlineStyle
  2
STANDARD
 70
     0
  3

 62
   256
 51
90.0
 52
90.0
 71
     2
 49
0.5
 62
   256
  6
BYLAYER
 49
-0.5
 62
   256
  6
BYLAYER
  0
ACDBPLACEHOLDER
  5
F
102
{ACAD_REACTORS
330
E
102
}
330
E
  0
SCALE
  5
720
102
{ACAD_REACTORS
330
71F
102
}
330
71F
100
AcDbScale
 70
     0
300
1:1
140
1.0
141
1.0
290
     1
  0
SCALE
  5
721
102
{ACAD_REACTORS
330
71F
102
}
330
71F
100
AcDbScale
 70
     0
300
1:2
140
1.0
141
2.0
290
     0
  0
SCALE
  5
722
102
{ACAD_REACTORS
330
71F
102
}
330
71F
100
AcDbScale
 70
     0
300
1:4
140
1.0
141
4.0
290
     0
  0
SCALE
  5
723
102
{ACAD_REACTORS
330
71F
102
}
330
71F
100
AcDbScale
 70
     0
300
1:5
140
1.0
141
5.0
290
     0
  0
SCALE
  5
724
102
{ACAD_REACTORS
330
71F
102
}
330
71F
100
AcDbScale
 70
     0
300
1:8
140
1.0
141
8.0
290
     0
  0
SCALE
  5
725
102
{ACAD_REACTORS
330
71F
102
}
330
71F
100
AcDbScale
 70
     0
300
1:10
140
1.0
141
10.0
290
     0
  0
SCALE
  5
726
102
{ACAD_REACTORS
330
71F
102
}
330
71F
100
AcDbScale
 70
     0
300
1:16
140
1.0
141
16.0
290
     0
  0
SCALE
  5
727
102
{ACAD_REACTORS
330
71F
102
}
330
71F
100
AcDbScale
 70
     0
300
1:20
140
1.0
141
20.0
290
     0
  0
SCALE
  5
728
102
{ACAD_REACTORS
330
71F
102
}
330
71F
100
AcDbScale
 70
     0
300
1:30
140
1.0
141
30.0
290
     0
  0
SCALE
  5
729
102
{ACAD_REACTORS
330
71F
102
}
330
71F
100
AcDbScale
 70
     0
300
1:40
140
1.0
141
40.0
290
     0
  0
SCALE
  5
72A
102
{ACAD_REACTORS
330
71F
102
}
330
71F
100
AcDbScale
 70
     0
300
1:50
140
1.0
141
50.0
290
     0
  0
SCALE
  5
72B
102
{ACAD_REACTORS
330
71F
102
}
330
71F
100
AcDbScale
 70
     0
300
1:100
140
1.0
141
100.0
290
     0
  0
SCALE
  5
72C
102
{ACAD_REACTORS
330
71F
102
}
330
71F
100
AcDbScale
 70
     0
300
2:1
140
2.0
141
1.0
290
     0
  0
SCALE
  5
72D
102
{ACAD_REACTORS
330
71F
102
}
330
71F
100
AcDbScale
 70
     0
300
4:1
140
4.0
141
1.0
290
     0
  0
SCALE
  5
72E
102
{ACAD_REACTORS
330
71F
102
}
330
71F
100
AcDbScale
 70
     0
300
8:1
140
8.0
141
1.0
290
     0
  0
SCALE
  5
72F
102
{ACAD_REACTORS
330
71F
102
}
330
71F
100
AcDbScale
 70
     0
300
10:1
140
10.0
141
1.0
290
     0
  0
SCALE
  5
730
102
{ACAD_REACTORS
330
71F
102
}
330
71F
100
AcDbScale
 70
     0
300
100:1
140
100.0
141
1.0
290
     0
  0
ACDBSECTIONVIEWSTYLE
  5
8CC
102
{ACAD_XDICTIONARY
360
CF1
102
}
102
{ACAD_REACTORS
330
732
102
}
330
732
100
AcDbModelDocViewStyle
 70
     0
  3
Imperial24
290
     0
100
AcDbSectionViewStyle
 70
     0
 71
     0
 90
       78
 71
     1
340
11
 62
   256
 40
0.24
340
0
340
0
 62
   256
 40
0.24
300
I, O, Q, S, X, Z
 40
0.48
 90
        3
 40
0.18
 90
        1
 71
     2
340
16
 90
       25
 62
   256
340
16
 90
       50
 62
   256
 40
0.24
 40
0.0
 40
0.24
 71
     3
340
11
 62
   256
 40
0.24
 90
        1
 40
0.75
 90
        1
300
%<\AcVar ViewType \f "%tc1">% %<\AcVar ViewSectionStartId>%-%<\AcVar ViewSectionEndId>%\PVARIA %<\AcVar ViewScale \f "%sn">%
 71
     4
 62
   256
 62
   257
300
ANSI31
 40
1.0
 90
        0
290
     0
290
     0
 90
        6
 40
0.0
 40
1.570796326794896
 40
0.2617993877991494
 40
1.308996938995747
 40
-0.2617993877991494
 40
1.832595714594044
  0
ACDBSECTIONVIEWSTYLE
  5
733
102
{ACAD_XDICTIONARY
360
CED
102
}
102
{ACAD_REACTORS
330
732
102
}
330
732
100
AcDbModelDocViewStyle
 70
     0
  3
Metric50
290
     0
100
AcDbSectionViewStyle
 70
     0
 71
     0
 90
      102
 71
     1
340
11
 62
   256
 40
5.0
340
0
340
0
 62
   256
 40
5.0
300
I, O, Q, S, X, Z
 40
10.0
 90
        0
 40
2.5
 90
        0
 71
     2
340
16
 90
       25
 62
   256
340
16
 90
       50
 62
   256
 40
5.0
 40
2.5
 40
5.0
 71
     3
340
11
 62
   256
 40
5.0
 90
        0
 40
15.0
 90
        1
300
%<\AcVar ViewSectionStartId>%-%<\AcVar ViewSectionEndId>% (%<\AcVar ViewScale \f "%sn">%)
 71
     4
 62
   256
 62
   257
300
ANSI31
 40
1.0
 90
        0
290
     0
290
     0
 90
        6
 40
0.0
 40
1.570796326794896
 40
0.2617993877991494
 40
1.308996938995747
 40
-0.2617993877991494
 40
1.832595714594044
  0
TABLESTYLE
  5
6DE
102
{ACAD_XDICTIONARY
360
8A7
102
}
102
{ACAD_REACTORS
330
6D2
102
}
330
6D2
100
AcDbTableStyle
280
     0
  3
Standard
 70
     0
 71
     0
 40
1.5
 41
1.5
280
     0
281
     0
  7
Standard
140
4.5
170
     2
 62
     0
 63
     7
283
     0
 90
      512
 91
        0
  1

274
    -2
284
     1
 64
     0
275
    -2
285
     1
 65
     0
276
    -2
286
     1
 66
     0
277
    -2
287
     1
 67
     0
278
    -2
288
     1
 68
     0
279
    -2
289
     1
 69
     0
  7
Standard
140
6.0
170
     5
 62
     0
 63
     7
283
     0
 90
      512
 91
        0
  1

274
    -2
284
     1
 64
     0
275
    -2
285
     1
 65
     0
276
    -2
286
     1
 66
     0
277
    -2
287
     1
 67
     0
278
    -2
288
     1
 68
     0
279
    -2
289
     1
 69
     0
  7
Standard
140
4.5
170
     5
 62
     0
 63
     7
283
     0
 90
      512
 91
        0
  1

274
    -2
284
     1
 64
     0
275
    -2
285
     1
 65
     0
276
    -2
286
     1
 66
     0
277
    -2
287
     1
 67
     0
278
    -2
288
     1
 68
     0
279
    -2
289
     1
 69
     0
  0
VISUALSTYLE
  5
2F
102
{ACAD_REACTORS
330
2A
102
}
330
2A
100
AcDbVisualStyle
  2

 70
     4
177
     3
291
     0
 70
    58
 90
        0
176
     1
 90
        2
176
     1
 90
        0
176
     1
 90
        0
176
     1
 40
0.6
176
     1
 40
30.0
176
     1
 62
     7
176
     1
 90
        1
176
     1
 90
        4
176
     1
 62
     7
176
     1
 62
   257
176
     1
 90
        1
176
     1
 90
        1
176
     1
 40
1.0
176
     1
 90
        0
176
     1
 62
   257
176
     1
 40
1.0
176
     1
 90
        1
176
     1
 90
        6
176
     1
 90
        2
176
     1
 62
     7
176
     1
 90
        5
176
     1
 90
        0
176
     1
 90
        0
176
     1
290
     0
176
     1
 90
        1
176
     1
 40
0.0
176
     1
 90
        0
176
     1
290
     1
176
     1
290
     1
176
     1
290
     0
176
     1
290
     0
176
     1
290
     0
176
     1
290
     0
176
     1
290
     0
176
     1
290
     0
176
     1
290
     0
176
     1
 90
       50
176
     1
 40
0.0
176
     1
 40
1.0
176
     1
 90
        0
176
     1
 62
    18
176
     1
 90
       50
176
     1
 90
        3
176
     1
 62
     5
420
      255
176
     1
290
     0
176
     1
 90
       50
176
     1
 90
       50
176
     1
 90
       50
176
     1
290
     0
176
     1
 90
       50
176
     1
 62
   256
176
     0
 40
1.0
176
     0
 90
        2
176
     1
  1
strokes_ogs.tif
176
     1
290
     0
176
     1
 40
1.0
176
     1
 40
1.0
176
     1
1001
ACAD
1000
AcDbSavedByObjectVersion
1070
     0
  0
VISUALSTYLE
  5
31
102
{ACAD_REACTORS
330
2A
102
}
330
2A
100
AcDbVisualStyle
  2

 70
     6
177
     3
291
     0
 70
    58
 90
        1
176
     1
 90
        2
176
     1
 90
        2
176
     1
 90
        0
176
     1
 40
0.6
176
     1
 40
30.0
176
     1
 62
     7
176
     1
 90
        2
176
     1
 90
        2
176
     1
 62
     7
176
     1
 62
   257
176
     1
 90
        2
176
     1
 90
        1
176
     1
 40
40.0
176
     1
 90
        0
176
     1
 62
   257
176
     1
 40
1.0
176
     1
 90
        1
176
     1
 90
        6
176
     1
 90
        2
176
     1
 62
     7
176
     1
 90
        3
176
     1
 90
        0
176
     1
 90
        0
176
     1
290
     0
176
     1
 90
        1
176
     1
 40
0.0
176
     1
 90
        0
176
     1
290
     0
176
     1
290
     1
176
     1
290
     1
176
     1
290
     0
176
     1
290
     0
176
     1
290
     0
176
     1
290
     0
176
     1
290
     0
176
     1
290
     0
176
     1
 90
       50
176
     1
 40
0.0
176
     1
 40
1.0
176
     1
 90
        0
176
     1
 62
    18
176
     1
 90
       50
176
     1
 90
        3
176
     1
 62
     5
420
      255
176
     1
290
     0
176
     1
 90
       50
176
     1
 90
       50
176
     1
 90
       50
176
     1
290
     0
176
     1
 90
       50
176
     1
 62
   256
176
     0
 40
1.0
176
     0
 90
        2
176
     1
  1
strokes_ogs.tif
176
     1
290
     0
176
     1
 40
1.0
176
     1
 40
1.0
176
     1
1001
ACAD
1000
AcDbSavedByObjectVersion
1070
     0
  0
VISUALSTYLE
  5
30
102
{ACAD_REACTORS
330
2A
102
}
330
2A
100
AcDbVisualStyle
  2

 70
     5
177
     3
291
     0
 70
    58
 90
        0
176
     1
 90
        2
176
     1
 90
        0
176
     1
 90
        0
176
     1
 40
0.6
176
     1
 40
30.0
176
     1
 62
     7
176
     1
 90
        1
176
     1
 90
        4
176
     1
 62
     7
176
     1
 62
   257
176
     1
 90
        1
176
     1
 90
        1
176
     1
 40
1.0
176
     1
 90
        0
176
     1
 62
   257
176
     1
 40
1.0
176
     1
 90
        1
176
     1
 90
        6
176
     1
 90
        2
176
     1
 62
     7
176
     1
 90
        5
176
     1
 90
        0
176
     1
 90
        0
176
     1
290
     0
176
     1
 90
        1
176
     1
 40
0.0
176
     1
 90
        0
176
     1
290
     0
176
     1
290
     1
176
     1
290
     1
176
     1
290
     0
176
     1
290
     0
176
     1
290
     0
176
     1
290
     0
176
     1
290
     0
176
     1
290
     0
176
     1
 90
       50
176
     1
 40
0.0
176
     1
 40
1.0
176
     1
 90
        0
176
     1
 62
    18
176
     1
 90
       50
176
     1
 90
        3
176
     1
 62
     5
420
      255
176
     1
290
     0
176
     1
 90
       50
176
     1
 90
       50
176
     1
 90
       50
176
     1
290
     0
176
     1
 90
       50
176
     1
 62
   256
176
     0
 40
1.0
176
     0
 90
        2
176
     1
  1
strokes_ogs.tif
176
     1
290
     0
176
     1
 40
1.0
176
     1
 40
1.0
176
     1
1001
ACAD
1000
AcDbSavedByObjectVersion
1070
     0
  0
VISUALSTYLE
  5
32
102
{ACAD_REACTORS
330
2A
102
}
330
2A
100
AcDbVisualStyle
  2

 70
     7
177
     3
291
     1
 70
    58
 90
        1
176
     1
 90
        0
176
     1
 90
        1
176
     1
 90
        0
176
     1
 40
0.6
176
     1
 40
30.0
176
     1
 62
     7
176
     1
 90
        0
176
     1
 90
        4
176
     1
 62
     7
176
     1
 62
   257
176
     1
 90
        1
176
     1
 90
        1
176
     1
 40
1.0
176
     1
 90
        8
176
     1
 62
     7
176
     1
 40
1.0
176
     1
 90
        1
176
     1
 90
        6
176
     1
 90
        2
176
     1
 62
     7
176
     1
 90
        5
176
     1
 90
        0
176
     1
 90
        0
176
     1
290
     0
176
     1
 90
        1
176
     1
 40
0.0
176
     1
 90
        0
176
     1
290
     0
176
     1
290
     1
176
     1
290
     1
176
     1
290
     0
176
     1
290
     0
176
     1
290
     0
176
     1
290
     0
176
     1
290
     0
176
     1
290
     0
176
     1
 90
       50
176
     1
 40
0.0
176
     1
 40
1.0
176
     1
 90
        0
176
     1
 62
    18
176
     1
 90
       50
176
     1
 90
        3
176
     1
 62
     5
420
      255
176
     1
290
     0
176
     1
 90
       50
176
     1
 90
       50
176
     1
 90
       50
176
     1
290
     0
176
     1
 90
       50
176
     1
 62
   256
176
     0
 40
1.0
176
     0
 90
        2
176
     1
  1
strokes_ogs.tif
176
     1
290
     0
176
     1
 40
1.0
176
     1
 40
1.0
176
     1
1001
ACAD
1000
AcDbSavedByObjectVersion
1070
     0
  0
VISUALSTYLE
  5
36
102
{ACAD_REACTORS
330
2A
102
}
330
2A
100
AcDbVisualStyle
  2

 70
    12
177
     3
291
     1
 70
    58
 90
        2
176
     1
 90
        2
176
     1
 90
        0
176
     1
 90
        0
176
     1
 40
0.6
176
     1
 40
30.0
176
     1
 62
     7
176
     1
 90
        1
176
     1
 90
        4
176
     1
 62
     7
176
     1
 62
   257
176
     1
 90
        1
176
     1
 90
        1
176
     1
 40
1.0
176
     1
 90
        8
176
     1
 62
     7
176
     1
 40
1.0
176
     1
 90
        1
176
     1
 90
        6
176
     1
 90
        2
176
     1
 62
     7
176
     1
 90
        5
176
     1
 90
        0
176
     1
 90
        0
176
     1
290
     0
176
     1
 90
        1
176
     1
 40
50.0
176
     1
 90
        0
176
     1
290
     0
176
     1
290
     1
176
     1
290
     1
176
     1
290
     0
176
     1
290
     0
176
     1
290
     0
176
     1
290
     0
176
     1
290
     0
176
     1
290
     0
176
     1
 90
       50
176
     1
 40
0.0
176
     1
 40
1.0
176
     1
 90
        0
176
     1
 62
    18
176
     1
 90
       50
176
     1
 90
        3
176
     1
 62
     5
420
      255
176
     1
290
     0
176
     1
 90
       50
176
     1
 90
       50
176
     1
 90
       50
176
     1
290
     0
176
     1
 90
       50
176
     1
 62
   256
176
     0
 40
1.0
176
     0
 90
        2
176
     1
  1
strokes_ogs.tif
176
     1
290
     0
176
     1
 40
1.0
176
     1
 40
1.0
176
     1
1001
ACAD
1000
AcDbSavedByObjectVersion
1070
     0
  0
VISUALSTYLE
  5
3A
102
{ACAD_REACTORS
330
2A
102
}
330
2A
100
AcDbVisualStyle
  2

 70
    16
177
     3
291
     1
 70
    58
 90
        2
176
     1
 90
        2
176
     1
 90
        3
176
     1
 90
        0
176
     1
 40
0.6
176
     1
 40
30.0
176
     1
 62
     8
176
     1
 90
        1
176
     1
 90
        4
176
     1
 62
     7
176
     1
 62
   257
176
     1
 90
        1
176
     1
 90
        1
176
     1
 40
1.0
176
     1
 90
        8
176
     1
 62
     8
176
     1
 40
1.0
176
     1
 90
        1
176
     1
 90
        6
176
     1
 90
        2
176
     1
 62
     7
176
     1
 90
        5
176
     1
 90
        0
176
     1
 90
        0
176
     1
290
     0
176
     1
 90
        1
176
     1
 40
0.0
176
     1
 90
        0
176
     1
290
     0
176
     1
290
     1
176
     1
290
     1
176
     1
290
     0
176
     1
290
     0
176
     1
290
     0
176
     1
290
     0
176
     1
290
     0
176
     1
290
     0
176
     1
 90
       50
176
     1
 40
0.0
176
     1
 40
1.0
176
     1
 90
        0
176
     1
 62
    18
176
     1
 90
       50
176
     1
 90
        3
176
     1
 62
     5
420
      255
176
     1
290
     0
176
     1
 90
       50
176
     1
 90
       50
176
     1
 90
       50
176
     1
290
     0
176
     1
 90
       50
176
     1
 62
   256
176
     0
 40
1.0
176
     0
 90
        2
176
     1
  1
strokes_ogs.tif
176
     1
290
     0
176
     1
 40
1.0
176
     1
 40
1.0
176
     1
1001
ACAD
1000
AcDbSavedByObjectVersion
1070
     0
  0
VISUALSTYLE
  5
34
102
{ACAD_REACTORS
330
2A
102
}
330
2A
100
AcDbVisualStyle
  2

 70
     9
177
     3
291
     0
 70
    58
 90
        3
176
     1
 90
        2
176
     1
 90
        0
176
     1
 90
        0
176
     1
 40
0.6
176
     1
 40
30.0
176
     1
 62
     7
176
     1
 90
        2
176
     1
 90
        2
176
     1
 62
     7
176
     1
 62
   257
176
     1
 90
        1
176
     1
 90
        1
176
     1
 40
40.0
176
     1
 90
        8
176
     1
 62
     7
176
     1
 40
1.0
176
     1
 90
        1
176
     1
 90
        6
176
     1
 90
        2
176
     1
 62
     7
176
     1
 90
        3
176
     1
 90
        0
176
     1
 90
        0
176
     1
290
     0
176
     1
 90
        1
176
     1
 40
0.0
176
     1
 90
        0
176
     1
290
     0
176
     1
290
     1
176
     1
290
     1
176
     1
290
     0
176
     1
290
     0
176
     1
290
     0
176
     1
290
     0
176
     1
290
     0
176
     1
290
     0
176
     1
 90
       50
176
     1
 40
0.0
176
     1
 40
1.0
176
     1
 90
        0
176
     1
 62
    18
176
     1
 90
       50
176
     1
 90
        3
176
     1
 62
     5
420
      255
176
     1
290
     0
176
     1
 90
       50
176
     1
 90
       50
176
     1
 90
       50
176
     1
290
     0
176
     1
 90
       50
176
     1
 62
   256
176
     0
 40
1.0
176
     0
 90
        2
176
     1
  1
strokes_ogs.tif
176
     1
290
     0
176
     1
 40
1.0
176
     1
 40
1.0
176
     1
1001
ACAD
1000
AcDbSavedByObjectVersion
1070
     0
  0
VISUALSTYLE
  5
35
102
{ACAD_REACTORS
330
2A
102
}
330
2A
100
AcDbVisualStyle
  2

 70
    11
177
     3
291
     1
 70
    58
 90
        2
176
     1
 90
        2
176
     1
 90
        0
176
     1
 90
        0
176
     1
 40
0.6
176
     1
 40
30.0
176
     1
 62
     7
176
     1
 90
        1
176
     1
 90
        4
176
     1
 62
     7
176
     1
 62
   257
176
     1
 90
        1
176
     1
 90
        1
176
     1
 40
1.0
176
     1
 90
        8
176
     1
 62
     7
176
     1
 40
1.0
176
     1
 90
        1
176
     1
 90
        6
176
     1
 90
        2
176
     1
 62
     7
176
     1
 90
        5
176
     1
 90
        0
176
     1
 90
        0
176
     1
290
     0
176
     1
 90
        1
176
     1
 40
-50.0
176
     1
 90
        0
176
     1
290
     0
176
     1
290
     1
176
     1
290
     1
176
     1
290
     0
176
     1
290
     0
176
     1
290
     0
176
     1
290
     0
176
     1
290
     0
176
     1
290
     0
176
     1
 90
       50
176
     1
 40
0.0
176
     1
 40
1.0
176
     1
 90
        0
176
     1
 62
    18
176
     1
 90
       50
176
     1
 90
        3
176
     1
 62
     5
420
      255
176
     1
290
     0
176
     1
 90
       50
176
     1
 90
       50
176
     1
 90
       50
176
     1
290
     0
176
     1
 90
       50
176
     1
 62
   256
176
     0
 40
1.0
176
     0
 90
        2
176
     1
  1
strokes_ogs.tif
176
     1
290
     0
176
     1
 40
1.0
176
     1
 40
1.0
176
     1
1001
ACAD
1000
AcDbSavedByObjectVersion
1070
     0
  0
VISUALSTYLE
  5
71E
102
{ACAD_REACTORS
330
2A
102
}
330
2A
100
AcDbVisualStyle
  2
EdgeColorOff
 70
    22
177
     3
291
     1
 70
    58
 90
        2
176
     0
 90
        2
176
     0
 90
        0
176
     0
 90
        0
176
     0
 40
0.6
176
     0
 40
30.0
176
     0
 62
     7
420
 16777215
176
     0
 90
        1
176
     0
 90
        4
176
     0
 62
     7
176
     0
 62
   257
176
     0
 90
        1
176
     0
 90
        1
176
     0
 40
1.0
176
     0
 90
        8
176
     2
 62
     7
176
     0
 40
1.0
176
     0
 90
        1
176
     0
 90
        6
176
     0
 90
        2
176
     0
 62
     7
176
     0
 90
        5
176
     0
 90
        0
176
     0
 90
        0
176
     0
290
     0
176
     0
 90
        1
176
     0
 40
0.0
176
     0
 90
        0
176
     0
290
     0
176
     1
290
     1
176
     1
290
     1
176
     1
290
     0
176
     1
290
     0
176
     1
290
     0
176
     1
290
     0
176
     1
290
     0
176
     1
290
     0
176
     1
 90
       50
176
     0
 40
0.0
176
     0
 40
1.0
176
     0
 90
        0
176
     0
 62
    18
176
     0
 90
       50
176
     0
 90
        3
176
     0
 62
     5
420
      255
176
     0
290
     0
176
     1
 90
       50
176
     0
 90
       50
176
     0
 90
       50
176
     0
290
     0
176
     1
 90
       50
176
     0
 62
   256
176
     0
 40
1.0
176
     0
 90
        2
176
     0
  1
strokes_ogs.tif
176
     0
290
     0
176
     1
 40
1.0
176
     0
 40
1.0
176
     0
1001
ACAD
1000
AcDbSavedByObjectVersion
1070
     0
  0
VISUALSTYLE
  5
39
102
{ACAD_REACTORS
330
2A
102
}
330
2A
100
AcDbVisualStyle
  2

 70
    15
177
     3
291
     1
 70
    58
 90
        2
176
     1
 90
        2
176
     1
 90
        0
176
     1
 90
        0
176
     1
 40
0.6
176
     1
 40
30.0
176
     1
 62
     7
176
     1
 90
        1
176
     1
 90
        4
176
     1
 62
     7
176
     1
 62
   257
176
     1
 90
        1
176
     1
 90
        1
176
     1
 40
1.0
176
     1
 90
        8
176
     1
 62
     7
176
     1
 40
1.0
176
     1
 90
        1
176
     1
 90
        6
176
     1
 90
        2
176
     1
 62
     7
176
     1
 90
        5
176
     1
 90
        0
176
     1
 90
        0
176
     1
290
     0
176
     1
 90
        1
176
     1
 40
0.0
176
     1
 90
        0
176
     1
290
     0
176
     1
290
     1
176
     1
290
     1
176
     1
290
     0
176
     1
290
     0
176
     1
290
     0
176
     1
290
     0
176
     1
290
     0
176
     1
290
     0
176
     1
 90
       50
176
     1
 40
0.0
176
     1
 40
1.0
176
     1
 90
        0
176
     1
 62
    18
176
     1
 90
       50
176
     1
 90
        3
176
     1
 62
     5
420
      255
176
     1
290
     0
176
     1
 90
       50
176
     1
 90
       50
176
     1
 90
       50
176
     1
290
     0
176
     1
 90
       50
176
     1
 62
   256
176
     0
 40
1.0
176
     0
 90
        2
176
     1
  1
strokes_ogs.tif
176
     1
290
     0
176
     1
 40
1.0
176
     1
 40
1.0
176
     1
1001
ACAD
1000
AcDbSavedByObjectVersion
1070
     0
  0
VISUALSTYLE
  5
2B
102
{ACAD_REACTORS
330
2A
102
}
330
2A
100
AcDbVisualStyle
  2

 70
     0
177
     3
291
     1
 70
    58
 90
        2
176
     1
 90
        1
176
     1
 90
        1
176
     1
 90
        2
176
     1
 40
0.6
176
     1
 40
30.0
176
     1
 62
     7
176
     1
 90
        0
176
     1
 90
        4
176
     1
 62
     7
176
     1
 62
   257
176
     1
 90
        1
176
     1
 90
        1
176
     1
 40
1.0
176
     1
 90
        8
176
     1
 62
     7
176
     1
 40
1.0
176
     1
 90
        1
176
     1
 90
        6
176
     1
 90
        2
176
     1
 62
     7
176
     1
 90
        5
176
     1
 90
        0
176
     1
 90
        0
176
     1
290
     0
176
     1
 90
       13
176
     1
 40
0.0
176
     1
 90
        0
176
     1
290
     0
176
     1
290
     1
176
     1
290
     1
176
     1
290
     0
176
     1
290
     0
176
     1
290
     0
176
     1
290
     0
176
     1
290
     0
176
     1
290
     0
176
     1
 90
       50
176
     1
 40
0.0
176
     1
 40
1.0
176
     1
 90
        0
176
     1
 62
    18
176
     1
 90
       50
176
     1
 90
        3
176
     1
 62
     5
420
      255
176
     1
290
     0
176
     1
 90
       50
176
     1
 90
       50
176
     1
 90
       50
176
     1
290
     0
176
     1
 90
       50
176
     1
 62
   256
176
     0
 40
1.0
176
     0
 90
        2
176
     1
  1
strokes_ogs.tif
176
     1
290
     0
176
     1
 40
1.0
176
     1
 40
1.0
176
     1
1001
ACAD
1000
AcDbSavedByObjectVersion
1070
     0
  0
VISUALSTYLE
  5
2C
102
{ACAD_REACTORS
330
2A
102
}
330
2A
100
AcDbVisualStyle
  2

 70
     1
177
     3
291
     1
 70
    58
 90
        2
176
     1
 90
        1
176
     1
 90
        1
176
     1
 90
        2
176
     1
 40
0.6
176
     1
 40
30.0
176
     1
 62
     7
176
     1
 90
        1
176
     1
 90
        4
176
     1
 62
     7
176
     1
 62
   257
176
     1
 90
        1
176
     1
 90
        1
176
     1
 40
1.0
176
     1
 90
        0
176
     1
 62
   257
176
     1
 40
1.0
176
     1
 90
        1
176
     1
 90
        6
176
     1
 90
        2
176
     1
 62
     7
176
     1
 90
        5
176
     1
 90
        0
176
     1
 90
        0
176
     1
290
     0
176
     1
 90
       13
176
     1
 40
0.0
176
     1
 90
        0
176
     1
290
     0
176
     1
290
     1
176
     1
290
     1
176
     1
290
     0
176
     1
290
     0
176
     1
290
     0
176
     1
290
     0
176
     1
290
     0
176
     1
290
     0
176
     1
 90
       50
176
     1
 40
0.0
176
     1
 40
1.0
176
     1
 90
        0
176
     1
 62
    18
176
     1
 90
       50
176
     1
 90
        3
176
     1
 62
     5
420
      255
176
     1
290
     0
176
     1
 90
       50
176
     1
 90
       50
176
     1
 90
       50
176
     1
290
     0
176
     1
 90
       50
176
     1
 62
   256
176
     0
 40
1.0
176
     0
 90
        2
176
     1
  1
strokes_ogs.tif
176
     1
290
     0
176
     1
 40
1.0
176
     1
 40
1.0
176
     1
1001
ACAD
1000
AcDbSavedByObjectVersion
1070
     0
  0
VISUALSTYLE
  5
2D
102
{ACAD_REACTORS
330
2A
102
}
330
2A
100
AcDbVisualStyle
  2

 70
     2
177
     3
291
     1
 70
    58
 90
        2
176
     1
 90
        2
176
     1
 90
        1
176
     1
 90
        2
176
     1
 40
0.6
176
     1
 40
30.0
176
     1
 62
     7
176
     1
 90
        0
176
     1
 90
        4
176
     1
 62
     7
176
     1
 62
   257
176
     1
 90
        1
176
     1
 90
        1
176
     1
 40
1.0
176
     1
 90
        0
176
     1
 62
     7
176
     1
 40
1.0
176
     1
 90
        1
176
     1
 90
        6
176
     1
 90
        2
176
     1
 62
     7
176
     1
 90
        5
176
     1
 90
        0
176
     1
 90
        0
176
     1
290
     0
176
     1
 90
       13
176
     1
 40
0.0
176
     1
 90
        0
176
     1
290
     0
176
     1
290
     1
176
     1
290
     1
176
     1
290
     0
176
     1
290
     0
176
     1
290
     0
176
     1
290
     0
176
     1
290
     0
176
     1
290
     0
176
     1
 90
       50
176
     1
 40
0.0
176
     1
 40
1.0
176
     1
 90
        0
176
     1
 62
    18
176
     1
 90
       50
176
     1
 90
        3
176
     1
 62
     5
420
      255
176
     1
290
     0
176
     1
 90
       50
176
     1
 90
       50
176
     1
 90
       50
176
     1
290
     0
176
     1
 90
       50
176
     1
 62
   256
176
     0
 40
1.0
176
     0
 90
        2
176
     1
  1
strokes_ogs.tif
176
     1
290
     0
176
     1
 40
1.0
176
     1
 40
1.0
176
     1
1001
ACAD
1000
AcDbSavedByObjectVersion
1070
     0
  0
VISUALSTYLE
  5
2E
102
{ACAD_REACTORS
330
2A
102
}
330
2A
100
AcDbVisualStyle
  2

 70
     3
177
     3
291
     1
 70
    58
 90
        2
176
     1
 90
        2
176
     1
 90
        1
176
     1
 90
        2
176
     1
 40
0.6
176
     1
 40
30.0
176
     1
 62
     7
176
     1
 90
        1
176
     1
 90
        4
176
     1
 62
     7
176
     1
 62
   257
176
     1
 90
        1
176
     1
 90
        1
176
     1
 40
1.0
176
     1
 90
        0
176
     1
 62
   257
176
     1
 40
1.0
176
     1
 90
        1
176
     1
 90
        6
176
     1
 90
        2
176
     1
 62
     7
176
     1
 90
        5
176
     1
 90
        0
176
     1
 90
        0
176
     1
290
     0
176
     1
 90
       13
176
     1
 40
0.0
176
     1
 90
        0
176
     1
290
     0
176
     1
290
     1
176
     1
290
     1
176
     1
290
     0
176
     1
290
     0
176
     1
290
     0
176
     1
290
     0
176
     1
290
     0
176
     1
290
     0
176
     1
 90
       50
176
     1
 40
0.0
176
     1
 40
1.0
176
     1
 90
        0
176
     1
 62
    18
176
     1
 90
       50
176
     1
 90
        3
176
     1
 62
     5
420
      255
176
     1
290
     0
176
     1
 90
       50
176
     1
 90
       50
176
     1
 90
       50
176
     1
290
     0
176
     1
 90
       50
176
     1
 62
   256
176
     0
 40
1.0
176
     0
 90
        2
176
     1
  1
strokes_ogs.tif
176
     1
290
     0
176
     1
 40
1.0
176
     1
 40
1.0
176
     1
1001
ACAD
1000
AcDbSavedByObjectVersion
1070
     0
  0
VISUALSTYLE
  5
716
102
{ACAD_REACTORS
330
2A
102
}
330
2A
100
AcDbVisualStyle
  2
Hidden
 70
     6
177
     3
291
     0
 70
    58
 90
        1
176
     1
 90
        2
176
     1
 90
        2
176
     1
 90
        0
176
     1
 40
0.6
176
     1
 40
30.0
176
     1
 62
     7
420
 16777215
176
     1
 90
        2
176
     1
 90
        2
176
     1
 62
     7
176
     1
 62
   257
176
     1
 90
        2
176
     1
 90
        1
176
     1
 40
40.0
176
     1
 90
        0
176
     1
 62
   257
176
     1
 40
1.0
176
     1
 90
        1
176
     1
 90
        6
176
     1
 90
        2
176
     1
 62
     7
176
     1
 90
        3
176
     1
 90
        0
176
     1
 90
        0
176
     1
290
     0
176
     1
 90
        1
176
     1
 40
0.0
176
     1
 90
        0
176
     1
290
     0
176
     1
290
     1
176
     1
290
     1
176
     1
290
     0
176
     1
290
     0
176
     1
290
     0
176
     1
290
     0
176
     1
290
     0
176
     1
290
     0
176
     1
 90
       50
176
     1
 40
0.0
176
     1
 40
1.0
176
     1
 90
        0
176
     1
 62
    18
176
     1
 90
       50
176
     1
 90
        3
176
     1
 62
     5
420
      255
176
     1
290
     0
176
     1
 90
       50
176
     1
 90
       50
176
     1
 90
       50
176
     1
290
     0
176
     1
 90
       50
176
     1
 62
   256
176
     0
 40
1.0
176
     0
 90
        2
176
     1
  1
strokes_ogs.tif
176
     1
290
     0
176
     1
 40
1.0
176
     1
 40
1.0
176
     1
1001
ACAD
1000
AcDbSavedByObjectVersion
1070
     0
  0
VISUALSTYLE
  5
71C
102
{ACAD_REACTORS
330
2A
102
}
330
2A
100
AcDbVisualStyle
  2
JitterOff
 70
    20
177
     3
291
     1
 70
    58
 90
        2
176
     0
 90
        2
176
     0
 90
        0
176
     0
 90
        0
176
     0
 40
0.6
176
     0
 40
30.0
176
     0
 62
     7
420
 16777215
176
     0
 90
        1
176
     0
 90
        4
176
     0
 62
     7
176
     0
 62
   257
176
     0
 90
        1
176
     0
 90
        1
176
     0
 40
1.0
176
     0
 90
       10
176
     2
 62
     7
176
     0
 40
1.0
176
     0
 90
        1
176
     0
 90
        6
176
     0
 90
        2
176
     0
 62
     7
176
     0
 90
        5
176
     0
 90
        0
176
     0
 90
        0
176
     0
290
     0
176
     0
 90
        1
176
     0
 40
0.0
176
     0
 90
        0
176
     0
290
     0
176
     1
290
     1
176
     1
290
     1
176
     1
290
     0
176
     1
290
     0
176
     1
290
     0
176
     1
290
     0
176
     1
290
     0
176
     1
290
     0
176
     1
 90
       50
176
     0
 40
0.0
176
     0
 40
1.0
176
     0
 90
        0
176
     0
 62
    18
176
     0
 90
       50
176
     0
 90
        3
176
     0
 62
     5
420
      255
176
     0
290
     0
176
     1
 90
       50
176
     0
 90
       50
176
     0
 90
       50
176
     0
290
     0
176
     1
 90
       50
176
     0
 62
   256
176
     0
 40
1.0
176
     0
 90
        2
176
     0
  1
strokes_ogs.tif
176
     0
290
     0
176
     1
 40
1.0
176
     0
 40
1.0
176
     0
1001
ACAD
1000
AcDbSavedByObjectVersion
1070
     0
  0
VISUALSTYLE
  5
38
102
{ACAD_REACTORS
330
2A
102
}
330
2A
100
AcDbVisualStyle
  2

 70
    14
177
     3
291
     1
 70
    58
 90
        2
176
     1
 90
        2
176
     1
 90
        0
176
     1
 90
        0
176
     1
 40
0.6
176
     1
 40
30.0
176
     1
 62
     7
176
     1
 90
        1
176
     1
 90
        4
176
     1
 62
     7
176
     1
 62
   257
176
     1
 90
        7
176
     1
 90
        7
176
     1
 40
1.0
176
     1
 90
        8
176
     1
 62
     7
176
     1
 40
1.0
176
     1
 90
        1
176
     1
 90
        6
176
     1
 90
        2
176
     1
 62
     7
176
     1
 90
        5
176
     1
 90
        0
176
     1
 90
        0
176
     1
290
     0
176
     1
 90
        1
176
     1
 40
0.0
176
     1
 90
        0
176
     1
290
     0
176
     1
290
     1
176
     1
290
     1
176
     1
290
     0
176
     1
290
     0
176
     1
290
     0
176
     1
290
     0
176
     1
290
     0
176
     1
290
     0
176
     1
 90
       50
176
     1
 40
0.0
176
     1
 40
1.0
176
     1
 90
        0
176
     1
 62
    18
176
     1
 90
       50
176
     1
 90
        3
176
     1
 62
     5
420
      255
176
     1
290
     0
176
     1
 90
       50
176
     1
 90
       50
176
     1
 90
       50
176
     1
290
     0
176
     1
 90
       50
176
     1
 62
   256
176
     0
 40
1.0
176
     0
 90
        2
176
     1
  1
strokes_ogs.tif
176
     1
290
     0
176
     1
 40
1.0
176
     1
 40
1.0
176
     1
1001
ACAD
1000
AcDbSavedByObjectVersion
1070
     0
  0
VISUALSTYLE
  5
71D
102
{ACAD_REACTORS
330
2A
102
}
330
2A
100
AcDbVisualStyle
  2
OverhangOff
 70
    21
177
     3
291
     1
 70
    58
 90
        2
176
     0
 90
        2
176
     0
 90
        0
176
     0
 90
        0
176
     0
 40
0.6
176
     0
 40
30.0
176
     0
 62
     7
420
 16777215
176
     0
 90
        1
176
     0
 90
        4
176
     0
 62
     7
176
     0
 62
   257
176
     0
 90
        1
176
     0
 90
        1
176
     0
 40
1.0
176
     0
 90
        9
176
     2
 62
     7
176
     0
 40
1.0
176
     0
 90
        1
176
     0
 90
        6
176
     0
 90
        2
176
     0
 62
     7
176
     0
 90
        5
176
     0
 90
        0
176
     0
 90
        0
176
     0
290
     0
176
     0
 90
        1
176
     0
 40
0.0
176
     0
 90
        0
176
     0
290
     0
176
     1
290
     1
176
     1
290
     1
176
     1
290
     0
176
     1
290
     0
176
     1
290
     0
176
     1
290
     0
176
     1
290
     0
176
     1
290
     0
176
     1
 90
       50
176
     0
 40
0.0
176
     0
 40
1.0
176
     0
 90
        0
176
     0
 62
    18
176
     0
 90
       50
176
     0
 90
        3
176
     0
 62
     5
420
      255
176
     0
290
     0
176
     1
 90
       50
176
     0
 90
       50
176
     0
 90
       50
176
     0
290
     0
176
     1
 90
       50
176
     0
 62
   256
176
     0
 40
1.0
176
     0
 90
        2
176
     0
  1
strokes_ogs.tif
176
     0
290
     0
176
     1
 40
1.0
176
     0
 40
1.0
176
     0
1001
ACAD
1000
AcDbSavedByObjectVersion
1070
     0
  0
VISUALSTYLE
  5
33
102
{ACAD_REACTORS
330
2A
102
}
330
2A
100
AcDbVisualStyle
  2

 70
     8
177
     3
291
     0
 70
    58
 90
        2
176
     1
 90
        2
176
     1
 90
        0
176
     1
 90
        0
176
     1
 40
0.6
176
     1
 40
30.0
176
     1
 62
     7
176
     1
 90
        1
176
     1
 90
        0
176
     1
 62
     7
176
     1
 62
   257
176
     1
 90
        1
176
     1
 90
        1
176
     1
 40
1.0
176
     1
 90
        8
176
     1
 62
     8
176
     1
 40
1.0
176
     1
 90
        1
176
     1
 90
        6
176
     1
 90
        2
176
     1
 62
     7
176
     1
 90
        5
176
     1
 90
        0
176
     1
 90
        0
176
     1
290
     0
176
     1
 90
       13
176
     1
 40
0.0
176
     1
 90
        0
176
     1
290
     0
176
     1
290
     1
176
     1
290
     1
176
     1
290
     0
176
     1
290
     0
176
     1
290
     0
176
     1
290
     0
176
     1
290
     0
176
     1
290
     0
176
     1
 90
       50
176
     1
 40
0.0
176
     1
 40
1.0
176
     1
 90
        0
176
     1
 62
    18
176
     1
 90
       50
176
     1
 90
        3
176
     1
 62
     5
420
      255
176
     1
290
     0
176
     1
 90
       50
176
     1
 90
       50
176
     1
 90
       50
176
     1
290
     0
176
     1
 90
       50
176
     1
 62
   256
176
     0
 40
1.0
176
     0
 90
        2
176
     1
  1
strokes_ogs.tif
176
     1
290
     0
176
     1
 40
1.0
176
     1
 40
1.0
176
     1
1001
ACAD
1000
AcDbSavedByObjectVersion
1070
     0
  0
VISUALSTYLE
  5
71B
102
{ACAD_REACTORS
330
2A
102
}
330
2A
100
AcDbVisualStyle
  2
Shaded
 70
    27
177
     3
291
     0
 70
    58
 90
        2
176
     1
 90
        2
176
     1
 90
        1
176
     1
 90
        2
176
     1
 40
0.6
176
     1
 40
30.0
176
     1
 62
     7
420
 16777215
176
     1
 90
        0
176
     1
 90
        4
176
     1
 62
     7
176
     1
 62
   257
176
     1
 90
        1
176
     1
 90
        1
176
     1
 40
1.0
176
     1
 90
        8
176
     1
 62
   257
176
     1
 40
1.0
176
     1
 90
        1
176
     1
 90
        6
176
     1
 90
        2
176
     1
 62
     8
420
  7895160
176
     1
 90
        3
176
     1
 90
        0
176
     1
 90
        0
176
     1
290
     0
176
     1
 90
        5
176
     1
 40
0.0
176
     1
 90
        0
176
     1
290
     0
176
     1
290
     1
176
     1
290
     1
176
     1
290
     0
176
     1
290
     0
176
     1
290
     0
176
     1
290
     0
176
     1
290
     0
176
     1
290
     0
176
     1
 90
       50
176
     1
 40
0.0
176
     1
 40
1.0
176
     1
 90
        0
176
     1
 62
    18
176
     1
 90
       50
176
     1
 90
        3
176
     1
 62
     5
420
      255
176
     1
290
     0
176
     1
 90
       50
176
     1
 90
       50
176
     1
 90
       50
176
     1
290
     0
176
     1
 90
       50
176
     1
 62
   256
176
     0
 40
1.0
176
     0
 90
        2
176
     1
  1
strokes_ogs.tif
176
     1
290
     0
176
     1
 40
1.0
176
     1
 40
1.0
176
     1
1001
ACAD
1000
AcDbSavedByObjectVersion
1070
     0
  0
VISUALSTYLE
  5
71A
102
{ACAD_REACTORS
330
2A
102
}
330
2A
100
AcDbVisualStyle
  2
Shaded with edges
 70
    26
177
     3
291
     0
 70
    58
 90
        2
176
     1
 90
        2
176
     1
 90
        1
176
     1
 90
        2
176
     1
 40
0.6
176
     1
 40
30.0
176
     1
 62
     7
420
 16777215
176
     1
 90
        1
176
     1
 90
        2
176
     1
 62
     7
176
     1
 62
   257
176
     1
 90
        2
176
     1
 90
        1
176
     1
 40
1.0
176
     1
 90
        8
176
     1
 62
   257
176
     1
 40
1.0
176
     1
 90
        1
176
     1
 90
        6
176
     1
 90
        2
176
     1
 62
     7
176
     1
 90
        3
176
     1
 90
        0
176
     1
 90
        0
176
     1
290
     0
176
     1
 90
        5
176
     1
 40
0.0
176
     1
 90
        0
176
     1
290
     0
176
     1
290
     1
176
     1
290
     1
176
     1
290
     0
176
     1
290
     0
176
     1
290
     0
176
     1
290
     0
176
     1
290
     0
176
     1
290
     0
176
     1
 90
       50
176
     1
 40
0.0
176
     1
 40
1.0
176
     1
 90
        0
176
     1
 62
    18
176
     1
 90
       50
176
     1
 90
        3
176
     1
 62
     5
420
      255
176
     1
290
     0
176
     1
 90
       50
176
     1
 90
       50
176
     1
 90
       50
176
     1
290
     0
176
     1
 90
       50
176
     1
 62
   256
176
     0
 40
1.0
176
     0
 90
        2
176
     1
  1
strokes_ogs.tif
176
     1
290
     0
176
     1
 40
1.0
176
     1
 40
1.0
176
     1
1001
ACAD
1000
AcDbSavedByObjectVersion
1070
     0
  0
VISUALSTYLE
  5
717
102
{ACAD_REACTORS
330
2A
102
}
330
2A
100
AcDbVisualStyle
  2
Shades of Gray
 70
    23
177
     3
291
     0
 70
    58
 90
        2
176
     1
 90
        2
176
     1
 90
        3
176
     1
 90
        0
176
     1
 40
0.6
176
     1
 40
30.0
176
     1
 62
     7
420
 16777215
176
     1
 90
        2
176
     1
 90
        2
176
     1
 62
     7
176
     1
 62
     7
176
     1
 90
        1
176
     1
 90
        1
176
     1
 40
40.0
176
     1
 90
        8
176
     1
 62
     7
176
     1
 40
1.0
176
     1
 90
        1
176
     1
 90
        6
176
     1
 90
        2
176
     1
 62
     7
176
     1
 90
        3
176
     1
 90
        0
176
     1
 90
        0
176
     1
290
     0
176
     1
 90
        1
176
     1
 40
0.0
176
     1
 90
        0
176
     1
290
     0
176
     1
290
     1
176
     1
290
     1
176
     1
290
     0
176
     1
290
     0
176
     1
290
     0
176
     1
290
     0
176
     1
290
     0
176
     1
290
     0
176
     1
 90
       50
176
     1
 40
0.0
176
     1
 40
1.0
176
     1
 90
        0
176
     1
 62
    18
176
     1
 90
       50
176
     1
 90
        3
176
     1
 62
     5
420
      255
176
     1
290
     0
176
     1
 90
       50
176
     1
 90
       50
176
     1
 90
       50
176
     1
290
     0
176
     1
 90
       50
176
     1
 62
   256
176
     0
 40
1.0
176
     0
 90
        2
176
     1
  1
strokes_ogs.tif
176
     1
290
     0
176
     1
 40
1.0
176
     1
 40
1.0
176
     1
1001
ACAD
1000
AcDbSavedByObjectVersion
1070
     0
  0
VISUALSTYLE
  5
718
102
{ACAD_REACTORS
330
2A
102
}
330
2A
100
AcDbVisualStyle
  2
Sketchy
 70
    24
177
     3
291
     0
 70
    58
 90
        1
176
     1
 90
        2
176
     1
 90
        2
176
     1
 90
        0
176
     1
 40
0.6
176
     1
 40
30.0
176
     1
 62
     7
420
 16777215
176
     1
 90
        2
176
     1
 90
        2
176
     1
 62
     7
176
     1
 62
     7
176
     1
 90
        1
176
     1
 90
        1
176
     1
 40
40.0
176
     1
 90
       11
176
     1
 62
     7
176
     1
 40
1.0
176
     1
 90
        1
176
     1
 90
        6
176
     1
 90
        2
176
     1
 62
     7
176
     1
 90
        6
176
     1
 90
        0
176
     1
 90
        0
176
     1
290
     0
176
     1
 90
        1
176
     1
 40
0.0
176
     1
 90
        0
176
     1
290
     0
176
     1
290
     1
176
     1
290
     1
176
     1
290
     0
176
     1
290
     0
176
     1
290
     0
176
     1
290
     0
176
     1
290
     0
176
     1
290
     0
176
     1
 90
       50
176
     1
 40
0.0
176
     1
 40
1.0
176
     1
 90
        0
176
     1
 62
    18
176
     1
 90
       50
176
     1
 90
        3
176
     1
 62
     5
420
      255
176
     1
290
     0
176
     1
 90
       50
176
     1
 90
       50
176
     1
 90
       50
176
     1
290
     0
176
     1
 90
       50
176
     1
 62
   256
176
     0
 40
1.0
176
     0
 90
        2
176
     1
  1
strokes_ogs.tif
176
     1
290
     0
176
     1
 40
1.0
176
     1
 40
1.0
176
     1
1001
ACAD
1000
AcDbSavedByObjectVersion
1070
     0
  0
VISUALSTYLE
  5
37
102
{ACAD_REACTORS
330
2A
102
}
330
2A
100
AcDbVisualStyle
  2

 70
    13
177
     3
291
     1
 70
    58
 90
        2
176
     1
 90
        2
176
     1
 90
        0
176
     1
 90
        0
176
     1
 40
0.6
176
     1
 40
30.0
176
     1
 62
     7
176
     1
 90
        1
176
     1
 90
        4
176
     1
 62
     7
176
     1
 62
   257
176
     1
 90
        1
176
     1
 90
        1
176
     1
 40
1.0
176
     1
 90
       12
176
     1
 62
     7
176
     1
 40
1.0
176
     1
 90
        1
176
     1
 90
        6
176
     1
 90
        2
176
     1
 62
     7
176
     1
 90
        5
176
     1
 90
        0
176
     1
 90
        0
176
     1
290
     0
176
     1
 90
        1
176
     1
 40
0.0
176
     1
 90
        0
176
     1
290
     0
176
     1
290
     1
176
     1
290
     1
176
     1
290
     0
176
     1
290
     0
176
     1
290
     0
176
     1
290
     0
176
     1
290
     0
176
     1
290
     0
176
     1
 90
       50
176
     1
 40
0.0
176
     1
 40
1.0
176
     1
 90
        0
176
     1
 62
    18
176
     1
 90
       50
176
     1
 90
        3
176
     1
 62
     5
420
      255
176
     1
290
     0
176
     1
 90
       50
176
     1
 90
       50
176
     1
 90
       50
176
     1
290
     0
176
     1
 90
       50
176
     1
 62
   256
176
     0
 40
1.0
176
     0
 90
        2
176
     1
  1
strokes_ogs.tif
176
     1
290
     0
176
     1
 40
1.0
176
     1
 40
1.0
176
     1
1001
ACAD
1000
AcDbSavedByObjectVersion
1070
     0
  0
VISUALSTYLE
  5
715
102
{ACAD_REACTORS
330
2A
102
}
330
2A
100
AcDbVisualStyle
  2
Wireframe
 70
     5
177
     3
291
     0
 70
    58
 90
        0
176
     1
 90
        2
176
     1
 90
        0
176
     1
 90
        0
176
     1
 40
0.6
176
     1
 40
30.0
176
     1
 62
     7
420
 16777215
176
     1
 90
        1
176
     1
 90
        4
176
     1
 62
     7
176
     1
 62
   257
176
     1
 90
        1
176
     1
 90
        1
176
     1
 40
1.0
176
     1
 90
        0
176
     1
 62
   257
176
     1
 40
1.0
176
     1
 90
        1
176
     1
 90
        6
176
     1
 90
        2
176
     1
 62
     7
176
     1
 90
        3
176
     1
 90
        0
176
     1
 90
        0
176
     1
290
     0
176
     1
 90
        1
176
     1
 40
0.0
176
     1
 90
        0
176
     1
290
     0
176
     1
290
     1
176
     1
290
     1
176
     1
290
     0
176
     1
290
     0
176
     1
290
     0
176
     1
290
     0
176
     1
290
     0
176
     1
290
     0
176
     1
 90
       50
176
     1
 40
0.0
176
     1
 40
1.0
176
     1
 90
        0
176
     1
 62
    18
176
     1
 90
       50
176
     1
 90
        3
176
     1
 62
     5
420
      255
176
     1
290
     0
176
     1
 90
       50
176
     1
 90
       50
176
     1
 90
       50
176
     1
290
     0
176
     1
 90
       50
176
     1
 62
   256
176
     0
 40
1.0
176
     0
 90
        2
176
     1
  1
strokes_ogs.tif
176
     1
290
     0
176
     1
 40
1.0
176
     1
 40
1.0
176
     1
1001
ACAD
1000
AcDbSavedByObjectVersion
1070
     0
  0
VISUALSTYLE
  5
719
102
{ACAD_REACTORS
330
2A
102
}
330
2A
100
AcDbVisualStyle
  2
X-Ray
 70
    25
177
     3
291
     0
 70
    58
 90
        2
176
     1
 90
        2
176
     1
 90
        1
176
     1
 90
        1
176
     1
 40
0.5
176
     1
 40
30.0
176
     1
 62
     7
420
 16777215
176
     1
 90
        1
176
     1
 90
        0
176
     1
 62
     7
176
     1
 62
   257
176
     1
 90
        1
176
     1
 90
        1
176
     1
 40
1.0
176
     1
 90
        8
176
     1
 62
     7
176
     1
 40
1.0
176
     1
 90
        1
176
     1
 90
        6
176
     1
 90
        2
176
     1
 62
     7
176
     1
 90
        3
176
     1
 90
        0
176
     1
 90
        0
176
     1
290
     0
176
     1
 90
       13
176
     1
 40
0.0
176
     1
 90
        0
176
     1
290
     0
176
     1
290
     1
176
     1
290
     1
176
     1
290
     0
176
     1
290
     0
176
     1
290
     0
176
     1
290
     0
176
     1
290
     0
176
     1
290
     0
176
     1
 90
       50
176
     1
 40
0.0
176
     1
 40
1.0
176
     1
 90
        0
176
     1
 62
    18
176
     1
 90
       50
176
     1
 90
        3
176
     1
 62
     5
420
      255
176
     1
290
     0
176
     1
 90
       50
176
     1
 90
       50
176
     1
 90
       50
176
     1
290
     0
176
     1
 90
       50
176
     1
 62
   256
176
     0
 40
1.0
176
     0
 90
        2
176
     1
  1
strokes_ogs.tif
176
     1
290
     0
176
     1
 40
1.0
176
     1
 40
1.0
176
     1
1001
ACAD
1000
AcDbSavedByObjectVersion
1070
     0
  0
DICTIONARYVAR
  5
8A3
102
{ACAD_REACTORS
330
6E1
102
}
330
6E1
100
DictionaryVariables
280
     0
  1
1:1
  0
DICTIONARYVAR
  5
89F
102
{ACAD_REACTORS
330
6E1
102
}
330
6E1
100
DictionaryVariables
280
     0
  1
STANDARD
  0
DICTIONARYVAR
  5
6E2
102
{ACAD_REACTORS
330
6E1
102
}
330
6E1
100
DictionaryVariables
280
     0
  1
STANDARD
  0
DICTIONARYVAR
  5
8A0
102
{ACAD_REACTORS
330
6E1
102
}
330
6E1
100
DictionaryVariables
280
     0
  1
Metric50
  0
DICTIONARYVAR
  5
8A1
102
{ACAD_REACTORS
330
6E1
102
}
330
6E1
100
DictionaryVariables
280
     0
  1
Metric50
  0
DICTIONARYVAR
  5
703
102
{ACAD_REACTORS
330
6E1
102
}
330
6E1
100
DictionaryVariables
280
     0
  1
1
  0
DICTIONARYVAR
  5
702
102
{ACAD_REACTORS
330
6E1
102
}
330
6E1
100
DictionaryVariables
280
     0
  1
0
  0
DICTIONARYVAR
  5
8A5
102
{ACAD_REACTORS
330
6E1
102
}
330
6E1
100
DictionaryVariables
280
     0
  1
1
  0
DICTIONARYVAR
  5
8A6
102
{ACAD_REACTORS
330
6E1
102
}
330
6E1
100
DictionaryVariables
280
     0
  1
15
  0
DICTIONARYVAR
  5
8A4
102
{ACAD_REACTORS
330
6E1
102
}
330
6E1
100
DictionaryVariables
280
     0
  1
0
  0
DICTIONARYVAR
  5
8A2
102
{ACAD_REACTORS
330
6E1
102
}
330
6E1
100
DictionaryVariables
280
     0
  1
0
  0
DICTIONARYVAR
  5
701
102
{ACAD_REACTORS
330
6E1
102
}
330
6E1
100
DictionaryVariables
280
     0
  1
127
  0
DICTIONARY
  5
CF3
330
8CD
100
AcDbDictionary
280
     1
281
     1
  3
ACAD_XREC_ROUNDTRIP
360
CF4
  0
DICTIONARY
  5
CEF
330
735
100
AcDbDictionary
280
     1
281
     1
  3
ACAD_XREC_ROUNDTRIP
360
CF0
  0
DICTIONARY
  5
70D
330
6DB
100
AcDbDictionary
280
     1
281
     1
  3
ACAD_XREC_ROUNDTRIP
360
70E
  0
DICTIONARY
  5
70B
330
6DA
100
AcDbDictionary
280
     1
281
     1
  3
ACAD_XREC_ROUNDTRIP
360
70C
  0
DICTIONARY
  5
70F
330
6DC
100
AcDbDictionary
280
     1
281
     1
  3
ACAD_XREC_ROUNDTRIP
360
710
  0
DICTIONARY
  5
CF1
330
8CC
100
AcDbDictionary
280
     1
281
     1
  3
ACAD_XREC_ROUNDTRIP
360
CF2
  0
DICTIONARY
  5
CED
330
733
100
AcDbDictionary
280
     1
281
     1
  3
ACAD_XREC_ROUNDTRIP
360
CEE
  0
DICTIONARY
  5
8A7
330
6DE
100
AcDbDictionary
280
     1
281
     1
  3
ACAD_ROUNDTRIP_2008_TABLESTYLE_CELLSTYLEMAP
360
CEB
  0
XRECORD
  5
CF4
102
{ACAD_REACTORS
330
CF3
102
}
330
CF3
100
AcDbXrecord
280
     1
102
DISPLAYNAME
  1
Imperial24
102
FLAGS
 90
        0
  0
XRECORD
  5
CF0
102
{ACAD_REACTORS
330
CEF
102
}
330
CEF
100
AcDbXrecord
280
     1
102
DISPLAYNAME
  1
Metric50
102
FLAGS
 90
        0
  0
XRECORD
  5
70E
102
{ACAD_REACTORS
330
70D
102
}
330
70D
100
AcDbXrecord
280
     1
102
MATERIAL
148
0.0
149
0.0
149
0.0
 93
        0
 94
       63
282
     0
 72
     1
 77
     1
171
     1
175
     1
179
     1
273
     0
  0
XRECORD
  5
70C
102
{ACAD_REACTORS
330
70B
102
}
330
70B
100
AcDbXrecord
280
     1
102
MATERIAL
148
0.0
149
0.0
149
0.0
 93
        0
 94
       63
282
     0
 72
     1
 77
     1
171
     1
175
     1
179
     1
273
     0
  0
XRECORD
  5
710
102
{ACAD_REACTORS
330
70F
102
}
330
70F
100
AcDbXrecord
280
     1
102
MATERIAL
148
0.0
149
0.0
149
0.0
 93
        0
 94
       63
282
     0
 72
     1
 77
     1
171
     1
175
     1
179
     1
273
     0
  0
XRECORD
  5
CF2
102
{ACAD_REACTORS
330
CF1
102
}
330
CF1
100
AcDbXrecord
280
     1
102
DISPLAYNAME
  1
Imperial24
102
FLAGS
 90
        0
  0
XRECORD
  5
CEE
102
{ACAD_REACTORS
330
CED
102
}
330
CED
100
AcDbXrecord
280
     1
102
DISPLAYNAME
  1
Metric50
102
FLAGS
 90
        0
  0
CELLSTYLEMAP
  5
CEB
102
{ACAD_REACTORS
330
8A7
102
}
330
8A7
100
AcDbCellStyleMap
 90
        3
300
CELLSTYLE
  1
TABLEFORMAT_BEGIN
 90
        5
170
     1
 91
        0
 92
    32768
 62
   257
 93
        1
300
CONTENTFORMAT
  1
CONTENTFORMAT_BEGIN
 90
        0
 91
        0
 92
      512
 93
        0
300

 40
0.0
140
1.0
 94
        5
 62
     0
340
11
144
6.0
309
CONTENTFORMAT_END
171
     1
301
MARGIN
  1
CELLMARGIN_BEGIN
 40
1.5
 40
1.5
 40
1.5
 40
1.5
 40
0.18
 40
0.18
309
CELLMARGIN_END
 94
        6
 95
        1
302
GRIDFORMAT
  1
GRIDFORMAT_BEGIN
 90
        0
 91
        1
 62
     0
 92
       -2
340
0
 93
        0
 40
0.045
309
GRIDFORMAT_END
 95
        2
302
GRIDFORMAT
  1
GRIDFORMAT_BEGIN
 90
        0
 91
        1
 62
     0
 92
       -2
340
0
 93
        0
 40
0.045
309
GRIDFORMAT_END
 95
        4
302
GRIDFORMAT
  1
GRIDFORMAT_BEGIN
 90
        0
 91
        1
 62
     0
 92
       -2
340
0
 93
        0
 40
0.045
309
GRIDFORMAT_END
 95
        8
302
GRIDFORMAT
  1
GRIDFORMAT_BEGIN
 90
        0
 91
        1
 62
     0
 92
       -2
340
0
 93
        0
 40
0.045
309
GRIDFORMAT_END
 95
       16
302
GRIDFORMAT
  1
GRIDFORMAT_BEGIN
 90
        0
 91
        1
 62
     0
 92
       -2
340
0
 93
        0
 40
0.045
309
GRIDFORMAT_END
 95
       32
302
GRIDFORMAT
  1
GRIDFORMAT_BEGIN
 90
        0
 91
        1
 62
     0
 92
       -2
340
0
 93
        0
 40
0.045
309
GRIDFORMAT_END
309
TABLEFORMAT_END
  1
CELLSTYLE_BEGIN
 90
        1
 91
        1
300
_TITLE
309
CELLSTYLE_END
300
CELLSTYLE
  1
TABLEFORMAT_BEGIN
 90
        5
170
     1
 91
        0
 92
        0
 62
   257
 93
        1
300
CONTENTFORMAT
  1
CONTENTFORMAT_BEGIN
 90
        0
 91
        0
 92
      512
 93
        0
300

 40
0.0
140
1.0
 94
        5
 62
     0
340
11
144
4.5
309
CONTENTFORMAT_END
171
     1
301
MARGIN
  1
CELLMARGIN_BEGIN
 40
1.5
 40
1.5
 40
1.5
 40
1.5
 40
0.18
 40
0.18
309
CELLMARGIN_END
 94
        6
 95
        1
302
GRIDFORMAT
  1
GRIDFORMAT_BEGIN
 90
        0
 91
        1
 62
     0
 92
       -2
340
0
 93
        0
 40
0.045
309
GRIDFORMAT_END
 95
        2
302
GRIDFORMAT
  1
GRIDFORMAT_BEGIN
 90
        0
 91
        1
 62
     0
 92
       -2
340
0
 93
        0
 40
0.045
309
GRIDFORMAT_END
 95
        4
302
GRIDFORMAT
  1
GRIDFORMAT_BEGIN
 90
        0
 91
        1
 62
     0
 92
       -2
340
0
 93
        0
 40
0.045
309
GRIDFORMAT_END
 95
        8
302
GRIDFORMAT
  1
GRIDFORMAT_BEGIN
 90
        0
 91
        1
 62
     0
 92
       -2
340
0
 93
        0
 40
0.045
309
GRIDFORMAT_END
 95
       16
302
GRIDFORMAT
  1
GRIDFORMAT_BEGIN
 90
        0
 91
        1
 62
     0
 92
       -2
340
0
 93
        0
 40
0.045
309
GRIDFORMAT_END
 95
       32
302
GRIDFORMAT
  1
GRIDFORMAT_BEGIN
 90
        0
 91
        1
 62
     0
 92
       -2
340
0
 93
        0
 40
0.045
309
GRIDFORMAT_END
309
TABLEFORMAT_END
  1
CELLSTYLE_BEGIN
 90
        2
 91
        1
300
_HEADER
309
CELLSTYLE_END
300
CELLSTYLE
  1
TABLEFORMAT_BEGIN
 90
        5
170
     1
 91
        0
 92
        0
 62
   257
 93
        1
300
CONTENTFORMAT
  1
CONTENTFORMAT_BEGIN
 90
        0
 91
        0
 92
      512
 93
        0
300

 40
0.0
140
1.0
 94
        2
 62
     0
340
11
144
4.5
309
CONTENTFORMAT_END
171
     1
301
MARGIN
  1
CELLMARGIN_BEGIN
 40
1.5
 40
1.5
 40
1.5
 40
1.5
 40
0.18
 40
0.18
309
CELLMARGIN_END
 94
        6
 95
        1
302
GRIDFORMAT
  1
GRIDFORMAT_BEGIN
 90
        0
 91
        1
 62
     0
 92
       -2
340
0
 93
        0
 40
0.045
309
GRIDFORMAT_END
 95
        2
302
GRIDFORMAT
  1
GRIDFORMAT_BEGIN
 90
        0
 91
        1
 62
     0
 92
       -2
340
0
 93
        0
 40
0.045
309
GRIDFORMAT_END
 95
        4
302
GRIDFORMAT
  1
GRIDFORMAT_BEGIN
 90
        0
 91
        1
 62
     0
 92
       -2
340
0
 93
        0
 40
0.045
309
GRIDFORMAT_END
 95
        8
302
GRIDFORMAT
  1
GRIDFORMAT_BEGIN
 90
        0
 91
        1
 62
     0
 92
       -2
340
0
 93
        0
 40
0.045
309
GRIDFORMAT_END
 95
       16
302
GRIDFORMAT
  1
GRIDFORMAT_BEGIN
 90
        0
 91
        1
 62
     0
 92
       -2
340
0
 93
        0
 40
0.045
309
GRIDFORMAT_END
 95
       32
302
GRIDFORMAT
  1
GRIDFORMAT_BEGIN
 90
        0
 91
        1
 62
     0
 92
       -2
340
0
 93
        0
 40
0.045
309
GRIDFORMAT_END
309
TABLEFORMAT_END
  1
CELLSTYLE_BEGIN
 90
        3
 91
        2
300
_DATA
309
CELLSTYLE_END
  0
ENDSEC
  0
EOF
