  0
SECTION
  2
HEADER
  9
$ACADVER
  1
AC1027
  9
$ACADMAINTVER
 70
   125
  9
$DWGCODEPAGE
  3
ANSI_1252
  9
$LASTSAVEDBY
  1
kaschu
  9
$REQUIREDVERSIONS
160
                 0
  9
$INSBASE
 10
0.0
 20
0.0
 30
0.0
  9
$EXTMIN
 10
4.596020253075224
 20
-57.67818127759665
 30
-0.0000000000000152
  9
$EXTMAX
 10
16251.6518525198
 20
865.7356360924437
 30
0.000000000000113
  9
$LIMMIN
 10
-0.5
 20
-0.5
  9
$LIMMAX
 10
5.0
 20
5.0
  9
$ORTHOMODE
 70
     1
  9
$REGENMODE
 70
     1
  9
$FILLMODE
 70
     1
  9
$QTEXTMODE
 70
     0
  9
$MIRRTEXT
 70
     1
  9
$LTSCALE
 40
1.0
  9
$ATTMODE
 70
     1
  9
$TEXTSIZE
 40
25.0
  9
$TRACEWID
 40
0.05
  9
$TEXTSTYLE
  7
Standard
  9
$CLAYER
  8
0
  9
$CELTYPE
  6
BYLAYER
  9
$CECOLOR
 62
   256
  9
$CELTSCALE
 40
1.0
  9
$DISPSILH
 70
     0
  9
$DIMSCALE
 40
1.0
  9
$DIMASZ
 40
0.18
  9
$DIMEXO
 40
0.0625
  9
$DIMDLI
 40
0.38
  9
$DIMRND
 40
0.0
  9
$DIMDLE
 40
0.0
  9
$DIMEXE
 40
0.18
  9
$DIMTP
 40
0.0
  9
$DIMTM
 40
0.0
  9
$DIMTXT
 40
0.18
  9
$DIMCEN
 40
0.09
  9
$DIMTSZ
 40
0.0
  9
$DIMTOL
 70
     0
  9
$DIMLIM
 70
     0
  9
$DIMTIH
 70
     1
  9
$DIMTOH
 70
     1
  9
$DIMSE1
 70
     0
  9
$DIMSE2
 70
     0
  9
$DIMTAD
 70
     0
  9
$DIMZIN
 70
     0
  9
$DIMBLK
  1

  9
$DIMASO
 70
     1
  9
$DIMSHO
 70
     1
  9
$DIMPOST
  1

  9
$DIMAPOST
  1

  9
$DIMALT
 70
     0
  9
$DIMALTD
 70
     2
  9
$DIMALTF
 40
25.4
  9
$DIMLFAC
 40
1.0
  9
$DIMTOFL
 70
     0
  9
$DIMTVP
 40
0.0
  9
$DIMTIX
 70
     0
  9
$DIMSOXD
 70
     0
  9
$DIMSAH
 70
     0
  9
$DIMBLK1
  1

  9
$DIMBLK2
  1

  9
$DIMSTYLE
  2
Standard
  9
$DIMCLRD
 70
     0
  9
$DIMCLRE
 70
     0
  9
$DIMCLRT
 70
     0
  9
$DIMTFAC
 40
1.0
  9
$DIMGAP
 40
0.09
  9
$DIMJUST
 70
     0
  9
$DIMSD1
 70
     0
  9
$DIMSD2
 70
     0
  9
$DIMTOLJ
 70
     1
  9
$DIMTZIN
 70
     0
  9
$DIMALTZ
 70
     0
  9
$DIMALTTZ
 70
     0
  9
$DIMUPT
 70
     0
  9
$DIMDEC
 70
     4
  9
$DIMTDEC
 70
     4
  9
$DIMALTU
 70
     2
  9
$DIMALTTD
 70
     2
  9
$DIMTXSTY
  7
Standard
  9
$DIMAUNIT
 70
     0
  9
$DIMADEC
 70
     0
  9
$DIMALTRND
 40
0.0
  9
$DIMAZIN
 70
     0
  9
$DIMDSEP
 70
    46
  9
$DIMATFIT
 70
     3
  9
$DIMFRAC
 70
     0
  9
$DIMLDRBLK
  1

  9
$DIMLUNIT
 70
     2
  9
$DIMLWD
 70
    -2
  9
$DIMLWE
 70
    -2
  9
$DIMTMOVE
 70
     0
  9
$DIMFXL
 40
1.0
  9
$DIMFXLON
 70
     0
  9
$DIMJOGANG
 40
0.7853981633974483
  9
$DIMTFILL
 70
     0
  9
$DIMTFILLCLR
 70
     0
  9
$DIMARCSYM
 70
     0
  9
$DIMLTYPE
  6

  9
$DIMLTEX1
  6

  9
$DIMLTEX2
  6

  9
$DIMTXTDIRECTION
 70
     0
  9
$LUNITS
 70
     2
  9
$LUPREC
 70
     4
  9
$SKETCHINC
 40
0.1
  9
$FILLETRAD
 40
0.5
  9
$AUNITS
 70
     0
  9
$AUPREC
 70
     0
  9
$MENU
  1
.
  9
$ELEVATION
 40
0.0
  9
$PELEVATION
 40
0.0
  9
$THICKNESS
 40
0.0
  9
$LIMCHECK
 70
     0
  9
$CHAMFERA
 40
0.5
  9
$CHAMFERB
 40
0.5
  9
$CHAMFERC
 40
1.0
  9
$CHAMFERD
 40
0.0
  9
$SKPOLY
 70
     0
  9
$TDCREATE
 40
2455694.560428241
  9
$TDUCREATE
 40
2455694.477100590
  9
$TDUPDATE
 40
2459478.686851852
  9
$TDUUPDATE
 40
2459478.603518519
  9
$TDINDWG
 40
0.0238805324
  9
$TDUSRTIMER
 40
0.0238805324
  9
$USRTIMER
 70
     1
  9
$ANGBASE
 50
0.0
  9
$ANGDIR
 70
     0
  9
$PDMODE
 70
     0
  9
$PDSIZE
 40
0.0
  9
$PLINEWID
 40
0.0
  9
$SPLFRAME
 70
     0
  9
$SPLINETYPE
 70
     6
  9
$SPLINESEGS
 70
     8
  9
$HANDSEED
  5
FB0
  9
$SURFTAB1
 70
     6
  9
$SURFTAB2
 70
     6
  9
$SURFTYPE
 70
     6
  9
$SURFU
 70
     6
  9
$SURFV
 70
     6
  9
$UCSBASE
  2

  9
$UCSNAME
  2

  9
$UCSORG
 10
0.0
 20
0.0
 30
0.0
  9
$UCSXDIR
 10
1.0
 20
0.0
 30
0.0
  9
$UCSYDIR
 10
0.0
 20
1.0
 30
0.0
  9
$UCSORTHOREF
  2

  9
$UCSORTHOVIEW
 70
     0
  9
$UCSORGTOP
 10
0.0
 20
0.0
 30
0.0
  9
$UCSORGBOTTOM
 10
0.0
 20
0.0
 30
0.0
  9
$UCSORGLEFT
 10
0.0
 20
0.0
 30
0.0
  9
$UCSORGRIGHT
 10
0.0
 20
0.0
 30
0.0
  9
$UCSORGFRONT
 10
0.0
 20
0.0
 30
0.0
  9
$UCSORGBACK
 10
0.0
 20
0.0
 30
0.0
  9
$PUCSBASE
  2

  9
$PUCSNAME
  2

  9
$PUCSORG
 10
0.0
 20
0.0
 30
0.0
  9
$PUCSXDIR
 10
1.0
 20
0.0
 30
0.0
  9
$PUCSYDIR
 10
0.0
 20
1.0
 30
0.0
  9
$PUCSORTHOREF
  2

  9
$PUCSORTHOVIEW
 70
     0
  9
$PUCSORGTOP
 10
0.0
 20
0.0
 30
0.0
  9
$PUCSORGBOTTOM
 10
0.0
 20
0.0
 30
0.0
  9
$PUCSORGLEFT
 10
0.0
 20
0.0
 30
0.0
  9
$PUCSORGRIGHT
 10
0.0
 20
0.0
 30
0.0
  9
$PUCSORGFRONT
 10
0.0
 20
0.0
 30
0.0
  9
$PUCSORGBACK
 10
0.0
 20
0.0
 30
0.0
  9
$USERI1
 70
     0
  9
$USERI2
 70
     0
  9
$USERI3
 70
     0
  9
$USERI4
 70
     0
  9
$USERI5
 70
     0
  9
$USERR1
 40
0.0
  9
$USERR2
 40
0.0
  9
$USERR3
 40
0.0
  9
$USERR4
 40
0.0
  9
$USERR5
 40
0.0
  9
$WORLDVIEW
 70
     1
  9
$SHADEDGE
 70
     3
  9
$SHADEDIF
 70
    70
  9
$TILEMODE
 70
     1
  9
$MAXACTVP
 70
    64
  9
$PINSBASE
 10
0.0
 20
0.0
 30
0.0
  9
$PLIMCHECK
 70
     0
  9
$PEXTMIN
 10
-0.5
 20
-0.5
 30
-0.5
  9
$PEXTMAX
 10
5.0
 20
5.0
 30
5.0
  9
$PLIMMIN
 10
-0.5
 20
-0.5
  9
$PLIMMAX
 10
5.0
 20
5.0
  9
$UNITMODE
 70
     0
  9
$VISRETAIN
 70
     1
  9
$PLINEGEN
 70
     0
  9
$PSLTSCALE
 70
     1
  9
$TREEDEPTH
 70
  3020
  9
$CMLSTYLE
  2
Standard
  9
$CMLJUST
 70
     0
  9
$CMLSCALE
 40
1.0
  9
$PROXYGRAPHICS
 70
     1
  9
$MEASUREMENT
 70
     1
  9
$CELWEIGHT
370
    -1
  9
$ENDCAPS
280
     0
  9
$JOINSTYLE
280
     0
  9
$LWDISPLAY
290
     0
  9
$INSUNITS
 70
     4
  9
$HYPERLINKBASE
  1

  9
$STYLESHEET
  1

  9
$XEDIT
290
     1
  9
$CEPSNTYPE
380
     0
  9
$PSTYLEMODE
290
     1
  9
$FINGERPRINTGUID
  2
{F00BE011-E78A-4A73-80CF-EFD0DEF1625D}
  9
$VERSIONGUID
  2
{78EA01BC-EB16-334C-B267-664E5ACE6A02}
  9
$EXTNAMES
290
     1
  9
$PSVPSCALE
 40
0.0
  9
$OLESTARTUP
290
     0
  9
$SORTENTS
280
   127
  9
$INDEXCTL
280
     0
  9
$HIDETEXT
280
     0
  9
$XCLIPFRAME
280
     2
  9
$HALOGAP
280
     0
  9
$OBSCOLOR
 70
   257
  9
$OBSLTYPE
280
     0
  9
$INTERSECTIONDISPLAY
280
     0
  9
$INTERSECTIONCOLOR
 70
   257
  9
$DIMASSOC
280
     1
  9
$PROJECTNAME
  1

  9
$CAMERADISPLAY
290
     0
  9
$LENSLENGTH
 40
50.0
  9
$CAMERAHEIGHT
 40
0.0
  9
$STEPSPERSEC
 40
2.0
  9
$STEPSIZE
 40
6.0
  9
$3DDWFPREC
 40
2.0
  9
$PSOLWIDTH
 40
0.25
  9
$PSOLHEIGHT
 40
4.0
  9
$LOFTANG1
 40
1.570796326794896
  9
$LOFTANG2
 40
1.570796326794896
  9
$LOFTMAG1
 40
0.0
  9
$LOFTMAG2
 40
0.0
  9
$LOFTPARAM
 70
     7
  9
$LOFTNORMALS
280
     1
  9
$LATITUDE
 40
37.795
  9
$LONGITUDE
 40
-122.394
  9
$NORTHDIRECTION
 40
0.0
  9
$TIMEZONE
 70
 -8000
  9
$LIGHTGLYPHDISPLAY
280
     1
  9
$TILEMODELIGHTSYNCH
280
     1
  9
$CMATERIAL
347
6DA
  9
$SOLIDHIST
280
     0
  9
$SHOWHIST
280
     1
  9
$DWFFRAME
280
     2
  9
$DGNFRAME
280
     0
  9
$REALWORLDSCALE
290
     1
  9
$INTERFERECOLOR
 62
     1
  9
$INTERFEREOBJVS
345
33
  9
$INTERFEREVPVS
346
715
  9
$CSHADOW
280
     0
  9
$SHADOWPLANELOCATION
 40
0.0
  0
ENDSEC
  0
SECTION
  2
CLASSES
  0
CLASS
  1
ACDBDICTIONARYWDFLT
  2
AcDbDictionaryWithDefault
  3
ObjectDBX Classes
 90
        0
 91
        1
280
     0
281
     0
  0
CLASS
  1
VISUALSTYLE
  2
AcDbVisualStyle
  3
ObjectDBX Classes
 90
     4095
 91
       26
280
     0
281
     0
  0
CLASS
  1
MATERIAL
  2
AcDbMaterial
  3
ObjectDBX Classes
 90
     1153
 91
        3
280
     0
281
     0
  0
CLASS
  1
TABLESTYLE
  2
AcDbTableStyle
  3
ObjectDBX Classes
 90
     4095
 91
        1
280
     0
281
     0
  0
CLASS
  1
DICTIONARYVAR
  2
AcDbDictionaryVar
  3
ObjectDBX Classes
 90
        0
 91
       12
280
     0
281
     0
  0
CLASS
  1
SCALE
  2
AcDbScale
  3
ObjectDBX Classes
 90
     1153
 91
       17
280
     0
281
     0
  0
CLASS
  1
MLEADERSTYLE
  2
AcDbMLeaderStyle
  3
ACDB_MLEADERSTYLE_CLASS
 90
     4095
 91
        1
280
     0
281
     0
  0
CLASS
  1
ACDBSECTIONVIEWSTYLE
  2
AcDbSectionViewStyle
  3
ObjectDBX Classes
 90
     1025
 91
        2
280
     0
281
     0
  0
CLASS
  1
ACDBDETAILVIEWSTYLE
  2
AcDbDetailViewStyle
  3
ObjectDBX Classes
 90
     1025
 91
        2
280
     0
281
     0
  0
CLASS
  1
SORTENTSTABLE
  2
AcDbSortentsTable
  3
ObjectDBX Classes
 90
        0
 91
        3
280
     0
281
     0
  0
CLASS
  1
CELLSTYLEMAP
  2
AcDbCellStyleMap
  3
ObjectDBX Classes
 90
     1152
 91
        5
280
     0
281
     0
  0
ENDSEC
  0
SECTION
  2
TABLES
  0
TABLE
  2
VPORT
  5
8
330
0
100
AcDbSymbolTable
 70
    17
1001
ACAD
1000
DbSaveVer
1071
      224
  0
VPORT
  5
29
330
8
100
AcDbSymbolTableRecord
100
AcDbViewportTableRecord
  2
DUMMY
 70
     0
 10
0.0
 20
0.0
 11
1.0
 21
1.0
 12
10.42990654205607
 22
4.5
 13
0.0
 23
0.0
 14
0.5
 24
0.5
 15
0.5
 25
0.5
 16
0.0
 26
0.0
 36
1.0
 17
0.0
 27
0.0
 37
0.0
 40
9.0
 41
1.972972972850327
 42
50.0
 43
0.0
 44
0.0
 50
0.0
 51
0.0
 71
     0
 72
   100
 73
     1
 74
     3
 75
     0
 76
     0
 77
     0
 78
     0
281
     0
 65
     1
110
0.0
120
0.0
130
0.0
111
1.0
121
0.0
131
0.0
112
0.0
122
1.0
132
0.0
 79
     0
146
0.0
348
2F
 60
     3
 61
     5
292
     1
282
     1
141
0.0
142
0.0
 63
   250
421
  3355443
  0
VPORT
  5
6C2
330
8
100
AcDbSymbolTableRecord
100
AcDbViewportTableRecord
  2
*ACTIVE
 70
     0
 10
0.0
 20
0.0
 11
1.0
 21
1.0
 12
1183.131079497247
 22
233.1685618950142
 13
0.0
 23
0.0
 14
0.5
 24
0.5
 15
0.5
 25
0.5
 16
0.0
 26
0.0
 36
1.0
 17
0.0
 27
0.0
 37
0.0
 40
1497.467307574181
 41
2.14188422247446
 42
50.0
 43
1767.948756937242
 44
-1767.948756937242
 50
0.0
 51
0.0
 71
     0
 72
 10000
 73
     1
 74
     3
 75
     0
 76
     0
 77
     0
 78
     0
281
     0
 65
     1
110
0.0
120
0.0
130
0.0
111
1.0
121
0.0
131
0.0
112
0.0
122
1.0
132
0.0
 79
     0
146
0.0
348
2F
 60
     3
 61
     5
292
     1
282
     1
141
0.0
142
0.0
 63
   250
421
  3355443
1001
ACAD_NAV_VCDISPLAY
1070
     3
  0
VPORT
  5
6C3
330
8
100
AcDbSymbolTableRecord
100
AcDbViewportTableRecord
  2
L1
 70
     0
 10
0.0
 20
0.0
 11
1.0
 21
1.0
 12
460.8737472285888
 22
404.664939769725
 13
0.0
 23
0.0
 14
0.5
 24
0.5
 15
0.5
 25
0.5
 16
0.0
 26
0.0
 36
1.0
 17
0.0
 27
0.0
 37
0.0
 40
254.0
 41
0.069908491163988
 42
50.0
 43
1767.948756937242
 44
-1767.948756937242
 50
0.0
 51
0.0
 71
     0
 72
   100
 73
     1
 74
     3
 75
     0
 76
     0
 77
     0
 78
     0
281
     0
 65
     1
110
0.0
120
0.0
130
0.0
111
1.0
121
0.0
131
0.0
112
0.0
122
1.0
132
0.0
 79
     0
146
0.0
348
2F
 60
     3
 61
     5
292
     1
282
     1
141
0.0
142
0.0
 63
   250
421
  3355443
  0
VPORT
  5
6C4
330
8
100
AcDbSymbolTableRecord
100
AcDbViewportTableRecord
  2
L2
 70
     0
 10
0.0
 20
0.0
 11
0.5
 21
1.0
 12
0.0
 22
0.0
 13
0.0
 23
0.0
 14
0.5
 24
0.5
 15
0.5
 25
0.5
 16
0.0
 26
-1.0
 36
0.0
 17
0.0
 27
0.0
 37
0.0
 40
1319.822715367485
 41
0.0134538953973897
 42
50.0
 43
672.0208330104061
 44
-672.0208330104061
 50
0.0
 51
0.0
 71
     0
 72
   100
 73
     1
 74
     3
 75
     0
 76
     0
 77
     0
 78
     0
281
     0
 65
     1
110
0.0
120
0.0
130
0.0
111
1.0
121
0.0
131
0.0
112
0.0
122
1.0
132
0.0
 79
     0
146
0.0
348
2F
 60
     3
 61
     5
292
     1
282
     1
141
0.0
142
0.0
 63
   250
421
  3355443
  0
VPORT
  5
6C5
330
8
100
AcDbSymbolTableRecord
100
AcDbViewportTableRecord
  2
L2
 70
     0
 10
0.5
 20
0.0
 11
1.0
 21
1.0
 12
0.0
 22
0.0
 13
0.0
 23
0.0
 14
0.5
 24
0.5
 15
0.5
 25
0.5
 16
1.0
 26
0.0
 36
0.0
 17
0.0
 27
0.0
 37
0.0
 40
1319.822715367485
 41
0.0134538953973897
 42
50.0
 43
672.0208330104061
 44
-672.0208330104061
 50
0.0
 51
0.0
 71
     0
 72
   100
 73
     1
 74
     3
 75
     0
 76
     0
 77
     0
 78
     0
281
     0
 65
     1
110
0.0
120
0.0
130
0.0
111
1.0
121
0.0
131
0.0
112
0.0
122
1.0
132
0.0
 79
     0
146
0.0
348
2F
 60
     3
 61
     5
292
     1
282
     1
141
0.0
142
0.0
 63
   250
421
  3355443
  0
VPORT
  5
6C6
330
8
100
AcDbSymbolTableRecord
100
AcDbViewportTableRecord
  2
L3
 70
     0
 10
0.0
 20
0.5
 11
1.0
 21
1.0
 12
460.8737472285888
 22
404.664939769725
 13
0.0
 23
0.0
 14
0.5
 24
0.5
 15
0.5
 25
0.5
 16
0.0
 26
0.0
 36
1.0
 17
0.0
 27
0.0
 37
0.0
 40
254.0
 41
0.069908491163988
 42
50.0
 43
1767.948756937242
 44
-1767.948756937242
 50
0.0
 51
0.0
 71
     0
 72
   100
 73
     1
 74
     3
 75
     0
 76
     0
 77
     0
 78
     0
281
     0
 65
     1
110
0.0
120
0.0
130
0.0
111
1.0
121
0.0
131
0.0
112
0.0
122
1.0
132
0.0
 79
     0
146
0.0
348
2F
 60
     3
 61
     5
292
     1
282
     1
141
0.0
142
0.0
 63
   250
421
  3355443
  0
VPORT
  5
6C7
330
8
100
AcDbSymbolTableRecord
100
AcDbViewportTableRecord
  2
L3
 70
     0
 10
0.0
 20
0.0
 11
1.0
 21
0.5
 12
0.0
 22
0.0
 13
0.0
 23
0.0
 14
0.5
 24
0.5
 15
0.5
 25
0.5
 16
0.0
 26
-1.0
 36
0.0
 17
0.0
 27
0.0
 37
0.0
 40
1319.822715367485
 41
0.0134538953973897
 42
50.0
 43
672.0208330104061
 44
-672.0208330104061
 50
0.0
 51
0.0
 71
     0
 72
   100
 73
     1
 74
     3
 75
     0
 76
     0
 77
     0
 78
     0
281
     0
 65
     1
110
0.0
120
0.0
130
0.0
111
1.0
121
0.0
131
0.0
112
0.0
122
1.0
132
0.0
 79
     0
146
0.0
348
2F
 60
     3
 61
     5
292
     1
282
     1
141
0.0
142
0.0
 63
   250
421
  3355443
  0
VPORT
  5
6C8
330
8
100
AcDbSymbolTableRecord
100
AcDbViewportTableRecord
  2
L4
 70
     0
 10
0.0
 20
0.5
 11
0.5
 21
1.0
 12
460.8737472285888
 22
404.664939769725
 13
0.0
 23
0.0
 14
0.5
 24
0.5
 15
0.5
 25
0.5
 16
0.0
 26
0.0
 36
1.0
 17
0.0
 27
0.0
 37
0.0
 40
254.0
 41
0.069908491163988
 42
50.0
 43
1767.948756937242
 44
-1767.948756937242
 50
0.0
 51
0.0
 71
     0
 72
   100
 73
     1
 74
     3
 75
     0
 76
     0
 77
     0
 78
     0
281
     0
 65
     1
110
0.0
120
0.0
130
0.0
111
1.0
121
0.0
131
0.0
112
0.0
122
1.0
132
0.0
 79
     0
146
0.0
348
2F
 60
     3
 61
     5
292
     1
282
     1
141
0.0
142
0.0
 63
   250
421
  3355443
  0
VPORT
  5
6C9
330
8
100
AcDbSymbolTableRecord
100
AcDbViewportTableRecord
  2
L4
 70
     0
 10
0.0
 20
0.0
 11
0.5
 21
0.5
 12
0.0
 22
0.0
 13
0.0
 23
0.0
 14
0.5
 24
0.5
 15
0.5
 25
0.5
 16
0.0
 26
-1.0
 36
0.0
 17
0.0
 27
0.0
 37
0.0
 40
1319.822715367485
 41
0.0134538953973897
 42
50.0
 43
672.0208330104061
 44
-672.0208330104061
 50
0.0
 51
0.0
 71
     0
 72
   100
 73
     1
 74
     3
 75
     0
 76
     0
 77
     0
 78
     0
281
     0
 65
     1
110
0.0
120
0.0
130
0.0
111
1.0
121
0.0
131
0.0
112
0.0
122
1.0
132
0.0
 79
     0
146
0.0
348
2F
 60
     3
 61
     5
292
     1
282
     1
141
0.0
142
0.0
 63
   250
421
  3355443
  0
VPORT
  5
6CA
330
8
100
AcDbSymbolTableRecord
100
AcDbViewportTableRecord
  2
L4
 70
     0
 10
0.5
 20
0.0
 11
1.0
 21
0.5
 12
0.0
 22
0.0
 13
0.0
 23
0.0
 14
0.5
 24
0.5
 15
0.5
 25
0.5
 16
1.0
 26
0.0
 36
0.0
 17
0.0
 27
0.0
 37
0.0
 40
1319.822715367485
 41
0.0134538953973897
 42
50.0
 43
672.0208330104061
 44
-672.0208330104061
 50
0.0
 51
0.0
 71
     0
 72
   100
 73
     1
 74
     3
 75
     0
 76
     0
 77
     0
 78
     0
281
     0
 65
     1
110
0.0
120
0.0
130
0.0
111
1.0
121
0.0
131
0.0
112
0.0
122
1.0
132
0.0
 79
     0
146
0.0
348
2F
 60
     3
 61
     5
292
     1
282
     1
141
0.0
142
0.0
 63
   250
421
  3355443
  0
VPORT
  5
6CB
330
8
100
AcDbSymbolTableRecord
100
AcDbViewportTableRecord
  2
L4
 70
     0
 10
0.5
 20
0.5
 11
1.0
 21
1.0
 12
0.0
 22
0.0
 13
0.0
 23
0.0
 14
0.5
 24
0.5
 15
0.5
 25
0.5
 16
0.577350269189626
 26
-0.577350269189626
 36
0.577350269189626
 17
0.0
 27
0.0
 37
0.0
 40
1285.020866083941
 41
0.0138182633638986
 42
50.0
 43
667.1414067255757
 44
-667.1414067255757
 50
0.0
 51
0.0
 71
     0
 72
   100
 73
     1
 74
     3
 75
     0
 76
     0
 77
     0
 78
     0
281
     0
 65
     1
110
0.0
120
0.0
130
0.0
111
1.0
121
0.0
131
0.0
112
0.0
122
1.0
132
0.0
 79
     0
146
0.0
348
2F
 60
     3
 61
     5
292
     1
282
     1
141
0.0
142
0.0
 63
   250
421
  3355443
  0
VPORT
  5
6CC
330
8
100
AcDbSymbolTableRecord
100
AcDbViewportTableRecord
  2
L6
 70
     0
 10
0.0
 20
0.5
 11
0.3333333333333334
 21
1.0
 12
0.0
 22
0.0
 13
0.0
 23
0.0
 14
0.5
 24
0.5
 15
0.5
 25
0.5
 16
0.7188730927569436
 26
-0.5850486126764432
 36
0.3754192287502549
 17
0.0
 27
0.0
 37
0.0
 40
1357.434191666423
 41
0.0130811179390246
 42
50.0
 43
701.8394773188865
 44
-701.8394773188865
 50
0.0
 51
0.0
 71
     0
 72
   100
 73
     1
 74
     3
 75
     0
 76
     0
 77
     0
 78
     0
281
     0
 65
     1
110
0.0
120
0.0
130
0.0
111
1.0
121
0.0
131
0.0
112
0.0
122
1.0
132
0.0
 79
     0
146
0.0
348
2F
 60
     3
 61
     5
292
     1
282
     1
141
0.0
142
0.0
 63
   250
421
  3355443
  0
VPORT
  5
6CD
330
8
100
AcDbSymbolTableRecord
100
AcDbViewportTableRecord
  2
L6
 70
     0
 10
0.0
 20
0.0
 11
0.3333333333333334
 21
0.5
 12
0.0
 22
0.0
 13
0.0
 23
0.0
 14
0.5
 24
0.5
 15
0.5
 25
0.5
 16
-1.0
 26
0.0
 36
0.0
 17
0.0
 27
0.0
 37
0.0
 40
1319.822715367485
 41
0.0134538953973897
 42
50.0
 43
672.0208330104061
 44
-672.0208330104061
 50
0.0
 51
0.0
 71
     0
 72
   100
 73
     1
 74
     3
 75
     0
 76
     0
 77
     0
 78
     0
281
     0
 65
     1
110
0.0
120
0.0
130
0.0
111
1.0
121
0.0
131
0.0
112
0.0
122
1.0
132
0.0
 79
     0
146
0.0
348
2F
 60
     3
 61
     5
292
     1
282
     1
141
0.0
142
0.0
 63
   250
421
  3355443
  0
VPORT
  5
6CE
330
8
100
AcDbSymbolTableRecord
100
AcDbViewportTableRecord
  2
L6
 70
     0
 10
0.3333333333333334
 20
0.5
 11
0.6666666666666666
 21
1.0
 12
460.8737472285888
 22
404.664939769725
 13
0.0
 23
0.0
 14
0.5
 24
0.5
 15
0.5
 25
0.5
 16
0.0
 26
0.0
 36
1.0
 17
0.0
 27
0.0
 37
0.0
 40
254.0
 41
0.069908491163988
 42
50.0
 43
1767.948756937242
 44
-1767.948756937242
 50
0.0
 51
0.0
 71
     0
 72
   100
 73
     1
 74
     3
 75
     0
 76
     0
 77
     0
 78
     0
281
     0
 65
     1
110
0.0
120
0.0
130
0.0
111
1.0
121
0.0
131
0.0
112
0.0
122
1.0
132
0.0
 79
     0
146
0.0
348
2F
 60
     3
 61
     5
292
     1
282
     1
141
0.0
142
0.0
 63
   250
421
  3355443
  0
VPORT
  5
6CF
330
8
100
AcDbSymbolTableRecord
100
AcDbViewportTableRecord
  2
L6
 70
     0
 10
0.3333333333333334
 20
0.0
 11
0.6666666666666666
 21
0.5
 12
0.0
 22
0.0
 13
0.0
 23
0.0
 14
0.5
 24
0.5
 15
0.5
 25
0.5
 16
0.0
 26
-1.0
 36
0.0
 17
0.0
 27
0.0
 37
0.0
 40
1319.822715367485
 41
0.0134538953973897
 42
50.0
 43
672.0208330104061
 44
-672.0208330104061
 50
0.0
 51
0.0
 71
     0
 72
   100
 73
     1
 74
     3
 75
     0
 76
     0
 77
     0
 78
     0
281
     0
 65
     1
110
0.0
120
0.0
130
0.0
111
1.0
121
0.0
131
0.0
112
0.0
122
1.0
132
0.0
 79
     0
146
0.0
348
2F
 60
     3
 61
     5
292
     1
282
     1
141
0.0
142
0.0
 63
   250
421
  3355443
  0
VPORT
  5
6D0
330
8
100
AcDbSymbolTableRecord
100
AcDbViewportTableRecord
  2
L6
 70
     0
 10
0.6666666666666666
 20
0.5
 11
1.0
 21
1.0
 12
0.0
 22
0.0
 13
0.0
 23
0.0
 14
0.5
 24
0.5
 15
0.5
 25
0.5
 16
0.577350269189626
 26
-0.577350269189626
 36
0.577350269189626
 17
0.0
 27
0.0
 37
0.0
 40
1285.020866083941
 41
0.0138182633638986
 42
50.0
 43
667.1414067255757
 44
-667.1414067255757
 50
0.0
 51
0.0
 71
     0
 72
   100
 73
     1
 74
     3
 75
     0
 76
     0
 77
     0
 78
     0
281
     0
 65
     1
110
0.0
120
0.0
130
0.0
111
1.0
121
0.0
131
0.0
112
0.0
122
1.0
132
0.0
 79
     0
146
0.0
348
2F
 60
     3
 61
     5
292
     1
282
     1
141
0.0
142
0.0
 63
   250
421
  3355443
  0
VPORT
  5
6D1
330
8
100
AcDbSymbolTableRecord
100
AcDbViewportTableRecord
  2
L6
 70
     0
 10
0.6666666666666666
 20
0.0
 11
1.0
 21
0.5
 12
0.0
 22
0.0
 13
0.0
 23
0.0
 14
0.5
 24
0.5
 15
0.5
 25
0.5
 16
1.0
 26
0.0
 36
0.0
 17
0.0
 27
0.0
 37
0.0
 40
1319.822715367485
 41
0.0134538953973897
 42
50.0
 43
672.0208330104061
 44
-672.0208330104061
 50
0.0
 51
0.0
 71
     0
 72
   100
 73
     1
 74
     3
 75
     0
 76
     0
 77
     0
 78
     0
281
     0
 65
     1
110
0.0
120
0.0
130
0.0
111
1.0
121
0.0
131
0.0
112
0.0
122
1.0
132
0.0
 79
     0
146
0.0
348
2F
 60
     3
 61
     5
292
     1
282
     1
141
0.0
142
0.0
 63
   250
421
  3355443
  0
ENDTAB
  0
TABLE
  2
LTYPE
  5
5
330
0
100
AcDbSymbolTable
 70
     9
  0
LTYPE
  5
14
330
5
100
AcDbSymbolTableRecord
100
AcDbLinetypeTableRecord
  2
BYBLOCK
 70
     0
  3

 72
    65
 73
     0
 40
0.0
  0
LTYPE
  5
15
330
5
100
AcDbSymbolTableRecord
100
AcDbLinetypeTableRecord
  2
BYLAYER
 70
     0
  3

 72
    65
 73
     0
 40
0.0
  0
LTYPE
  5
16
330
5
100
AcDbSymbolTableRecord
100
AcDbLinetypeTableRecord
  2
CONTINUOUS
 70
     0
  3
Solid line
 72
    65
 73
     0
 40
0.0
  0
LTYPE
  5
3B
330
5
100
AcDbSymbolTableRecord
100
AcDbLinetypeTableRecord
  2
DASHED
 70
     0
  3
__ __ __ __ __ __ __ __ __
 72
    65
 73
     2
 40
25.72
 49
12.86
 74
     4
 75
     0
340
0
 46
0.0
 50
0.0
 44
0.0
 45
0.0
 49
-12.86
 74
     4
 75
     0
340
0
 46
0.0
 50
0.0
 44
0.0
 45
0.0
  0
LTYPE
  5
3C
330
5
100
AcDbSymbolTableRecord
100
AcDbLinetypeTableRecord
  2
HIDDEN
 70
     0
  3
_ _ _ _ _ _ _ _ _ _ _ _ _ _ _
 72
    65
 73
     2
 40
0.5
 49
0.25
 74
     4
 75
     0
340
0
 46
0.0
 50
0.0
 44
0.0
 45
0.0
 49
-0.25
 74
     4
 75
     0
340
0
 46
0.0
 50
0.0
 44
0.0
 45
0.0
  0
LTYPE
  5
3D
330
5
100
AcDbSymbolTableRecord
100
AcDbLinetypeTableRecord
  2
PHANTOM
 70
     0
  3
____ _ _ ____ _ _ _____ _ _ ____
 72
    65
 73
     6
 40
50.5
 49
18.0
 74
     4
 75
     0
340
0
 46
0.0
 50
0.0
 44
0.0
 45
0.0
 49
-6.5
 74
     4
 75
     0
340
0
 46
0.0
 50
0.0
 44
0.0
 45
0.0
 49
6.5
 74
     4
 75
     0
340
0
 46
0.0
 50
0.0
 44
0.0
 45
0.0
 49
-6.5
 74
     4
 75
     0
340
0
 46
0.0
 50
0.0
 44
0.0
 45
0.0
 49
6.5
 74
     4
 75
     0
340
0
 46
0.0
 50
0.0
 44
0.0
 45
0.0
 49
-6.5
 74
     4
 75
     0
340
0
 46
0.0
 50
0.0
 44
0.0
 45
0.0
  0
LTYPE
  5
3E
330
5
100
AcDbSymbolTableRecord
100
AcDbLinetypeTableRecord
  2
CENTER
 70
     0
  3
____ _ ____ _ ____ _ ____
 72
    65
 73
     4
 40
47.4
 49
22.0
 74
     4
 75
     0
340
0
 46
0.0
 50
0.0
 44
0.0
 45
0.0
 49
-8.5
 74
     4
 75
     0
340
0
 46
0.0
 50
0.0
 44
0.0
 45
0.0
 49
8.5
 74
     4
 75
     0
340
0
 46
0.0
 50
0.0
 44
0.0
 45
0.0
 49
-8.5
 74
     4
 75
     0
340
0
 46
0.0
 50
0.0
 44
0.0
 45
0.0
  0
LTYPE
  5
3F
330
5
100
AcDbSymbolTableRecord
100
AcDbLinetypeTableRecord
  2
DOT
 70
     0
  3
.........................
 72
    65
 73
     2
 40
10.0
 49
0.0
 74
     4
 75
     0
340
0
 46
0.0
 50
0.0
 44
0.0
 45
0.0
 49
-10.0
 74
     4
 75
     0
340
0
 46
0.0
 50
0.0
 44
0.0
 45
0.0
  0
LTYPE
  5
40
330
5
100
AcDbSymbolTableRecord
100
AcDbLinetypeTableRecord
  2
DASHDOT
 70
     0
  3
_._._._._._._._._._._._._._._._.
 72
    65
 73
     4
 40
70.0
 49
31.0
 74
     4
 75
     0
340
0
 46
0.0
 50
0.0
 44
0.0
 45
0.0
 49
-13.0
 74
     4
 75
     0
340
0
 46
0.0
 50
0.0
 44
0.0
 45
0.0
 49
13.0
 74
     4
 75
     0
340
0
 46
0.0
 50
0.0
 44
0.0
 45
0.0
 49
-13.0
 74
     4
 75
     0
340
0
 46
0.0
 50
0.0
 44
0.0
 45
0.0
  0
LTYPE
  5
748
330
5
100
AcDbSymbolTableRecord
100
AcDbLinetypeTableRecord
  2
CUSTOM
 70
     0
  3

 72
    65
 73
     0
 40
0.0
  0
ENDTAB
  0
TABLE
  2
LAYER
  5
2
102
{ACAD_XDICTIONARY
360
843
102
}
330
0
100
AcDbSymbolTable
 70
     6
  0
LAYER
  5
10
102
{ACAD_XDICTIONARY
360
739
102
}
330
2
100
AcDbSymbolTableRecord
100
AcDbLayerTableRecord
  2
0
 70
     0
 62
     7
  6
CONTINUOUS
370
    -3
390
F
347
6DC
348
0
  0
LAYER
  5
42
102
{ACAD_XDICTIONARY
360
73B
102
}
330
2
100
AcDbSymbolTableRecord
100
AcDbLayerTableRecord
  2
1
 70
     0
 62
     7
  6
CONTINUOUS
370
    -3
390
F
347
6DC
348
0
  0
LAYER
  5
6BD
102
{ACAD_XDICTIONARY
360
73D
102
}
330
2
100
AcDbSymbolTableRecord
100
AcDbLayerTableRecord
  2
TOP
 70
     0
 62
     7
  6
CONTINUOUS
370
    -3
390
F
347
6DC
348
0
  0
LAYER
  5
6E4
330
2
100
AcDbSymbolTableRecord
100
AcDbLayerTableRecord
  2
Defpoints
 70
     0
 62
     7
  6
CONTINUOUS
290
     0
370
    -3
390
F
347
6DC
348
0
  0
LAYER
  5
840
330
2
100
AcDbSymbolTableRecord
100
AcDbLayerTableRecord
  2
HEWI
 70
     0
 62
   250
  6
CONTINUOUS
370
    -3
390
F
347
6DC
348
0
1001
AcAecLayerStandard
1000

1000

1001
AcCmTransparency
1071
        0
  0
LAYER
  5
89B
330
2
100
AcDbSymbolTableRecord
100
AcDbLayerTableRecord
  2
VD
 70
     0
 62
   183
  6
HIDDEN
370
    -3
390
F
347
6DC
348
0
1001
AcAecLayerStandard
1000

1000

1001
AcCmTransparency
1071
        0
  0
ENDTAB
  0
TABLE
  2
STYLE
  5
3
330
0
100
AcDbSymbolTable
 70
     3
  0
STYLE
  5
11
330
3
100
AcDbSymbolTableRecord
100
AcDbTextStyleTableRecord
  2
Standard
 70
     0
 40
0.0
 41
1.0
 50
0.0
 71
     0
 42
25.0
  3
txt
  4

  0
STYLE
  5
852
330
3
100
AcDbSymbolTableRecord
100
AcDbTextStyleTableRecord
  2
HEWI
 70
     0
 40
0.0
 41
1.0
 50
0.0
 71
     0
 42
90.0
  3
arial.ttf
  4

1001
ACAD
1000
Arial
1071
       34
  0
STYLE
  5
8CB
330
3
100
AcDbSymbolTableRecord
100
AcDbTextStyleTableRecord
  2
ARIAL
 70
     0
 40
0.0
 41
1.0
 50
0.0
 71
     0
 42
0.0
  3
Arial
  4

  0
ENDTAB
  0
TABLE
  2
VIEW
  5
6
330
0
100
AcDbSymbolTable
 70
     0
  0
ENDTAB
  0
TABLE
  2
UCS
  5
7
330
0
100
AcDbSymbolTable
 70
     0
  0
ENDTAB
  0
TABLE
  2
APPID
  5
9
330
0
100
AcDbSymbolTable
 70
     6
  0
APPID
  5
12
330
9
100
AcDbSymbolTableRecord
100
AcDbRegAppTableRecord
  2
ACAD
 70
     0
  0
APPID
  5
73F
330
9
100
AcDbSymbolTableRecord
100
AcDbRegAppTableRecord
  2
ACAD_NAV_VCDISPLAY
 70
     0
  0
APPID
  5
841
330
9
100
AcDbSymbolTableRecord
100
AcDbRegAppTableRecord
  2
AcAecLayerStandard
 70
     0
  0
APPID
  5
842
330
9
100
AcDbSymbolTableRecord
100
AcDbRegAppTableRecord
  2
AcCmTransparency
 70
     0
  0
APPID
  5
853
330
9
100
AcDbSymbolTableRecord
100
AcDbRegAppTableRecord
  2
ACAD_PSEXT
 70
     0
  0
APPID
  5
89C
330
9
100
AcDbSymbolTableRecord
100
AcDbRegAppTableRecord
  2
ACAD_EXEMPT_FROM_CAD_STANDARDS
 70
     0
  0
ENDTAB
  0
TABLE
  2
DIMSTYLE
  5
A
330
0
100
AcDbSymbolTable
 70
     3
100
AcDbDimStyleTable
 71
     2
340
27
340
749
  0
DIMSTYLE
105
27
330
A
100
AcDbSymbolTableRecord
100
AcDbDimStyleTableRecord
  2
Standard
 70
     0
340
11
  0
DIMSTYLE
105
749
102
{ACAD_REACTORS
330
8EB
102
}
330
A
100
AcDbSymbolTableRecord
100
AcDbDimStyleTableRecord
  2
ISO-25
 70
     0
 41
2.5
 42
0.625
 43
3.75
 44
1.25
 73
     0
 74
     0
 77
     1
 78
     8
140
2.5
141
2.5
143
0.03937007874016
147
0.625
171
     3
172
     1
271
     2
272
     2
274
     3
278
    44
283
     0
284
     8
340
11
  0
ENDTAB
  0
TABLE
  2
BLOCK_RECORD
  5
1
330
0
100
AcDbSymbolTable
 70
    16
  0
BLOCK_RECORD
  5
1F
102
{ACAD_XDICTIONARY
360
E3F
102
}
330
1
100
AcDbSymbolTableRecord
100
AcDbBlockTableRecord
  2
*Model_Space
340
22
 70
     0
280
     1
281
     0
  0
BLOCK_RECORD
  5
1B
330
1
100
AcDbSymbolTableRecord
100
AcDbBlockTableRecord
  2
*Paper_Space
340
1E
 70
     0
280
     1
281
     0
  0
BLOCK_RECORD
  5
23
330
1
100
AcDbSymbolTableRecord
100
AcDbBlockTableRecord
  2
*Paper_Space0
340
26
 70
     0
280
     1
281
     0
  0
BLOCK_RECORD
  5
6E5
330
1
100
AcDbSymbolTableRecord
100
AcDbBlockTableRecord
  2
*D1
340
0
 70
     0
280
     1
281
     0
  0
BLOCK_RECORD
  5
6F1
330
1
100
AcDbSymbolTableRecord
100
AcDbBlockTableRecord
  2
*D2
340
0
 70
     0
280
     1
281
     0
  0
BLOCK_RECORD
  5
832
330
1
100
AcDbSymbolTableRecord
100
AcDbBlockTableRecord
  2
*D3
340
0
 70
     0
280
     1
281
     0
  0
BLOCK_RECORD
  5
88E
330
1
100
AcDbSymbolTableRecord
100
AcDbBlockTableRecord
  2
*D4
340
0
 70
     0
280
     1
281
     0
  0
BLOCK_RECORD
  5
8BA
330
1
100
AcDbSymbolTableRecord
100
AcDbBlockTableRecord
  2
_Dot
340
0
102
{BLKREFS
331
8C4
331
8C5
331
8E5
331
8E6
331
E44
331
E45
102
}
 70
     0
280
     1
281
     0
  0
BLOCK_RECORD
  5
8BF
330
1
100
AcDbSymbolTableRecord
100
AcDbBlockTableRecord
  2
*D6
340
0
 70
     0
280
     1
281
     0
  0
BLOCK_RECORD
  5
8D6
330
1
100
AcDbSymbolTableRecord
100
AcDbBlockTableRecord
  2
*D7
340
0
 70
     0
280
     1
281
     0
  0
BLOCK_RECORD
  5
8EC
330
1
100
AcDbSymbolTableRecord
100
AcDbBlockTableRecord
  2
*D8
340
0
 70
     0
280
     1
281
     0
  0
BLOCK_RECORD
  5
E4B
330
1
100
AcDbSymbolTableRecord
100
AcDbBlockTableRecord
  2
*D14
340
0
 70
     0
280
     1
281
     0
  0
ENDTAB
  0
ENDSEC
  0
SECTION
  2
BLOCKS
  0
BLOCK
  5
20
330
1F
100
AcDbEntity
  8
0
100
AcDbBlockBegin
  2
*Model_Space
 70
     0
 10
0.0
 20
0.0
 30
0.0
  3
*Model_Space
  1

  0
ENDBLK
  5
21
330
1F
100
AcDbEntity
  8
0
100
AcDbBlockEnd
  0
BLOCK
  5
1C
330
1B
100
AcDbEntity
 67
     1
  8
0
100
AcDbBlockBegin
  2
*Paper_Space
 70
     0
 10
0.0
 20
0.0
 30
0.0
  3
*Paper_Space
  1

  0
ENDBLK
  5
1D
330
1B
100
AcDbEntity
 67
     1
  8
0
100
AcDbBlockEnd
  0
BLOCK
  5
24
330
23
100
AcDbEntity
 67
     1
  8
0
100
AcDbBlockBegin
  2
*Paper_Space0
 70
     0
 10
0.0
 20
0.0
 30
0.0
  3
*Paper_Space0
  1

  0
ENDBLK
  5
25
330
23
100
AcDbEntity
 67
     1
  8
0
100
AcDbBlockEnd
  0
BLOCK
  5
6EE
330
6E5
100
AcDbEntity
  8
0
100
AcDbBlockBegin
  2
*D1
 70
     1
 10
0.0
 20
0.0
 30
0.0
  3
*D1
  1

  0
LINE
  5
6E6
330
6E5
100
AcDbEntity
  8
0
 62
     0
370
    -2
100
AcDbLine
 10
197.7955681797262
 20
729.269403322281
 30
0.0
 11
197.9755681797261
 21
729.269403322281
 31
0.0
  0
LINE
  5
6E7
330
6E5
100
AcDbEntity
  8
0
 62
     0
370
    -2
100
AcDbLine
 10
197.9755681797261
 20
729.269403322281
 30
0.0
 11
229.3197234096654
 21
718.3681070254327
 31
0.0
  0
MTEXT
  5
6E8
330
6E5
100
AcDbEntity
  8
0
 62
     0
100
AcDbMText
 10
197.1205681797261
 20
729.2694033222809
 30
0.0
 40
0.18
 41
0.0
 46
0.0
 71
     5
 72
     1
  1
\A1;∅23.6000
 73
     1
 44
1.0
1001
ACAD
1000
MTEXTBEGIN
1070
    73
1070
     1
1070
    44
1040
1.0
1070
    74
1070
     0
1000
MTEXTEND
  0
SOLID
  5
6E9
330
6E5
100
AcDbEntity
  8
0
 62
     0
100
AcDbTrace
 10
229.3295782070002
 20
718.3964422150294
 30
0.0
 11
229.3098686123305
 21
718.3397718358357
 31
0.0
 12
229.4897345472465
 22
718.3089782414238
 32
0.0
 13
229.4897345472465
 23
718.3089782414238
 33
0.0
  0
LINE
  5
6EA
330
6E5
100
AcDbEntity
  8
0
 62
     0
370
    -2
100
AcDbLine
 10
240.5449091220069
 20
714.4327579563887
 30
0.0
 11
240.7249091220069
 21
714.4327579563887
 31
0.0
  0
LINE
  5
6EB
330
6E5
100
AcDbEntity
  8
0
 62
     0
370
    -2
100
AcDbLine
 10
240.6349091220069
 20
714.3427579563891
 30
0.0
 11
240.6349091220068
 21
714.522757956389
 31
0.0
  0
POINT
  5
6EC
330
6E5
100
AcDbEntity
  8
Defpoints
 62
     0
100
AcDbPoint
 10
229.4897345472465
 20
718.3089782414238
 30
0.0
  0
POINT
  5
6ED
330
6E5
100
AcDbEntity
  8
Defpoints
 62
     0
100
AcDbPoint
 10
251.7800836967673
 20
710.5565376713546
 30
0.0
  0
ENDBLK
  5
6EF
330
6E5
100
AcDbEntity
  8
0
100
AcDbBlockEnd
  0
BLOCK
  5
6FC
330
6F1
100
AcDbEntity
  8
0
100
AcDbBlockBegin
  2
*D2
 70
     1
 10
0.0
 20
0.0
 30
0.0
  3
*D2
  1

  0
LINE
  5
6F2
330
6F1
100
AcDbEntity
  8
0
 62
     0
370
    -2
100
AcDbLine
 10
228.1362870747628
 20
714.1846591413504
 30
0.0
 11
228.1362870747628
 21
711.0397278630072
 31
0.0
  0
LINE
  5
6F3
330
6F1
100
AcDbEntity
  8
0
 62
     0
370
    -2
100
AcDbLine
 10
253.1349091220068
 20
714.3702579563893
 30
0.0
 11
253.1349091220068
 21
711.0397278630072
 31
0.0
  0
LINE
  5
6F4
330
6F1
100
AcDbEntity
  8
0
 62
     0
370
    -2
100
AcDbLine
 10
228.3162870747628
 20
711.2197278630072
 30
0.0
 11
240.0055980983848
 21
711.2197278630072
 31
0.0
  0
LINE
  5
6F5
330
6F1
100
AcDbEntity
  8
0
 62
     0
370
    -2
100
AcDbLine
 10
252.9549091220069
 20
711.2197278630072
 30
0.0
 11
241.2655980983848
 21
711.2197278630072
 31
0.0
  0
SOLID
  5
6F6
330
6F1
100
AcDbEntity
  8
0
 62
     0
100
AcDbTrace
 10
228.3162870747628
 20
711.249727863007
 30
0.0
 11
228.3162870747628
 21
711.189727863007
 31
0.0
 12
228.1362870747628
 22
711.2197278630072
 32
0.0
 13
228.1362870747628
 23
711.2197278630072
 33
0.0
  0
SOLID
  5
6F7
330
6F1
100
AcDbEntity
  8
0
 62
     0
100
AcDbTrace
 10
252.9549091220069
 20
711.249727863007
 30
0.0
 11
252.9549091220069
 21
711.189727863007
 31
0.0
 12
253.1349091220068
 22
711.2197278630072
 32
0.0
 13
253.1349091220068
 23
711.2197278630072
 33
0.0
  0
MTEXT
  5
6F8
330
6F1
100
AcDbEntity
  8
0
 62
     0
100
AcDbMText
 10
240.6355980983848
 20
711.2197278630072
 30
0.0
 40
0.18
 41
0.0
 46
0.0
 71
     5
 72
     1
  1
\A1;24.9986
 73
     1
 44
1.0
1001
ACAD
1000
MTEXTBEGIN
1070
    73
1070
     1
1070
    44
1040
1.0
1070
    74
1070
     0
1000
MTEXTEND
  0
POINT
  5
6F9
330
6F1
100
AcDbEntity
  8
Defpoints
 62
     0
100
AcDbPoint
 10
228.1362870747628
 20
714.2471591413506
 30
0.0
  0
POINT
  5
6FA
330
6F1
100
AcDbEntity
  8
Defpoints
 62
     0
100
AcDbPoint
 10
253.1349091220068
 20
714.4327579563893
 30
0.0
  0
POINT
  5
6FB
330
6F1
100
AcDbEntity
  8
Defpoints
 62
     0
100
AcDbPoint
 10
253.1349091220068
 20
711.2197278630072
 30
0.0
  0
ENDBLK
  5
6FD
330
6F1
100
AcDbEntity
  8
0
100
AcDbBlockEnd
  0
BLOCK
  5
833
330
832
100
AcDbEntity
  8
0
100
AcDbBlockBegin
  2
*D3
 70
     1
 10
0.0
 20
0.0
 30
0.0
  3
*D3
  1

  0
LINE
  5
835
330
832
100
AcDbEntity
  8
0
 62
     0
440
 16777216
370
    -2
100
AcDbLine
 10
683.9660740363707
 20
698.5360695271556
 30
0.0
 11
931.2838988099775
 21
698.5360695271557
 31
0.0
  0
LINE
  5
836
330
832
100
AcDbEntity
  8
0
 62
     0
440
 16777216
370
    -2
100
AcDbLine
 10
743.2960477928137
 20
70.90478901870854
 30
0.0
 11
931.2838988099775
 21
70.90478901870857
 31
0.0
  0
LINE
  5
837
330
832
100
AcDbEntity
  8
0
 62
     0
440
 16777216
370
    -2
100
AcDbLine
 10
931.1038988099776
 20
698.3560695271558
 30
0.0
 11
931.1038988099776
 21
384.9004292729322
 31
0.0
  0
LINE
  5
838
330
832
100
AcDbEntity
  8
0
 62
     0
440
 16777216
370
    -2
100
AcDbLine
 10
931.1038988099776
 20
71.08478901870856
 30
0.0
 11
931.1038988099776
 21
384.5404292729322
 31
0.0
  0
SOLID
  5
839
330
832
100
AcDbEntity
  8
0
 62
     0
440
 16777216
100
AcDbTrace
 10
931.0738988099775
 20
698.3560695271558
 30
0.0
 11
931.1338988099775
 21
698.3560695271558
 31
0.0
 12
931.1038988099776
 22
698.5360695271557
 32
0.0
 13
931.1038988099776
 23
698.5360695271557
 33
0.0
  0
SOLID
  5
83A
330
832
100
AcDbEntity
  8
0
 62
     0
440
 16777216
100
AcDbTrace
 10
931.0738988099775
 20
71.08478901870856
 30
0.0
 11
931.1338988099775
 21
71.08478901870856
 31
0.0
 12
931.1038988099776
 22
70.90478901870857
 32
0.0
 13
931.1038988099776
 23
70.90478901870857
 33
0.0
  0
MTEXT
  5
83B
330
832
100
AcDbEntity
  8
0
 62
     0
440
 16777216
100
AcDbMText
 10
931.1038988099774
 20
384.7204292729318
 30
0.0
 40
0.18
 41
0.0
 46
0.0
 71
     5
 72
     1
  1
\A1;627.6313
 73
     1
 44
1.0
  0
POINT
  5
83C
330
832
100
AcDbEntity
  8
Defpoints
 62
     0
440
 16777216
100
AcDbPoint
 10
683.9035740363707
 20
698.5360695271556
 30
0.0
  0
POINT
  5
83D
330
832
100
AcDbEntity
  8
Defpoints
 62
     0
440
 16777216
100
AcDbPoint
 10
743.2335477928137
 20
70.90478901870854
 30
0.0
  0
POINT
  5
83E
330
832
100
AcDbEntity
  8
Defpoints
 62
     0
440
 16777216
100
AcDbPoint
 10
931.1038988099776
 20
70.90478901870857
 30
0.0
  0
ENDBLK
  5
834
330
832
100
AcDbEntity
  8
0
100
AcDbBlockEnd
  0
BLOCK
  5
88F
330
88E
100
AcDbEntity
  8
0
100
AcDbBlockBegin
  2
*D4
 70
     1
 10
0.0
 20
0.0
 30
0.0
  3
*D4
  1

  0
LINE
  5
891
330
88E
100
AcDbEntity
  8
0
 62
     0
440
 16777216
370
    -2
100
AcDbLine
 10
724.7872616534862
 20
822.735636092444
 30
0.0
 11
442.6772192546708
 21
822.735636092444
 31
0.0
  0
LINE
  5
892
330
88E
100
AcDbEntity
  8
0
 62
     0
440
 16777216
370
    -2
100
AcDbLine
 10
697.4297366889961
 20
62.35615820247002
 30
0.0
 11
442.6772192546708
 21
62.35615820246998
 31
0.0
  0
LINE
  5
893
330
88E
100
AcDbEntity
  8
0
 62
     0
440
 16777216
370
    -2
100
AcDbLine
 10
442.8572192546709
 20
822.5556360924437
 30
0.0
 11
442.8572192546709
 21
442.725897147457
 31
0.0
  0
LINE
  5
894
330
88E
100
AcDbEntity
  8
0
 62
     0
440
 16777216
370
    -2
100
AcDbLine
 10
442.857219254671
 20
62.53615820246999
 30
0.0
 11
442.8572192546709
 21
442.3658971474568
 31
0.0
  0
SOLID
  5
895
330
88E
100
AcDbEntity
  8
0
 62
     0
440
 16777216
100
AcDbTrace
 10
442.8272192546709
 20
822.5556360924437
 30
0.0
 11
442.8872192546708
 21
822.5556360924437
 31
0.0
 12
442.8572192546709
 22
822.735636092444
 32
0.0
 13
442.8572192546709
 23
822.735636092444
 33
0.0
  0
SOLID
  5
896
330
88E
100
AcDbEntity
  8
0
 62
     0
440
 16777216
100
AcDbTrace
 10
442.827219254671
 20
62.53615820246999
 30
0.0
 11
442.887219254671
 21
62.53615820246999
 31
0.0
 12
442.857219254671
 22
62.35615820246998
 32
0.0
 13
442.857219254671
 23
62.35615820246998
 33
0.0
  0
MTEXT
  5
897
330
88E
100
AcDbEntity
  8
0
 62
     0
440
 16777216
100
AcDbMText
 10
442.8572192546709
 20
442.5458971474568
 30
0.0
 40
0.18
 41
0.0
 46
0.0
 71
     5
 72
     1
  1
\A1;760.3795
 73
     1
 44
1.0
  0
POINT
  5
898
330
88E
100
AcDbEntity
  8
Defpoints
 62
     0
440
 16777216
100
AcDbPoint
 10
724.8497616534862
 20
822.735636092444
 30
0.0000000000001063
  0
POINT
  5
899
330
88E
100
AcDbEntity
  8
Defpoints
 62
     0
440
 16777216
100
AcDbPoint
 10
697.4922366889963
 20
62.35615820247002
 30
0.0
  0
POINT
  5
89A
330
88E
100
AcDbEntity
  8
Defpoints
 62
     0
440
 16777216
100
AcDbPoint
 10
442.857219254671
 20
62.35615820246998
 30
0.0
  0
ENDBLK
  5
890
330
88E
100
AcDbEntity
  8
0
100
AcDbBlockEnd
  0
BLOCK
  5
8BB
330
8BA
100
AcDbEntity
  8
0
100
AcDbBlockBegin
  2
_Dot
 70
     0
 10
0.0
 20
0.0
 30
0.0
  3
_Dot
  1

  0
LWPOLYLINE
  5
8BC
330
8BA
100
AcDbEntity
  8
0
  6
ByBlock
 62
     0
100
AcDbPolyline
 90
        2
 70
     1
 43
0.5
 10
-0.25
 20
0.0
 42
1.0
 10
0.25
 20
0.0
 42
1.0
  0
LINE
  5
8BD
330
8BA
100
AcDbEntity
  8
0
  6
ByBlock
 62
     0
370
    -2
100
AcDbLine
 10
-0.5
 20
0.0
 30
0.0
 11
-1.0
 21
0.0
 31
0.0
  0
ENDBLK
  5
8BE
330
8BA
100
AcDbEntity
  8
0
100
AcDbBlockEnd
  0
BLOCK
  5
8C0
330
8BF
100
AcDbEntity
  8
0
100
AcDbBlockBegin
  2
*D6
 70
     1
 10
0.0
 20
0.0
 30
0.0
  3
*D6
  1

  0
LINE
  5
8C1
330
8BF
100
AcDbEntity
  8
0
 62
     0
440
 16777216
370
    -2
100
AcDbLine
 10
21833.66388734562
 20
-62336.93462033389
 30
0.0
 11
21960.19945650409
 21
-62336.93462033389
 31
0.0
  0
LINE
  5
8C2
330
8BF
100
AcDbEntity
  8
0
 62
     0
440
 16777216
370
    -2
100
AcDbLine
 10
21833.66388734562
 20
-61486.93462033389
 30
0.0
 11
21960.19945650409
 21
-61486.93462033389
 31
0.0
  0
LINE
  5
8C3
330
8BF
100
AcDbEntity
  8
0
 62
     0
440
 16777216
370
    -2
100
AcDbLine
 10
21958.94945650409
 20
-62318.93462033387
 30
0.0
 11
21958.94945650409
 21
-61504.93462033389
 31
0.0
  0
INSERT
  5
8C4
330
8BF
100
AcDbEntity
  8
0
 62
     0
440
 16777216
370
    -2
100
AcDbBlockReference
  2
_Dot
 10
21958.94945650409
 20
-62336.93462033389
 30
0.0
 41
18.0
 42
18.0
 43
18.0
 50
270.0
  0
INSERT
  5
8C5
330
8BF
100
AcDbEntity
  8
0
 62
     0
440
 16777216
370
    -2
100
AcDbBlockReference
  2
_Dot
 10
21958.94945650409
 20
-61486.93462033389
 30
0.0
 41
18.0
 42
18.0
 43
18.0
 50
90.0
  0
MTEXT
  5
8C6
330
8BF
100
AcDbEntity
  8
0
 62
     0
440
 16777216
100
AcDbMText
 10
21923.5265369952
 20
-61911.93462033388
 30
0.0
 40
40.0
 41
0.0
 46
0.0
 71
     5
 72
     1
  1
850
  7
ARIAL
 11
0.0000000000000001
 21
1.0
 31
0.0
 73
     1
 44
1.0
  0
POINT
  5
8C7
330
8BF
100
AcDbEntity
  8
Defpoints
 62
     0
440
 16777216
100
AcDbPoint
 10
21833.03888734562
 20
-62336.93462033389
 30
0.0
  0
POINT
  5
8C8
330
8BF
100
AcDbEntity
  8
Defpoints
 62
     0
440
 16777216
100
AcDbPoint
 10
21833.03888734562
 20
-61486.93462033389
 30
0.0
  0
POINT
  5
8C9
330
8BF
100
AcDbEntity
  8
Defpoints
 62
     0
440
 16777216
100
AcDbPoint
 10
21958.94945650409
 20
-61486.93462033389
 30
0.0
  0
ENDBLK
  5
8CA
330
8BF
100
AcDbEntity
  8
0
100
AcDbBlockEnd
  0
BLOCK
  5
8D7
330
8D6
100
AcDbEntity
  8
0
100
AcDbBlockBegin
  2
*D7
 70
     1
 10
0.0
 20
0.0
 30
0.0
  3
*D7
  1

  0
LINE
  5
8E2
330
8D6
100
AcDbEntity
  8
0
 62
     0
440
 16777216
370
    -2
100
AcDbLine
 10
1372.749753103641
 20
64.76389630970882
 30
0.0
 11
1499.285322262118
 21
64.76389630970884
 31
0.0
  0
LINE
  5
8E3
330
8D6
100
AcDbEntity
  8
0
 62
     0
440
 16777216
370
    -2
100
AcDbLine
 10
1372.749753103641
 20
914.7638963097094
 30
0.0
 11
1499.285322262118
 21
914.7638963097094
 31
0.0
  0
LINE
  5
8E4
330
8D6
100
AcDbEntity
  8
0
 62
     0
440
 16777216
370
    -2
100
AcDbLine
 10
1498.035322262118
 20
82.76389630970884
 30
0.0
 11
1498.035322262118
 21
896.7638963097094
 31
0.0
  0
INSERT
  5
8E5
330
8D6
100
AcDbEntity
  8
0
 62
     0
440
 16777216
370
    -2
100
AcDbBlockReference
  2
_Dot
 10
1498.035322262118
 20
64.76389630970884
 30
0.0
 41
18.0
 42
18.0
 43
18.0
 50
270.0
  0
INSERT
  5
8E6
330
8D6
100
AcDbEntity
  8
0
 62
     0
440
 16777216
370
    -2
100
AcDbBlockReference
  2
_Dot
 10
1498.035322262118
 20
914.7638963097094
 30
0.0
 41
18.0
 42
18.0
 43
18.0
 50
90.0
  0
MTEXT
  5
8E7
330
8D6
100
AcDbEntity
  8
0
 62
     0
440
 16777216
100
AcDbMText
 10
1462.612402753251
 20
489.7638963097084
 30
0.0
 40
40.0
 41
0.0
 46
0.0
 71
     5
 72
     1
  1
850
  7
ARIAL
 11
0.0000000000000001
 21
1.0
 31
0.0
 73
     1
 44
1.0
  0
POINT
  5
8E8
330
8D6
100
AcDbEntity
  8
Defpoints
 62
     0
440
 16777216
100
AcDbPoint
 10
1372.124753103641
 20
64.76389630970882
 30
0.0
  0
POINT
  5
8E9
330
8D6
100
AcDbEntity
  8
Defpoints
 62
     0
440
 16777216
100
AcDbPoint
 10
1372.124753103641
 20
914.7638963097094
 30
0.0
  0
POINT
  5
8EA
330
8D6
100
AcDbEntity
  8
Defpoints
 62
     0
440
 16777216
100
AcDbPoint
 10
1498.035322262118
 20
914.7638963097094
 30
0.0
  0
ENDBLK
  5
8D8
330
8D6
100
AcDbEntity
  8
0
100
AcDbBlockEnd
  0
BLOCK
  5
8ED
330
8EC
100
AcDbEntity
  8
0
100
AcDbBlockBegin
  2
*D8
 70
     1
 10
0.0
 20
0.0
 30
0.0
  3
*D8
  1

  0
LINE
  5
E41
330
8EC
100
AcDbEntity
  8
0
 62
     0
440
 16777216
370
    -2
100
AcDbLine
 10
228.6365987562131
 20
742.7941371674869
 30
0.0
 11
69.61477877967808
 21
742.7941371674869
 31
0.0
  0
LINE
  5
E42
330
8EC
100
AcDbEntity
  8
0
 62
     0
440
 16777216
370
    -2
100
AcDbLine
 10
228.6365987562131
 20
62.79413716748681
 30
0.0
 11
69.61477877967823
 21
62.79413716748678
 31
0.0
  0
LINE
  5
E43
330
8EC
100
AcDbEntity
  8
0
 62
     0
440
 16777216
370
    -2
100
AcDbLine
 10
70.86477877967809
 20
724.7941371674869
 30
0.0
 11
70.86477877967823
 21
80.79413716748678
 31
0.0
  0
INSERT
  5
E44
330
8EC
100
AcDbEntity
  8
0
 62
     0
440
 16777216
370
    -2
100
AcDbBlockReference
  2
_Dot
 10
70.86477877967808
 20
742.7941371674869
 30
0.0
 41
18.0
 42
18.0
 43
18.0
 50
90.0
  0
INSERT
  5
E45
330
8EC
100
AcDbEntity
  8
0
 62
     0
440
 16777216
370
    -2
100
AcDbBlockReference
  2
_Dot
 10
70.86477877967823
 20
62.79413716748678
 30
0.0
 41
18.0
 42
18.0
 43
18.0
 50
270.0
  0
MTEXT
  5
E46
330
8EC
100
AcDbEntity
  8
0
 62
     0
440
 16777216
100
AcDbMText
 10
35.44185927081059
 20
402.7941371674867
 30
0.0
 40
40.0
 41
0.0
 46
0.0
 71
     5
 72
     1
  1
680
  7
ARIAL
 11
0.0000000000000001
 21
1.0
 31
0.0
 73
     1
 44
1.0
  0
POINT
  5
E47
330
8EC
100
AcDbEntity
  8
Defpoints
 62
     0
440
 16777216
100
AcDbPoint
 10
229.2615987562131
 20
742.7941371674869
 30
0.0
  0
POINT
  5
E48
330
8EC
100
AcDbEntity
  8
Defpoints
 62
     0
440
 16777216
100
AcDbPoint
 10
229.2615987562131
 20
62.79413716748681
 30
0.0
  0
POINT
  5
E49
330
8EC
100
AcDbEntity
  8
Defpoints
 62
     0
440
 16777216
100
AcDbPoint
 10
70.86477877967823
 20
62.79413716748678
 30
0.0
  0
ENDBLK
  5
8EE
330
8EC
100
AcDbEntity
  8
0
100
AcDbBlockEnd
  0
BLOCK
  5
E4C
330
E4B
100
AcDbEntity
  8
0
100
AcDbBlockBegin
  2
*D14
 70
     1
 10
0.0
 20
0.0
 30
0.0
  3
*D14
  1

  0
LINE
  5
E4E
330
E4B
100
AcDbEntity
  8
0
 62
     0
440
 16777216
370
    -2
100
AcDbLine
 10
1445.836532330274
 20
122.0817418645431
 30
0.0
 11
2014.856554374965
 21
122.0817418645432
 31
0.0
  0
LINE
  5
E4F
330
E4B
100
AcDbEntity
  8
0
 62
     0
440
 16777216
370
    -2
100
AcDbLine
 10
1453.018216238665
 20
758.8948386927179
 30
0.0
 11
2014.856554374965
 21
758.894838692718
 31
0.0
  0
LINE
  5
E50
330
E4B
100
AcDbEntity
  8
0
 62
     0
440
 16777216
370
    -2
100
AcDbLine
 10
2014.676554374966
 20
122.2617418645432
 30
0.0
 11
2014.676554374966
 21
440.3082902786307
 31
0.0
  0
LINE
  5
E51
330
E4B
100
AcDbEntity
  8
0
 62
     0
440
 16777216
370
    -2
100
AcDbLine
 10
2014.676554374965
 20
758.714838692718
 30
0.0
 11
2014.676554374966
 21
440.6682902786307
 31
0.0
  0
SOLID
  5
E52
330
E4B
100
AcDbEntity
  8
0
 62
     0
440
 16777216
100
AcDbTrace
 10
2014.646554374966
 20
122.2617418645432
 30
0.0
 11
2014.706554374965
 21
122.2617418645432
 31
0.0
 12
2014.676554374966
 22
122.0817418645432
 32
0.0
 13
2014.676554374966
 23
122.0817418645432
 33
0.0
  0
SOLID
  5
E53
330
E4B
100
AcDbEntity
  8
0
 62
     0
440
 16777216
100
AcDbTrace
 10
2014.646554374965
 20
758.714838692718
 30
0.0
 11
2014.706554374965
 21
758.714838692718
 31
0.0
 12
2014.676554374965
 22
758.894838692718
 32
0.0
 13
2014.676554374965
 23
758.894838692718
 33
0.0
  0
MTEXT
  5
E54
330
E4B
100
AcDbEntity
  8
0
 62
     0
440
 16777216
100
AcDbMText
 10
2014.676554374965
 20
440.48829027863
 30
0.0
 40
0.18
 41
0.0
 46
0.0
 71
     5
 72
     1
  1
\A1;636.8131
 73
     1
 44
1.0
  0
POINT
  5
E55
330
E4B
100
AcDbEntity
  8
Defpoints
 62
     0
440
 16777216
100
AcDbPoint
 10
1445.774032330273
 20
122.0817418645431
 30
0.0
  0
POINT
  5
E56
330
E4B
100
AcDbEntity
  8
Defpoints
 62
     0
440
 16777216
100
AcDbPoint
 10
1452.955716238665
 20
758.8948386927179
 30
0.0
  0
POINT
  5
E57
330
E4B
100
AcDbEntity
  8
Defpoints
 62
     0
440
 16777216
100
AcDbPoint
 10
2014.676554374965
 20
758.894838692718
 30
0.0
  0
ENDBLK
  5
E4D
330
E4B
100
AcDbEntity
  8
0
100
AcDbBlockEnd
  0
ENDSEC
  0
SECTION
  2
ENTITIES
  0
POINT
  5
41
330
1F
100
AcDbEntity
  8
1
  6
Continuous
 62
     8
 60
     1
100
AcDbPoint
 10
404.3575923400498
 20
781.375311787343
 30
0.0
  0
POINT
  5
43
330
1F
100
AcDbEntity
  8
1
  6
Continuous
 62
     8
 60
     1
100
AcDbPoint
 10
406.2557024266769
 20
781.375311787343
 30
0.0
  0
POINT
  5
44
330
1F
100
AcDbEntity
  8
1
  6
Continuous
 62
     8
 60
     1
100
AcDbPoint
 10
459.0720825317583
 20
781.375311787343
 30
0.0
  0
POINT
  5
45
330
1F
100
AcDbEntity
  8
1
  6
Continuous
 62
     8
 60
     1
100
AcDbPoint
 10
407.4516212075916
 20
781.375311787343
 30
0.0
  0
POINT
  5
46
330
1F
100
AcDbEntity
  8
1
  6
Continuous
 62
     8
 60
     1
100
AcDbPoint
 10
458.1666053598187
 20
768.375311787343
 30
0.0
  0
POINT
  5
47
330
1F
100
AcDbEntity
  8
1
  6
Continuous
 62
     8
 60
     1
100
AcDbPoint
 10
458.1666053598187
 20
794.772511787343
 30
0.0
  0
POINT
  5
48
330
1F
100
AcDbEntity
  8
1
  6
Continuous
 62
     8
 60
     1
100
AcDbPoint
 10
404.3575923400498
 20
27.05471422462955
 30
0.0
  0
POINT
  5
49
330
1F
100
AcDbEntity
  8
1
  6
Continuous
 62
     8
 60
     1
100
AcDbPoint
 10
406.3864360407983
 20
27.05471422462955
 30
0.0
  0
POINT
  5
4A
330
1F
100
AcDbEntity
  8
1
  6
Continuous
 62
     8
 60
     1
100
AcDbPoint
 10
459.0720825317583
 20
27.05471422462955
 30
0.0
  0
POINT
  5
4B
330
1F
100
AcDbEntity
  8
1
  6
Continuous
 62
     8
 60
     1
100
AcDbPoint
 10
407.4690523561413
 20
27.05471422462955
 30
0.0
  0
TEXT
  5
89E
330
1F
100
AcDbEntity
  8
0
100
AcDbText
 10
249.3118312891265
 20
560.4288634162464
 30
-0.0000000000000152
 40
25.0
  1
900.50...
100
AcDbText
  0
LINE
  5
8B3
330
1F
100
AcDbEntity
  8
0
100
AcDbLine
 10
1363.58276486837
 20
62.79413716748678
 30
0.0
 11
12.71910588966057
 21
62.79413716748678
 31
0.0
  0
DIMENSION
  5
8EB
330
1F
100
AcDbEntity
  8
0
100
AcDbDimension
280
     0
  2
*D8
 10
70.86477877967823
 20
62.79413716748678
 30
0.0
 11
35.44185927081059
 21
402.7941371674867
 31
0.0
 70
    32
 71
     5
 42
680.0000000000001
 73
     0
 74
     0
 75
     0
  3
ISO-25
100
AcDbAlignedDimension
 13
229.261598756213
 23
742.7941371674867
 33
0.0
 14
229.261598756213
 24
62.79413716748678
 34
0.0
 50
90.0
100
AcDbRotatedDimension
1001
ACAD
1000
DSTYLE
1002
{
1070
   271
1070
     0
1070
    41
1040
18.0
1070
   140
1040
40.0
1070
   147
1040
15.0
1070
   173
1070
     1
1070
   340
1005
8CB
1070
   343
1005
8BA
1070
   344
1005
8BA
1002
}
  0
LINE
  5
9D6
330
1F
100
AcDbEntity
  8
VD
100
AcDbLine
 10
896.7705750901913
 20
742.6941371674868
 30
0.0
 11
896.5705750901907
 21
742.4941371674868
 31
0.0
  0
LINE
  5
9D7
330
1F
100
AcDbEntity
  8
VD
100
AcDbLine
 10
896.5705750901907
 20
709.3941371674868
 30
0.0
 11
896.7705750901913
 21
709.1941371674868
 31
0.0
  0
LINE
  5
9D8
330
1F
100
AcDbEntity
  8
VD
100
AcDbLine
 10
896.7705750901913
 20
709.1941371674868
 30
0.0
 11
898.5705750901907
 21
709.1941371674868
 31
0.0
  0
LINE
  5
9D9
330
1F
100
AcDbEntity
  8
VD
100
AcDbLine
 10
898.5705750901907
 20
742.6941371674868
 30
0.0
 11
896.7705750901913
 21
742.6941371674868
 31
0.0
  0
LINE
  5
9DA
330
1F
100
AcDbEntity
  8
VD
100
AcDbLine
 10
706.0705750901907
 20
710.7359411674868
 30
0.0
 11
670.0705750901907
 21
710.7359411674868
 31
0.0
  0
LINE
  5
9DB
330
1F
100
AcDbEntity
  8
VD
100
AcDbLine
 10
670.0705750901907
 20
633.7864411674868
 30
0.0
 11
706.0705750901907
 21
633.7864411674868
 31
0.0
  0
LINE
  5
9DC
330
1F
100
AcDbEntity
  8
VD
100
AcDbLine
 10
167.3705750901899
 20
637.1441371674868
 30
0.0
 11
159.670575090191
 21
637.1441371674868
 31
0.0
  0
LINE
  5
9DD
330
1F
100
AcDbEntity
  8
VD
100
AcDbLine
 10
159.670575090191
 20
610.1441371674868
 30
0.0
 11
167.3705750901899
 21
610.1441371674868
 31
0.0
  0
LINE
  5
9DE
330
1F
100
AcDbEntity
  8
VD
100
AcDbLine
 10
159.670575090191
 20
637.1441371674868
 30
0.0
 11
158.9705750901903
 21
636.4441371674868
 31
0.0
  0
LINE
  5
9DF
330
1F
100
AcDbEntity
  8
VD
100
AcDbLine
 10
158.9705750901903
 20
610.8441371674869
 30
0.0
 11
159.670575090191
 21
610.1441371674868
 31
0.0
  0
LINE
  5
9E0
330
1F
100
AcDbEntity
  8
VD
100
AcDbLine
 10
167.3705750901899
 20
610.1441371674868
 30
0.0
 11
168.0705750901907
 21
610.8441371674869
 31
0.0
  0
LINE
  5
9E1
330
1F
100
AcDbEntity
  8
VD
100
AcDbLine
 10
168.0705750901907
 20
636.4441371674868
 30
0.0
 11
167.3705750901899
 21
637.1441371674868
 31
0.0
  0
LINE
  5
9E2
330
1F
100
AcDbEntity
  8
VD
100
AcDbLine
 10
158.4705750901903
 20
611.6441371674868
 30
0.0
 11
158.9705750901903
 21
611.6441371674868
 31
0.0
  0
LINE
  5
9E3
330
1F
100
AcDbEntity
  8
VD
100
AcDbLine
 10
158.9705750901903
 20
635.6441371674868
 30
0.0
 11
158.4705750901903
 21
635.6441371674868
 31
0.0
  0
LINE
  5
9E4
330
1F
100
AcDbEntity
  8
VD
100
AcDbLine
 10
838.2705750901914
 20
636.0941371674869
 30
0.0
 11
838.0705750901906
 21
635.8941371674868
 31
0.0
  0
LINE
  5
9E5
330
1F
100
AcDbEntity
  8
VD
100
AcDbLine
 10
838.0705750901906
 20
611.2941371674867
 30
0.0
 11
838.2705750901914
 21
611.0941371674869
 31
0.0
  0
LINE
  5
9E6
330
1F
100
AcDbEntity
  8
VD
100
AcDbLine
 10
840.87057509019
 20
611.0941371674869
 30
0.0
 11
841.0705750901907
 21
611.2941371674867
 31
0.0
  0
LINE
  5
9E7
330
1F
100
AcDbEntity
  8
VD
100
AcDbLine
 10
841.0705750901907
 20
635.8941371674868
 30
0.0
 11
840.87057509019
 21
636.0941371674869
 31
0.0
  0
LINE
  5
9E8
330
1F
100
AcDbEntity
  8
VD
100
AcDbLine
 10
838.2705750901914
 20
611.0941371674869
 30
0.0
 11
840.87057509019
 21
611.0941371674869
 31
0.0
  0
LINE
  5
9E9
330
1F
100
AcDbEntity
  8
VD
100
AcDbLine
 10
840.87057509019
 20
636.0941371674869
 30
0.0
 11
838.2705750901914
 21
636.0941371674869
 31
0.0
  0
LINE
  5
9EA
330
1F
100
AcDbEntity
  8
VD
100
AcDbLine
 10
708.0720690901907
 20
709.0941371674869
 30
0.0
 11
896.5705750901907
 21
709.0941371674869
 31
0.0
  0
LINE
  5
9EB
330
1F
100
AcDbEntity
  8
VD
100
AcDbLine
 10
339.0777690901905
 20
709.0941371674869
 30
0.0
 11
818.0705750901907
 21
709.0941371674869
 31
0.0
  0
LINE
  5
9EC
330
1F
100
AcDbEntity
  8
VD
100
AcDbLine
 10
205.4814770901903
 20
709.0941371674869
 30
0.0
 11
299.0698850901917
 21
709.0941371674869
 31
0.0
  0
LINE
  5
9ED
330
1F
100
AcDbEntity
  8
VD
100
AcDbLine
 10
896.5705750901907
 20
742.7941371674867
 30
0.0
 11
205.4935750901914
 21
742.7941371674867
 31
0.0
  0
LINE
  5
9EE
330
1F
100
AcDbEntity
  8
VD
100
AcDbLine
 10
301.0705750901907
 20
633.7864411674868
 30
0.0
 11
337.0705750901907
 21
633.7864411674868
 31
0.0
  0
LINE
  5
9EF
330
1F
100
AcDbEntity
  8
VD
100
AcDbLine
 10
337.0705750901907
 20
710.7359411674868
 30
0.0
 11
301.0705750901907
 21
710.7359411674868
 31
0.0
  0
LINE
  5
9F0
330
1F
100
AcDbEntity
  8
VD
100
AcDbLine
 10
169.0705750901907
 20
635.9941371674867
 30
0.0
 11
168.2705750901914
 21
635.9941371674867
 31
0.0
  0
LINE
  5
9F1
330
1F
100
AcDbEntity
  8
VD
100
AcDbLine
 10
168.2705750901914
 20
611.1941371674868
 30
0.0
 11
169.0705750901907
 21
611.1941371674868
 31
0.0
  0
LINE
  5
9F2
330
1F
100
AcDbEntity
  8
VD
100
AcDbLine
 10
168.2705750901914
 20
635.9941371674867
 30
0.0
 11
168.0705750901907
 21
635.7941371674867
 31
0.0
  0
LINE
  5
9F3
330
1F
100
AcDbEntity
  8
VD
100
AcDbLine
 10
168.0705750901907
 20
611.3941371674869
 30
0.0
 11
168.2705750901914
 21
611.1941371674868
 31
0.0
  0
LINE
  5
9F4
330
1F
100
AcDbEntity
  8
VD
100
AcDbLine
 10
733.0705750901906
 20
611.0941371674869
 30
0.0
 11
838.0705750901906
 21
611.0941371674869
 31
0.0
  0
LINE
  5
9F5
330
1F
100
AcDbEntity
  8
VD
100
AcDbLine
 10
695.5886170901903
 20
611.0941371674869
 30
0.0
 11
733.0705750901906
 21
611.0941371674869
 31
0.0
  0
LINE
  5
9F6
330
1F
100
AcDbEntity
  8
VD
100
AcDbLine
 10
326.5886170901904
 20
611.0941371674869
 30
0.0
 11
788.0705750901906
 21
611.0941371674869
 31
0.0
  0
LINE
  5
9F7
330
1F
100
AcDbEntity
  8
VD
100
AcDbLine
 10
169.0705750901907
 20
611.0941371674869
 30
0.0
 11
311.5205750901914
 21
611.0941371674869
 31
0.0
  0
LINE
  5
9F8
330
1F
100
AcDbEntity
  8
VD
100
AcDbLine
 10
299.069931090191
 20
636.0941371674869
 30
0.0
 11
169.0705750901907
 21
636.0941371674869
 31
0.0
  0
LINE
  5
9F9
330
1F
100
AcDbEntity
  8
VD
100
AcDbLine
 10
788.0705750901906
 20
636.0941371674869
 30
0.0
 11
339.0761550901916
 21
636.0941371674869
 31
0.0
  0
LINE
  5
9FA
330
1F
100
AcDbEntity
  8
VD
100
AcDbLine
 10
840.87057509019
 20
636.0941371674869
 30
0.0
 11
838.2705750901914
 21
636.0941371674869
 31
0.0
  0
LINE
  5
9FB
330
1F
100
AcDbEntity
  8
VD
100
AcDbLine
 10
838.0705750901906
 20
636.0941371674869
 30
0.0
 11
708.0718390901911
 21
636.0941371674869
 31
0.0
  0
LINE
  5
9FC
330
1F
100
AcDbEntity
  8
VD
100
AcDbLine
 10
896.5705750901907
 20
725.9441371674868
 30
0.0
 11
896.5705750901907
 21
742.7941371674867
 31
0.0
  0
LINE
  5
9FD
330
1F
100
AcDbEntity
  8
VD
100
AcDbLine
 10
896.5705750901907
 20
709.0941371674869
 30
0.0
 11
896.5705750901907
 21
725.9441371674868
 31
0.0
  0
LINE
  5
9FE
330
1F
100
AcDbEntity
  8
VD
100
AcDbLine
 10
337.0705750901907
 20
633.7864411674868
 30
0.0
 11
337.0705750901907
 21
633.9864411674868
 31
0.0
  0
LINE
  5
9FF
330
1F
100
AcDbEntity
  8
VD
100
AcDbLine
 10
337.0705750901907
 20
710.7359411674868
 30
0.0
 11
337.0705750901907
 21
710.5359411674867
 31
0.0
  0
LINE
  5
A00
330
1F
100
AcDbEntity
  8
VD
100
AcDbLine
 10
339.0705750901907
 20
709.8055971674869
 30
0.0
 11
339.0705750901907
 21
635.0414071674868
 31
0.0
  0
LINE
  5
A01
330
1F
100
AcDbEntity
  8
VD
100
AcDbLine
 10
337.0705750901907
 20
633.9864411674868
 30
0.0
 11
337.0705750901907
 21
710.5359411674867
 31
0.0
  0
LINE
  5
A02
330
1F
100
AcDbEntity
  8
VD
100
AcDbLine
 10
301.0705750901907
 20
633.9864411674868
 30
0.0
 11
337.0705750901907
 21
633.9864411674868
 31
0.0
  0
LINE
  5
A03
330
1F
100
AcDbEntity
  8
VD
100
AcDbLine
 10
337.0705750901907
 20
710.5359411674867
 30
0.0
 11
301.0705750901907
 21
710.5359411674867
 31
0.0
  0
LINE
  5
A04
330
1F
100
AcDbEntity
  8
VD
100
AcDbLine
 10
299.0705750901907
 20
635.0414071674868
 30
0.0
 11
299.0705750901907
 21
709.8055971674869
 31
0.0
  0
LINE
  5
A05
330
1F
100
AcDbEntity
  8
VD
100
AcDbLine
 10
301.0705750901907
 20
710.5359411674867
 30
0.0
 11
301.0705750901907
 21
633.9864411674868
 31
0.0
  0
LINE
  5
A06
330
1F
100
AcDbEntity
  8
VD
100
AcDbLine
 10
301.0705750901907
 20
633.7864411674868
 30
0.0
 11
301.0705750901907
 21
633.9864411674868
 31
0.0
  0
LINE
  5
A07
330
1F
100
AcDbEntity
  8
VD
100
AcDbLine
 10
301.0705750901907
 20
710.7359411674868
 30
0.0
 11
301.0705750901907
 21
710.5359411674867
 31
0.0
  0
LINE
  5
A08
330
1F
100
AcDbEntity
  8
VD
100
AcDbLine
 10
896.7705750901913
 20
709.1941371674868
 30
0.0
 11
896.7705750901913
 21
742.6941371674868
 31
0.0
  0
LINE
  5
A09
330
1F
100
AcDbEntity
  8
VD
100
AcDbLine
 10
668.0705750901907
 20
635.2656251674869
 30
0.0
 11
668.0705750901907
 21
634.7656251674869
 31
0.0
  0
LINE
  5
A0A
330
1F
100
AcDbEntity
  8
VD
100
AcDbLine
 10
668.0705750901907
 20
710.3235811674867
 30
0.0
 11
668.0705750901907
 21
709.8235811674867
 31
0.0
  0
LINE
  5
A0B
330
1F
100
AcDbEntity
  8
VD
100
AcDbLine
 10
668.0705750901907
 20
709.8235811674867
 30
0.0
 11
668.0705750901907
 21
635.2656251674869
 31
0.0
  0
LINE
  5
A0C
330
1F
100
AcDbEntity
  8
VD
100
AcDbLine
 10
706.0705750901907
 20
633.7864411674868
 30
0.0
 11
706.0705750901907
 21
633.9864411674868
 31
0.0
  0
LINE
  5
A0D
330
1F
100
AcDbEntity
  8
VD
100
AcDbLine
 10
670.0705750901907
 20
633.9864411674868
 30
0.0
 11
706.0705750901907
 21
633.9864411674868
 31
0.0
  0
LINE
  5
A0E
330
1F
100
AcDbEntity
  8
VD
100
AcDbLine
 10
706.0705750901907
 20
710.5359411674867
 30
0.0
 11
670.0705750901907
 21
710.5359411674867
 31
0.0
  0
LINE
  5
A0F
330
1F
100
AcDbEntity
  8
VD
100
AcDbLine
 10
670.0705750901907
 20
633.7864411674868
 30
0.0
 11
670.0705750901907
 21
633.9864411674868
 31
0.0
  0
LINE
  5
A10
330
1F
100
AcDbEntity
  8
VD
100
AcDbLine
 10
670.0705750901907
 20
710.5359411674867
 30
0.0
 11
670.0705750901907
 21
633.9864411674868
 31
0.0
  0
LINE
  5
A11
330
1F
100
AcDbEntity
  8
VD
100
AcDbLine
 10
670.0705750901907
 20
710.7359411674868
 30
0.0
 11
670.0705750901907
 21
710.5359411674867
 31
0.0
  0
LINE
  5
A12
330
1F
100
AcDbEntity
  8
VD
100
AcDbLine
 10
168.0705750901907
 20
636.4441371674868
 30
0.0
 11
168.0705750901907
 21
610.8441371674869
 31
0.0
  0
LINE
  5
A13
330
1F
100
AcDbEntity
  8
VD
100
AcDbLine
 10
167.3705750901899
 20
623.6441371674868
 30
0.0
 11
167.3705750901899
 21
637.1441371674868
 31
0.0
  0
LINE
  5
A14
330
1F
100
AcDbEntity
  8
VD
100
AcDbLine
 10
167.3705750901899
 20
610.1441371674868
 30
0.0
 11
167.3705750901899
 21
623.6441371674868
 31
0.0
  0
LINE
  5
A15
330
1F
100
AcDbEntity
  8
VD
100
AcDbLine
 10
159.670575090191
 20
610.1441371674868
 30
0.0
 11
159.670575090191
 21
637.1441371674868
 31
0.0
  0
LINE
  5
A16
330
1F
100
AcDbEntity
  8
VD
100
AcDbLine
 10
158.9705750901903
 20
636.4441371674868
 30
0.0
 11
158.9705750901903
 21
623.6441371674868
 31
0.0
  0
LINE
  5
A17
330
1F
100
AcDbEntity
  8
VD
100
AcDbLine
 10
158.9705750901903
 20
623.6441371674868
 30
0.0
 11
158.9705750901903
 21
610.8441371674869
 31
0.0
  0
LINE
  5
A18
330
1F
100
AcDbEntity
  8
VD
100
AcDbLine
 10
158.4705750901903
 20
611.6441371674868
 30
0.0
 11
158.4705750901903
 21
635.6441371674868
 31
0.0
  0
LINE
  5
A19
330
1F
100
AcDbEntity
  8
VD
100
AcDbLine
 10
150.4705990901912
 20
781.9441371674868
 30
0.0
 11
150.2705750901914
 21
781.9441371674868
 31
0.0
  0
LINE
  5
A1A
330
1F
100
AcDbEntity
  8
VD
100
AcDbLine
 10
150.2705750901914
 20
781.9441371674868
 30
0.0
 11
150.2705750901914
 21
780.4441371674868
 31
0.0
  0
LINE
  5
A1B
330
1F
100
AcDbEntity
  8
VD
100
AcDbLine
 10
147.670575090191
 20
781.9441371674868
 30
0.0
 11
150.2705750901914
 21
781.9441371674868
 31
0.0
  0
LINE
  5
A1C
330
1F
100
AcDbEntity
  8
VD
100
AcDbLine
 10
147.670575090191
 20
780.4441371674868
 30
0.0
 11
150.2705750901914
 21
780.4441371674868
 31
0.0
  0
LINE
  5
A1D
330
1F
100
AcDbEntity
  8
VD
100
AcDbLine
 10
137.670575090191
 20
780.4441371674868
 30
0.0
 11
137.670575090191
 21
781.9441371674868
 31
0.0
  0
LINE
  5
A1E
330
1F
100
AcDbEntity
  8
VD
100
AcDbLine
 10
147.670575090191
 20
781.9441371674868
 30
0.0
 11
147.670575090191
 21
780.4441371674868
 31
0.0
  0
LINE
  5
A1F
330
1F
100
AcDbEntity
  8
VD
100
AcDbLine
 10
137.670575090191
 20
781.9441371674868
 30
0.0
 11
147.670575090191
 21
781.9441371674868
 31
0.0
  0
LINE
  5
A20
330
1F
100
AcDbEntity
  8
VD
100
AcDbLine
 10
147.670575090191
 20
780.4441371674868
 30
0.0
 11
147.4705570901915
 21
780.4441371674868
 31
0.0
  0
LINE
  5
A21
330
1F
100
AcDbEntity
  8
VD
100
AcDbLine
 10
838.2705750901914
 20
611.0941371674869
 30
0.0
 11
838.2705750901914
 21
636.0941371674869
 31
0.0
  0
LINE
  5
A22
330
1F
100
AcDbEntity
  8
VD
100
AcDbLine
 10
838.0705750901906
 20
636.0941371674869
 30
0.0
 11
838.0705750901906
 21
623.5941371674869
 31
0.0
  0
LINE
  5
A23
330
1F
100
AcDbEntity
  8
VD
100
AcDbLine
 10
838.0705750901906
 20
623.5941371674869
 30
0.0
 11
838.0705750901906
 21
611.0941371674869
 31
0.0
  0
LINE
  5
A24
330
1F
100
AcDbEntity
  8
VD
100
AcDbLine
 10
323.5788610901909
 20
612.6441371674868
 30
0.0
 11
314.5931850901907
 21
612.6441371674868
 31
0.0
  0
LINE
  5
A25
330
1F
100
AcDbEntity
  8
VD
100
AcDbLine
 10
324.7705750901914
 20
611.8441371674869
 30
0.0
 11
313.37057509019
 21
611.8441371674869
 31
0.0
  0
LINE
  5
A26
330
1F
100
AcDbEntity
  8
VD
100
AcDbLine
 10
168.2705750901914
 20
635.9941371674867
 30
0.0
 11
168.2705750901914
 21
611.1941371674868
 31
0.0
  0
LINE
  5
A27
330
1F
100
AcDbEntity
  8
VD
100
AcDbLine
 10
161.4705750901903
 20
748.3441371674869
 30
0.0
 11
190.5705750901907
 21
748.3441371674869
 31
0.0
  0
LINE
  5
A28
330
1F
100
AcDbEntity
  8
VD
100
AcDbLine
 10
161.4705750901903
 20
703.5441371674867
 30
0.0
 11
190.5705750901907
 21
703.5441371674867
 31
0.0
  0
LINE
  5
A29
330
1F
100
AcDbEntity
  8
VD
100
AcDbLine
 10
147.4705750901903
 20
571.9441371674868
 30
0.0
 11
154.4705750901903
 21
571.9441371674868
 31
0.0
  0
LINE
  5
A2A
330
1F
100
AcDbEntity
  8
VD
100
AcDbLine
 10
150.4705750901903
 20
781.9441371674868
 30
0.0
 11
154.4705750901903
 21
781.9441371674868
 31
0.0
  0
LINE
  5
A2B
330
1F
100
AcDbEntity
  8
VD
100
AcDbLine
 10
150.4705750901903
 20
780.4441371674868
 30
0.0
 11
150.4705750901903
 21
781.9441371674868
 31
0.0
  0
LINE
  5
A2C
330
1F
100
AcDbEntity
  8
VD
100
AcDbLine
 10
147.4705750901903
 20
780.4441371674868
 30
0.0
 11
150.4705750901903
 21
780.4441371674868
 31
0.0
  0
LINE
  5
A2D
330
1F
100
AcDbEntity
  8
VD
100
AcDbLine
 10
137.4705750901903
 20
571.9441371674868
 30
0.0
 11
137.4705750901903
 21
780.4441371674868
 31
0.0
  0
LINE
  5
A2E
330
1F
100
AcDbEntity
  8
VD
100
AcDbLine
 10
137.4705750901903
 20
780.4441371674868
 30
0.0
 11
147.4705750901903
 21
780.4441371674868
 31
0.0
  0
LINE
  5
A2F
330
1F
100
AcDbEntity
  8
VD
100
AcDbLine
 10
137.4705750901903
 20
571.9441371674868
 30
0.0
 11
147.4705750901903
 21
571.9441371674868
 31
0.0
  0
LINE
  5
A30
330
1F
100
AcDbEntity
  8
VD
100
AcDbLine
 10
147.4705750901903
 20
780.4441371674868
 30
0.0
 11
147.4705750901903
 21
571.9441371674868
 31
0.0
  0
LINE
  5
A31
330
1F
100
AcDbEntity
  8
VD
100
AcDbLine
 10
680.5205730901907
 20
611.0941351674869
 30
0.0
 11
680.5205730901907
 21
611.0941351674869
 31
0.0
  0
LINE
  5
A32
330
1F
100
AcDbEntity
  8
VD
100
AcDbLine
 10
311.5205730901907
 20
611.0941351674869
 30
0.0
 11
311.5205730901907
 21
611.0941351674869
 31
0.0
  0
LINE
  5
A33
330
1F
100
AcDbEntity
  8
VD
100
AcDbLine
 10
169.0705750901907
 20
611.0941371674869
 30
0.0
 11
169.0705750901907
 21
636.0941371674869
 31
0.0
  0
LINE
  5
A34
330
1F
100
AcDbEntity
  8
VD
100
AcDbLine
 10
692.5461130901894
 20
612.6441371674868
 30
0.0
 11
683.5466830901914
 21
612.6441371674868
 31
0.0
  0
LINE
  5
A35
330
1F
100
AcDbEntity
  8
VD
100
AcDbLine
 10
693.7705750901914
 20
611.8441371674869
 30
0.0
 11
682.37057509019
 21
611.8441371674869
 31
0.0
  0
LINE
  5
A36
330
1F
100
AcDbEntity
  8
VD
100
AcDbLine
 10
899.5705750901906
 20
741.6941371674868
 30
0.0
 11
899.5705750901906
 21
710.1941371674868
 31
0.0
  0
LINE
  5
A37
330
1F
100
AcDbEntity
  8
VD
100
AcDbLine
 10
898.5705750901907
 20
725.9441371674868
 30
0.0
 11
898.5705750901907
 21
742.6941371674868
 31
0.0
  0
LINE
  5
A38
330
1F
100
AcDbEntity
  8
VD
100
AcDbLine
 10
898.5705750901907
 20
709.1941371674868
 30
0.0
 11
898.5705750901907
 21
725.9441371674868
 31
0.0
  0
LINE
  5
A39
330
1F
100
AcDbEntity
  8
VD
100
AcDbLine
 10
708.0705750901906
 20
709.8055971674869
 30
0.0
 11
708.0705750901906
 21
635.0414071674868
 31
0.0
  0
LINE
  5
A3A
330
1F
100
AcDbEntity
  8
VD
100
AcDbLine
 10
706.0705750901907
 20
633.9864411674868
 30
0.0
 11
706.0705750901907
 21
710.5359411674867
 31
0.0
  0
LINE
  5
A3B
330
1F
100
AcDbEntity
  8
VD
100
AcDbLine
 10
706.0705750901907
 20
710.7359411674868
 30
0.0
 11
706.0705750901907
 21
710.5359411674867
 31
0.0
  0
LINE
  5
A3C
330
1F
100
AcDbEntity
  8
VD
100
AcDbLine
 10
841.0705750901907
 20
635.8941371674878
 30
0.0
 11
841.0705750901907
 21
623.5941371674869
 31
0.0
  0
LINE
  5
A3D
330
1F
100
AcDbEntity
  8
VD
100
AcDbLine
 10
841.0705750901907
 20
623.5941371674869
 30
0.0
 11
841.0705750901907
 21
611.2941371674867
 31
0.0
  0
LINE
  5
A3E
330
1F
100
AcDbEntity
  8
VD
100
AcDbLine
 10
840.87057509019
 20
623.5941371674869
 30
0.0
 11
840.87057509019
 21
636.0941371674877
 31
0.0
  0
LINE
  5
A3F
330
1F
100
AcDbEntity
  8
VD
100
AcDbLine
 10
840.87057509019
 20
611.0941371674869
 30
0.0
 11
840.87057509019
 21
623.5941371674869
 31
0.0
  0
LINE
  5
A40
330
1F
100
AcDbEntity
  8
VD
100
AcDbLine
 10
157.9705750901903
 20
700.0441371674867
 30
0.0
 11
157.9705750901903
 21
575.4441371674868
 31
0.0
  0
LINE
  5
A41
330
1F
100
AcDbEntity
  8
VD
100
AcDbLine
 10
157.9705750901903
 20
778.4441371674867
 30
0.0
 11
157.9705750901903
 21
751.8441371674868
 31
0.0
  0
ARC
  5
A42
330
1F
100
AcDbEntity
  8
VD
100
AcDbCircle
 10
898.5705750901907
 20
741.6941371674868
 30
0.0
 40
1.0
100
AcDbArc
 50
0.0
 51
90.0
  0
ARC
  5
A43
330
1F
100
AcDbEntity
  8
VD
100
AcDbCircle
 10
898.5705750901907
 20
710.1941371674868
 30
0.0
 40
1.0
100
AcDbArc
 50
270.0
 51
0.0
  0
ARC
  5
A44
330
1F
100
AcDbEntity
  8
VD
100
AcDbCircle
 10
158.4705750901903
 20
612.1441371674868
 30
0.0
 40
0.5
100
AcDbArc
 50
180.0
 51
270.0
  0
ARC
  5
A45
330
1F
100
AcDbEntity
  8
VD
100
AcDbCircle
 10
158.4705750901903
 20
635.1441371674868
 30
0.0
 40
0.5
100
AcDbArc
 50
90.0
 51
180.0
  0
ARC
  5
A46
330
1F
100
AcDbEntity
  8
VD
100
AcDbCircle
 10
313.37057509019
 20
612.6441371674868
 30
0.0
 40
0.8
100
AcDbArc
 50
245.0166049999618
 51
270.0
  0
ARC
  5
A47
330
1F
100
AcDbEntity
  8
VD
100
AcDbCircle
 10
324.7705750901914
 20
612.6441371674868
 30
0.0
 40
0.8
100
AcDbArc
 50
270.0
 51
295.6430129999432
  0
ARC
  5
A48
330
1F
100
AcDbEntity
  8
VD
100
AcDbCircle
 10
682.37057509019
 20
612.6441371674868
 30
0.0
 40
0.8
100
AcDbArc
 50
245.0166049999618
 51
270.0
  0
ARC
  5
A49
330
1F
100
AcDbEntity
  8
VD
100
AcDbCircle
 10
693.7705750901914
 20
612.6441371674868
 30
0.0
 40
0.8
100
AcDbArc
 50
270.0
 51
295.6430129999432
  0
CIRCLE
  5
A4A
330
1F
100
AcDbEntity
  8
VD
100
AcDbCircle
 10
190.5705750901907
 20
719.9441371674867
 30
0.0
 40
1.149999999999999
  0
CIRCLE
  5
A4B
330
1F
100
AcDbEntity
  8
VD
100
AcDbCircle
 10
-190.5705750901907
 20
719.9441371674867
 30
0.0
 40
1.45
210
0.0
220
0.0
230
-1.0
  0
CIRCLE
  5
A4C
330
1F
100
AcDbEntity
  8
VD
100
AcDbCircle
 10
190.5705750901907
 20
731.9441371674868
 30
0.0
 40
1.149999999999999
  0
CIRCLE
  5
A4D
330
1F
100
AcDbEntity
  8
VD
100
AcDbCircle
 10
-190.5705750901907
 20
731.9441371674868
 30
0.0
 40
1.45
210
0.0
220
0.0
230
-1.0
  0
ARC
  5
A4E
330
1F
100
AcDbEntity
  8
VD
100
AcDbCircle
 10
-190.5705750901907
 20
725.9441371674868
 30
0.0
 40
4.891099999999998
210
0.0
220
0.0
230
-1.0
100
AcDbArc
 50
86.78250399998004
 51
93.22314000004487
  0
ARC
  5
A4F
330
1F
100
AcDbEntity
  8
VD
100
AcDbCircle
 10
-190.5705750901907
 20
725.9441371674868
 30
0.0
 40
4.891099999999998
210
0.0
220
0.0
230
-1.0
100
AcDbArc
 50
266.7768790000018
 51
273.217514999962
  0
ARC
  5
A50
330
1F
100
AcDbEntity
  8
VD
100
AcDbCircle
 10
190.5705750901907
 20
725.9441371674868
 30
0.0
 40
5.5
100
AcDbArc
 50
78.55876000002412
 51
101.4468819999607
  0
ARC
  5
A51
330
1F
100
AcDbEntity
  8
VD
100
AcDbCircle
 10
190.5705750901907
 20
725.9441371674868
 30
0.0
 40
5.5
100
AcDbArc
 50
258.5531300000024
 51
281.4412520000193
  0
ARC
  5
A52
330
1F
100
AcDbEntity
  8
VD
100
AcDbCircle
 10
190.5705750901907
 20
725.9441371674868
 30
0.0
 40
5.099999999999996
100
AcDbArc
 50
82.58062099998522
 51
97.42499200001327
  0
ARC
  5
A53
330
1F
100
AcDbEntity
  8
VD
100
AcDbCircle
 10
190.5705750901907
 20
725.9441371674868
 30
0.0
 40
5.099999999999996
100
AcDbArc
 50
262.57499799998
 51
277.4193680000001
  0
CIRCLE
  5
A54
330
1F
100
AcDbEntity
  8
VD
100
AcDbCircle
 10
-190.5705750901907
 20
725.9441371674868
 30
0.0
 40
21.0
210
0.0
220
0.0
230
-1.0
  0
CIRCLE
  5
A55
330
1F
100
AcDbEntity
  8
VD
100
AcDbCircle
 10
190.5705750901907
 20
725.9441371674868
 30
0.0
 40
20.8
  0
ARC
  5
A56
330
1F
100
AcDbEntity
  8
VD
100
AcDbCircle
 10
-190.5705750901907
 20
725.9441371674868
 30
0.0
 40
22.5
210
0.0
220
0.0
230
-1.0
100
AcDbArc
 50
84.59999900005362
 51
270.0
  0
ARC
  5
A57
330
1F
100
AcDbEntity
  8
VD
100
AcDbCircle
 10
-190.5705750901907
 20
725.9441371674868
 30
0.0
 40
22.5
210
0.0
220
0.0
230
-1.0
100
AcDbArc
 50
270.0
 51
275.400002000002
  0
ARC
  5
A58
330
1F
100
AcDbEntity
  8
VD
100
AcDbCircle
 10
190.5705750901907
 20
725.9441371674868
 30
0.0
 40
22.4
100
AcDbArc
 50
270.0
 51
90.0
  0
ARC
  5
A59
330
1F
100
AcDbEntity
  8
VD
100
AcDbCircle
 10
-161.4705750901903
 20
700.0441371674867
 30
-0.000000000000051
 40
3.5
210
0.0000000000000001
220
0.0
230
-1.0
100
AcDbArc
 50
0.0
 51
90.0
  0
ARC
  5
A5A
330
1F
100
AcDbEntity
  8
VD
100
AcDbCircle
 10
-161.4705750901903
 20
751.8441371674868
 30
-0.000000000000051
 40
3.5
210
0.0000000000000001
220
0.0
230
-1.0
100
AcDbArc
 50
270.0
 51
0.0
  0
ARC
  5
A5B
330
1F
100
AcDbEntity
  8
VD
100
AcDbCircle
 10
154.4705750901903
 20
575.4441371674868
 30
0.0
 40
3.5
100
AcDbArc
 50
270.0
 51
0.0
  0
ARC
  5
A5C
330
1F
100
AcDbEntity
  8
VD
100
AcDbCircle
 10
154.4705750901903
 20
778.4441371674867
 30
0.0
 40
3.5
100
AcDbArc
 50
0.0
 51
90.0
  0
ELLIPSE
  5
A5D
330
1F
100
AcDbEntity
  8
VD
100
AcDbEllipse
 10
338.87057509019
 20
635.0414071674868
 30
0.0
 11
-0.2
 21
0.0
 31
0.0
210
0.0
220
0.0
230
1.0
 40
0.90136
 41
2.514698896745267
 42
3.141592653589792
  0
ELLIPSE
  5
A5E
330
1F
100
AcDbEntity
  8
VD
100
AcDbEllipse
 10
299.2705750901914
 20
635.0414071674868
 30
0.0
 11
-0.2
 21
0.0
 31
0.0
210
0.0
220
0.0
230
1.0
 40
0.90136
 41
0.0
 42
0.6599300405254424
  0
ELLIPSE
  5
A5F
330
1F
100
AcDbEntity
  8
VD
100
AcDbEllipse
 10
707.87057509019
 20
635.0414071674868
 30
0.0
 11
-0.2
 21
0.0
 31
0.0
210
0.0
220
0.0
230
1.0
 40
0.90136
 41
2.514698896745267
 42
3.141592653589792
  0
ELLIPSE
  5
A60
330
1F
100
AcDbEntity
  8
VD
100
AcDbEllipse
 10
668.2705750901914
 20
635.0414071674868
 30
0.0
 11
-0.2
 21
0.0
 31
0.0
210
0.0
220
0.0
230
1.0
 40
0.90136
 41
0.0
 42
0.6599300405254424
  0
SPLINE
  5
A61
330
1F
100
AcDbEntity
  8
VD
100
AcDbSpline
210
0.0000000000000001
220
0.0000000000000013
230
1.0
 70
     8
 71
     3
 72
    10
 73
     6
 74
     0
 42
0.000000001
 43
0.0000000001
 40
0.0
 40
0.0
 40
0.0
 40
0.0
 40
0.0691533484577913
 40
0.5486690255593603
 40
1.0
 40
1.0
 40
1.0
 40
1.0
 10
707.3161782056668
 20
710.5157507260027
 30
-0.0000000000000002
 10
707.2962744983779
 20
710.5263839707356
 30
-0.0000000000000002
 10
707.1331293253315
 20
710.6075705471087
 30
-0.0000000000000002
 10
706.6941524216436
 20
710.7005458445057
 30
-0.0000000000000004
 10
706.285489311409
 20
710.7308221279968
 30
-0.0000000000000004
 10
706.0694604764575
 20
710.7298292893556
 30
-0.0000000000000004
  0
SPLINE
  5
A62
330
1F
100
AcDbEntity
  8
VD
100
AcDbSpline
210
0.0000000000000001
220
0.0000000000000013
230
1.0
 70
     8
 71
     3
 72
    10
 73
     6
 74
     0
 42
0.000000001
 43
0.0000000001
 40
0.0
 40
0.0
 40
0.0
 40
0.0
 40
0.0691533484577913
 40
0.5486690255593603
 40
1.0
 40
1.0
 40
1.0
 40
1.0
 10
707.3161782056668
 20
710.5157507260027
 30
-0.0000000000000002
 10
707.2962744983779
 20
710.5263839707356
 30
-0.0000000000000002
 10
707.1331293253315
 20
710.6075705471087
 30
-0.0000000000000002
 10
706.6941524216436
 20
710.7005458445057
 30
-0.0000000000000004
 10
706.285489311409
 20
710.7308221279968
 30
-0.0000000000000004
 10
706.0694604764575
 20
710.7298292893556
 30
-0.0000000000000004
  0
SPLINE
  5
A63
330
1F
100
AcDbEntity
  8
VD
100
AcDbSpline
210
0.0
220
0.0
230
1.0
 70
     8
 71
     3
 72
    11
 73
     7
 74
     0
 42
0.000000001
 43
0.0000000001
 40
0.0
 40
0.0
 40
0.0
 40
0.0
 40
0.0085407042298158
 40
0.294495578516009
 40
0.6285837272446312
 40
1.0
 40
1.0
 40
1.0
 40
1.0
 10
708.0683750400912
 20
709.8061963456236
 30
-0.0000000000000002
 10
708.0691237091341
 20
709.8088375090328
 30
-0.0000000000000002
 10
708.0937112322208
 20
709.8997538009907
 30
-0.0000000000000002
 10
707.982560170145
 20
710.0963498739177
 30
-0.0000000000000002
 10
707.7578089964973
 20
710.3209682018257
 30
-0.0000000000000002
 10
707.4847643831708
 20
710.4557033019716
 30
-0.0000000000000002
 10
707.3161782056668
 20
710.5157507260027
 30
-0.0000000000000002
  0
SPLINE
  5
A64
330
1F
100
AcDbEntity
  8
VD
100
AcDbSpline
210
0.0
220
0.0
230
1.0
 70
     8
 71
     3
 72
    12
 73
     8
 74
     0
 42
0.000000001
 43
0.0000000001
 40
0.0
 40
0.0
 40
0.0
 40
0.0
 40
0.129584674490289
 40
0.3660981216981058
 40
0.6122957521584437
 40
0.8793126725148667
 40
1.0
 40
1.0
 40
1.0
 40
1.0
 10
669.8019936366108
 20
710.7131239590706
 30
0.0
 10
669.6757084436066
 20
710.7100761230326
 30
0.0
 10
669.3352505351886
 20
710.6855223855209
 30
0.0
 10
668.8258854428568
 20
710.5431838644558
 30
0.0
 10
668.3693092141729
 20
710.3121011854287
 30
0.0
 10
668.1028055607603
 20
710.0694770961915
 30
0.0
 10
668.0879029618209
 20
709.8692433013277
 30
0.0
 10
668.0939444328905
 20
709.8030758225127
 30
0.0
  0
SPLINE
  5
A65
330
1F
100
AcDbEntity
  8
VD
100
AcDbSpline
210
0.0000000000000001
220
0.0000000000000013
230
1.0
 70
     8
 71
     3
 72
    10
 73
     6
 74
     0
 42
0.000000001
 43
0.0000000001
 40
0.0
 40
0.0
 40
0.0
 40
0.0
 40
0.0691533484577662
 40
0.5486690255593675
 40
1.0
 40
1.0
 40
1.0
 40
1.0
 10
338.3161782056668
 20
710.5157507260027
 30
0.0
 10
338.2962744983779
 20
710.5263839707356
 30
0.0
 10
338.1331293253315
 20
710.6075705471096
 30
-0.0000000000000002
 10
337.6941524216436
 20
710.7005458445057
 30
-0.0000000000000002
 10
337.285489311409
 20
710.7308221279968
 30
-0.0000000000000002
 10
337.0694604764576
 20
710.7298292893556
 30
-0.0000000000000002
  0
SPLINE
  5
A66
330
1F
100
AcDbEntity
  8
VD
100
AcDbSpline
210
0.0000000000000001
220
0.0000000000000013
230
1.0
 70
     8
 71
     3
 72
    10
 73
     6
 74
     0
 42
0.000000001
 43
0.0000000001
 40
0.0
 40
0.0
 40
0.0
 40
0.0
 40
0.0691533484577662
 40
0.5486690255593675
 40
1.0
 40
1.0
 40
1.0
 40
1.0
 10
338.3161782056668
 20
710.5157507260027
 30
0.0
 10
338.2962744983779
 20
710.5263839707356
 30
0.0
 10
338.1331293253315
 20
710.6075705471096
 30
-0.0000000000000002
 10
337.6941524216436
 20
710.7005458445057
 30
-0.0000000000000002
 10
337.285489311409
 20
710.7308221279968
 30
-0.0000000000000002
 10
337.0694604764576
 20
710.7298292893556
 30
-0.0000000000000002
  0
SPLINE
  5
A67
330
1F
100
AcDbEntity
  8
VD
100
AcDbSpline
210
0.0
220
0.0
230
1.0
 70
     8
 71
     3
 72
    11
 73
     7
 74
     0
 42
0.000000001
 43
0.0000000001
 40
0.0
 40
0.0
 40
0.0
 40
0.0
 40
0.0085407042298183
 40
0.2944955785160063
 40
0.6285837272446198
 40
1.0
 40
1.0
 40
1.0
 40
1.0
 10
339.0683750400913
 20
709.8061963456236
 30
0.0
 10
339.0691237091323
 20
709.8088375090328
 30
0.0
 10
339.093711232219
 20
709.8997538009907
 30
0.0
 10
338.982560170145
 20
710.0963498739177
 30
0.0
 10
338.7578089964973
 20
710.3209682018257
 30
0.0
 10
338.4847643831708
 20
710.4557033019716
 30
0.0
 10
338.3161782056668
 20
710.5157507260027
 30
0.0
  0
SPLINE
  5
A68
330
1F
100
AcDbEntity
  8
VD
100
AcDbSpline
210
0.0
220
0.0
230
1.0
 70
     8
 71
     3
 72
    12
 73
     8
 74
     0
 42
0.000000001
 43
0.0000000001
 40
0.0
 40
0.0
 40
0.0
 40
0.0
 40
0.1295846744902901
 40
0.3660981216981005
 40
0.6122957521584405
 40
0.8793126725148658
 40
1.0
 40
1.0
 40
1.0
 40
1.0
 10
300.8019936366109
 20
710.7131239590706
 30
0.0000000000000002
 10
300.6757084436067
 20
710.7100761230326
 30
0.0000000000000002
 10
300.3352505351886
 20
710.6855223855209
 30
0.0000000000000002
 10
299.8258854428568
 20
710.5431838644558
 30
0.0000000000000002
 10
299.3693092141748
 20
710.3121011854287
 30
0.0000000000000002
 10
299.1028055607585
 20
710.0694770961915
 30
0.0000000000000002
 10
299.0879029618209
 20
709.8692433013277
 30
0.0000000000000002
 10
299.0939444328906
 20
709.8030758225127
 30
0.0000000000000002
  0
SPLINE
  5
A69
330
1F
100
AcDbEntity
  8
VD
100
AcDbSpline
210
0.0000000000000001
220
-0.0000000000000006
230
1.0
 70
     8
 71
     3
 72
    16
 73
    12
 74
     0
 42
0.000000001
 43
0.0000000001
 40
0.0
 40
0.0
 40
0.0
 40
0.0
 40
0.0127710530080071
 40
0.0127710530080071
 40
0.298714081222836
 40
0.298714081222836
 40
0.5432081856598872
 40
0.5432081856598872
 40
0.7705827780638037
 40
0.7705827780638037
 40
1.0
 40
1.0
 40
1.0
 40
1.0
 10
338.7611150325138
 20
634.5480559969368
 30
0.0
 10
338.7580711050869
 20
634.5435488063756
 30
0.0
 10
338.7549664168109
 20
634.5390441661666
 30
0.0
 10
338.6807754948677
 20
634.4335296677956
 30
0.0
 10
338.5777474632796
 20
634.3316845245028
 30
0.0
 10
338.3367262569736
 20
634.1580685765698
 30
0.0
 10
338.2035225824929
 20
634.0825029455279
 30
-0.0000000000000002
 10
337.914564819026
 20
633.9597978322785
 30
-0.0000000000000002
 10
337.7579042332109
 20
633.9099503759627
 30
-0.0000000000000002
 10
337.4265840346525
 20
633.8415978513198
 30
-0.0000000000000002
 10
337.247377915428
 20
633.8227836092118
 30
-0.0000000000000002
 10
337.0705749088065
 20
633.8227836092118
 30
-0.0000000000000002
  0
SPLINE
  5
A6A
330
1F
100
AcDbEntity
  8
VD
100
AcDbSpline
210
-0.0000000000000002
220
-0.0000000000000002
230
1.0
 70
     8
 71
     3
 72
    16
 73
    12
 74
     0
 42
0.000000001
 43
0.0000000001
 40
0.0
 40
0.0
 40
0.0
 40
0.0
 40
0.2318639328501264
 40
0.2318639328501264
 40
0.4638696371680758
 40
0.4638696371680758
 40
0.6950310216224952
 40
0.6950310216224952
 40
0.9111144293793211
 40
0.9111144293793211
 40
1.0
 40
1.0
 40
1.0
 40
1.0
 10
339.0705749088065
 20
709.8055962815877
 30
0.0
 10
339.0705749088065
 20
709.8786180439146
 30
0.0
 10
339.0269937821795
 20
709.9572474635547
 30
0.0
 10
338.8611934043056
 20
710.1111480899617
 30
0.0
 10
338.7365247525213
 20
710.1886129660527
 30
0.0
 10
338.4230999997981
 20
710.3267125760137
 30
0.0
 10
338.2295408493337
 20
710.3894002408117
 30
0.0
 10
337.8143421228669
 20
710.4808786273897
 30
-0.0000000000000002
 10
337.5889353031835
 20
710.5127510250635
 30
-0.0000000000000002
 10
337.2643740691365
 20
710.5329216811717
 30
-0.0000000000000002
 10
337.1673264553756
 20
710.5359412367915
 30
-0.0000000000000002
 10
337.0705749088065
 20
710.5359412367915
 30
-0.0000000000000002
  0
SPLINE
  5
A6B
330
1F
100
AcDbEntity
  8
VD
100
AcDbSpline
210
-0.0000000000000002
220
0.0000000000000002
230
1.0
 70
     8
 71
     3
 72
    16
 73
    12
 74
     0
 42
0.000000001
 43
0.0000000001
 40
0.0
 40
0.0
 40
0.0
 40
0.0
 40
0.1771404143545236
 40
0.1771404143545236
 40
0.3522186943510297
 40
0.3522186943510297
 40
0.539954319336339
 40
0.539954319336339
 40
0.7594025013289695
 40
0.7594025013289695
 40
1.0
 40
1.0
 40
1.0
 40
1.0
 10
337.0705749088065
 20
633.9864419532339
 30
-0.0000000000000002
 10
337.2669267185575
 20
633.9864419532339
 30
-0.0000000000000002
 10
337.4658952985555
 20
634.0055109477937
 30
-0.0000000000000002
 10
337.8339744108598
 20
634.0749468427437
 30
-0.0000000000000002
 10
338.0080811180615
 20
634.1255473076637
 30
-0.0000000000000002
 10
338.3291985551059
 20
634.2502363816638
 30
0.0
 10
338.4773168173451
 20
634.3270302742569
 30
0.0
 10
338.7452312572623
 20
634.5034985731176
 30
0.0
 10
338.8597532182394
 20
634.6070464907707
 30
0.0
 10
339.0248628299778
 20
634.8217652278997
 30
0.0
 10
339.0705749088065
 20
634.9357342928588
 30
0.0
 10
339.0705749088065
 20
635.0414075248247
 30
0.0
  0
SPLINE
  5
A6C
330
1F
100
AcDbEntity
  8
VD
100
AcDbSpline
210
0.0
220
0.0
230
1.0
 70
     8
 71
     3
 72
    16
 73
    12
 74
     0
 42
0.000000001
 43
0.0000000001
 40
0.0
 40
0.0
 40
0.0
 40
0.0
 40
0.1945552639644179
 40
0.1945552639644179
 40
0.3878946385599321
 40
0.3878946385599321
 40
0.5892372746630514
 40
0.5892372746630514
 40
0.8080348914056751
 40
0.8080348914056751
 40
1.0
 40
1.0
 40
1.0
 40
1.0
 10
301.0705749088065
 20
710.5359412367915
 30
0.0000000000000002
 10
300.8615577008277
 20
710.5359412367915
 30
0.0000000000000002
 10
300.6497297583355
 20
710.5214249897308
 30
0.0000000000000002
 10
300.256463204536
 20
710.4677469510677
 30
0.0000000000000002
 10
300.0697228203171
 20
710.4281774594905
 30
0.0000000000000002
 10
299.7338158868733
 20
710.3312033119066
 30
0.0000000000000002
 10
299.5821483876516
 20
710.2720236405077
 30
0.0000000000000002
 10
299.3260389401385
 20
710.1412179672088
 30
0.0000000000000002
 10
299.2232519200588
 20
710.0672723683278
 30
0.0000000000000002
 10
299.1004187671951
 20
709.9306111485866
 30
0.0000000000000002
 10
299.0705749088065
 20
709.8662511131578
 30
0.0000000000000002
 10
299.0705749088065
 20
709.8055962815877
 30
0.0000000000000002
  0
SPLINE
  5
A6D
330
1F
100
AcDbEntity
  8
VD
100
AcDbSpline
210
0.0
220
0.0
230
1.0
 70
     8
 71
     3
 72
    16
 73
    12
 74
     0
 42
0.000000001
 43
0.0000000001
 40
0.0
 40
0.0
 40
0.0
 40
0.0
 40
0.2481016251448624
 40
0.2481016251448624
 40
0.4963851440995061
 40
0.4963851440995061
 40
0.7438538839225557
 40
0.7438538839225557
 40
0.9181884979193776
 40
0.9181884979193776
 40
1.0
 40
1.0
 40
1.0
 40
1.0
 10
299.0705749088065
 20
635.0414075248247
 30
0.0000000000000002
 10
299.0705749088065
 20
634.9324195628087
 30
0.0000000000000002
 10
299.1192584059936
 20
634.8145415286076
 30
0.0000000000000002
 10
299.302593306862
 20
634.5831681023788
 30
0.0000000000000002
 10
299.4400365876227
 20
634.4661650548537
 30
0.0000000000000002
 10
299.7874510816564
 20
634.2584432561846
 30
0.0000000000000002
 10
300.0038286369309
 20
634.1642301277759
 30
0.0000000000000002
 10
300.4161941247985
 20
634.0498927501998
 30
0.0000000000000002
 10
300.6042572216466
 20
634.0151598574095
 30
0.0000000000000002
 10
300.8863580219768
 20
633.9904921882207
 30
0.0000000000000002
 10
300.9786151735789
 20
633.9864419532339
 30
0.0000000000000002
 10
301.0705749088065
 20
633.9864419532339
 30
0.0000000000000002
  0
SPLINE
  5
A6E
330
1F
100
AcDbEntity
  8
VD
100
AcDbSpline
210
0.0
220
0.0
230
1.0
 70
     8
 71
     3
 72
    16
 73
    12
 74
     0
 42
0.000000001
 43
0.0000000001
 40
0.0
 40
0.0
 40
0.0
 40
0.0
 40
0.1053123592843669
 40
0.1053123592843669
 40
0.3301327988397534
 40
0.3301327988397534
 40
0.6504275187068417
 40
0.6504275187068417
 40
0.9722491720567552
 40
0.9722491720567552
 40
1.0
 40
1.0
 40
1.0
 40
1.0
 10
301.0705749088065
 20
633.8227836092118
 30
0.0000000000000002
 10
300.987801967789
 20
633.8227836092118
 30
0.0000000000000002
 10
300.904753134997
 20
633.8267726023616
 30
0.0000000000000002
 10
300.6506782085453
 20
633.8510694196877
 30
0.0000000000000002
 10
300.481370195248
 20
633.8853146292487
 30
0.0000000000000002
 10
300.1100463740204
 20
633.9979105119787
 30
0.0000000000000002
 10
299.9155319944439
 20
634.0906527805868
 30
0.0000000000000002
 10
299.6030744144118
 20
634.2949624818786
 30
0.0000000000000002
 10
299.4794590734036
 20
634.4100191880147
 30
0.0000000000000002
 10
299.3897478924482
 20
634.5338357343966
 30
0.0000000000000002
 10
299.3829121990748
 20
634.5436841399337
 30
0.0000000000000002
 10
299.376367314213
 20
634.5535431548348
 30
0.0000000000000002
  0
SPLINE
  5
A6F
330
1F
100
AcDbEntity
  8
VD
100
AcDbSpline
210
0.0
220
0.0
230
1.0
 70
     8
 71
     3
 72
     8
 73
     4
 74
     0
 42
0.000000001
 43
0.0000000001
 40
0.0
 40
0.0
 40
0.0
 40
0.0
 40
1.0
 40
1.0
 40
1.0
 40
1.0
 10
300.8117375227412
 20
710.7078355590938
 30
0.0000000000000002
 10
300.8975307242745
 20
710.7136649567876
 30
0.0000000000000002
 10
300.9843204187728
 20
710.7166825373317
 30
0.0000000000000002
 10
301.0705749088065
 20
710.7166825373317
 30
0.0000000000000002
  0
SPLINE
  5
A70
330
1F
100
AcDbEntity
  8
VD
100
AcDbSpline
210
-0.0000000000000002
220
0.0000000000000002
230
1.0
 70
     8
 71
     3
 72
    16
 73
    12
 74
     0
 42
0.000000001
 43
0.0000000001
 40
0.0
 40
0.0
 40
0.0
 40
0.0
 40
0.1771404143545236
 40
0.1771404143545236
 40
0.3522186943510297
 40
0.3522186943510297
 40
0.539954319336339
 40
0.539954319336339
 40
0.7594025013289695
 40
0.7594025013289695
 40
1.0
 40
1.0
 40
1.0
 40
1.0
 10
706.0705749088083
 20
633.9864419532339
 30
-0.0000000000000004
 10
706.2669267185574
 20
633.9864419532339
 30
-0.0000000000000004
 10
706.4658952985555
 20
634.0055109477937
 30
-0.0000000000000004
 10
706.8339744108598
 20
634.0749468427437
 30
-0.0000000000000004
 10
707.0080811180615
 20
634.1255473076637
 30
-0.0000000000000004
 10
707.3291985551058
 20
634.2502363816638
 30
-0.0000000000000002
 10
707.4773168173451
 20
634.3270302742569
 30
-0.0000000000000002
 10
707.7452312572622
 20
634.5034985731176
 30
-0.0000000000000002
 10
707.8597532182393
 20
634.6070464907707
 30
-0.0000000000000002
 10
708.0248628299777
 20
634.8217652278997
 30
-0.0000000000000002
 10
708.0705749088065
 20
634.9357342928588
 30
-0.0000000000000002
 10
708.0705749088065
 20
635.0414075248238
 30
-0.0000000000000002
  0
SPLINE
  5
A71
330
1F
100
AcDbEntity
  8
VD
100
AcDbSpline
210
-0.0000000000000002
220
0.0000000000000003
230
1.0
 70
     8
 71
     3
 72
    16
 73
    12
 74
     0
 42
0.000000001
 43
0.0000000001
 40
0.0
 40
0.0
 40
0.0
 40
0.0
 40
0.012771053008153
 40
0.012771053008153
 40
0.2987140812229396
 40
0.2987140812229396
 40
0.5432081856599547
 40
0.5432081856599547
 40
0.7705827780638374
 40
0.7705827780638374
 40
1.0
 40
1.0
 40
1.0
 40
1.0
 10
707.7611150325138
 20
634.5480559969368
 30
-0.0000000000000002
 10
707.7580711050869
 20
634.5435488063756
 30
-0.0000000000000002
 10
707.7549664168109
 20
634.5390441661666
 30
-0.0000000000000002
 10
707.6807754948677
 20
634.4335296677956
 30
-0.0000000000000002
 10
707.5777474632795
 20
634.3316845245028
 30
-0.0000000000000002
 10
707.3367262569736
 20
634.1580685765698
 30
-0.0000000000000002
 10
707.2035225824929
 20
634.0825029455279
 30
-0.0000000000000002
 10
706.914564819026
 20
633.9597978322785
 30
-0.0000000000000004
 10
706.7579042332108
 20
633.9099503759627
 30
-0.0000000000000004
 10
706.4265840346524
 20
633.8415978513198
 30
-0.0000000000000004
 10
706.2473779154279
 20
633.8227836092118
 30
-0.0000000000000004
 10
706.0705749088083
 20
633.8227836092118
 30
-0.0000000000000004
  0
SPLINE
  5
A72
330
1F
100
AcDbEntity
  8
VD
100
AcDbSpline
210
0.0
220
0.0
230
1.0
 70
     8
 71
     3
 72
    16
 73
    12
 74
     0
 42
0.000000001
 43
0.0000000001
 40
0.0
 40
0.0
 40
0.0
 40
0.0
 40
0.1053123592843732
 40
0.1053123592843732
 40
0.3301327988397731
 40
0.3301327988397731
 40
0.6504275187068807
 40
0.6504275187068807
 40
0.9722491720568131
 40
0.9722491720568131
 40
1.0
 40
1.0
 40
1.0
 40
1.0
 10
670.0705749088065
 20
633.8227836092118
 30
0.0
 10
669.9878019677889
 20
633.8227836092118
 30
0.0
 10
669.904753134997
 20
633.8267726023616
 30
0.0
 10
669.6506782085452
 20
633.8510694196877
 30
0.0
 10
669.481370195248
 20
633.8853146292487
 30
0.0
 10
669.1100463740204
 20
633.9979105119787
 30
0.0
 10
668.9155319944439
 20
634.0906527805868
 30
0.0
 10
668.6030744144118
 20
634.2949624818786
 30
0.0
 10
668.4794590734036
 20
634.4100191880147
 30
0.0
 10
668.3897478924482
 20
634.5338357343966
 30
0.0
 10
668.3829121990729
 20
634.5436841399337
 30
0.0
 10
668.3763673142148
 20
634.5535431548348
 30
0.0
  0
SPLINE
  5
A73
330
1F
100
AcDbEntity
  8
VD
100
AcDbSpline
210
0.0
220
0.0
230
1.0
 70
     8
 71
     3
 72
    16
 73
    12
 74
     0
 42
0.000000001
 43
0.0000000001
 40
0.0
 40
0.0
 40
0.0
 40
0.0
 40
0.1945552639644179
 40
0.1945552639644179
 40
0.3878946385599321
 40
0.3878946385599321
 40
0.5892372746630514
 40
0.5892372746630514
 40
0.8080348914056751
 40
0.8080348914056751
 40
1.0
 40
1.0
 40
1.0
 40
1.0
 10
670.0705749088065
 20
710.5359412367915
 30
0.0
 10
669.8615577008276
 20
710.5359412367915
 30
0.0
 10
669.6497297583355
 20
710.5214249897308
 30
0.0
 10
669.256463204536
 20
710.4677469510677
 30
0.0
 10
669.0697228203171
 20
710.4281774594905
 30
0.0
 10
668.7338158868733
 20
710.3312033119066
 30
0.0
 10
668.5821483876516
 20
710.2720236405077
 30
0.0
 10
668.3260389401384
 20
710.1412179672088
 30
0.0
 10
668.2232519200588
 20
710.0672723683278
 30
0.0
 10
668.1004187671951
 20
709.9306111485866
 30
0.0
 10
668.0705749088065
 20
709.8662511131578
 30
0.0
 10
668.0705749088065
 20
709.8055962815877
 30
0.0
  0
SPLINE
  5
A74
330
1F
100
AcDbEntity
  8
VD
100
AcDbSpline
210
0.0
220
0.0
230
1.0
 70
     8
 71
     3
 72
    16
 73
    12
 74
     0
 42
0.000000001
 43
0.0000000001
 40
0.0
 40
0.0
 40
0.0
 40
0.0
 40
0.2481016251448624
 40
0.2481016251448624
 40
0.4963851440995061
 40
0.4963851440995061
 40
0.7438538839225557
 40
0.7438538839225557
 40
0.9181884979193776
 40
0.9181884979193776
 40
1.0
 40
1.0
 40
1.0
 40
1.0
 10
668.0705749088065
 20
635.0414075248238
 30
0.0
 10
668.0705749088065
 20
634.9324195628087
 30
0.0
 10
668.1192584059935
 20
634.8145415286076
 30
0.0
 10
668.302593306862
 20
634.5831681023788
 30
0.0
 10
668.4400365876227
 20
634.4661650548537
 30
0.0
 10
668.7874510816546
 20
634.2584432561846
 30
0.0
 10
669.0038286369308
 20
634.1642301277759
 30
0.0
 10
669.4161941247984
 20
634.0498927501998
 30
0.0
 10
669.6042572216465
 20
634.0151598574095
 30
0.0
 10
669.8863580219767
 20
633.9904921882207
 30
0.0
 10
669.9786151735788
 20
633.9864419532339
 30
0.0
 10
670.0705749088065
 20
633.9864419532339
 30
0.0
  0
SPLINE
  5
A75
330
1F
100
AcDbEntity
  8
VD
100
AcDbSpline
210
0.0
220
0.0
230
1.0
 70
     8
 71
     3
 72
     8
 73
     4
 74
     0
 42
0.000000001
 43
0.0000000001
 40
0.0
 40
0.0
 40
0.0
 40
0.0
 40
1.0
 40
1.0
 40
1.0
 40
1.0
 10
669.8117375227411
 20
710.7078355590938
 30
0.0
 10
669.8975307242744
 20
710.7136649567876
 30
0.0
 10
669.9843204187746
 20
710.7166825373317
 30
0.0
 10
670.0705749088065
 20
710.7166825373317
 30
0.0
  0
SPLINE
  5
A76
330
1F
100
AcDbEntity
  8
VD
100
AcDbSpline
210
0.0
220
-0.0000000000000002
230
1.0
 70
     8
 71
     3
 72
    14
 73
    10
 74
     0
 42
0.000000001
 43
0.0000000001
 40
0.0
 40
0.0
 40
0.0
 40
0.0
 40
0.2499087050623483
 40
0.2499087050623483
 40
0.4999391367082322
 40
0.4999391367082322
 40
0.7499695683541161
 40
0.7499695683541161
 40
1.0
 40
1.0
 40
1.0
 40
1.0
 10
695.6205430444024
 20
611.0941563831786
 30
-0.0000000000000002
 10
695.6264420841907
 20
611.0906334321578
 30
-0.0000000000000002
 10
694.7742081530705
 20
611.6464762802586
 30
-0.0000000000000002
 10
692.0506349103106
 20
612.9335848032458
 30
-0.0000000000000004
 10
690.1147322967099
 20
613.6289098503477
 30
0.0000000000000004
 10
686.0550113115769
 20
613.6347359470555
 30
0.0000000000000002
 10
684.1195673926923
 20
612.9458805182339
 30
0.0
 10
681.3673654440536
 20
611.6480948705928
 30
-0.0000000000000002
 10
680.5205615118794
 20
611.0941283572048
 30
-0.0000000000000002
 10
680.5205722934206
 20
611.0941353968747
 30
-0.0000000000000002
  0
SPLINE
  5
A77
330
1F
100
AcDbEntity
  8
VD
100
AcDbSpline
210
0.0
220
-0.0000000000000002
230
1.0
 70
     8
 71
     3
 72
    14
 73
    10
 74
     0
 42
0.000000001
 43
0.0000000001
 40
0.0
 40
0.0
 40
0.0
 40
0.0
 40
0.249909423420967
 40
0.249909423420967
 40
0.4999405692898073
 40
0.4999405692898073
 40
0.7499717151586476
 40
0.7499717151586476
 40
1.0
 40
1.0
 40
1.0
 40
1.0
 10
326.6205430440859
 20
611.0941563833687
 30
0.0
 10
326.6264421147698
 20
611.0906334122137
 30
0.0
 10
325.7742081774959
 20
611.6464762687167
 30
0.0
 10
323.0506349103107
 20
612.9335848032458
 30
-0.0000000000000002
 10
321.1147322967099
 20
613.6289098503477
 30
-0.0000000000000002
 10
317.0550113115769
 20
613.6347359470555
 30
0.0000000000000004
 10
315.1195673926904
 20
612.9458805182339
 30
0.0000000000000002
 10
312.3673811903427
 20
611.6481022956677
 30
0.0
 10
311.5205808913688
 20
611.0941410349455
 30
0.0
 10
311.5205722933843
 20
611.0941353968508
 30
0.0
  0
SPLINE
  5
A78
330
1F
100
AcDbEntity
  8
VD
100
AcDbSpline
210
-0.0000000000000002
220
-0.0000000000000002
230
1.0
 70
     8
 71
     3
 72
    16
 73
    12
 74
     0
 42
0.000000001
 43
0.0000000001
 40
0.0
 40
0.0
 40
0.0
 40
0.0
 40
0.2318639328501264
 40
0.2318639328501264
 40
0.4638696371680758
 40
0.4638696371680758
 40
0.6950310216224952
 40
0.6950310216224952
 40
0.9111144293793211
 40
0.9111144293793211
 40
1.0
 40
1.0
 40
1.0
 40
1.0
 10
708.0705749088065
 20
709.8055962815877
 30
-0.0000000000000002
 10
708.0705749088065
 20
709.8786180439146
 30
-0.0000000000000002
 10
708.0269937821794
 20
709.9572474635547
 30
-0.0000000000000002
 10
707.8611934043055
 20
710.1111480899617
 30
-0.0000000000000002
 10
707.7365247525213
 20
710.1886129660527
 30
-0.0000000000000002
 10
707.423099999798
 20
710.3267125760137
 30
-0.0000000000000002
 10
707.2295408493337
 20
710.3894002408117
 30
-0.0000000000000002
 10
706.8143421228669
 20
710.4808786273897
 30
-0.0000000000000004
 10
706.5889353031852
 20
710.5127510250635
 30
-0.0000000000000004
 10
706.2643740691364
 20
710.5329216811708
 30
-0.0000000000000004
 10
706.1673264553755
 20
710.5359412367915
 30
-0.0000000000000004
 10
706.0705749088083
 20
710.5359412367915
 30
-0.0000000000000004
  0
LWPOLYLINE
  5
B98
330
1F
100
AcDbEntity
  8
0
  6
CUSTOM
 62
    18
420
        0
370
     9
100
AcDbPolyline
 90
        9
 70
     0
 43
0.0
 10
1164.148201815841
 20
613.2659913145191
 10
1162.067074275072
 20
612.0116185032117
 10
1159.676095505428
 20
611.1571339367762
 10
1157.345897777909
 20
610.8105745250816
 10
1155.967568901745
 20
610.8136408477362
 10
1154.38382746198
 20
611.0076238193321
 10
1152.856048198636
 20
611.3930629022868
 10
1151.423487164365
 20
611.9532515999517
 10
1150.277725107621
 20
612.5588437720755
  0
LWPOLYLINE
  5
B99
330
1F
100
AcDbEntity
  8
0
  6
CUSTOM
 62
    18
420
        0
370
     9
100
AcDbPolyline
 90
        4
 70
     0
 43
0.0
 10
1168.316146349822
 20
618.7305460664549
 10
1167.642359614546
 20
617.3005038450906
 10
1166.186266078409
 20
615.1808718638169
 10
1164.148201815841
 20
613.2659913145191
  0
LINE
  5
BA1
330
1F
100
AcDbEntity
  8
0
  6
CUSTOM
 62
    18
420
        0
370
     9
100
AcDbLine
 10
1159.43281166225
 20
611.120951467429
 30
-0.0000000000000152
 11
1159.915838396376
 21
611.242812907697
 31
-0.0000000000000152
  0
LINE
  5
BA2
330
1F
100
AcDbEntity
  8
0
  6
CUSTOM
 62
    18
420
        0
370
     9
100
AcDbLine
 10
1166.058734436535
 20
615.0610484246471
 30
-0.0000000000000152
 11
1166.240682277693
 21
615.260085395543
 31
-0.0000000000000152
  0
LINE
  5
BA3
330
1F
100
AcDbEntity
  8
0
  6
CUSTOM
 62
    18
420
        0
370
     9
100
AcDbLine
 10
1159.645015874547
 20
611.1525116092964
 30
-0.0000000000000152
 11
1159.701206904111
 21
611.1661082104695
 31
-0.0000000000000152
  0
LINE
  5
BA4
330
1F
100
AcDbEntity
  8
0
  6
CUSTOM
 62
    18
420
        0
370
     9
100
AcDbLine
 10
1166.843731985081
 20
616.1379434589828
 30
-0.0000000000000152
 11
1167.795760591229
 21
617.6260814416807
 31
-0.0000000000000152
  0
LINE
  5
BA6
330
1F
100
AcDbEntity
  8
0
  6
CUSTOM
 62
    18
420
        0
370
     9
100
AcDbLine
 10
1157.200250513019
 20
610.8108985413812
 30
-0.0000000000000152
 11
1157.420704354998
 21
610.8217001589442
 31
-0.0000000000000152
  0
LINE
  5
BA7
330
1F
100
AcDbEntity
  8
0
  6
CUSTOM
 62
    18
420
        0
370
     9
100
AcDbLine
 10
1145.371286409338
 20
618.0513907064273
 30
-0.0000000000000152
 11
1145.571677530687
 21
617.626081407038
 31
-0.0000000000000152
  0
LINE
  5
BAA
330
1F
100
AcDbEntity
  8
0
  6
CUSTOM
 62
    18
420
        0
370
     9
100
AcDbLine
 10
1167.996151685381
 20
618.0513906936762
 30
-0.0000000000000152
 11
1168.770841601038
 21
620.1063940817134
 31
-0.0000000000000152
  0
LINE
  5
BAB
330
1F
100
AcDbEntity
  8
0
  6
CUSTOM
 62
    18
420
        0
370
     9
100
AcDbLine
 10
1154.379218569784
 20
611.0087865837381
 30
-0.0000000000000152
 11
1154.39498113818
 21
611.0062576725595
 31
-0.0000000000000152
  0
LINE
  5
BAE
330
1F
100
AcDbEntity
  8
0
  6
CUSTOM
 62
    18
420
        0
370
     9
100
AcDbLine
 10
1146.523706129407
 20
616.1379434376692
 30
-0.0000000000000152
 11
1147.126755859049
 21
615.260085345782
 31
-0.0000000000000152
  0
LINE
  5
BAF
330
1F
100
AcDbEntity
  8
0
  6
CUSTOM
 62
    18
420
        0
370
     9
100
AcDbLine
 10
1168.770841601038
 20
620.1063940817134
 30
-0.0000000000000152
 11
1169.079932345262
 21
621.7245081011281
 31
-0.0000000000000152
  0
LINE
  5
BB1
330
1F
100
AcDbEntity
  8
0
  6
CUSTOM
 62
    18
420
        0
370
     9
100
AcDbLine
 10
1164.148201815841
 20
613.2659913145191
 30
-0.0000000000000152
 11
1161.183804571744
 21
611.695956826639
 31
-0.0000000000000152
  0
LINE
  5
BB2
330
1F
100
AcDbEntity
  8
0
  6
CUSTOM
 62
    18
420
        0
370
     9
100
AcDbLine
 10
1154.399204938402
 20
611.0057403245794
 30
-0.0000000000000152
 11
1154.355390891454
 21
611.0147980005824
 31
-0.0000000000000152
  0
LINE
  5
BB3
330
1F
100
AcDbEntity
  8
0
  6
CUSTOM
 62
    18
420
        0
370
     9
100
AcDbLine
 10
1152.521385397501
 20
611.5239294512887
 30
-0.0000000000000152
 11
1149.219236284459
 21
613.2659913145189
 31
-0.0000000000000152
  0
LINE
  5
BB5
330
1F
100
AcDbEntity
  8
0
  6
CUSTOM
 62
    18
420
        0
370
     9
100
AcDbLine
 10
1153.934626421737
 20
611.1209514708348
 30
-0.0000000000000152
 11
1155.965790049092
 21
610.8188660025336
 31
-0.0000000000000152
  0
LINE
  5
BB6
330
1F
100
AcDbEntity
  8
0
  6
CUSTOM
 62
    18
420
        0
370
     9
100
AcDbLine
 10
1156.683719043701
 20
610.8120476521774
 30
-0.0000000000000152
 11
1157.24938665659
 21
610.8133060742029
 31
-0.0000000000000152
  0
LINE
  5
BBA
330
1F
100
AcDbEntity
  8
0
  6
CUSTOM
 62
    18
420
        0
370
     9
100
AcDbLine
 10
1147.308703629977
 20
615.0610484606854
 30
-0.0000000000000152
 11
1149.219236284459
 21
613.2659913145189
 31
-0.0000000000000152
  0
LINE
  5
BBB
330
1F
100
AcDbEntity
  8
0
  6
CUSTOM
 62
    18
420
        0
370
     9
100
AcDbLine
 10
1152.219801754797
 20
611.6830310934918
 30
-0.0000000000000152
 11
1153.451599645072
 21
611.2428129286254
 31
-0.0000000000000152
  0
LINE
  5
BBC
330
1F
100
AcDbEntity
  8
0
  6
CUSTOM
 62
    18
420
        0
370
     9
100
AcDbLine
 10
1156.036644846242
 20
610.8134871767597
 30
-0.0000000000000152
 11
1155.858269978353
 21
610.8270282165535
 31
-0.0000000000000152
  0
LINE
  5
BBD
330
1F
100
AcDbEntity
  8
0
  6
CUSTOM
 62
    18
420
        0
370
     9
100
AcDbLine
 10
1152.844074396961
 20
611.3977451380304
 30
-0.0000000000000152
 11
1152.871490469616
 21
611.3891670158309
 31
-0.0000000000000152
  0
LINE
  5
BBE
330
1F
100
AcDbEntity
  8
0
  6
CUSTOM
 62
    18
420
        0
370
     9
100
AcDbLine
 10
1157.422807762964
 20
610.8220129883743
 30
-0.0000000000000152
 11
1157.410805692293
 21
610.8212151520788
 31
-0.0000000000000152
  0
LINE
  5
C58
330
1F
100
AcDbEntity
  8
VD
100
AcDbLine
 10
1109.096187316038
 20
704.7941377621278
 30
0.0
 11
1109.296187316038
 21
704.9941377621278
 31
0.0
  0
LINE
  5
C59
330
1F
100
AcDbEntity
  8
VD
100
AcDbLine
 10
1115.096187316037
 20
703.2941377621277
 30
0.0
 11
1149.296701316038
 21
703.2941377621277
 31
0.0
  0
LINE
  5
C5A
330
1F
100
AcDbEntity
  8
VD
100
AcDbLine
 10
1164.295671316038
 20
703.2941377621277
 30
0.0
 11
1198.496187316039
 21
703.2941377621277
 31
0.0
  0
LINE
  5
C5B
330
1F
100
AcDbEntity
  8
VD
100
AcDbLine
 10
1109.296187316038
 20
746.5941377621279
 30
0.0
 11
1109.096187316038
 21
746.7941377621277
 31
0.0
  0
LINE
  5
C5C
330
1F
100
AcDbEntity
  8
VD
100
AcDbLine
 10
1106.496187316037
 20
746.7941377621277
 30
0.0
 11
1106.296187316038
 21
746.5941377621279
 31
0.0
  0
LINE
  5
C5D
330
1F
100
AcDbEntity
  8
VD
100
AcDbLine
 10
1106.296187316038
 20
704.9941377621278
 30
0.0
 11
1106.496187316037
 21
704.7941377621278
 31
0.0
  0
LINE
  5
C5E
330
1F
100
AcDbEntity
  8
VD
100
AcDbLine
 10
1109.096187316038
 20
746.7941377621277
 30
0.0
 11
1106.496187316037
 21
746.7941377621277
 31
0.0
  0
LINE
  5
C5F
330
1F
100
AcDbEntity
  8
VD
100
AcDbLine
 10
1106.496187316037
 20
704.7941377621278
 30
0.0
 11
1109.096187316038
 21
704.7941377621278
 31
0.0
  0
LINE
  5
C60
330
1F
100
AcDbEntity
  8
VD
100
AcDbLine
 10
1207.096187316037
 20
704.7941377621278
 30
0.0
 11
1207.296187316038
 21
704.9941377621278
 31
0.0
  0
LINE
  5
C61
330
1F
100
AcDbEntity
  8
VD
100
AcDbLine
 10
1207.296187316038
 20
746.5941377621279
 30
0.0
 11
1207.096187316037
 21
746.7941377621277
 31
0.0
  0
LINE
  5
C62
330
1F
100
AcDbEntity
  8
VD
100
AcDbLine
 10
1204.496187316039
 20
746.7941377621277
 30
0.0
 11
1204.296187316038
 21
746.5941377621279
 31
0.0
  0
LINE
  5
C63
330
1F
100
AcDbEntity
  8
VD
100
AcDbLine
 10
1204.296187316038
 20
704.9941377621278
 30
0.0
 11
1204.496187316039
 21
704.7941377621278
 31
0.0
  0
LINE
  5
C64
330
1F
100
AcDbEntity
  8
VD
100
AcDbLine
 10
1204.496187316039
 20
704.7941377621278
 30
0.0
 11
1207.096187316037
 21
704.7941377621278
 31
0.0
  0
LINE
  5
C65
330
1F
100
AcDbEntity
  8
VD
100
AcDbLine
 10
1207.096187316037
 20
746.7941377621277
 30
0.0
 11
1204.496187316039
 21
746.7941377621277
 31
0.0
  0
LINE
  5
C66
330
1F
100
AcDbEntity
  8
VD
100
AcDbLine
 10
1198.796187316038
 20
704.7941377621278
 30
0.0
 11
1199.296187316038
 21
705.2941377621277
 31
0.0
  0
LINE
  5
C67
330
1F
100
AcDbEntity
  8
VD
100
AcDbLine
 10
1199.296187316038
 20
746.2941377621278
 30
0.0
 11
1198.796187316038
 21
746.7941377621277
 31
0.0
  0
LINE
  5
C68
330
1F
100
AcDbEntity
  8
VD
100
AcDbLine
 10
1198.496187316039
 20
748.2941377621277
 30
0.0
 11
1115.096187316037
 21
748.2941377621277
 31
0.0
  0
LINE
  5
C69
330
1F
100
AcDbEntity
  8
VD
100
AcDbLine
 10
1114.796187316038
 20
746.7941377621277
 30
0.0
 11
1114.296187316038
 21
746.2941377621278
 31
0.0
  0
LINE
  5
C6A
330
1F
100
AcDbEntity
  8
VD
100
AcDbLine
 10
1114.296187316038
 20
705.2941377621277
 30
0.0
 11
1114.796187316038
 21
704.7941377621278
 31
0.0
  0
LINE
  5
C6B
330
1F
100
AcDbEntity
  8
VD
100
AcDbLine
 10
1152.796187316038
 20
709.4885737621277
 30
0.0
 11
1152.796187316038
 21
709.9164137621278
 31
0.0
  0
LINE
  5
C6C
330
1F
100
AcDbEntity
  8
VD
100
AcDbLine
 10
1160.796187316038
 20
709.4885737621277
 30
0.0
 11
1160.796187316038
 21
709.9165317621277
 31
0.0
  0
LINE
  5
C6D
330
1F
100
AcDbEntity
  8
VD
100
AcDbLine
 10
1152.796187316038
 20
709.4885737621277
 30
0.0
 11
1152.796187316038
 21
709.9164137621278
 31
0.0
  0
LINE
  5
C6E
330
1F
100
AcDbEntity
  8
VD
100
AcDbLine
 10
1160.796187316038
 20
709.4885737621277
 30
0.0
 11
1160.796187316038
 21
709.9165317621277
 31
0.0
  0
LINE
  5
C6F
330
1F
100
AcDbEntity
  8
VD
100
AcDbLine
 10
1109.096187316038
 20
725.7941377621278
 30
0.0
 11
1109.096187316038
 21
746.7941377621277
 31
0.0
  0
LINE
  5
C70
330
1F
100
AcDbEntity
  8
VD
100
AcDbLine
 10
1109.096187316038
 20
704.7941377621278
 30
0.0
 11
1109.096187316038
 21
725.7941377621278
 31
0.0
  0
LINE
  5
C71
330
1F
100
AcDbEntity
  8
VD
100
AcDbLine
 10
1106.496187316037
 20
704.7941377621278
 30
0.0
 11
1106.496187316037
 21
746.7941377621277
 31
0.0
  0
LINE
  5
C72
330
1F
100
AcDbEntity
  8
VD
100
AcDbLine
 10
1106.296187316038
 20
746.5941377621279
 30
0.0
 11
1106.296187316038
 21
725.7941377621278
 31
0.0
  0
LINE
  5
C73
330
1F
100
AcDbEntity
  8
VD
100
AcDbLine
 10
1106.296187316038
 20
725.7941377621278
 30
0.0
 11
1106.296187316038
 21
704.9941377621278
 31
0.0
  0
LINE
  5
C74
330
1F
100
AcDbEntity
  8
VD
100
AcDbLine
 10
1139.961965316039
 20
727.9850277621278
 30
0.0
 11
1140.089803316039
 21
727.9850277621278
 31
0.0
  0
LINE
  5
C75
330
1F
100
AcDbEntity
  8
VD
100
AcDbLine
 10
1173.502569316039
 20
727.9850277621278
 30
0.0
 11
1173.615949316037
 21
727.9850277621278
 31
0.0
  0
LINE
  5
C76
330
1F
100
AcDbEntity
  8
VD
100
AcDbLine
 10
1164.296187316038
 20
710.3859417621279
 30
0.0
 11
1164.296187316038
 21
633.4441377621279
 31
0.0
  0
LINE
  5
C77
330
1F
100
AcDbEntity
  8
VD
100
AcDbLine
 10
1162.296187316038
 20
634.6691099224496
 30
0.0
 11
1162.296187316038
 21
709.6555977621278
 31
0.0
  0
LINE
  5
C78
330
1F
100
AcDbEntity
  8
VD
100
AcDbLine
 10
1151.296187316038
 20
709.6555977621278
 30
0.0
 11
1151.296187316038
 21
634.6691099224496
 31
0.0
  0
LINE
  5
C79
330
1F
100
AcDbEntity
  8
VD
100
AcDbLine
 10
1149.296187316038
 20
633.4441377621279
 30
0.0
 11
1149.296187316038
 21
710.3859417621279
 31
0.0
  0
LINE
  5
C7A
330
1F
100
AcDbEntity
  8
VD
100
AcDbLine
 10
1162.231669316037
 20
709.8449057621278
 30
0.0
 11
1162.296187316038
 21
709.6555977621278
 31
0.0
  0
LINE
  5
C7B
330
1F
100
AcDbEntity
  8
VD
100
AcDbLine
 10
1151.360703316039
 20
709.8449057621278
 30
0.0
 11
1151.296187316038
 21
709.6555977621278
 31
0.0
  0
LINE
  5
C7C
330
1F
100
AcDbEntity
  8
VD
100
AcDbLine
 10
1114.496187316037
 20
575.2941377621278
 30
0.0
 11
1199.096187316037
 21
575.2941377621278
 31
0.0
  0
LINE
  5
C7D
330
1F
100
AcDbEntity
  8
VD
100
AcDbLine
 10
1114.496187316037
 20
778.2941377621278
 30
0.0
 11
1114.496187316037
 21
746.4929197621279
 31
0.0
  0
LINE
  5
C7E
330
1F
100
AcDbEntity
  8
VD
100
AcDbLine
 10
1114.496187316037
 20
705.0936057621279
 30
0.0
 11
1114.496187316037
 21
575.2941377621278
 31
0.0
  0
LINE
  5
C7F
330
1F
100
AcDbEntity
  8
VD
100
AcDbLine
 10
1199.096187316037
 20
778.2941377621278
 30
0.0
 11
1114.496187316037
 21
778.2941377621278
 31
0.0
  0
LINE
  5
C80
330
1F
100
AcDbEntity
  8
VD
100
AcDbLine
 10
1199.096187316037
 20
778.2941377621278
 30
0.0
 11
1199.096187316037
 21
746.4929197621279
 31
0.0
  0
LINE
  5
C81
330
1F
100
AcDbEntity
  8
VD
100
AcDbLine
 10
1199.096187316037
 20
705.0936057621279
 30
0.0
 11
1199.096187316037
 21
575.2941377621278
 31
0.0
  0
LINE
  5
C82
330
1F
100
AcDbEntity
  8
VD
100
AcDbLine
 10
1114.496187316037
 20
781.7941377621277
 30
0.0
 11
1114.496187316037
 21
778.2941377621278
 31
0.0
  0
LINE
  5
C83
330
1F
100
AcDbEntity
  8
VD
100
AcDbLine
 10
1114.496187316037
 20
781.7941377621277
 30
0.0
 11
1199.096187316037
 21
781.7941377621277
 31
0.0
  0
LINE
  5
C84
330
1F
100
AcDbEntity
  8
VD
100
AcDbLine
 10
1199.096187316037
 20
781.7941377621277
 30
0.0
 11
1199.096187316037
 21
778.2941377621278
 31
0.0
  0
LINE
  5
C85
330
1F
100
AcDbEntity
  8
VD
100
AcDbLine
 10
1199.096187316037
 20
571.7941377621277
 30
0.0
 11
1114.496187316037
 21
571.7941377621277
 31
0.0
  0
LINE
  5
C86
330
1F
100
AcDbEntity
  8
VD
100
AcDbLine
 10
1114.496187316037
 20
571.7941377621277
 30
0.0
 11
1114.496187316037
 21
575.2941377621278
 31
0.0
  0
LINE
  5
C87
330
1F
100
AcDbEntity
  8
VD
100
AcDbLine
 10
1199.096187316037
 20
571.7941377621277
 30
0.0
 11
1199.096187316037
 21
575.2941377621278
 31
0.0
  0
LINE
  5
C88
330
1F
100
AcDbEntity
  8
VD
100
AcDbLine
 10
1114.496187316037
 20
781.7941377621277
 30
0.0
 11
1114.296149316038
 21
781.7941377621277
 31
0.0
  0
LINE
  5
C89
330
1F
100
AcDbEntity
  8
VD
100
AcDbLine
 10
1114.496187316037
 20
780.2941377621277
 30
0.0
 11
1114.296149316038
 21
780.2941377621277
 31
0.0
  0
LINE
  5
C8A
330
1F
100
AcDbEntity
  8
VD
100
AcDbLine
 10
1199.096187316037
 20
781.7941377621277
 30
0.0
 11
1199.296223316038
 21
781.7941377621277
 31
0.0
  0
LINE
  5
C8B
330
1F
100
AcDbEntity
  8
VD
100
AcDbLine
 10
1199.096187316037
 20
780.2941377621277
 30
0.0
 11
1199.296223316038
 21
780.2941377621277
 31
0.0
  0
LINE
  5
C8C
330
1F
100
AcDbEntity
  8
VD
100
AcDbLine
 10
1207.096187316037
 20
725.7941377621278
 30
0.0
 11
1207.096187316037
 21
746.7941377621277
 31
0.0
  0
LINE
  5
C8D
330
1F
100
AcDbEntity
  8
VD
100
AcDbLine
 10
1207.096187316037
 20
704.7941377621278
 30
0.0
 11
1207.096187316037
 21
725.7941377621278
 31
0.0
  0
LINE
  5
C8E
330
1F
100
AcDbEntity
  8
VD
100
AcDbLine
 10
1207.296187316038
 20
746.5941377621279
 30
0.0
 11
1207.296187316038
 21
704.9941377621278
 31
0.0
  0
LINE
  5
C8F
330
1F
100
AcDbEntity
  8
VD
100
AcDbLine
 10
1204.496187316039
 20
704.7941377621278
 30
0.0
 11
1204.496187316039
 21
746.7941377621277
 31
0.0
  0
LINE
  5
C90
330
1F
100
AcDbEntity
  8
VD
100
AcDbLine
 10
1115.096187316037
 20
703.2941377621277
 30
0.0
 11
1115.096187316037
 21
748.2941377621277
 31
0.0
  0
LINE
  5
C91
330
1F
100
AcDbEntity
  8
VD
100
AcDbLine
 10
1198.496187316039
 20
748.2941377621277
 30
0.0
 11
1198.496187316039
 21
725.7941377621278
 31
0.0
  0
LINE
  5
C92
330
1F
100
AcDbEntity
  8
VD
100
AcDbLine
 10
1198.496187316039
 20
725.7941377621278
 30
0.0
 11
1198.496187316039
 21
703.2941377621277
 31
0.0
  0
LINE
  5
C93
330
1F
100
AcDbEntity
  8
VD
100
AcDbLine
 10
1198.796187316038
 20
747.9941377621278
 30
0.0
 11
1198.796187316038
 21
703.5941377621279
 31
0.0
  0
LINE
  5
C94
330
1F
100
AcDbEntity
  8
VD
100
AcDbLine
 10
1114.796187316038
 20
725.7941377621278
 30
0.0
 11
1114.796187316038
 21
747.9941277621279
 31
0.0
  0
LINE
  5
C95
330
1F
100
AcDbEntity
  8
VD
100
AcDbLine
 10
1114.796187316038
 20
703.5941377621279
 30
0.0
 11
1114.796187316038
 21
725.7941377621278
 31
0.0
  0
LINE
  5
C96
330
1F
100
AcDbEntity
  8
VD
100
AcDbLine
 10
1204.296187316038
 20
703.3941377621279
 30
0.0
 11
1199.296187316038
 21
703.3941377621279
 31
0.0
  0
LINE
  5
C97
330
1F
100
AcDbEntity
  8
VD
100
AcDbLine
 10
1199.296187316038
 20
748.1941377621279
 30
0.0
 11
1204.296187316038
 21
748.1941377621279
 31
0.0
  0
LINE
  5
C98
330
1F
100
AcDbEntity
  8
VD
100
AcDbLine
 10
1204.296187316038
 20
748.1941377621279
 30
0.0
 11
1204.296187316038
 21
703.3941377621279
 31
0.0
  0
LINE
  5
C99
330
1F
100
AcDbEntity
  8
VD
100
AcDbLine
 10
1199.296187316038
 20
703.3941377621279
 30
0.0
 11
1199.296187316038
 21
748.1941377621279
 31
0.0
  0
LINE
  5
C9A
330
1F
100
AcDbEntity
  8
VD
100
AcDbLine
 10
1114.296187316038
 20
703.3941377621279
 30
0.0
 11
1109.296187316038
 21
703.3941377621279
 31
0.0
  0
LINE
  5
C9B
330
1F
100
AcDbEntity
  8
VD
100
AcDbLine
 10
1109.296187316038
 20
748.1941377621279
 30
0.0
 11
1114.296187316038
 21
748.1941377621279
 31
0.0
  0
LINE
  5
C9C
330
1F
100
AcDbEntity
  8
VD
100
AcDbLine
 10
1109.296187316038
 20
703.3941377621279
 30
0.0
 11
1109.296187316038
 21
748.1941377621279
 31
0.0
  0
LINE
  5
C9D
330
1F
100
AcDbEntity
  8
VD
100
AcDbLine
 10
1114.296187316038
 20
748.1941377621279
 30
0.0
 11
1114.296187316038
 21
703.3941377621279
 31
0.0
  0
LINE
  5
C9E
330
1F
100
AcDbEntity
  8
VD
100
AcDbLine
 10
1114.296187316038
 20
699.8941377621279
 30
0.0
 11
1109.296187316038
 21
699.8941377621279
 31
0.0
  0
LINE
  5
C9F
330
1F
100
AcDbEntity
  8
VD
100
AcDbLine
 10
1109.296187316038
 20
699.8941377621279
 30
0.0
 11
1109.296187316038
 21
703.3941377621279
 31
0.0
  0
LINE
  5
CA0
330
1F
100
AcDbEntity
  8
VD
100
AcDbLine
 10
1114.296187316038
 20
703.3941377621279
 30
0.0
 11
1114.296187316038
 21
699.8941377621279
 31
0.0
  0
LINE
  5
CA1
330
1F
100
AcDbEntity
  8
VD
100
AcDbLine
 10
1204.296187316038
 20
699.8941377621279
 30
0.0
 11
1199.296187316038
 21
699.8941377621279
 31
0.0
  0
LINE
  5
CA2
330
1F
100
AcDbEntity
  8
VD
100
AcDbLine
 10
1204.296187316038
 20
703.3941377621279
 30
0.0
 11
1204.296187316038
 21
699.8941377621279
 31
0.0
  0
LINE
  5
CA3
330
1F
100
AcDbEntity
  8
VD
100
AcDbLine
 10
1199.296187316038
 20
699.8941377621279
 30
0.0
 11
1199.296187316038
 21
703.3941377621279
 31
0.0
  0
LINE
  5
CA4
330
1F
100
AcDbEntity
  8
VD
100
AcDbLine
 10
1109.296187316038
 20
751.6941377621279
 30
0.0
 11
1114.296187316038
 21
751.6941377621279
 31
0.0
  0
LINE
  5
CA5
330
1F
100
AcDbEntity
  8
VD
100
AcDbLine
 10
1109.296187316038
 20
748.1941377621279
 30
0.0
 11
1109.296187316038
 21
751.6941377621279
 31
0.0
  0
LINE
  5
CA6
330
1F
100
AcDbEntity
  8
VD
100
AcDbLine
 10
1114.296187316038
 20
751.6941377621279
 30
0.0
 11
1114.296187316038
 21
748.1941377621279
 31
0.0
  0
LINE
  5
CA7
330
1F
100
AcDbEntity
  8
VD
100
AcDbLine
 10
1199.296187316038
 20
751.6941377621279
 30
0.0
 11
1204.296187316038
 21
751.6941377621279
 31
0.0
  0
LINE
  5
CA8
330
1F
100
AcDbEntity
  8
VD
100
AcDbLine
 10
1204.296187316038
 20
751.6941377621279
 30
0.0
 11
1204.296187316038
 21
748.1941377621279
 31
0.0
  0
LINE
  5
CA9
330
1F
100
AcDbEntity
  8
VD
100
AcDbLine
 10
1199.296187316038
 20
748.1941377621279
 30
0.0
 11
1199.296187316038
 21
751.6941377621279
 31
0.0
  0
LINE
  5
CAA
330
1F
100
AcDbEntity
  8
VD
100
AcDbLine
 10
1109.296187316038
 20
575.2941377621278
 30
0.0
 11
1114.296187316038
 21
575.2941377621278
 31
0.0
  0
LINE
  5
CAB
330
1F
100
AcDbEntity
  8
VD
100
AcDbLine
 10
1109.296187316038
 20
699.8941377621279
 30
0.0
 11
1109.296187316038
 21
575.2941377621278
 31
0.0
  0
LINE
  5
CAC
330
1F
100
AcDbEntity
  8
VD
100
AcDbLine
 10
1114.296187316038
 20
699.8941377621279
 30
0.0
 11
1114.296187316038
 21
575.2941377621278
 31
0.0
  0
LINE
  5
CAD
330
1F
100
AcDbEntity
  8
VD
100
AcDbLine
 10
1199.296187316038
 20
575.2941377621278
 30
0.0
 11
1204.296187316038
 21
575.2941377621278
 31
0.0
  0
LINE
  5
CAE
330
1F
100
AcDbEntity
  8
VD
100
AcDbLine
 10
1204.296187316038
 20
571.7941377621277
 30
0.0
 11
1199.296187316038
 21
571.7941377621277
 31
0.0
  0
LINE
  5
CAF
330
1F
100
AcDbEntity
  8
VD
100
AcDbLine
 10
1204.296187316038
 20
575.2941377621278
 30
0.0
 11
1204.296187316038
 21
571.7941377621277
 31
0.0
  0
LINE
  5
CB0
330
1F
100
AcDbEntity
  8
VD
100
AcDbLine
 10
1199.296187316038
 20
571.7941377621277
 30
0.0
 11
1199.296187316038
 21
575.2941377621278
 31
0.0
  0
LINE
  5
CB1
330
1F
100
AcDbEntity
  8
VD
100
AcDbLine
 10
1114.296187316038
 20
571.7941377621277
 30
0.0
 11
1109.296187316038
 21
571.7941377621277
 31
0.0
  0
LINE
  5
CB2
330
1F
100
AcDbEntity
  8
VD
100
AcDbLine
 10
1109.296187316038
 20
571.7941377621277
 30
0.0
 11
1109.296187316038
 21
575.2941377621278
 31
0.0
  0
LINE
  5
CB3
330
1F
100
AcDbEntity
  8
VD
100
AcDbLine
 10
1114.296187316038
 20
575.2941377621278
 30
0.0
 11
1114.296187316038
 21
571.7941377621277
 31
0.0
  0
LINE
  5
CB4
330
1F
100
AcDbEntity
  8
VD
100
AcDbLine
 10
1204.296187316038
 20
575.2941377621278
 30
0.0
 11
1204.296187316038
 21
699.8941377621279
 31
0.0
  0
LINE
  5
CB5
330
1F
100
AcDbEntity
  8
VD
100
AcDbLine
 10
1199.296187316038
 20
575.2941377621278
 30
0.0
 11
1199.296187316038
 21
699.8941377621279
 31
0.0
  0
LINE
  5
CB6
330
1F
100
AcDbEntity
  8
VD
100
AcDbLine
 10
1204.296187316038
 20
778.2941377621278
 30
0.0
 11
1199.296187316038
 21
778.2941377621278
 31
0.0
  0
LINE
  5
CB7
330
1F
100
AcDbEntity
  8
VD
100
AcDbLine
 10
1204.296187316038
 20
751.6941377621279
 30
0.0
 11
1204.296187316038
 21
778.2941377621278
 31
0.0
  0
LINE
  5
CB8
330
1F
100
AcDbEntity
  8
VD
100
AcDbLine
 10
1199.296187316038
 20
751.6941377621279
 30
0.0
 11
1199.296187316038
 21
778.2941377621278
 31
0.0
  0
LINE
  5
CB9
330
1F
100
AcDbEntity
  8
VD
100
AcDbLine
 10
1114.296187316038
 20
778.2941377621278
 30
0.0
 11
1109.296187316038
 21
778.2941377621278
 31
0.0
  0
LINE
  5
CBA
330
1F
100
AcDbEntity
  8
VD
100
AcDbLine
 10
1109.296187316038
 20
778.2941377621278
 30
0.0
 11
1109.296187316038
 21
751.6941377621279
 31
0.0
  0
LINE
  5
CBB
330
1F
100
AcDbEntity
  8
VD
100
AcDbLine
 10
1114.296187316038
 20
778.2941377621278
 30
0.0
 11
1114.296187316038
 21
751.6941377621279
 31
0.0
  0
LINE
  5
CBC
330
1F
100
AcDbEntity
  8
VD
100
AcDbLine
 10
1199.296187316038
 20
781.7941377621277
 30
0.0
 11
1204.296187316038
 21
781.7941377621277
 31
0.0
  0
LINE
  5
CBD
330
1F
100
AcDbEntity
  8
VD
100
AcDbLine
 10
1204.296187316038
 20
781.7941377621277
 30
0.0
 11
1204.296187316038
 21
778.2941377621278
 31
0.0
  0
LINE
  5
CBE
330
1F
100
AcDbEntity
  8
VD
100
AcDbLine
 10
1199.296187316038
 20
778.2941377621278
 30
0.0
 11
1199.296187316038
 21
781.7941377621277
 31
0.0
  0
LINE
  5
CBF
330
1F
100
AcDbEntity
  8
VD
100
AcDbLine
 10
1109.296187316038
 20
781.7941377621277
 30
0.0
 11
1114.296187316038
 21
781.7941377621277
 31
0.0
  0
LINE
  5
CC0
330
1F
100
AcDbEntity
  8
VD
100
AcDbLine
 10
1109.296187316038
 20
778.2941377621278
 30
0.0
 11
1109.296187316038
 21
781.7941377621277
 31
0.0
  0
LINE
  5
CC1
330
1F
100
AcDbEntity
  8
VD
100
AcDbLine
 10
1114.296187316038
 20
781.7941377621277
 30
0.0
 11
1114.296187316038
 21
778.2941377621278
 31
0.0
  0
LINE
  5
CC2
330
1F
100
AcDbEntity
  8
VD
100
AcDbLine
 10
1199.296187316038
 20
571.7941377621277
 30
0.0
 11
1199.096179316038
 21
571.7941377621277
 31
0.0
  0
LINE
  5
CC3
330
1F
100
AcDbEntity
  8
VD
100
AcDbLine
 10
1114.496193316039
 20
571.7941377621277
 30
0.0
 11
1114.296187316038
 21
571.7941377621277
 31
0.0
  0
ARC
  5
CC4
330
1F
100
AcDbEntity
  8
VD
100
AcDbCircle
 10
1198.496187316039
 20
747.9941377621278
 30
0.0
 40
0.3
100
AcDbArc
 50
0.0
 51
90.0
  0
ARC
  5
CC5
330
1F
100
AcDbEntity
  8
VD
100
AcDbCircle
 10
1198.496187316039
 20
703.5941377621279
 30
0.0
 40
0.3
100
AcDbArc
 50
270.0
 51
0.0
  0
ARC
  5
CC6
330
1F
100
AcDbEntity
  8
VD
100
AcDbCircle
 10
1115.096187316037
 20
703.5941377621279
 30
0.0
 40
0.3
100
AcDbArc
 50
180.0
 51
270.0
  0
ARC
  5
CC7
330
1F
100
AcDbEntity
  8
VD
100
AcDbCircle
 10
1115.096187316037
 20
747.9941377621278
 30
0.0
 40
0.3
100
AcDbArc
 50
90.0
 51
180.0
  0
CIRCLE
  5
CC8
330
1F
100
AcDbEntity
  8
VD
100
AcDbCircle
 10
-1156.796187316038
 20
725.7941377621278
 30
0.0
 40
16.85
210
0.0
220
0.0
230
-1.0
  0
CIRCLE
  5
CC9
330
1F
100
AcDbEntity
  8
VD
100
AcDbCircle
 10
1156.796187316038
 20
725.7941377621278
 30
0.0
 40
15.75
  0
CIRCLE
  5
CCA
330
1F
100
AcDbEntity
  8
VD
100
AcDbCircle
 10
-1156.796187316038
 20
725.7941377621278
 30
0.0
 40
16.75
210
0.0
220
0.0
230
-1.0
  0
ARC
  5
CCB
330
1F
100
AcDbEntity
  8
VD
100
AcDbCircle
 10
-1156.796187316038
 20
725.7941377621278
 30
0.0
 40
17.04999999999999
210
0.0
220
0.0
230
-1.0
100
AcDbArc
 50
251.1809369999966
 51
288.8190630000034
  0
ARC
  5
CCC
330
1F
100
AcDbEntity
  8
VD
100
AcDbCircle
 10
-1164.096187316038
 20
710.3859417621279
 30
0.0
 40
0.2
210
0.0
220
0.0
230
-1.0
100
AcDbArc
 50
64.64963000000537
 51
180.0
  0
ARC
  5
CCD
330
1F
100
AcDbEntity
  8
VD
100
AcDbCircle
 10
-1149.496187316039
 20
710.3859417621279
 30
0.0
 40
0.2
210
0.0
220
0.0
230
-1.0
100
AcDbArc
 50
0.0
 51
115.3503699999946
  0
SPLINE
  5
CCE
330
1F
100
AcDbEntity
  8
VD
100
AcDbSpline
210
0.0
220
0.0
230
1.0
 70
     8
 71
     3
 72
    16
 73
    12
 74
     0
 42
0.000000001
 43
0.0000000001
 40
0.0
 40
0.0
 40
0.0
 40
0.0
 40
0.1945552639644181
 40
0.1945552639644181
 40
0.3878946385599309
 40
0.3878946385599309
 40
0.5892372746630532
 40
0.5892372746630532
 40
0.8080348914056749
 40
0.8080348914056749
 40
1.0
 40
1.0
 40
1.0
 40
1.0
 10
1164.296195523062
 20
710.3859457758037
 30
0.0
 10
1164.296177142427
 20
710.3859378870606
 30
0.0
 10
1164.262363725415
 20
710.3714255843706
 30
0.0
 10
1164.134595997801
 20
710.3177475457087
 30
0.0
 10
1164.039540420201
 20
710.2781780541329
 30
0.0
 10
1163.798698092585
 20
710.1812039065478
 30
0.0
 10
1163.648061169069
 20
710.1220242351487
 30
0.0
 10
1163.29978724109
 20
709.9912185618498
 30
0.0
 10
1163.094539895075
 20
709.9172729629676
 30
0.0
 10
1162.692643699636
 20
709.7806117432276
 30
0.0
 10
1162.49393996418
 20
709.7162517077986
 30
0.0
 10
1162.296186332743
 20
709.6555968762288
 30
0.0
  0
SPLINE
  5
CCF
330
1F
100
AcDbEntity
  8
VD
100
AcDbSpline
210
0.0
220
0.0
230
1.0
 70
     8
 71
     3
 72
    16
 73
    12
 74
     0
 42
0.000000001
 43
0.0000000001
 40
0.0
 40
0.0
 40
0.0
 40
0.0
 40
0.2320133565498035
 40
0.2320133565498035
 40
0.464168575931434
 40
0.464168575931434
 40
0.6954789313312828
 40
0.6954789313312828
 40
0.9117015930972556
 40
0.9117015930972556
 40
1.0
 40
1.0
 40
1.0
 40
1.0
 10
1151.296186332743
 20
709.6555968762288
 30
0.0
 10
1151.058112657489
 20
709.728618638555
 30
0.0
 10
1150.818151018597
 20
709.8072480581956
 30
0.0
 10
1150.374324876533
 20
709.9611486846015
 30
0.0
 10
1150.163981614936
 20
710.0386135606925
 30
0.0
 10
1149.803736715592
 20
710.1767131706546
 30
0.0
 10
1149.648145524668
 20
710.2394008354527
 30
0.0
 10
1149.425725310267
 20
710.3308792220307
 30
0.0
 10
1149.350712506337
 20
710.3627516197057
 30
0.0
 10
1149.30335819078
 20
710.3828792485658
 30
0.0
 10
1149.296269214968
 20
710.3859064375385
 30
0.0
 10
1149.296195561786
 20
710.3859378901238
 30
0.0
  0
SPLINE
  5
CD0
330
1F
100
AcDbEntity
  8
VD
100
AcDbSpline
210
0.0
220
0.0
230
1.0
 70
     8
 71
     3
 72
    12
 73
     8
 74
     0
 42
0.000000001
 43
0.0000000001
 40
0.0
 40
0.0
 40
0.0
 40
0.0
 40
0.3456277780081103
 40
0.3456277780081103
 40
0.6912555560162207
 40
0.6912555560162207
 40
1.0
 40
1.0
 40
1.0
 40
1.0
 10
1139.796186316533
 20
725.7941377037115
 30
0.0
 10
1139.796186316533
 20
723.4357004770256
 30
0.0
 10
1140.294941798722
 20
721.1343328682737
 30
0.0
 10
1142.062300990974
 20
717.0238768778167
 30
0.0
 10
1143.324024104453
 20
715.2092333638768
 30
0.0
 10
1146.19122911361
 20
712.3718761482905
 30
0.0
 10
1147.739743453132
 20
711.2753484976365
 30
0.0
 10
1149.487447015852
 20
710.4450565614058
 30
0.0
  0
SPLINE
  5
CD1
330
1F
100
AcDbEntity
  8
VD
100
AcDbSpline
210
0.0
220
0.0
230
1.0
 70
     8
 71
     3
 72
     8
 73
     4
 74
     0
 42
0.000000001
 43
0.0000000001
 40
0.0
 40
0.0
 40
0.0
 40
0.0
 40
1.0
 40
1.0
 40
1.0
 40
1.0
 10
1163.550346561889
 20
710.1934390181595
 30
0.0
 10
1163.72241150581
 20
710.2678918615047
 30
0.0
 10
1163.892650478627
 20
710.3448561017796
 30
0.0
 10
1164.061060013193
 20
710.4243021633246
 30
0.0
  0
SPLINE
  5
CD2
330
1F
100
AcDbEntity
  8
VD
100
AcDbSpline
210
0.0
220
0.0
230
1.0
 70
     8
 71
     3
 72
    22
 73
    18
 74
     0
 42
0.000000001
 43
0.0000000001
 40
0.0
 40
0.0
 40
0.0
 40
0.0
 40
0.1261546713333348
 40
0.1261546713333348
 40
0.271709779130951
 40
0.271709779130951
 40
0.4172648869285673
 40
0.4172648869285673
 40
0.5628199947261832
 40
0.5628199947261832
 40
0.7083751025237995
 40
0.7083751025237995
 40
0.8539302103214152
 40
0.8539302103214152
 40
0.9994853181190311
 40
0.9994853181190311
 40
1.0
 40
1.0
 40
1.0
 40
1.0
 10
1164.21667070255
 20
710.4986679762737
 30
0.0
 10
1165.907429947218
 20
711.3171411231197
 30
0.0
 10
1167.411183216369
 20
712.3882248754949
 30
0.0
 10
1170.239460283659
 20
715.1734000972205
 30
0.0
 10
1171.504750327613
 20
716.9817812019189
 30
0.0
 10
1173.283208782137
 20
721.0848306844787
 30
0.0
 10
1173.788149217604
 20
723.4060490685756
 30
0.0
 10
1173.804026109734
 20
728.0663956400896
 30
0.0
 10
1173.311518939492
 20
730.4100152563988
 30
0.0
 10
1171.542048715484
 20
734.5475415753237
 30
0.0
 10
1170.279308460463
 20
736.3648293229037
 30
0.0
 10
1167.255600786984
 20
739.3637638220518
 30
0.0
 10
1165.48106113148
 20
740.5691784526809
 30
0.0
 10
1161.482298231944
 20
742.2795626239637
 30
0.0
 10
1159.160192853194
 20
742.7907056270146
 30
0.0
 10
1156.81272579468
 20
742.7941316702265
 30
0.0
 10
1156.804454976489
 20
742.7941375245597
 30
0.0
 10
1156.796184730476
 20
742.7941371674867
 30
0.0
  0
SPLINE
  5
CD3
330
1F
100
AcDbEntity
  8
VD
100
AcDbSpline
210
0.0
220
0.0
230
1.0
 70
     8
 71
     3
 72
    14
 73
    10
 74
     0
 42
0.000000001
 43
0.0000000001
 40
0.0
 40
0.0
 40
0.0
 40
0.0
 40
0.2493364146684839
 40
0.2493364146684839
 40
0.4995576097789893
 40
0.4995576097789893
 40
0.7497788048894947
 40
0.7497788048894947
 40
1.0
 40
1.0
 40
1.0
 40
1.0
 10
1156.796184731005
 20
742.7941371674867
 30
0.0
 10
1154.465580043921
 20
742.7940365424067
 30
0.0
 10
1152.180414697972
 20
742.3006595874937
 30
0.0
 10
1148.150528554828
 20
740.5947164660196
 30
0.0
 10
1146.387247163633
 20
739.4042592306139
 30
0.0
 10
1143.338369125145
 20
736.3992581042066
 30
0.0
 10
1142.094267831971
 20
734.6235802773057
 30
0.0
 10
1140.298339853649
 20
730.4767144915627
 30
0.0
 10
1139.796186316533
 20
728.1525749303978
 30
0.0
 10
1139.796186316533
 20
725.7941377037115
 30
0.0
  0
SPLINE
  5
CD4
330
1F
100
AcDbEntity
  8
VD
100
AcDbSpline
210
0.0
220
0.0
230
1.0
 70
    24
 71
     1
 72
     5
 73
     3
 74
     0
 42
0.000000001
 43
0.0000000001
 40
0.0
 40
0.0
 40
0.2666666666666667
 40
1.0
 40
1.0
 10
1100.296186332744
 20
725.7941377024617
 30
0.0
 10
1104.296186332743
 20
725.7941377024617
 30
0.0
 10
1115.296186332743
 20
725.7941377024617
 30
0.0
  0
SPLINE
  5
CD5
330
1F
100
AcDbEntity
  8
VD
100
AcDbSpline
210
0.0
220
0.0
230
1.0
 70
    24
 71
     1
 72
     5
 73
     3
 74
     0
 42
0.000000001
 43
0.0000000001
 40
0.0
 40
0.0
 40
0.2666666666666667
 40
1.0
 40
1.0
 10
1213.296186332744
 20
725.7941377024617
 30
0.0
 10
1209.296186332744
 20
725.7941377024617
 30
0.0
 10
1198.296186332743
 20
725.7941377024617
 30
0.0
  0
SPLINE
  5
CD6
330
1F
100
AcDbEntity
  8
VD
100
AcDbSpline
210
0.0
220
0.0
230
1.0
 70
    24
 71
     1
 72
     5
 73
     3
 74
     0
 42
0.000000001
 43
0.0000000001
 40
0.0
 40
0.0
 40
0.2149255813020745
 40
1.0
 40
1.0
 10
1156.796186332743
 20
703.3330446172776
 30
0.0
 10
1156.796186332743
 20
707.3330446172776
 30
0.0
 10
1156.796186332743
 20
721.9441377024618
 30
0.0
  0
SPLINE
  5
CD7
330
1F
100
AcDbEntity
  8
VD
100
AcDbSpline
210
0.0
220
0.0
230
1.0
 70
    24
 71
     1
 72
     5
 73
     3
 74
     0
 42
0.000000001
 43
0.0000000001
 40
0.0
 40
0.0
 40
0.6800000000000001
 40
1.0
 40
1.0
 10
1205.296186332745
 20
725.7941377024617
 30
0.0
 10
1196.796186332745
 20
725.7941377024617
 30
0.0
 10
1192.796186332745
 20
725.7941377024617
 30
0.0
  0
SPLINE
  5
CD8
330
1F
100
AcDbEntity
  8
VD
100
AcDbSpline
210
0.0
220
0.0
230
1.0
 70
    24
 71
     1
 72
     5
 73
     3
 74
     0
 42
0.000000001
 43
0.0000000001
 40
0.0
 40
0.0
 40
0.6800000000000001
 40
1.0
 40
1.0
 10
1108.296186332744
 20
725.7941377024617
 30
0.0
 10
1116.796186332743
 20
725.7941377024617
 30
0.0
 10
1120.796186332744
 20
725.7941377024617
 30
0.0
  0
LINE
  5
CD9
330
1F
100
AcDbEntity
  8
VD
100
AcDbLine
 10
1135.946187316038
 20
725.7941377621278
 30
0.0
 11
1177.646187316039
 21
725.7941377621278
 31
0.0
  0
LINE
  5
CDA
330
1F
100
AcDbEntity
  8
VD
100
AcDbLine
 10
1156.796187316038
 20
704.9441377621278
 30
0.0
 11
1156.796187316038
 21
746.6441377621279
 31
0.0
  0
CIRCLE
  5
CDB
330
1F
100
AcDbEntity
  8
0
100
AcDbCircle
 10
1156.796187316038
 20
623.4441377621278
 30
0.0
 40
12.5
  0
LWPOLYLINE
  5
F01
330
1F
100
AcDbEntity
  8
HEWI
  6
CUSTOM
 62
    18
420
        0
370
     9
100
AcDbPolyline
 90
      104
 70
     1
 43
0.0
 10
689.29271342476
 20
593.3885383802674
 10
688.9521830190841
 20
593.5724794072282
 10
688.9179973594527
 20
593.5813395226539
 10
688.8865950809485
 20
593.5974968100533
 10
688.5100678707348
 20
593.6870652109466
 10
688.1354126916102
 20
593.7841669840422
 10
688.1001000407522
 20
593.7845884766041
 10
688.0657435635019
 20
593.7927612053015
 10
687.6787224287872
 20
593.7896180499595
 10
687.2917160734085
 20
593.7942373670877
 10
687.2573286742352
 20
593.7861957411696
 10
687.2220146718153
 20
593.7859089418798
 10
686.8469918741883
 20
593.6902368990661
 10
686.470125745216
 20
593.6021053023067
 10
686.4386620683744
 20
593.5860679079769
 10
686.4044428622472
 20
593.5773382484319
 10
686.0632133635498
 20
593.3946974295211
 10
685.7183895505476
 20
593.218936806932
 10
685.6916781505695
 20
593.1958356792563
 10
685.6605424366133
 20
593.1791704955378
 10
685.3729372549931
 20
592.9201753210525
 10
685.0801956645899
 20
592.6670002411551
 10
685.0597889109502
 20
592.6381779337036
 10
685.0335461836856
 20
592.6145457457139
 10
684.816279886896
 20
592.2942480737863
 10
684.5926335962539
 20
591.9783721519698
 10
684.5797174553025
 20
591.9455037124873
 10
684.5598928466442
 20
591.9162779370935
 10
684.4255921621224
 20
591.5532923041805
 10
684.2840386807328
 20
591.193073100859
 10
684.2793637916291
 20
591.1580687235764
 10
684.2671094357809
 20
591.1249478566124
 10
684.2235794311508
 20
590.7403696683009
 10
684.172345332823
 20
590.3567418142274
 10
684.1761833831314
 20
590.3216358263166
 10
684.1722114587063
 20
590.2865447321808
 10
684.2219819396103
 20
589.9027242748902
 10
684.264044763915
 20
589.5179828265136
 10
684.2761727000996
 20
589.4848154603864
 10
684.280714040913
 20
589.4497935059191
 10
684.4208925279071
 20
589.0890370294971
 10
684.5538077363888
 20
588.725541761318
 10
684.5735207268825
 20
588.6962405837364
 10
684.5863114067086
 20
588.6633231176317
 10
684.8087512356632
 20
588.3465964771903
 10
685.0247942795248
 20
588.0254724129445
 10
685.0509466769779
 20
588.001740301843
 10
685.0712433480001
 20
587.9728403675811
 10
685.3630171245839
 20
587.7185505642087
 10
685.649632367409
 20
587.4584602672714
 10
685.680704289536
 20
587.441676446685
 10
685.7073273830118
 20
587.4184736033978
 10
686.0514782758908
 20
587.241399036161
 10
686.3920086815613
 20
587.0574580092002
 10
686.4261943411965
 20
587.0485978937745
 10
686.4575966196988
 20
587.0324406063753
 10
686.8341238299125
 20
586.9428722054817
 10
687.2087790090353
 20
586.8457704323861
 10
687.2440916598951
 20
586.8453489398246
 10
687.2784481371454
 20
586.8371762111271
 10
687.6654692718601
 20
586.8403193664694
 10
688.0524756272405
 20
586.8357000493408
 10
688.0868630264139
 20
586.843741675259
 10
688.122177028832
 20
586.8440284745488
 10
688.4971998264608
 20
586.9397005173625
 10
688.8740659554331
 20
587.0278321141218
 10
688.9055296322729
 20
587.0438695084515
 10
688.9397488384019
 20
587.0525991679965
 10
689.2809783370993
 20
587.2352399869073
 10
689.6258021501015
 20
587.4110006094963
 10
689.6525135500777
 20
587.4341017371728
 10
689.6836492640339
 20
587.4507669208908
 10
689.9712544456577
 20
587.7097620953761
 10
690.2639960360592
 20
587.9629371752737
 10
690.2844027896953
 20
587.991759482725
 10
690.3106455169635
 20
588.0153916707144
 10
690.5279118137531
 20
588.3356893426423
 10
690.7515581043971
 20
588.6515652644586
 10
690.7644742453484
 20
588.6844337039413
 10
690.7842988540031
 20
588.7136594793353
 10
690.9185995385249
 20
589.0766451122479
 10
691.0601530199145
 20
589.4368643155692
 10
691.0648279090182
 20
589.4718686928515
 10
691.0770822648681
 20
589.5049895598162
 10
691.1206122694983
 20
589.8895677481277
 10
691.1718463678279
 20
590.273195602201
 10
691.1680083175159
 20
590.3083015901118
 10
691.171980241941
 20
590.3433926842476
 10
691.1222097610387
 20
590.7272131415384
 10
691.0801469367342
 20
591.1119545899148
 10
691.0680190005477
 20
591.1451219560417
 10
691.0634776597361
 20
591.180143910509
 10
690.9232991727384
 20
591.5409003869317
 10
690.7903839642621
 20
591.9043956551106
 10
690.7706709737666
 20
591.9336968326924
 10
690.7578802939386
 20
591.9666142987966
 10
690.5354404649878
 20
592.2833409392388
 10
690.3193974211243
 20
592.6044650034843
 10
690.2932450236711
 20
592.6281971145853
 10
690.2729483526472
 20
592.6570970488476
 10
689.9811745760615
 20
592.91138685222
 10
689.6945593332401
 20
593.1714771491569
 10
689.6634874111095
 20
593.1882609697438
 10
689.6368643176373
 20
593.2114638130308
  0
LWPOLYLINE
  5
F02
330
1F
100
AcDbEntity
  8
HEWI
  6
CUSTOM
 62
    18
420
        0
370
     9
100
AcDbPolyline
 90
        3
 70
     0
 43
0.0
 10
687.8257629416347
 20
591.5606722194517
 10
687.2313979306835
 20
591.6894207916721
 10
687.1347354241751
 20
591.5829002899795
  0
LINE
  5
F03
330
1F
100
AcDbEntity
  8
HEWI
  6
CUSTOM
 62
    18
420
        0
370
     9
100
AcDbLine
 10
689.0388370008694
 20
590.1463707069426
 30
0.0
 11
688.8277402600923
 21
590.8047408562938
 31
0.0
  0
LWPOLYLINE
  5
F04
330
1F
100
AcDbEntity
  8
HEWI
  6
CUSTOM
 62
    18
420
        0
370
     9
100
AcDbPolyline
 90
        3
 70
     0
 43
0.0
 10
688.8277402600923
 20
590.8047408562938
 10
688.6420572865662
 20
591.3838503516014
 10
688.5014765747199
 20
591.4143022887079
  0
LINE
  5
F05
330
1F
100
AcDbEntity
  8
HEWI
  6
CUSTOM
 62
    18
420
        0
370
     9
100
AcDbLine
 10
688.5014765747199
 20
591.4143022887079
 30
0.0
 11
687.8257629416347
 21
591.5606722194517
 31
0.0
  0
LWPOLYLINE
  5
F06
330
1F
100
AcDbEntity
  8
HEWI
  6
CUSTOM
 62
    18
420
        0
370
     9
100
AcDbPolyline
 90
        3
 70
     0
 43
0.0
 10
686.6701185318651
 20
591.0709000713723
 10
686.2614364944419
 20
590.6205391482846
 10
686.3053546997779
 20
590.4835667094862
  0
LWPOLYLINE
  5
F07
330
1F
100
AcDbEntity
  8
HEWI
  6
CUSTOM
 62
    18
420
        0
370
     9
100
AcDbPolyline
 90
        3
 70
     0
 43
0.0
 10
688.6740731687822
 20
589.5590373450561
 10
689.0827552062072
 20
590.0093982681434
 10
689.0388370008694
 20
590.1463707069426
  0
LINE
  5
F08
330
1F
100
AcDbEntity
  8
HEWI
  6
CUSTOM
 62
    18
420
        0
370
     9
100
AcDbLine
 10
686.3053546997779
 20
590.4835667094862
 30
0.0
 11
686.516451440555
 21
589.8251965601345
 31
0.0
  0
LWPOLYLINE
  5
F09
330
1F
100
AcDbEntity
  8
HEWI
  6
CUSTOM
 62
    18
420
        0
370
     9
100
AcDbPolyline
 90
        3
 70
     0
 43
0.0
 10
686.516451440555
 20
589.8251965601345
 10
686.7021344140811
 20
589.2460870648271
 10
686.8427151259274
 20
589.2156351277208
  0
LWPOLYLINE
  5
F0A
330
1F
100
AcDbEntity
  8
HEWI
  6
CUSTOM
 62
    18
420
        0
370
     9
100
AcDbPolyline
 90
        3
 70
     0
 43
0.0
 10
687.5184287590126
 20
589.0692651969766
 10
688.1127937699655
 20
588.9405166247565
 10
688.209456276474
 20
589.0470371264489
  0
LINE
  5
F0B
330
1F
100
AcDbEntity
  8
HEWI
  6
CUSTOM
 62
    18
420
        0
370
     9
100
AcDbLine
 10
688.209456276474
 20
589.0470371264489
 30
0.0
 11
688.6740731687822
 21
589.5590373450561
 31
0.0
  0
LINE
  5
F0C
330
1F
100
AcDbEntity
  8
HEWI
  6
CUSTOM
 62
    18
420
        0
370
     9
100
AcDbLine
 10
687.1347354241751
 20
591.5829002899795
 30
0.0
 11
686.6701185318651
 21
591.0709000713723
 31
0.0
  0
LINE
  5
F0D
330
1F
100
AcDbEntity
  8
HEWI
  6
CUSTOM
 62
    18
420
        0
370
     9
100
AcDbLine
 10
686.8427151259274
 20
589.2156351277208
 30
0.0
 11
687.5184287590126
 21
589.0692651969766
 31
0.0
  0
LINE
  5
F0E
330
1F
100
AcDbEntity
  8
HEWI
  6
CUSTOM
 62
    18
420
        0
370
     9
100
AcDbLine
 10
701.6900474955017
 20
612.2622320523889
 30
0.0
 11
702.3304839239261
 21
611.4773504497322
 31
0.0
  0
LINE
  5
F0F
330
1F
100
AcDbEntity
  8
HEWI
  6
CUSTOM
 62
    18
420
        0
370
     9
100
AcDbLine
 10
673.6541442052856
 20
612.2622320525501
 30
0.0
 11
673.6984240722048
 21
612.317620491111
 31
0.0
  0
LINE
  5
F10
330
1F
100
AcDbEntity
  8
HEWI
  6
CUSTOM
 62
    18
420
        0
370
     9
100
AcDbLine
 10
702.4268051287598
 20
611.3604617129468
 30
0.0
 11
702.6569847918361
 21
611.0830115749263
 31
0.0
  0
LWPOLYLINE
  5
F11
330
1F
100
AcDbEntity
  8
HEWI
  6
CUSTOM
 62
    18
420
        0
370
     9
100
AcDbPolyline
 90
        3
 70
     0
 43
0.0
 10
676.2236958398679
 20
615.5047013680123
 10
676.3687317913553
 20
615.6835614505567
 10
676.8700192562918
 20
616.2429056491475
  0
LWPOLYLINE
  5
F12
330
1F
100
AcDbEntity
  8
HEWI
  6
CUSTOM
 62
    18
420
        0
370
     9
100
AcDbPolyline
 90
        3
 70
     0
 43
0.0
 10
674.6612742639334
 20
613.5384283179594
 10
675.4631984145252
 20
614.5668467817836
 10
676.0360218894255
 20
615.2732595915188
  0
LINE
  5
F13
330
1F
100
AcDbEntity
  8
HEWI
  6
CUSTOM
 62
    18
420
        0
370
     9
100
AcDbLine
 10
700.6829174367139
 20
613.5384283179594
 30
0.0
 11
701.6457676174448
 21
612.3176205050188
 31
0.0
  0
LWPOLYLINE
  5
F14
330
1F
100
AcDbEntity
  8
HEWI
  6
CUSTOM
 62
    18
420
        0
370
     9
100
AcDbPolyline
 90
       29
 70
     1
 43
0.0
 10
689.5376247750626
 20
593.3938786711407
 10
688.960575695988
 20
593.6761357594252
 10
688.3411869919435
 20
593.8522356932246
 10
687.4857869980241
 20
593.9099353602862
 10
686.6431902142665
 20
593.7643974215427
 10
685.8603963583371
 20
593.4257629810669
 10
685.1799298339573
 20
592.9127654515075
 10
684.6400027618491
 20
592.2551464176213
 10
684.268720091908
 20
591.4876957313488
 10
684.0878020614399
 20
590.6508323473271
 10
684.1102399827922
 20
589.7939296703703
 10
684.3333560530135
 20
588.9695474792545
 10
684.7427283322284
 20
588.2225367406944
 10
685.3163704976485
 20
587.5928508020224
 10
686.0217116022212
 20
587.1159116091218
 10
686.821316930187
 20
586.8171933685923
 10
687.6720958503227
 20
586.7149688285194
 10
688.324644792532
 20
586.7747395407377
 10
688.9524397315125
 20
586.9505880197636
 10
689.5376247750626
 20
587.236216535563
 10
690.0014795773948
 20
587.5704240751581
 10
690.407795418432
 20
587.9751744303566
 10
690.8204498714584
 20
588.5697072907801
 10
691.1071301495739
 20
589.2376946372521
 10
691.2533257902195
 20
589.9512042940825
 10
691.2534603535695
 20
590.6791881842236
 10
691.1066444609694
 20
591.3932406896003
 10
690.7807882359792
 20
592.1297710800188
 10
690.2387922778761
 20
592.8390874678723
  0
LWPOLYLINE
  5
F15
330
1F
100
AcDbEntity
  8
HEWI
  6
CUSTOM
 62
    18
420
        0
370
     9
100
AcDbPolyline
 90
        3
 70
     0
 43
0.0
 10
683.7562196299566
 20
579.5390380817545
 10
683.9687497673456
 20
579.4500055919777
 10
685.3473340266553
 20
578.9851714234898
  0
LWPOLYLINE
  5
F16
330
1F
100
AcDbEntity
  8
HEWI
  6
CUSTOM
 62
    18
420
        0
370
     9
100
AcDbPolyline
 90
        3
 70
     0
 43
0.0
 10
677.0948824744754
 20
586.8107107958419
 10
677.8132947894427
 20
585.0904409945705
 10
677.9864956416185
 20
584.7636432076217
  0
LWPOLYLINE
  5
F17
330
1F
100
AcDbEntity
  8
HEWI
  6
CUSTOM
 62
    18
420
        0
370
     9
100
AcDbPolyline
 90
        3
 70
     0
 43
0.0
 10
679.2151726898172
 20
582.9509741464017
 10
679.3960957319667
 20
582.7375200261014
 10
679.7174204539677
 20
582.4430801602877
  0
LWPOLYLINE
  5
F18
330
1F
100
AcDbEntity
  8
HEWI
  6
CUSTOM
 62
    18
420
        0
370
     9
100
AcDbPolyline
 90
        3
 70
     0
 43
0.0
 10
680.7645375138417
 20
581.3841915051266
 10
681.4868322299989
 20
580.8217129568709
 10
682.3955362708474
 20
580.2295191725063
  0
LWPOLYLINE
  5
F19
330
1F
100
AcDbEntity
  8
HEWI
  6
CUSTOM
 62
    18
420
        0
370
     9
100
AcDbPolyline
 90
        3
 70
     0
 43
0.0
 10
697.0267467181892
 20
579.2658460055215
 10
697.5090695570742
 20
579.3691003237192
 10
697.6009027215877
 20
579.4035942319162
  0
LWPOLYLINE
  5
F1A
330
1F
100
AcDbEntity
  8
HEWI
  6
CUSTOM
 62
    18
420
        0
370
     9
100
AcDbPolyline
 90
        3
 70
     0
 43
0.0
 10
697.6009027215877
 20
579.4035942319162
 10
697.951453138903
 20
579.587259768138
 10
698.1129115698003
 20
579.7054219199094
  0
LWPOLYLINE
  5
F1B
330
1F
100
AcDbEntity
  8
HEWI
  6
CUSTOM
 62
    18
420
        0
370
     9
100
AcDbPolyline
 90
        3
 70
     0
 43
0.0
 10
698.1129115698003
 20
579.7054219199094
 10
698.326989836103
 20
579.9070549650452
 10
698.46224120262
 20
580.0714227202911
  0
LWPOLYLINE
  5
F1C
330
1F
100
AcDbEntity
  8
HEWI
  6
CUSTOM
 62
    18
420
        0
370
     9
100
AcDbPolyline
 90
        3
 70
     0
 43
0.0
 10
685.3473340266553
 20
578.9851714234898
 10
686.7032488210278
 20
578.6989991816972
 10
687.4175482539302
 20
578.6154443161526
  0
LWPOLYLINE
  5
F1D
330
1F
100
AcDbEntity
  8
HEWI
  6
CUSTOM
 62
    18
420
        0
370
     9
100
AcDbPolyline
 90
       12
 70
     0
 43
0.0
 10
677.0948824744754
 20
586.8107107958419
 10
676.8268189046174
 20
587.7490799883489
 10
676.6486320529565
 20
588.6371442119998
 10
676.4917565665381
 20
590.5649686998597
 10
676.4917565665363
 20
603.5649682654236
 10
674.4123724792788
 20
603.5649682654236
 10
673.113665036415
 20
603.5649682654236
 10
672.6720966602896
 20
603.5649682654236
 10
672.687206908813
 20
611.0830115749263
 10
672.9747213706231
 20
611.4295709800715
 10
673.6719514135692
 20
612.2840555303585
 10
674.6612742639334
 20
613.5384283179594
  0
LWPOLYLINE
  5
F1E
330
1F
100
AcDbEntity
  8
HEWI
  6
CUSTOM
 62
    18
420
        0
370
     9
100
AcDbPolyline
 90
        5
 70
     0
 43
0.0
 10
697.0267467181892
 20
579.2658460055215
 10
694.7380180686703
 20
579.0656081906804
 10
692.2135725234383
 20
578.8447478192394
 10
689.5376247750626
 20
578.6106327222505
 10
687.4175482539302
 20
578.6154443161526
  0
LINE
  5
F1F
330
1F
100
AcDbEntity
  8
HEWI
  6
CUSTOM
 62
    18
420
        0
370
     9
100
AcDbLine
 10
1159.432811561038
 20
611.120951461779
 30
-0.0000000000000152
 11
1159.91583827084
 21
611.242812899744
 31
-0.0000000000000152
  0
LWPOLYLINE
  5
F20
330
1F
100
AcDbEntity
  8
HEWI
  6
CUSTOM
 62
    18
420
        0
370
     9
100
AcDbPolyline
 90
       32
 70
     1
 43
0.0
 10
1166.81882744646
 20
574.1358427136893
 10
1163.900192906053
 20
573.9535137077429
 10
1149.467245268671
 20
573.9535137077429
 10
1146.548610728266
 20
574.1358427136893
 10
1144.210823933035
 20
574.3734057649895
 10
1142.587864524891
 20
574.6525880133559
 10
1141.772745057758
 20
574.9573893950781
 10
1141.794164987291
 20
578.2987463098571
 10
1141.794164987291
 20
578.029461184631
 10
1142.667991162761
 20
577.7220466089881
 10
1144.364361105926
 20
577.4419666827165
 10
1146.78371962194
 20
577.2056585112633
 10
1146.78371962194
 20
595.5530318435799
 10
1146.78371962194
 20
598.1195739272251
 10
1146.78371962194
 20
600.2634479175554
 10
1146.78371962194
 20
601.8767988006365
 10
1146.78371962194
 20
602.8784613667768
 10
1146.78371962194
 20
603.2180435078038
 10
1166.583718552784
 20
603.2180435078038
 10
1166.583718552784
 20
602.8784613667768
 10
1166.583718552784
 20
601.8767988006365
 10
1166.583718552784
 20
600.2634479175554
 10
1166.583718552784
 20
598.1195739272251
 10
1166.583718552784
 20
595.5530318435799
 10
1166.583718552784
 20
577.2056585112633
 10
1169.0030770688
 20
577.4419666827165
 10
1170.699447011965
 20
577.7220466089881
 10
1171.573273187435
 20
578.029461184631
 10
1171.573321935467
 20
578.3384568374875
 10
1171.59469311697
 20
574.9573893950781
 10
1170.779573649835
 20
574.6525880133559
 10
1169.156614241693
 20
574.3734057649895
  0
LINE
  5
F21
330
1F
100
AcDbEntity
  8
HEWI
  6
CUSTOM
 62
    18
420
        0
370
     9
100
AcDbLine
 10
1171.483718287941
 20
592.6791681950188
 30
-0.0000000000000152
 11
1171.540212813362
 21
592.9782541603323
 31
-0.0000000000000152
  0
LWPOLYLINE
  5
F22
330
1F
100
AcDbEntity
  8
HEWI
  6
CUSTOM
 62
    18
420
        0
370
     9
100
AcDbPolyline
 90
       26
 70
     0
 43
0.0
 10
1149.219236697528
 20
613.2659912683303
 10
1148.009519883081
 20
614.2944097321546
 10
1146.98868533226
 20
615.4111244009276
 10
1145.474148497461
 20
617.7785321094671
 10
1144.596597145094
 20
620.1063939062504
 10
1144.287506404765
 20
621.7245079794046
 10
1144.18531986466
 20
623.0925305541147
 10
1143.999965254439
 20
623.0925305541147
 10
1142.959534106202
 20
620.1063939062504
 10
1141.785673814999
 20
613.2659912683303
 10
1141.685611089707
 20
595.1874833865351
 10
1141.744416510364
 20
595.020932918108
 10
1141.869506346479
 20
594.6330922881007
 10
1142.039102591293
 20
594.0433803184679
 10
1142.229070776662
 20
593.2724578634102
 10
1142.402613743591
 20
592.3556083813056
 10
1142.532533429689
 20
591.3352611190786
 10
1142.593728980118
 20
590.2535915595279
 10
1142.56532893147
 20
589.159265429503
 10
1142.458406130453
 20
588.1087891196431
 10
1142.298602614133
 20
587.1470962829634
 10
1142.111720921051
 20
586.3187254552298
 10
1141.931480366114
 20
585.6592183048199
 10
1141.786485165413
 20
585.1905867517736
 10
1141.711284423494
 20
584.9688794687125
 10
1141.683719897329
 20
584.8925318306887
  0
LWPOLYLINE
  5
F23
330
1F
100
AcDbEntity
  8
HEWI
  6
CUSTOM
 62
    18
420
        0
370
     9
100
AcDbPolyline
 90
       21
 70
     0
 43
0.0
 10
1168.77084102963
 20
620.1063939062504
 10
1169.079744769954
 20
621.7220045163177
 10
1169.182118310065
 20
623.0925305541147
 10
1169.367472920286
 20
623.0925305541147
 10
1170.407904068524
 20
620.1063939062504
 10
1171.592676117981
 20
613.2659912683303
 10
1171.682469068542
 20
593.6374983106571
 10
1171.64823382618
 20
593.4919603719136
 10
1171.573883065618
 20
593.1533259314379
 10
1171.475222064336
 20
592.6403284018785
 10
1171.374068515045
 20
591.9827093679922
 10
1171.292560557334
 20
591.2152586817198
 10
1171.249186606997
 20
590.3783952976981
 10
1171.25474225547
 20
589.5214926207412
 10
1171.30746938187
 20
588.6971104296255
 10
1171.394890708935
 20
587.9500996910654
 10
1171.497570898357
 20
587.3204137523933
 10
1171.592547500631
 20
586.8434745594928
 10
1171.659468243889
 20
586.5447563189633
 10
1171.683718277395
 20
586.4425317788904
 10
1171.678949992237
 20
578.3430072665236
  0
LINE
  5
F24
330
1F
100
AcDbEntity
  8
HEWI
  6
CUSTOM
 62
    18
420
        0
370
     9
100
AcDbLine
 10
1157.422807762962
 20
610.8220129883742
 30
-0.0000000000000152
 11
1157.410805692897
 21
610.8212151520935
 31
-0.0000000000000152
  0
LINE
  5
F25
330
1F
100
AcDbEntity
  8
HEWI
  6
CUSTOM
 62
    18
420
        0
370
     9
100
AcDbLine
 10
1166.843731510708
 20
616.1379433585181
 30
-0.0000000000000152
 11
1167.79576006892
 21
617.6260813130924
 31
-0.0000000000000152
  0
LINE
  5
F26
330
1F
100
AcDbEntity
  8
HEWI
  6
CUSTOM
 62
    18
420
        0
370
     9
100
AcDbLine
 10
1145.371287016161
 20
618.0513905698013
 30
-0.0000000000000152
 11
1145.571678127423
 21
617.6260812784497
 31
-0.0000000000000152
  0
LINE
  5
F27
330
1F
100
AcDbEntity
  8
HEWI
  6
CUSTOM
 62
    18
420
        0
370
     9
100
AcDbLine
 10
1152.219802016781
 20
611.6830310772192
 30
-0.0000000000000152
 11
1153.45159984503
 21
611.2428129206726
 31
-0.0000000000000152
  0
LINE
  5
F28
330
1F
100
AcDbEntity
  8
HEWI
  6
CUSTOM
 62
    18
420
        0
370
     9
100
AcDbLine
 10
1154.399205090645
 20
611.0057403211071
 30
-0.0000000000000152
 11
1154.355391045904
 21
611.0147979969386
 31
-0.0000000000000152
  0
LINE
  5
F29
330
1F
100
AcDbEntity
  8
HEWI
  6
CUSTOM
 62
    18
420
        0
370
     9
100
AcDbLine
 10
1153.934626597374
 20
611.1209514651849
 30
-0.0000000000000152
 11
1155.965790122456
 21
610.8188660025927
 31
-0.0000000000000152
  0
LINE
  5
F2A
330
1F
100
AcDbEntity
  8
HEWI
  6
CUSTOM
 62
    18
420
        0
370
     9
100
AcDbLine
 10
1142.141131730662
 20
586.449091656963
 30
-0.0000000000000152
 11
1142.047551011997
 21
586.0839252795122
 31
-0.0000000000000152
  0
LINE
  5
F2B
330
1F
100
AcDbEntity
  8
HEWI
  6
CUSTOM
 62
    18
420
        0
370
     9
100
AcDbLine
 10
1141.962570589051
 20
585.7729786312496
 30
-0.0000000000000152
 11
1141.878280979982
 21
585.4872752967052
 31
-0.0000000000000152
  0
LINE
  5
F2C
330
1F
100
AcDbEntity
  8
HEWI
  6
CUSTOM
 62
    18
420
        0
370
     9
100
AcDbLine
 10
1142.361917749361
 20
592.5706104754559
 30
-0.0000000000000152
 11
1142.433719857897
 21
592.1023552329805
 31
-0.0000000000000152
  0
LINE
  5
F2D
330
1F
100
AcDbEntity
  8
HEWI
  6
CUSTOM
 62
    18
420
        0
370
     9
100
AcDbLine
 10
1152.844074627511
 20
611.3977451271497
 30
-0.0000000000000152
 11
1152.871490698789
 21
611.389167005112
 31
-0.0000000000000152
  0
LINE
  5
F2E
330
1F
100
AcDbEntity
  8
HEWI
  6
CUSTOM
 62
    18
420
        0
370
     9
100
AcDbLine
 10
1156.683719080912
 20
610.8120476523652
 30
-0.0000000000000152
 11
1157.249386665319
 21
610.8133060743672
 31
-0.0000000000000152
  0
LINE
  5
F2F
330
1F
100
AcDbEntity
  8
HEWI
  6
CUSTOM
 62
    18
420
        0
370
     9
100
AcDbLine
 10
1171.642673003923
 20
593.4666333151157
 30
-0.0000000000000152
 11
1171.663048769989
 21
593.5549403959445
 31
-0.0000000000000152
  0
LINE
  5
F30
330
1F
100
AcDbEntity
  8
HEWI
  6
CUSTOM
 62
    18
420
        0
370
     9
100
AcDbLine
 10
1171.666668123506
 20
586.514405664731
 30
-0.0000000000000152
 11
1171.652798570466
 21
586.5745281506989
 31
-0.0000000000000152
  0
LINE
  5
F31
330
1F
100
AcDbEntity
  8
HEWI
  6
CUSTOM
 62
    18
420
        0
370
     9
100
AcDbLine
 10
1142.433719858293
 20
587.9887703328724
 30
-0.0000000000000152
 11
1142.407438608544
 21
587.8020680757946
 31
-0.0000000000000152
  0
LINE
  5
F32
330
1F
100
AcDbEntity
  8
HEWI
  6
CUSTOM
 62
    18
420
        0
370
     9
100
AcDbLine
 10
1156.036644916035
 20
610.8134871769204
 30
-0.0000000000000152
 11
1155.85827005713
 21
610.8270282164586
 31
-0.0000000000000152
  0
LINE
  5
F33
330
1F
100
AcDbEntity
  8
HEWI
  6
CUSTOM
 62
    18
420
        0
370
     9
100
AcDbLine
 10
1146.523706678206
 20
616.1379433372047
 30
-0.0000000000000152
 11
1147.126756377481
 21
615.260085261908
 31
-0.0000000000000152
  0
LINE
  5
F34
330
1F
100
AcDbEntity
  8
HEWI
  6
CUSTOM
 62
    18
420
        0
370
     9
100
AcDbLine
 10
1142.328969144392
 20
587.3298411646081
 30
-0.0000000000000152
 11
1142.23884326226
 21
586.8822072885642
 31
-0.0000000000000152
  0
LINE
  5
F35
330
1F
100
AcDbEntity
  8
HEWI
  6
CUSTOM
 62
    18
420
        0
370
     9
100
AcDbLine
 10
1141.717852880564
 20
584.9882446336924
 30
-0.0000000000000152
 11
1141.683719897329
 21
584.8925318306887
 31
-0.0000000000000152
  0
LINE
  5
F36
330
1F
100
AcDbEntity
  8
HEWI
  6
CUSTOM
 62
    18
420
        0
370
     9
100
AcDbLine
 10
1168.77084102963
 20
620.1063939062504
 30
-0.0000000000000152
 11
1169.07993175829
 21
621.7245078950845
 31
-0.0000000000000152
  0
LINE
  5
F37
330
1F
100
AcDbEntity
  8
HEWI
  6
CUSTOM
 62
    18
420
        0
370
     9
100
AcDbLine
 10
1141.834538624474
 20
594.7415095965069
 30
-0.0000000000000152
 11
1141.91218522922
 21
594.4846913129716
 31
-0.0000000000000152
  0
LINE
  5
F38
330
1F
100
AcDbEntity
  8
HEWI
  6
CUSTOM
 62
    18
420
        0
370
     9
100
AcDbLine
 10
1141.809396085259
 20
585.2646359608571
 30
-0.0000000000000152
 11
1141.740293339622
 21
585.0544037309695
 31
-0.0000000000000152
  0
LINE
  5
F39
330
1F
100
AcDbEntity
  8
HEWI
  6
CUSTOM
 62
    18
420
        0
370
     9
100
AcDbLine
 10
1159.645015762649
 20
611.1525116030501
 30
-0.0000000000000152
 11
1159.701206789386
 21
611.1661082039664
 31
-0.0000000000000152
  0
LINE
  5
F3A
330
1F
100
AcDbEntity
  8
HEWI
  6
CUSTOM
 62
    18
420
        0
370
     9
100
AcDbLine
 10
1141.99700166244
 20
594.1897716594668
 30
-0.0000000000000152
 11
1142.081763800296
 21
593.8702540451264
 31
-0.0000000000000152
  0
LINE
  5
F3B
330
1F
100
AcDbEntity
  8
HEWI
  6
CUSTOM
 62
    18
420
        0
370
     9
100
AcDbLine
 10
1147.308704139249
 20
615.0610483805727
 30
-0.0000000000000152
 11
1149.219236697528
 21
613.2659912683303
 31
-0.0000000000000152
  0
LINE
  5
F3C
330
1F
100
AcDbEntity
  8
HEWI
  6
CUSTOM
 62
    18
420
        0
370
     9
100
AcDbLine
 10
1166.058734001689
 20
615.0610483445344
 30
-0.0000000000000152
 11
1166.240681833685
 21
615.2600853116688
 31
-0.0000000000000152
  0
LINE
  5
F3D
330
1F
100
AcDbEntity
  8
HEWI
  6
CUSTOM
 62
    18
420
        0
370
     9
100
AcDbLine
 10
1157.200250524223
 20
610.8108985415912
 30
-0.0000000000000152
 11
1157.420704355102
 21
610.8217001589497
 31
-0.0000000000000152
  0
LINE
  5
F3E
330
1F
100
AcDbEntity
  8
HEWI
  6
CUSTOM
 62
    18
420
        0
370
     9
100
AcDbLine
 10
1164.148201477196
 20
613.2659912683303
 30
-0.0000000000000152
 11
1161.183804382364
 21
611.6959568101223
 31
-0.0000000000000152
  0
LINE
  5
F3F
330
1F
100
AcDbEntity
  8
HEWI
  6
CUSTOM
 62
    18
420
        0
370
     9
100
AcDbLine
 10
1154.379218723035
 20
611.008786580208
 30
-0.0000000000000152
 11
1154.394981290637
 21
611.0062576690771
 31
-0.0000000000000152
  0
LINE
  5
F40
330
1F
100
AcDbEntity
  8
HEWI
  6
CUSTOM
 62
    18
420
        0
370
     9
100
AcDbLine
 10
1167.996151152979
 20
618.0513905570498
 30
-0.0000000000000152
 11
1168.77084102963
 21
620.1063939062504
 31
-0.0000000000000152
  0
LINE
  5
F41
330
1F
100
AcDbEntity
  8
HEWI
  6
CUSTOM
 62
    18
420
        0
370
     9
100
AcDbLine
 10
1171.499680866508
 20
587.3098182321763
 30
-0.0000000000000152
 11
1171.492290253366
 21
587.3527972911291
 31
-0.0000000000000152
  0
LINE
  5
F42
330
1F
100
AcDbEntity
  8
HEWI
  6
CUSTOM
 62
    18
420
        0
370
     9
100
AcDbLine
 10
1142.182508517727
 20
593.4614152446009
 30
-0.0000000000000152
 11
1142.278130228565
 21
593.0132705651873
 31
-0.0000000000000152
  0
LINE
  5
F43
330
1F
100
AcDbEntity
  8
HEWI
  6
CUSTOM
 62
    18
420
        0
370
     9
100
AcDbLine
 10
1141.721404345574
 20
595.0861086583921
 30
-0.0000000000000152
 11
1141.772970949288
 21
594.9323999729405
 31
-0.0000000000000152
  0
LINE
  5
F44
330
1F
100
AcDbEntity
  8
HEWI
  6
CUSTOM
 62
    18
420
        0
370
     9
100
AcDbLine
 10
1171.610818179762
 20
586.7619186046253
 30
-0.0000000000000152
 11
1171.584507747225
 21
586.8838473825561
 31
-0.0000000000000152
  0
LINE
  5
F45
330
1F
100
AcDbEntity
  8
HEWI
  6
CUSTOM
 62
    18
420
        0
370
     9
100
AcDbLine
 10
1171.571788169834
 20
593.1424333157939
 30
-0.0000000000000152
 11
1171.588508824026
 21
593.2199397156302
 31
-0.0000000000000152
  0
LINE
  5
F46
330
1F
100
AcDbEntity
  8
HEWI
  6
CUSTOM
 62
    18
420
        0
370
     9
100
AcDbLine
 10
1152.5213856443
 20
611.5239294380232
 30
-0.0000000000000152
 11
1149.219236697528
 21
613.2659912683303
 31
-0.0000000000000152
  0
LWPOLYLINE
  5
F47
330
1F
100
AcDbEntity
  8
HEWI
  6
CUSTOM
 62
    18
420
        0
370
     9
100
AcDbPolyline
 90
       17
 70
     0
 43
0.0
 10
681.0679818771204
 20
574.6798857712017
 10
723.1467721375537
 20
93.71710235949763
 10
723.3619895379068
 20
93.53516748181005
 10
723.8102796432539
 20
93.57438778480583
 10
724.6808068624867
 20
93.65054904934778
 10
725.9229793178691
 20
93.75922505957396
 10
727.4646064614006
 20
93.89409996079256
 10
729.2160945270914
 20
94.04733531399484
 10
731.0756533949623
 20
94.21002563744082
 10
732.9352122628332
 20
94.37271596088704
 10
734.6867003285241
 20
94.52595131408884
 10
736.2283274720556
 20
94.66082621530778
 10
737.470499927438
 20
94.76950222553488
 10
738.3410271466726
 20
94.8456634900757
 10
738.7893172520179
 20
94.8848837930709
 10
738.9696723571558
 20
95.10142678130398
 10
696.8908820967206
 20
576.0642101930073
  0
LWPOLYLINE
  5
F48
330
1F
100
AcDbEntity
  8
HEWI
  6
CUSTOM
 62
    18
420
        0
370
     9
100
AcDbPolyline
 90
       36
 70
     0
 43
0.0
 10
1161.670093870661
 20
79.92039639475592
 10
1161.699471583942
 20
79.91833435293187
 10
1162.722265361731
 20
79.80135087262477
 10
1163.394120779279
 20
79.66643355817075
 10
1163.675992041811
 20
79.5214233134817
 10
1165.673784314508
 20
77.53722180253191
 10
1165.454169892456
 20
73.35716192403594
 10
1165.234555470403
 20
69.17710204553998
 10
1165.014941047596
 20
64.99704216708017
 10
1164.769222538408
 20
64.13803580385774
 10
1164.625263843128
 20
63.96842758925084
 10
1164.039290578809
 20
63.31350784970084
 10
1163.22622052175
 20
62.98888229709064
 10
1162.727396289977
 20
62.8556875091416
 10
1161.877335507063
 20
62.73676746324781
 10
1160.725440615862
 20
62.63903336021861
 10
1159.338655560488
 20
62.56816515087507
 10
1157.797575247595
 20
62.52828143794693
 10
1156.19176166337
 20
62.52170011785779
 10
1154.614538856435
 20
62.54880367301097
 10
1153.15756928336
 20
62.60801694329757
 10
1151.905526719863
 20
62.69589866867988
 10
1150.931175328736
 20
62.80734148271597
 10
1150.29114087122
 20
62.93586873413175
 10
1149.496702537947
 20
63.25390602060372
 10
1149.194811008702
 20
63.40921580327597
 10
1148.59821563632
 20
64.07176000844856
 10
1148.352497127132
 20
64.92875224976194
 10
1148.285126439881
 20
69.28638140148598
 10
1148.069422152287
 20
73.46924794374274
 10
1147.693653860216
 20
77.46353143466365
 10
1147.853717864692
 20
77.65211448599984
 10
1149.815940358617
 20
79.61078428951168
 10
1150.339564920677
 20
79.75060119908789
 10
1151.231888662841
 20
79.87543366107582
 10
1151.697344334286
 20
79.91492588636162
  0
LWPOLYLINE
  5
F49
330
1F
100
AcDbEntity
  8
HEWI
  6
CUSTOM
 62
    18
420
        0
370
     9
100
AcDbPolyline
 90
        9
 70
     0
 43
0.0
 10
1150.7359156188
 20
79.18881820971171
 10
1151.743339608412
 20
79.07359267059667
 10
1153.03788049579
 20
78.98272795874357
 10
1154.544304270027
 20
78.92150480092482
 10
1156.17506305699
 20
78.89348126453569
 10
1157.835383083549
 20
78.90028597564992
 10
1159.42877258478
 20
78.94152346919179
 10
1160.862629554603
 20
79.01479717192876
 10
1162.053623437793
 20
79.11584868259581
  0
LINE
  5
F4A
330
1F
100
AcDbEntity
  8
HEWI
  6
CUSTOM
 62
    18
420
        0
370
     9
100
AcDbLine
 10
1166.683718522889
 20
579.1602043969947
 30
-0.0000000000000152
 11
1166.583718552784
 21
579.169971783649
 31
-0.0000000000000152
  0
LINE
  5
F4B
330
1F
100
AcDbEntity
  8
HEWI
  6
CUSTOM
 62
    18
420
        0
370
     9
100
AcDbLine
 10
1146.78371962194
 20
579.169971783649
 30
-0.0000000000000152
 11
1146.683719624799
 21
579.1602043943538
 31
-0.0000000000000152
  0
LWPOLYLINE
  5
F4C
330
1F
100
AcDbEntity
  8
HEWI
  6
CUSTOM
 62
    18
420
        0
370
     9
100
AcDbPolyline
 90
       10
 70
     0
 43
0.0
 10
1166.683718547386
 20
590.2925316502306
 10
1166.683718547386
 20
587.4766429387199
 10
1166.683718547386
 20
584.8180039449415
 10
1166.683718547386
 20
582.4650829764724
 10
1166.683718547386
 20
580.5492759072418
 10
1166.683718547386
 20
579.1775685423487
 10
1166.683718547386
 20
578.4265621320681
 10
1166.683718547386
 20
578.3381956726215
 10
1171.567259577852
 20
578.3381956726215
 10
1171.678949992237
 20
578.3430072665236
  0
LWPOLYLINE
  5
F4D
330
1F
100
AcDbEntity
  8
HEWI
  6
CUSTOM
 62
    18
420
        0
370
     9
100
AcDbPolyline
 90
        9
 70
     0
 43
0.0
 10
1141.694122646436
 20
578.2979391595983
 10
1146.68371962734
 20
578.3381956726215
 10
1146.68371962734
 20
578.4265621320681
 10
1146.68371962734
 20
579.1775685423487
 10
1146.68371962734
 20
580.5492759072418
 10
1146.68371962734
 20
582.4650829764724
 10
1146.68371962734
 20
584.8180039449415
 10
1146.68371962734
 20
587.4766429387199
 10
1146.68371962734
 20
590.2925316502306
  0
LWPOLYLINE
  5
F4E
330
1F
100
AcDbEntity
  8
HEWI
  6
CUSTOM
 62
    18
420
        0
370
     9
100
AcDbPolyline
 90
        8
 70
     0
 43
0.0
 10
1171.678949992237
 20
578.3430072665236
 10
1171.501473964115
 20
578.7127343738608
 10
1171.163219277104
 20
579.2666010321255
 10
1170.72365334796
 20
579.9570821228773
 10
1169.998273343272
 20
581.1117544554975
 10
1169.071682030578
 20
582.6785370967725
 10
1168.137082395461
 20
584.4912061579926
 10
1167.320811061461
 20
586.5382737462129
  0
LWPOLYLINE
  5
F4F
330
1F
100
AcDbEntity
  8
HEWI
  6
CUSTOM
 62
    18
420
        0
370
     9
100
AcDbPolyline
 90
        9
 70
     0
 43
0.0
 10
1166.683718547386
 20
590.2925316502306
 10
1166.683718547386
 20
603.2925312157946
 10
1163.696543897978
 20
603.2925312157946
 10
1160.296483671117
 20
603.2925312157946
 10
1156.683719087362
 20
603.2925312157946
 10
1153.070954503609
 20
603.2925312157946
 10
1149.67089427675
 20
603.2925312157946
 10
1146.68371962734
 20
603.2925312157946
 10
1146.68371962734
 20
590.2925316502306
  0
LWPOLYLINE
  5
F50
330
1F
100
AcDbEntity
  8
HEWI
  6
CUSTOM
 62
    18
420
        0
370
     9
100
AcDbPolyline
 90
        9
 70
     0
 43
0.0
 10
1146.048100454019
 20
586.5417949720266
 10
1145.475059093328
 20
585.0364224839016
 10
1144.693913954451
 20
583.4099767276874
 10
1143.781924913225
 20
581.7927313432838
 10
1142.938100831338
 20
580.4208073290036
 10
1142.253408828218
 20
579.3444370557209
 10
1141.896035239432
 20
578.7645585369412
 10
1141.709800850121
 20
578.4096556404636
 10
1141.694122646436
 20
578.2979391595983
  0
LINE
  5
F51
330
1F
100
AcDbEntity
  8
HEWI
  6
CUSTOM
 62
    18
420
        0
370
     9
100
AcDbLine
 10
1166.85909441761
 20
588.3647071623707
 30
-0.0000000000000152
 11
1166.683718547386
 21
590.2925316502306
 31
-0.0000000000000152
  0
LINE
  5
F52
330
1F
100
AcDbEntity
  8
HEWI
  6
CUSTOM
 62
    18
420
        0
370
     9
100
AcDbLine
 10
1146.68371962734
 20
590.2925316502306
 30
-0.0000000000000152
 11
1146.509033768724
 21
588.3655382878945
 31
-0.0000000000000152
  0
LINE
  5
F53
330
1F
100
AcDbEntity
  8
HEWI
  6
CUSTOM
 62
    18
420
        0
370
     9
100
AcDbLine
 10
688.974421386374
 20
586.9613172539122
 30
0.0
 11
688.2300581300368
 21
586.7660758051336
 31
0.0
  0
LINE
  5
F54
330
1F
100
AcDbEntity
  8
HEWI
  6
CUSTOM
 62
    18
420
        0
370
     9
100
AcDbLine
 10
672.9173865698193
 20
611.3604617104426
 30
0.0
 11
673.0137077598755
 21
611.4773504291981
 31
0.0
  0
LINE
  5
F55
330
1F
100
AcDbEntity
  8
HEWI
  6
CUSTOM
 62
    18
420
        0
370
     9
100
AcDbLine
 10
686.4439233402007
 20
593.6781951281286
 30
0.0
 11
686.8502082741486
 21
593.8001547155509
 31
0.0
  0
LINE
  5
F56
330
1F
100
AcDbEntity
  8
HEWI
  6
CUSTOM
 62
    18
420
        0
370
     9
100
AcDbLine
 10
687.0644425426197
 20
586.787980839531
 30
0.0
 11
686.6494894118003
 21
586.8813850565068
 31
0.0
  0
LINE
  5
F57
330
1F
100
AcDbEntity
  8
HEWI
  6
CUSTOM
 62
    18
420
        0
370
     9
100
AcDbLine
 10
688.011301190856
 20
586.7460385969995
 30
0.0
 11
687.4897238268093
 21
586.7368815638815
 31
0.0
  0
LINE
  5
F58
330
1F
100
AcDbEntity
  8
HEWI
  6
CUSTOM
 62
    18
420
        0
370
     9
100
AcDbLine
 10
690.1845911321542
 20
592.8819735386898
 30
0.0
 11
690.3550966191377
 21
592.6868786304887
 31
0.0
  0
LINE
  5
F59
330
1F
100
AcDbEntity
  8
HEWI
  6
CUSTOM
 62
    18
420
        0
370
     9
100
AcDbLine
 10
684.4454979422224
 20
588.7649141892182
 30
0.0
 11
684.2824782835304
 21
589.1575336014049
 31
0.0
  0
LINE
  5
F5A
330
1F
100
AcDbEntity
  8
HEWI
  6
CUSTOM
 62
    18
420
        0
370
     9
100
AcDbLine
 10
685.6832204877244
 20
593.2921917016763
 30
0.0
 11
686.0526144645318
 21
593.508915996191
 31
0.0
  0
LINE
  5
F5B
330
1F
100
AcDbEntity
  8
HEWI
  6
CUSTOM
 62
    18
420
        0
370
     9
100
AcDbLine
 10
686.2488794861873
 20
587.0310457519154
 30
0.0
 11
685.8675731245074
 21
587.2201373253949
 31
0.0
  0
LINE
  5
F5C
330
1F
100
AcDbEntity
  8
HEWI
  6
CUSTOM
 62
    18
420
        0
370
     9
100
AcDbLine
 10
689.6710864660743
 20
587.3323757282666
 30
0.0
 11
689.0785126358585
 21
587.0121241397407
 31
0.0
  0
LINE
  5
F5D
330
1F
100
AcDbEntity
  8
HEWI
  6
CUSTOM
 62
    18
420
        0
370
     9
100
AcDbLine
 10
690.8420006861669
 20
588.6199223646542
 30
0.0
 11
690.3940360526702
 21
587.9614680757572
 31
0.0
  0
LINE
  5
F5E
330
1F
100
AcDbEntity
  8
HEWI
  6
CUSTOM
 62
    18
420
        0
370
     9
100
AcDbLine
 10
685.5161772770587
 20
587.4577449891781
 30
0.0
 11
685.1879055267544
 21
587.733866559997
 31
0.0
  0
LINE
  5
F5F
330
1F
100
AcDbEntity
  8
HEWI
  6
CUSTOM
 62
    18
420
        0
370
     9
100
AcDbLine
 10
688.1254674239388
 20
593.8667867195438
 30
0.0
 11
688.6136287220759
 21
593.7747771133128
 31
0.0
  0
LWPOLYLINE
  5
F60
330
1F
100
AcDbEntity
  8
HEWI
  6
CUSTOM
 62
    18
420
        0
370
     9
100
AcDbPolyline
 90
       26
 70
     0
 43
0.0
 10
675.8779605038379
 20
595.8254688932091
 10
675.4214733104417
 20
594.758306588588
 10
675.0732898330223
 20
593.7075957595164
 10
675.0527587330488
 20
593.634906392162
 10
674.6749612497186
 20
591.8076519569383
 10
674.6225110996
 20
591.3644718384741
 10
674.5569070648961
 20
590.3406847955609
 10
674.5529000115001
 20
590.1076397673766
 10
674.6031940710381
 20
588.8138785208048
 10
675.8794723484078
 20
574.2259507573719
 10
677.9635023798017
 20
574.4082797633184
 10
680.6788604254833
 20
574.6458428146186
 10
683.8699280606432
 20
574.925025062985
 10
687.3538237239862
 20
575.2298264447071
 10
690.9308837445585
 20
575.5427786516998
 10
694.3961051590321
 20
575.8459462483122
 10
697.5508945262862
 20
576.1219545594395
 10
700.2144494093371
 20
576.3549854211809
 10
702.2341202465575
 20
576.531683727128
 10
703.4941587686516
 20
576.6419228156856
 10
703.9223515854372
 20
576.6793848337288
 10
701.5766227404473
 20
603.4904805574329
 10
701.1577334699794
 20
603.4904805574329
 10
699.9044638066479
 20
603.4904805574329
 10
698.9612175735036
 20
603.4904805574329
 10
698.852435146722
 20
603.4904805574329
  0
LINE
  5
F61
330
1F
100
AcDbEntity
  8
HEWI
  6
CUSTOM
 62
    18
420
        0
370
     9
100
AcDbLine
 10
684.9033751570585
 20
588.0461950214476
 30
0.0
 11
684.6497066952814
 21
588.3922799420607
 31
0.0
  0
LINE
  5
F62
330
1F
100
AcDbEntity
  8
HEWI
  6
CUSTOM
 62
    18
420
        0
370
     9
100
AcDbLine
 10
684.1705326807113
 20
589.5711567179894
 30
0.0
 11
684.1050741313501
 21
589.9912132695965
 31
0.0
  0
LINE
  5
F63
330
1F
100
AcDbEntity
  8
HEWI
  6
CUSTOM
 62
    18
420
        0
370
     9
100
AcDbLine
 10
690.345081259198
 20
587.9127019014126
 30
0.0
 11
689.8259275720865
 21
587.4439387986792
 31
0.0
  0
LINE
  5
F64
330
1F
100
AcDbEntity
  8
HEWI
  6
CUSTOM
 62
    18
420
        0
370
     9
100
AcDbLine
 10
684.2202205976954
 20
591.2633540759518
 30
0.0
 11
684.3555085507013
 21
591.667089671846
 31
0.0
  0
LINE
  5
F65
330
1F
100
AcDbEntity
  8
HEWI
  6
CUSTOM
 62
    18
420
        0
370
     9
100
AcDbLine
 10
690.7014699100781
 20
592.2335758915437
 30
0.0
 11
690.8570379170322
 21
591.9574244994487
 31
0.0
  0
LINE
  5
F66
330
1F
100
AcDbEntity
  8
HEWI
  6
CUSTOM
 62
    18
420
        0
370
     9
100
AcDbLine
 10
688.8366455903431
 20
593.7113706340362
 30
0.0
 11
689.5369683851821
 21
593.3941997367674
 31
0.0
  0
LINE
  5
F67
330
1F
100
AcDbEntity
  8
HEWI
  6
CUSTOM
 62
    18
420
        0
370
     9
100
AcDbLine
 10
685.0372046767915
 20
592.7389294187873
 30
0.0
 11
685.3454344819527
 21
593.0375379033846
 31
0.0
  0
LINE
  5
F68
330
1F
100
AcDbEntity
  8
HEWI
  6
CUSTOM
 62
    18
420
        0
370
     9
100
AcDbLine
 10
691.2156655095549
 20
590.863006857485
 30
0.0
 11
691.2534265444463
 21
590.4962793367126
 31
0.0
  0
LINE
  5
F69
330
1F
100
AcDbEntity
  8
HEWI
  6
CUSTOM
 62
    18
420
        0
370
     9
100
AcDbLine
 10
684.5412170146663
 20
592.0509537757971
 30
0.0
 11
684.7685446032754
 21
592.4117074918622
 31
0.0
  0
LINE
  5
F6A
330
1F
100
AcDbEntity
  8
HEWI
  6
CUSTOM
 62
    18
420
        0
370
     9
100
AcDbLine
 10
691.1333121294172
 20
589.3654761177515
 30
0.0
 11
690.9364913472399
 21
588.8400929582146
 31
0.0
  0
LINE
  5
F6B
330
1F
100
AcDbEntity
  8
HEWI
  6
CUSTOM
 62
    18
420
        0
370
     9
100
AcDbLine
 10
691.0367532461403
 20
591.5512152776471
 30
0.0
 11
691.1426490548418
 21
591.2181290682362
 31
0.0
  0
LINE
  5
F6C
330
1F
100
AcDbEntity
  8
HEWI
  6
CUSTOM
 62
    18
420
        0
370
     9
100
AcDbLine
 10
684.0938553641516
 20
590.419657092744
 30
0.0
 11
684.1298587785858
 21
590.8453719850087
 31
0.0
  0
LINE
  5
F6D
330
1F
100
AcDbEntity
  8
HEWI
  6
CUSTOM
 62
    18
420
        0
370
     9
100
AcDbLine
 10
687.27338868725
 20
593.8732487584529
 30
0.0
 11
687.697914593058
 21
593.8956266234669
 31
0.0
  0
LINE
  5
F6E
330
1F
100
AcDbEntity
  8
HEWI
  6
CUSTOM
 62
    18
420
        0
370
     9
100
AcDbLine
 10
691.2533641884091
 20
590.1589406802888
 30
0.0
 11
691.193191375456
 21
589.6577175205245
 31
0.0
  0
LWPOLYLINE
  5
F6F
330
1F
100
AcDbEntity
  8
HEWI
  6
CUSTOM
 62
    18
420
        0
370
     9
100
AcDbPolyline
 90
        3
 70
     0
 43
0.0
 10
699.1204958502692
 20
615.5047013792152
 10
699.1654918061339
 20
615.4533088310688
 10
699.3081697987926
 20
615.2732596067214
  0
LWPOLYLINE
  5
F70
330
1F
100
AcDbEntity
  8
HEWI
  6
CUSTOM
 62
    18
420
        0
370
     9
100
AcDbPolyline
 90
       10
 70
     0
 43
0.0
 10
674.6612742639334
 20
613.5384283179594
 10
676.1786998945134
 20
615.4533088310688
 10
678.0345110717806
 20
617.5729407722838
 10
679.4570257637205
 20
619.0029829666225
 10
681.0259069370439
 20
620.3788309558794
 10
683.1046488093942
 20
621.9944415659467
 10
685.3791651120699
 20
623.3649676037437
 10
686.9040442854819
 20
623.3649676037437
 10
688.4401474151653
 20
623.3649676037437
 10
689.9650265885774
 20
623.3649676037437
  0
LWPOLYLINE
  5
F71
330
1F
100
AcDbEntity
  8
HEWI
  6
CUSTOM
 62
    18
420
        0
370
     9
100
AcDbPolyline
 90
       12
 70
     0
 43
0.0
 10
702.6569847918361
 20
611.0830115749263
 10
702.6720950403577
 20
603.5649682654236
 10
702.2305266642323
 20
603.5649682654236
 10
700.9318192213704
 20
603.5649682654236
 10
698.852435134111
 20
603.5649682654236
 10
698.852435134111
 20
581.2582353351229
 10
698.8392395924473
 20
581.028879204907
 10
698.8009144869282
 20
580.8077225286399
 10
698.7916109371507
 20
580.7687486635723
 10
698.6898578816634
 20
580.4684086848058
 10
698.6128379294076
 20
580.3090346273481
 10
698.46224120262
 20
580.0714227202911
  0
LWPOLYLINE
  5
F72
330
1F
100
AcDbEntity
  8
HEWI
  6
CUSTOM
 62
    18
420
        0
370
     9
100
AcDbPolyline
 90
        3
 70
     0
 43
0.0
 10
694.3182847636034
 20
620.3788309558794
 10
695.8871659369268
 20
619.0029829666225
 10
696.6276838731354
 20
618.258546441333
  0
LWPOLYLINE
  5
F73
330
1F
100
AcDbEntity
  8
HEWI
  6
CUSTOM
 62
    18
420
        0
370
     9
100
AcDbPolyline
 90
        3
 70
     0
 43
0.0
 10
678.3120753814126
 20
617.8519738665873
 10
678.4904160989298
 20
618.0509691590962
 10
678.7165078230663
 20
618.2585464373398
  0
LWPOLYLINE
  5
F74
330
1F
100
AcDbEntity
  8
HEWI
  6
CUSTOM
 62
    18
420
        0
370
     9
100
AcDbPolyline
 90
        3
 70
     0
 43
0.0
 10
697.0321162881499
 20
617.8519738965978
 10
697.3096806288684
 20
617.5729407722838
 10
698.4741724933663
 20
616.2429055933207
  0
LWPOLYLINE
  5
F75
330
1F
100
AcDbEntity
  8
HEWI
  6
CUSTOM
 62
    18
420
        0
370
     9
100
AcDbPolyline
 90
       10
 70
     0
 43
0.0
 10
675.8779605038379
 20
595.8254688932091
 10
677.4831476428588
 20
577.4780955608924
 10
680.1841623465533
 20
577.7144037323455
 10
683.3854904869057
 20
577.9944836586171
 10
686.899255092825
 20
578.3018982342601
 10
690.5192431732102
 20
578.6186061599103
 10
694.0330077791275
 20
578.9260207355535
 10
697.2343359194818
 20
579.2061006618251
 10
699.9353506231763
 20
579.442408833278
 10
698.8524351852955
 20
591.8201891824549
  0
LWPOLYLINE
  5
F76
330
1F
100
AcDbEntity
  8
HEWI
  6
CUSTOM
 62
    18
420
        0
370
     9
100
AcDbPolyline
 90
        5
 70
     0
 43
0.0
 10
1142.433719856831
 20
587.9602278541711
 10
1142.433719856831
 20
589.0095402878552
 10
1142.433719856831
 20
590.2103202656866
 10
1142.433719856831
 20
591.4013489795601
 10
1142.433719856831
 20
592.1113109851042
  0
LINE
  5
F77
330
1F
100
AcDbEntity
  8
HEWI
  6
CUSTOM
 62
    18
420
        0
370
     9
100
AcDbLine
 10
1146.683719617716
 20
594.0273103177881
 30
-0.0000000000000152
 11
1146.78371963118
 21
594.0273103177881
 31
-0.0000000000000152
  0
LINE
  5
F78
330
1F
100
AcDbEntity
  8
HEWI
  6
CUSTOM
 62
    18
420
        0
370
     9
100
AcDbLine
 10
1166.583718666035
 20
588.0552216602499
 30
-0.0000000000000152
 11
1166.683718654675
 21
588.0552216602499
 31
-0.0000000000000152
  0
LWPOLYLINE
  5
F79
330
1F
100
AcDbEntity
  8
HEWI
  6
CUSTOM
 62
    18
420
        0
370
     9
100
AcDbPolyline
 90
       16
 70
     1
 43
0.0
 10
1171.483718288196
 20
590.8704586573647
 10
1171.483718288196
 20
591.6108834769833
 10
1171.483718288196
 20
592.2601613896437
 10
1171.483718288196
 20
592.6845053342255
 10
1171.483718288196
 20
592.2107042939423
 10
1171.483718288196
 20
591.5523375029571
 10
1171.483718288196
 20
590.8062262842175
 10
1171.483718288196
 20
590.0157319097535
 10
1171.483718288196
 20
589.2267950392787
 10
1171.483718288196
 20
588.4852658160361
 10
1171.483718288196
 20
587.8342392231307
 10
1171.483718288196
 20
587.4053648395064
 10
1171.483718288196
 20
587.8838637230447
 10
1171.483718288196
 20
588.5439291086546
 10
1171.483718288196
 20
589.2910878272672
 10
1171.483718288196
 20
590.0819177299691
  0
LINE
  5
F7A
330
1F
100
AcDbEntity
  8
HEWI
  6
CUSTOM
 62
    18
420
        0
370
     9
100
AcDbLine
 10
1166.683718480329
 20
592.0306851779415
 30
-0.0000000000000152
 11
1166.583718491692
 21
592.0306851779415
 31
-0.0000000000000152
  0
LINE
  5
F7B
330
1F
100
AcDbEntity
  8
HEWI
  6
CUSTOM
 62
    18
420
        0
370
     9
100
AcDbLine
 10
675.8779605038379
 20
595.8254688932091
 30
0.0
 11
676.4917565797603
 21
596.805928659428
 31
0.0
  0
LINE
  5
F7C
330
1F
100
AcDbEntity
  8
HEWI
  6
CUSTOM
 62
    18
420
        0
370
     9
100
AcDbLine
 10
1146.783719105889
 20
586.0577529993824
 30
-0.0000000000000152
 11
1146.683720143009
 21
586.0577529993824
 31
-0.0000000000000152
  0
LINE
  5
F7D
330
1F
100
AcDbEntity
  8
HEWI
  6
CUSTOM
 62
    18
420
        0
370
     9
100
AcDbLine
 10
688.6740731878725
 20
589.5590373703594
 30
0.0
 11
689.038836989166
 21
590.1463706857827
 31
0.0
  0
LWPOLYLINE
  5
F7E
330
1F
100
AcDbEntity
  8
HEWI
  6
CUSTOM
 62
    18
420
        0
370
     9
100
AcDbPolyline
 90
        3
 70
     0
 43
0.0
 10
689.038836989166
 20
590.1463706857827
 10
689.1147252968656
 20
590.2685640920488
 10
688.827740247725
 20
590.8047408854777
  0
LINE
  5
F7F
330
1F
100
AcDbEntity
  8
HEWI
  6
CUSTOM
 62
    18
420
        0
370
     9
100
AcDbLine
 10
688.827740247725
 20
590.8047408854777
 30
0.0
 11
688.5014765871946
 21
591.4143022679922
 31
0.0
  0
LWPOLYLINE
  5
F80
330
1F
100
AcDbEntity
  8
HEWI
  6
CUSTOM
 62
    18
420
        0
370
     9
100
AcDbPolyline
 90
        3
 70
     0
 43
0.0
 10
688.5014765871946
 20
591.4143022679922
 10
688.4335981492203
 20
591.5411201747954
 10
687.8257629101771
 20
591.5606722233326
  0
LWPOLYLINE
  5
F81
330
1F
100
AcDbEntity
  8
HEWI
  6
CUSTOM
 62
    18
420
        0
370
     9
100
AcDbPolyline
 90
        3
 70
     0
 43
0.0
 10
686.8427151134527
 20
589.2156351484361
 10
686.910593551427
 20
589.0888172416327
 10
687.518428790472
 20
589.069265193096
  0
LWPOLYLINE
  5
F82
330
1F
100
AcDbEntity
  8
HEWI
  6
CUSTOM
 62
    18
420
        0
370
     9
100
AcDbPolyline
 90
        3
 70
     0
 43
0.0
 10
688.209456252296
 20
589.0470371260043
 10
688.3532229979699
 20
589.0424126254674
 10
688.6740731878725
 20
589.5590373703594
  0
LINE
  5
F83
330
1F
100
AcDbEntity
  8
HEWI
  6
CUSTOM
 62
    18
420
        0
370
     9
100
AcDbLine
 10
687.518428790472
 20
589.069265193096
 30
0.0
 11
688.209456252296
 21
589.0470371260043
 31
0.0
  0
LINE
  5
F84
330
1F
100
AcDbEntity
  8
HEWI
  6
CUSTOM
 62
    18
420
        0
370
     9
100
AcDbLine
 10
727.3639364210374
 20
79.32990532283588
 30
0.0
 11
726.1001782200836
 21
93.77472795502489
 31
0.0
  0
LINE
  5
F85
330
1F
100
AcDbEntity
  8
HEWI
  6
CUSTOM
 62
    18
420
        0
370
     9
100
AcDbLine
 10
737.3148867707949
 20
80.20050068766591
 30
0.0
 11
736.0511285698429
 21
94.64532331985379
 31
0.0
  0
LINE
  5
F86
330
1F
100
AcDbEntity
  8
HEWI
  6
CUSTOM
 62
    18
420
        0
370
     9
100
AcDbLine
 10
685.3473340266553
 20
578.9851714234898
 30
0.0
 11
683.7562196299566
 21
579.5390380817545
 31
0.0
  0
LINE
  5
F87
330
1F
100
AcDbEntity
  8
HEWI
  6
CUSTOM
 62
    18
420
        0
370
     9
100
AcDbLine
 10
679.2151726898172
 20
582.9509741464017
 30
0.0
 11
677.9864956416185
 21
584.7636432076217
 31
0.0
  0
LINE
  5
F88
330
1F
100
AcDbEntity
  8
HEWI
  6
CUSTOM
 62
    18
420
        0
370
     9
100
AcDbLine
 10
687.4175482539302
 20
578.6154443161526
 30
0.0
 11
685.3473340266553
 21
578.9851714234898
 31
0.0
  0
LINE
  5
F89
330
1F
100
AcDbEntity
  8
HEWI
  6
CUSTOM
 62
    18
420
        0
370
     9
100
AcDbLine
 10
683.7562196299566
 20
579.5390380817545
 30
0.0
 11
682.3955362708474
 21
580.2295191725063
 31
0.0
  0
LINE
  5
F8A
330
1F
100
AcDbEntity
  8
HEWI
  6
CUSTOM
 62
    18
420
        0
370
     9
100
AcDbLine
 10
680.7645375138417
 20
581.3841915051266
 30
0.0
 11
679.2151726898172
 21
582.9509741464017
 31
0.0
  0
LINE
  5
F8B
330
1F
100
AcDbEntity
  8
HEWI
  6
CUSTOM
 62
    18
420
        0
370
     9
100
AcDbLine
 10
698.1129115698003
 20
579.7054219199094
 30
0.0
 11
697.6009027215877
 21
579.4035942319162
 31
0.0
  0
LINE
  5
F8C
330
1F
100
AcDbEntity
  8
HEWI
  6
CUSTOM
 62
    18
420
        0
370
     9
100
AcDbLine
 10
697.6009027215877
 20
579.4035942319162
 30
0.0
 11
697.0267467181892
 21
579.2658460055215
 31
0.0
  0
LINE
  5
F8D
330
1F
100
AcDbEntity
  8
HEWI
  6
CUSTOM
 62
    18
420
        0
370
     9
100
AcDbLine
 10
682.3955362708474
 20
580.2295191725063
 30
0.0
 11
680.7645375138417
 21
581.3841915051266
 31
0.0
  0
LINE
  5
F8E
330
1F
100
AcDbEntity
  8
HEWI
  6
CUSTOM
 62
    18
420
        0
370
     9
100
AcDbLine
 10
677.9864956416185
 20
584.7636432076217
 30
0.0
 11
677.0948824744754
 21
586.8107107958419
 31
0.0
  0
LWPOLYLINE
  5
F8F
330
1F
100
AcDbEntity
  8
HEWI
  6
CUSTOM
 62
    18
420
        0
370
     9
100
AcDbPolyline
 90
        3
 70
     0
 43
0.0
 10
1162.040924981503
 20
79.11477126480292
 10
1162.849421814578
 20
79.22787668667104
 10
1163.358317587929
 20
79.36376075126077
  0
LINE
  5
F90
330
1F
100
AcDbEntity
  8
HEWI
  6
CUSTOM
 62
    18
420
        0
370
     9
100
AcDbLine
 10
1149.944842899978
 20
79.42597263821994
 30
-0.0000000000000152
 11
1150.176551326246
 21
79.30676894470366
 31
-0.0000000000000152
  0
LINE
  5
F91
330
1F
100
AcDbEntity
  8
HEWI
  6
CUSTOM
 62
    18
420
        0
370
     9
100
AcDbLine
 10
1163.282382361832
 20
79.34348471810267
 30
-0.0000000000000152
 11
1163.350096112082
 21
79.42326321471762
 31
-0.0000000000000152
  0
LINE
  5
F92
330
1F
100
AcDbEntity
  8
HEWI
  6
CUSTOM
 62
    18
420
        0
370
     9
100
AcDbLine
 10
1150.162070845609
 20
79.30967681235983
 30
-0.0000000000000152
 11
1150.80097026523
 21
79.18137749133086
 31
-0.0000000000000152
  0
LWPOLYLINE
  5
F93
330
1F
100
AcDbEntity
  8
HEWI
  6
CUSTOM
 62
    18
420
        0
370
     9
100
AcDbPolyline
 90
       18
 70
     0
 43
0.0
 10
1148.683719519347
 20
574.0024606589243
 10
1148.683719519347
 20
94.13682752077193
 10
1148.883719508546
 20
93.93758858781177
 10
1149.110373320383
 20
93.77489826436578
 10
1149.777162460208
 20
93.62166291116352
 10
1150.845335566889
 20
93.48678800994491
 10
1152.25281430212
 20
93.37811199971872
 10
1153.917801117786
 20
93.30195073517677
 10
1155.743533032138
 20
93.26273043218099
 10
1157.623905142586
 20
93.26273043218099
 10
1159.449637056942
 20
93.30195073517677
 10
1161.114623872608
 20
93.37811199971872
 10
1162.522102607837
 20
93.48678800994491
 10
1163.590275714519
 20
93.62166291116352
 10
1164.257064854343
 20
93.77489826436578
 10
1164.48371866618
 20
93.93758858781177
 10
1164.683718655381
 20
94.13682752077193
 10
1164.683718655381
 20
574.0024610333522
  0
LINE
  5
F94
330
1F
100
AcDbEntity
  8
HEWI
  6
CUSTOM
 62
    18
420
        0
370
     9
100
AcDbLine
 10
686.6701185127748
 20
591.070900046069
 30
0.0
 11
686.3053547114812
 21
590.4835667306458
 31
0.0
  0
LWPOLYLINE
  5
F95
330
1F
100
AcDbEntity
  8
HEWI
  6
CUSTOM
 62
    18
420
        0
370
     9
100
AcDbPolyline
 90
        4
 70
     0
 43
0.0
 10
1150.683592576132
 20
79.20494845679854
 10
1150.792718789727
 20
79.23408706305281
 10
1151.621305121736
 20
79.35000292061284
 10
1151.69734434564
 20
79.35645457292991
  0
LINE
  5
F96
330
1F
100
AcDbEntity
  8
HEWI
  6
CUSTOM
 62
    18
420
        0
370
     9
100
AcDbLine
 10
1151.697344343024
 20
79.07885344579597
 30
-0.0000000000000152
 11
1151.697344343024
 21
93.42100216717255
 31
-0.0000000000000152
  0
LWPOLYLINE
  5
F97
330
1F
100
AcDbEntity
  8
HEWI
  6
CUSTOM
 62
    18
420
        0
370
     9
100
AcDbPolyline
 90
        9
 70
     0
 43
0.0
 10
1164.148201477196
 20
613.2659912683303
 10
1162.067074041218
 20
612.0116184807294
 10
1159.676095391965
 20
611.1571339304425
 10
1157.345897781778
 20
610.8105745252973
 10
1155.967568975017
 20
610.8136408478941
 10
1154.383827615001
 20
611.007623815824
 10
1152.85604842858
 20
611.3930628914946
 10
1151.423487466444
 20
611.9532515785723
 10
1150.277725467394
 20
612.5588437392511
  0
LWPOLYLINE
  5
F98
330
1F
100
AcDbEntity
  8
HEWI
  6
CUSTOM
 62
    18
420
        0
370
     9
100
AcDbPolyline
 90
        4
 70
     0
 43
0.0
 10
1168.316145801308
 20
618.7305459169935
 10
1167.642359099961
 20
617.3005037226547
 10
1166.18626563714
 20
615.1808717814398
 10
1164.148201477196
 20
613.2659912683303
  0
LWPOLYLINE
  5
F99
330
1F
100
AcDbEntity
  8
HEWI
  6
CUSTOM
 62
    18
420
        0
370
     9
100
AcDbPolyline
 90
        3
 70
     0
 43
0.0
 10
1161.670093825106
 20
79.35222198826489
 10
1162.290940627848
 20
79.28121175990861
 10
1162.676795823757
 20
79.20372701327858
  0
LWPOLYLINE
  5
F9A
330
1F
100
AcDbEntity
  8
HEWI
  6
CUSTOM
 62
    18
420
        0
370
     9
100
AcDbPolyline
 90
        3
 70
     0
 43
0.0
 10
687.1347354483512
 20
591.5829002904238
 10
686.9909687026791
 20
591.5875247909609
 10
686.6701185127748
 20
591.070900046069
  0
LWPOLYLINE
  5
F9B
330
1F
100
AcDbEntity
  8
HEWI
  6
CUSTOM
 62
    18
420
        0
370
     9
100
AcDbPolyline
 90
        3
 70
     0
 43
0.0
 10
686.3053547114812
 20
590.4835667306458
 10
686.2294664037817
 20
590.3613733243796
 10
686.5164514529241
 20
589.8251965309509
  0
LINE
  5
F9C
330
1F
100
AcDbEntity
  8
HEWI
  6
CUSTOM
 62
    18
420
        0
370
     9
100
AcDbLine
 10
1161.6700938317
 20
79.08330758243971
 30
-0.0000000000000152
 11
1161.6700938317
 21
93.42100196927162
 31
-0.0000000000000152
  0
LINE
  5
F9D
330
1F
100
AcDbEntity
  8
HEWI
  6
CUSTOM
 62
    18
420
        0
370
     9
100
AcDbLine
 10
686.5164514529241
 20
589.8251965309509
 30
0.0
 11
686.8427151134527
 21
589.2156351484361
 31
0.0
  0
LINE
  5
F9E
330
1F
100
AcDbEntity
  8
HEWI
  6
CUSTOM
 62
    18
420
        0
370
     9
100
AcDbLine
 10
1141.694122646436
 20
578.2979391595983
 30
-0.0000000000000152
 11
1141.683719897329
 21
584.8925318306887
 31
-0.0000000000000152
  0
LINE
  5
F9F
330
1F
100
AcDbEntity
  8
HEWI
  6
CUSTOM
 62
    18
420
        0
370
     9
100
AcDbLine
 10
687.8257629101771
 20
591.5606722233326
 30
0.0
 11
687.1347354483512
 21
591.5829002904238
 31
0.0
  0
LWPOLYLINE
  5
FA0
330
1F
100
AcDbEntity
  8
HEWI
  6
CUSTOM
 62
    18
420
        0
370
     9
100
AcDbPolyline
 90
       29
 70
     1
 43
0.0
 10
725.4640163076945
 20
79.16368384041402
 10
725.3850514803524
 20
79.15677531306187
 10
723.5724029232332
 20
76.99054950209904
 10
724.2555017378798
 20
72.83916470045483
 10
724.8370743459434
 20
68.67889750650078
 10
725.3245611677719
 20
64.51039887272407
 10
725.6440125761181
 20
63.67378059271072
 10
726.2955521706752
 20
63.06070360540911
 10
727.1484959732641
 20
62.79413716748684
 10
733.821059143267
 20
62.829893696216
 10
740.3984601414793
 20
63.95335884818678
 10
741.1921570359317
 20
64.36398768296498
 10
741.7273385806237
 20
65.08088931885402
 10
741.8966595675355
 20
65.96026964337579
 10
741.7494541195445
 20
70.15853904038704
 10
741.6022486708042
 20
74.35680843737066
 10
741.455043222062
 20
78.55507783435496
 10
739.2937717127769
 20
80.37363068259493
 10
738.9685744082343
 20
80.34517960445283
 10
738.2581142571051
 20
80.28302239406263
 10
737.203680620956
 20
80.19077140256092
 10
735.866553350006
 20
80.07378792225381
 10
734.3244414209838
 20
79.9388706077998
 10
732.6669667738569
 20
79.79386036311075
 10
730.9904558104407
 20
79.64718465651571
 10
729.3923412540587
 20
79.50736774693985
 10
727.9654997138185
 20
79.38253528495159
 10
726.7928540336814
 20
79.27994207949587
 10
725.9425541181825
 20
79.20555047476182
  0
LWPOLYLINE
  5
FA1
330
1F
100
AcDbEntity
  8
HEWI
  6
CUSTOM
 62
    18
420
        0
370
     9
100
AcDbPolyline
 90
        3
 70
     0
 43
0.0
 10
694.3182847636034
 20
620.3788309558794
 10
692.2341535487229
 20
621.9973728972442
 10
689.9650265885774
 20
623.3649676037437
  0
LWPOLYLINE
  5
FA2
330
1F
100
AcDbEntity
  8
HEWI
  6
CUSTOM
 62
    18
420
        0
370
     9
100
AcDbPolyline
 90
        5
 70
     0
 43
0.0
 10
700.6829174367139
 20
613.5384283179594
 10
699.8809932861221
 20
614.5668467817836
 10
698.9754599092901
 20
615.6835614505567
 10
696.8537756017193
 20
618.0509691590962
 10
694.3182847636034
 20
620.3788309558794
  0
LWPOLYLINE
  5
FA3
330
1F
100
AcDbEntity
  8
HEWI
  6
CUSTOM
 62
    18
420
        0
370
     9
100
AcDbPolyline
 90
        7
 70
     0
 43
0.0
 10
702.6569847918361
 20
611.0830115749263
 10
702.6544129610027
 20
611.0860778975231
 10
702.4930587877569
 20
611.2800608654531
 10
702.1754408785254
 20
611.6654999411236
 10
701.7192618586612
 20
612.2256886282014
 10
701.235125801082
 20
612.8312807888801
 10
700.6829174367139
 20
613.5384283179594
  0
LWPOLYLINE
  5
FA4
330
1F
100
AcDbEntity
  8
HEWI
  6
CUSTOM
 62
    18
420
        0
370
     9
100
AcDbPolyline
 90
        3
 70
     0
 43
0.0
 10
689.9650265885774
 20
623.3649676037437
 10
692.2395428912549
 20
621.9944415659467
 10
694.3182847636034
 20
620.3788309558794
  0
LINE
  5
FA5
330
1F
100
AcDbEntity
  8
HEWI
  6
CUSTOM
 62
    18
420
        0
370
     9
100
AcDbLine
 10
698.46224120262
 20
580.0714227202911
 30
0.0
 11
698.1129115698003
 21
579.7054219199094
 31
0.0
  0
ENDSEC
  0
SECTION
  2
OBJECTS
  0
DICTIONARY
  5
C
330
0
100
AcDbDictionary
281
     1
  3
ACAD_CIP_PREVIOUS_PRODUCT_INFO
350
738
  3
ACAD_COLOR
350
6DD
  3
ACAD_DETAILVIEWSTYLE
350
734
  3
ACAD_GROUP
350
D
  3
ACAD_LAYOUT
350
1A
  3
ACAD_MATERIAL
350
6D9
  3
ACAD_MLEADERSTYLE
350
6D3
  3
ACAD_MLINESTYLE
350
17
  3
ACAD_PLOTSETTINGS
350
19
  3
ACAD_PLOTSTYLENAME
350
E
  3
ACAD_SCALELIST
350
71F
  3
ACAD_SECTIONVIEWSTYLE
350
732
  3
ACAD_TABLESTYLE
350
6D2
  3
ACAD_VISUALSTYLE
350
2A
  3
ACDB_RECOMPOSE_DATA
350
FA7
  3
AcDbVariableDictionary
350
6E1
  0
DICTIONARY
  5
843
330
2
100
AcDbDictionary
280
     1
281
     1
  3
ACAD_LAYERSTATES
360
844
  0
DICTIONARY
  5
739
330
10
100
AcDbDictionary
280
     1
281
     1
  3
ADSK_XREC_LAYER_RECONCILED
360
73A
  0
DICTIONARY
  5
73B
330
42
100
AcDbDictionary
280
     1
281
     1
  3
ADSK_XREC_LAYER_RECONCILED
360
73C
  0
DICTIONARY
  5
73D
330
6BD
100
AcDbDictionary
280
     1
281
     1
  3
ADSK_XREC_LAYER_RECONCILED
360
73E
  0
DICTIONARY
  5
E3F
330
1F
100
AcDbDictionary
280
     1
281
     1
  3
ACAD_SORTENTS
360
E40
  0
XRECORD
  5
738
102
{ACAD_REACTORS
330
C
102
}
330
C
100
AcDbXrecord
280
     1
300
ACDLT
300
2021
300
ACDLT_F_S
  0
DICTIONARY
  5
6DD
102
{ACAD_REACTORS
330
C
102
}
330
C
100
AcDbDictionary
281
     1
  0
DICTIONARY
  5
734
102
{ACAD_REACTORS
330
C
102
}
330
C
100
AcDbDictionary
281
     1
  3
Imperial24
350
8CD
  3
Metric50
350
735
  0
DICTIONARY
  5
D
102
{ACAD_REACTORS
330
C
102
}
330
C
100
AcDbDictionary
281
     1
  0
DICTIONARY
  5
1A
102
{ACAD_REACTORS
330
C
102
}
330
C
100
AcDbDictionary
281
     1
  3
Layout1
350
1E
  3
Layout2
350
26
  3
Model
350
22
  0
DICTIONARY
  5
6D9
102
{ACAD_REACTORS
330
C
102
}
330
C
100
AcDbDictionary
281
     1
  3
ByBlock
350
6DB
  3
ByLayer
350
6DA
  3
Global
350
6DC
  0
DICTIONARY
  5
6D3
102
{ACAD_REACTORS
330
C
102
}
330
C
100
AcDbDictionary
281
     1
  3
Standard
350
731
  0
DICTIONARY
  5
17
102
{ACAD_REACTORS
330
C
102
}
330
C
100
AcDbDictionary
281
     1
  3
Standard
350
18
  0
DICTIONARY
  5
19
102
{ACAD_REACTORS
330
C
102
}
330
C
100
AcDbDictionary
281
     1
  0
ACDBDICTIONARYWDFLT
  5
E
102
{ACAD_REACTORS
330
C
102
}
330
C
100
AcDbDictionary
281
     1
  3
Normal
350
F
100
AcDbDictionaryWithDefault
340
F
  0
DICTIONARY
  5
71F
102
{ACAD_REACTORS
330
C
102
}
330
C
100
AcDbDictionary
281
     1
  3
A0
350
720
  3
A1
350
721
  3
A2
350
722
  3
A3
350
723
  3
A4
350
724
  3
A5
350
725
  3
A6
350
726
  3
A7
350
727
  3
A8
350
728
  3
A9
350
729
  3
B0
350
72A
  3
B1
350
72B
  3
B2
350
72C
  3
B3
350
72D
  3
B4
350
72E
  3
B5
350
72F
  3
B6
350
730
  0
DICTIONARY
  5
732
102
{ACAD_REACTORS
330
C
102
}
330
C
100
AcDbDictionary
281
     1
  3
Imperial24
350
8CC
  3
Metric50
350
733
  0
DICTIONARY
  5
6D2
102
{ACAD_REACTORS
330
C
102
}
330
C
100
AcDbDictionary
281
     1
  3
Standard
350
6DE
  0
DICTIONARY
  5
2A
102
{ACAD_REACTORS
330
C
102
}
330
C
100
AcDbDictionary
281
     1
  3
2dWireframe
350
2F
  3
3D Hidden
350
31
  3
3dWireframe
350
30
  3
Basic
350
32
  3
Brighten
350
36
  3
ColorChange
350
3A
  3
Conceptual
350
34
  3
Dim
350
35
  3
EdgeColorOff
350
71E
  3
Facepattern
350
39
  3
Flat
350
2B
  3
FlatWithEdges
350
2C
  3
Gouraud
350
2D
  3
GouraudWithEdges
350
2E
  3
Hidden
350
716
  3
JitterOff
350
71C
  3
Linepattern
350
38
  3
OverhangOff
350
71D
  3
Realistic
350
33
  3
Shaded
350
71B
  3
Shaded with edges
350
71A
  3
Shades of Gray
350
717
  3
Sketchy
350
718
  3
Thicken
350
37
  3
Wireframe
350
715
  3
X-Ray
350
719
  0
XRECORD
  5
FA7
102
{ACAD_REACTORS
330
C
102
}
330
C
100
AcDbXrecord
280
     1
 90
        1
330
6DE
  0
DICTIONARY
  5
6E1
102
{ACAD_REACTORS
330
C
102
}
330
C
100
AcDbDictionary
281
     1
  3
CANNOSCALE
350
8A3
  3
CMLEADERSTYLE
350
89F
  3
CTABLESTYLE
350
6E2
  3
CVIEWDETAILSTYLE
350
8A0
  3
CVIEWSECTIONSTYLE
350
8A1
  3
DIMASSOC
350
703
  3
INDEXCTL
350
702
  3
LAYEREVAL
350
8A5
  3
LAYERNOTIFY
350
8A6
  3
LIGHTINGUNITS
350
8A4
  3
MSLTSCALE
350
8A2
  3
SORTENTS
350
701
  0
DICTIONARY
  5
844
102
{ACAD_REACTORS
330
843
102
}
330
843
100
AcDbDictionary
281
     1
  0
XRECORD
  5
73A
102
{ACAD_REACTORS
330
739
102
}
330
739
100
AcDbXrecord
280
     1
290
     1
  0
XRECORD
  5
73C
102
{ACAD_REACTORS
330
73B
102
}
330
73B
100
AcDbXrecord
280
     1
290
     1
  0
XRECORD
  5
73E
102
{ACAD_REACTORS
330
73D
102
}
330
73D
100
AcDbXrecord
280
     1
290
     1
  0
SORTENTSTABLE
  5
E40
102
{ACAD_REACTORS
330
E3F
102
}
330
E3F
100
AcDbSortentsTable
330
1F
331
8EB
  5
9D6
331
9D6
  5
9D7
331
9D7
  5
9D8
331
9D8
  5
9D9
331
9D9
  5
9DA
331
9DA
  5
9DB
331
9DB
  5
9DC
331
9DC
  5
9DD
331
9DD
  5
9DE
331
9DE
  5
9DF
331
9DF
  5
9E0
331
9E0
  5
9E1
331
9E1
  5
9E2
331
9E2
  5
9E3
331
9E3
  5
9E4
331
9E4
  5
9E5
331
9E5
  5
9E6
331
9E6
  5
9E7
331
9E7
  5
9E8
331
9E8
  5
9E9
331
9E9
  5
9EA
331
9EA
  5
9EB
331
9EB
  5
9EC
331
9EC
  5
9ED
331
9ED
  5
9EE
331
9EE
  5
9EF
331
9EF
  5
9F0
331
9F0
  5
9F1
331
9F1
  5
9F2
331
9F2
  5
9F3
331
9F3
  5
9F4
331
9F4
  5
9F5
331
9F5
  5
9F6
331
9F6
  5
9F7
331
9F7
  5
9F8
331
9F8
  5
9F9
331
9F9
  5
9FA
331
9FA
  5
9FB
331
9FB
  5
9FC
331
9FC
  5
9FD
331
9FD
  5
9FE
331
9FE
  5
9FF
331
9FF
  5
A00
331
A00
  5
A01
331
A01
  5
A02
331
A02
  5
A03
331
A03
  5
A04
331
A04
  5
A05
331
A05
  5
A06
331
A06
  5
A07
331
A07
  5
A08
331
A08
  5
A09
331
A09
  5
A0A
331
A0A
  5
A0B
331
A0B
  5
A0C
331
A0C
  5
A0D
331
A0D
  5
A0E
331
A0E
  5
A0F
331
A0F
  5
A10
331
A10
  5
A11
331
A11
  5
A12
331
A12
  5
A13
331
A13
  5
A14
331
A14
  5
A15
331
A15
  5
A16
331
A16
  5
A17
331
A17
  5
A18
331
A18
  5
A19
331
A19
  5
A1A
331
A1A
  5
A1B
331
A1B
  5
A1C
331
A1C
  5
A1D
331
A1D
  5
A1E
331
A1E
  5
A1F
331
A1F
  5
A20
331
A20
  5
A21
331
A21
  5
A22
331
A22
  5
A23
331
A23
  5
A24
331
A24
  5
A25
331
A25
  5
A26
331
A26
  5
A27
331
A27
  5
A28
331
A28
  5
A29
331
A29
  5
A2A
331
A2A
  5
A2B
331
A2B
  5
A2C
331
A2C
  5
A2D
331
A2D
  5
A2E
331
A2E
  5
A2F
331
A2F
  5
A30
331
A30
  5
A31
331
A31
  5
A32
331
A32
  5
A33
331
A33
  5
A34
331
A34
  5
A35
331
A35
  5
A36
331
A36
  5
A37
331
A37
  5
A38
331
A38
  5
A39
331
A39
  5
A3A
331
A3A
  5
A3B
331
A3B
  5
A3C
331
A3C
  5
A3D
331
A3D
  5
A3E
331
A3E
  5
A3F
331
A3F
  5
A40
331
A40
  5
A41
331
A41
  5
A42
331
A42
  5
A43
331
A43
  5
A44
331
A44
  5
A45
331
A45
  5
A46
331
A46
  5
A47
331
A47
  5
A48
331
A48
  5
A49
331
A49
  5
A4A
331
A4A
  5
A4B
331
A4B
  5
A4C
331
A4C
  5
A4D
331
A4D
  5
A4E
331
A4E
  5
A4F
331
A4F
  5
A50
331
A50
  5
A51
331
A51
  5
A52
331
A52
  5
A53
331
A53
  5
A54
331
A54
  5
A55
331
A55
  5
A56
331
A56
  5
A57
331
A57
  5
A58
331
A58
  5
A59
331
A59
  5
A5A
331
A5A
  5
A5B
331
A5B
  5
A5C
331
A5C
  5
A5D
331
A5D
  5
A5E
331
A5E
  5
A5F
331
A5F
  5
A60
331
A60
  5
A61
331
A61
  5
A62
331
A62
  5
A63
331
A63
  5
A64
331
A64
  5
A65
331
A65
  5
A66
331
A66
  5
A67
331
A67
  5
A68
331
A68
  5
A69
331
A69
  5
A6A
331
A6A
  5
A6B
331
A6B
  5
A6C
331
A6C
  5
A6D
331
A6D
  5
A6E
331
A6E
  5
A6F
331
A6F
  5
A70
331
A70
  5
A71
331
A71
  5
A72
331
A72
  5
A73
331
A73
  5
A74
331
A74
  5
A75
331
A75
  5
A76
331
A76
  5
A77
331
A77
  5
A78
331
A78
  5
B29
331
B98
  5
B99
331
B99
  5
B9A
331
BA1
  5
BA2
331
BA2
  5
BA3
331
BA3
  5
BA4
331
BA4
  5
BA5
331
BA6
  5
BA7
331
BA7
  5
BA8
331
BAA
  5
BAB
331
BAB
  5
BAC
331
BAE
  5
BAF
331
BAF
  5
BB0
331
BB1
  5
BB2
331
BB2
  5
BB3
331
BB3
  5
BB4
331
BB5
  5
BB6
331
BB6
  5
BB7
331
BBA
  5
BBB
331
BBB
  5
BBC
331
BBC
  5
BBD
331
BBD
  5
BBE
331
BBE
  5
BBF
331
C58
  5
C59
331
C59
  5
C5A
331
C5A
  5
C5B
331
C5B
  5
C5C
331
C5C
  5
C5D
331
C5D
  5
C5E
331
C5E
  5
C5F
331
C5F
  5
C60
331
C60
  5
C61
331
C61
  5
C62
331
C62
  5
C63
331
C63
  5
C64
331
C64
  5
C65
331
C65
  5
C66
331
C66
  5
C67
331
C67
  5
C68
331
C68
  5
C69
331
C69
  5
C6A
331
C6A
  5
C6B
331
C6B
  5
C6C
331
C6C
  5
C6D
331
C6D
  5
C6E
331
C6E
  5
C6F
331
C6F
  5
C70
331
C70
  5
C71
331
C71
  5
C72
331
C72
  5
C73
331
C73
  5
C74
331
C74
  5
C75
331
C75
  5
C76
331
C76
  5
C77
331
C77
  5
C78
331
C78
  5
C79
331
C79
  5
C7A
331
C7A
  5
C7B
331
C7B
  5
C7C
331
C7C
  5
C7D
331
C7D
  5
C7E
331
C7E
  5
C7F
331
C7F
  5
C80
331
C80
  5
C81
331
C81
  5
C82
331
C82
  5
C83
331
C83
  5
C84
331
C84
  5
C85
331
C85
  5
C86
331
C86
  5
C87
331
C87
  5
C88
331
C88
  5
C89
331
C89
  5
C8A
331
C8A
  5
C8B
331
C8B
  5
C8C
331
C8C
  5
C8D
331
C8D
  5
C8E
331
C8E
  5
C8F
331
C8F
  5
C90
331
C90
  5
C91
331
C91
  5
C92
331
C92
  5
C93
331
C93
  5
C94
331
C94
  5
C95
331
C95
  5
C96
331
C96
  5
C97
331
C97
  5
C98
331
C98
  5
C99
331
C99
  5
C9A
331
C9A
  5
C9B
331
C9B
  5
C9C
331
C9C
  5
C9D
331
C9D
  5
C9E
331
C9E
  5
C9F
331
C9F
  5
CA0
331
CA0
  5
CA1
331
CA1
  5
CA2
331
CA2
  5
CA3
331
CA3
  5
CA4
331
CA4
  5
CA5
331
CA5
  5
CA6
331
CA6
  5
CA7
331
CA7
  5
CA8
331
CA8
  5
CA9
331
CA9
  5
CAA
331
CAA
  5
CAB
331
CAB
  5
CAC
331
CAC
  5
CAD
331
CAD
  5
CAE
331
CAE
  5
CAF
331
CAF
  5
CB0
331
CB0
  5
CB1
331
CB1
  5
CB2
331
CB2
  5
CB3
331
CB3
  5
CB4
331
CB4
  5
CB5
331
CB5
  5
CB6
331
CB6
  5
CB7
331
CB7
  5
CB8
331
CB8
  5
CB9
331
CB9
  5
CBA
331
CBA
  5
CBB
331
CBB
  5
CBC
331
CBC
  5
CBD
331
CBD
  5
CBE
331
CBE
  5
CBF
331
CBF
  5
CC0
331
CC0
  5
CC1
331
CC1
  5
CC2
331
CC2
  5
CC3
331
CC3
  5
CC4
331
CC4
  5
CC5
331
CC5
  5
CC6
331
CC6
  5
CC7
331
CC7
  5
CC8
331
CC8
  5
CC9
331
CC9
  5
CCA
331
CCA
  5
CCB
331
CCB
  5
CCC
331
CCC
  5
CCD
331
CCD
  5
CCE
331
CCE
  5
CCF
331
CCF
  5
CD0
331
CD0
  5
CD1
331
CD1
  5
CD2
331
CD2
  5
CD3
331
CD3
  5
CD4
331
CD4
  5
CD5
331
CD5
  5
CD6
331
CD6
  5
CD7
331
CD7
  5
CD8
331
CD8
  5
CD9
331
CD9
  5
CDA
331
CDA
  5
CDB
331
CDB
  5
D99
  0
ACDBDETAILVIEWSTYLE
  5
8CD
102
{ACAD_XDICTIONARY
360
FAE
102
}
102
{ACAD_REACTORS
330
734
102
}
330
734
100
AcDbModelDocViewStyle
 70
     0
  3
Imperial24
290
     0
100
AcDbDetailViewStyle
 70
     0
 71
     0
 90
        3
 71
     1
340
11
 62
   256
 40
0.24
340
0
 62
   256
 40
0.24
300

 40
0.36
280
     3
 71
     2
340
16
 90
       25
 62
   256
 71
     3
340
11
 62
   256
 40
0.24
 90
        1
 40
0.75
 90
        1
300
%<\AcVar ViewType \f "%tc1">% %<\AcVar ViewDetailId>%\PVARIA %<\AcVar ViewScale \f "%sn">%
 71
     4
340
16
 90
       25
 62
   256
340
16
 90
       25
 62
   256
280
     0
  0
ACDBDETAILVIEWSTYLE
  5
735
102
{ACAD_XDICTIONARY
360
FAA
102
}
102
{ACAD_REACTORS
330
734
102
}
330
734
100
AcDbModelDocViewStyle
 70
     0
  3
Metric50
290
     0
100
AcDbDetailViewStyle
 70
     0
 71
     0
 90
        3
 71
     1
340
11
 62
   256
 40
5.0
340
0
 62
   256
 40
5.0
300

 40
0.0
280
     1
 71
     2
340
16
 90
       25
 62
   256
 71
     3
340
11
 62
   256
 40
5.0
 90
        0
 40
15.0
 90
        1
300
%<\AcVar ViewDetailId>% (%<\AcVar ViewScale \f "%sn">%)
 71
     4
340
16
 90
       25
 62
   256
340
16
 90
       25
 62
   256
280
     0
  0
LAYOUT
  5
1E
102
{ACAD_REACTORS
330
1A
102
}
330
1A
100
AcDbPlotSettings
  1

  2
none_device
  4

  6

 40
0.0
 41
0.0
 42
0.0
 43
0.0
 44
0.0
 45
0.0
 46
0.0
 47
0.0
 48
0.0
 49
0.0
140
0.0
141
0.0
142
1.0
143
1.0
 70
   688
 72
     0
 73
     0
 74
     5
  7

 75
    16
147
1.0
 76
     0
 77
     2
 78
   300
148
0.0
149
0.0
100
AcDbLayout
  1
Layout1
 70
     1
 71
     1
 10
-0.5
 20
-0.5
 11
5.0
 21
5.0
 12
0.0
 22
0.0
 32
0.0
 14
-0.5
 24
-0.5
 34
-0.5
 15
5.0
 25
5.0
 35
5.0
146
0.0
 13
0.0
 23
0.0
 33
0.0
 16
1.0
 26
0.0
 36
0.0
 17
0.0
 27
1.0
 37
0.0
 76
     0
330
1B
  0
LAYOUT
  5
26
102
{ACAD_REACTORS
330
1A
102
}
330
1A
100
AcDbPlotSettings
  1

  2
none_device
  4

  6

 40
0.0
 41
0.0
 42
0.0
 43
0.0
 44
0.0
 45
0.0
 46
0.0
 47
0.0
 48
0.0
 49
0.0
140
0.0
141
0.0
142
1.0
143
1.0
 70
   688
 72
     0
 73
     0
 74
     5
  7

 75
    16
147
1.0
 76
     0
 77
     2
 78
   300
148
0.0
149
0.0
100
AcDbLayout
  1
Layout2
 70
     1
 71
     2
 10
0.0
 20
0.0
 11
0.0
 21
0.0
 12
0.0
 22
0.0
 32
0.0
 14
0.0
 24
0.0
 34
0.0
 15
0.0
 25
0.0
 35
0.0
146
0.0
 13
0.0
 23
0.0
 33
0.0
 16
1.0
 26
0.0
 36
0.0
 17
0.0
 27
1.0
 37
0.0
 76
     0
330
23
  0
LAYOUT
  5
22
102
{ACAD_REACTORS
330
1A
102
}
330
1A
100
AcDbPlotSettings
  1

  2
none_device
  4

  6

 40
0.0
 41
0.0
 42
0.0
 43
0.0
 44
0.0
 45
0.0
 46
0.0
 47
0.0
 48
0.0
 49
0.0
140
0.0
141
0.0
142
1.0
143
1.0
 70
  1712
 72
     0
 73
     0
 74
     0
  7

 75
     0
147
1.0
 76
     0
 77
     2
 78
   300
148
0.0
149
0.0
100
AcDbLayout
  1
Model
 70
     1
 71
     0
 10
-0.5
 20
-0.5
 11
5.0
 21
5.0
 12
0.0
 22
0.0
 32
0.0
 14
-0.5
 24
-0.5
 34
-0.5
 15
5.0
 25
5.0
 35
5.0
146
0.0
 13
0.0
 23
0.0
 33
0.0
 16
1.0
 26
0.0
 36
0.0
 17
0.0
 27
1.0
 37
0.0
 76
     0
330
1F
331
6C2
  0
MATERIAL
  5
6DB
102
{ACAD_XDICTIONARY
360
70D
102
}
102
{ACAD_REACTORS
330
6D9
102
}
330
6D9
100
AcDbMaterial
  1
ByBlock
  0
MATERIAL
  5
6DA
102
{ACAD_XDICTIONARY
360
70B
102
}
102
{ACAD_REACTORS
330
6D9
102
}
330
6D9
100
AcDbMaterial
  1
ByLayer
  0
MATERIAL
  5
6DC
102
{ACAD_XDICTIONARY
360
70F
102
}
102
{ACAD_REACTORS
330
6D9
102
}
330
6D9
100
AcDbMaterial
  1
Global
  0
MLEADERSTYLE
  5
731
102
{ACAD_REACTORS
330
6D3
102
}
330
6D3
100
AcDbMLeaderStyle
179
     2
170
     2
171
     1
172
     0
 90
        2
 40
0.0
 41
0.0
173
     1
 91
-1056964608
340
14
 92
       -2
290
     1
 42
2.0
291
     1
 43
0.36
  3
Standard
 44
4.0
300

342
11
174
     1
178
     6
175
     1
176
     0
 93
-1056964608
 45
4.0
292
     0
297
     0
 46
4.0
 94
-1056964608
 47
1.0
 49
1.0
140
1.0
293
     1
141
0.0
294
     1
177
     0
142
1.0
295
     0
296
     0
143
0.125
271
     0
272
     9
273
     9
298
     0
  0
MLINESTYLE
  5
18
102
{ACAD_REACTORS
330
17
102
}
330
17
100
AcDbMlineStyle
  2
STANDARD
 70
     0
  3

 62
   256
 51
90.0
 52
90.0
 71
     2
 49
0.5
 62
   256
  6
BYLAYER
 49
-0.5
 62
   256
  6
BYLAYER
  0
ACDBPLACEHOLDER
  5
F
102
{ACAD_REACTORS
330
E
102
}
330
E
  0
SCALE
  5
720
102
{ACAD_REACTORS
330
71F
102
}
330
71F
100
AcDbScale
 70
     0
300
1:1
140
1.0
141
1.0
290
     1
  0
SCALE
  5
721
102
{ACAD_REACTORS
330
71F
102
}
330
71F
100
AcDbScale
 70
     0
300
1:2
140
1.0
141
2.0
290
     0
  0
SCALE
  5
722
102
{ACAD_REACTORS
330
71F
102
}
330
71F
100
AcDbScale
 70
     0
300
1:4
140
1.0
141
4.0
290
     0
  0
SCALE
  5
723
102
{ACAD_REACTORS
330
71F
102
}
330
71F
100
AcDbScale
 70
     0
300
1:5
140
1.0
141
5.0
290
     0
  0
SCALE
  5
724
102
{ACAD_REACTORS
330
71F
102
}
330
71F
100
AcDbScale
 70
     0
300
1:8
140
1.0
141
8.0
290
     0
  0
SCALE
  5
725
102
{ACAD_REACTORS
330
71F
102
}
330
71F
100
AcDbScale
 70
     0
300
1:10
140
1.0
141
10.0
290
     0
  0
SCALE
  5
726
102
{ACAD_REACTORS
330
71F
102
}
330
71F
100
AcDbScale
 70
     0
300
1:16
140
1.0
141
16.0
290
     0
  0
SCALE
  5
727
102
{ACAD_REACTORS
330
71F
102
}
330
71F
100
AcDbScale
 70
     0
300
1:20
140
1.0
141
20.0
290
     0
  0
SCALE
  5
728
102
{ACAD_REACTORS
330
71F
102
}
330
71F
100
AcDbScale
 70
     0
300
1:30
140
1.0
141
30.0
290
     0
  0
SCALE
  5
729
102
{ACAD_REACTORS
330
71F
102
}
330
71F
100
AcDbScale
 70
     0
300
1:40
140
1.0
141
40.0
290
     0
  0
SCALE
  5
72A
102
{ACAD_REACTORS
330
71F
102
}
330
71F
100
AcDbScale
 70
     0
300
1:50
140
1.0
141
50.0
290
     0
  0
SCALE
  5
72B
102
{ACAD_REACTORS
330
71F
102
}
330
71F
100
AcDbScale
 70
     0
300
1:100
140
1.0
141
100.0
290
     0
  0
SCALE
  5
72C
102
{ACAD_REACTORS
330
71F
102
}
330
71F
100
AcDbScale
 70
     0
300
2:1
140
2.0
141
1.0
290
     0
  0
SCALE
  5
72D
102
{ACAD_REACTORS
330
71F
102
}
330
71F
100
AcDbScale
 70
     0
300
4:1
140
4.0
141
1.0
290
     0
  0
SCALE
  5
72E
102
{ACAD_REACTORS
330
71F
102
}
330
71F
100
AcDbScale
 70
     0
300
8:1
140
8.0
141
1.0
290
     0
  0
SCALE
  5
72F
102
{ACAD_REACTORS
330
71F
102
}
330
71F
100
AcDbScale
 70
     0
300
10:1
140
10.0
141
1.0
290
     0
  0
SCALE
  5
730
102
{ACAD_REACTORS
330
71F
102
}
330
71F
100
AcDbScale
 70
     0
300
100:1
140
100.0
141
1.0
290
     0
  0
ACDBSECTIONVIEWSTYLE
  5
8CC
102
{ACAD_XDICTIONARY
360
FAC
102
}
102
{ACAD_REACTORS
330
732
102
}
330
732
100
AcDbModelDocViewStyle
 70
     0
  3
Imperial24
290
     0
100
AcDbSectionViewStyle
 70
     0
 71
     0
 90
       78
 71
     1
340
11
 62
   256
 40
0.24
340
0
340
0
 62
   256
 40
0.24
300
I, O, Q, S, X, Z
 40
0.48
 90
        3
 40
0.18
 90
        1
 71
     2
340
16
 90
       25
 62
   256
340
16
 90
       50
 62
   256
 40
0.24
 40
0.0
 40
0.24
 71
     3
340
11
 62
   256
 40
0.24
 90
        1
 40
0.75
 90
        1
300
%<\AcVar ViewType \f "%tc1">% %<\AcVar ViewSectionStartId>%-%<\AcVar ViewSectionEndId>%\PVARIA %<\AcVar ViewScale \f "%sn">%
 71
     4
 62
   256
 62
   257
300
ANSI31
 40
1.0
 90
        0
290
     0
290
     0
 90
        6
 40
0.0
 40
1.570796326794896
 40
0.2617993877991494
 40
1.308996938995747
 40
-0.2617993877991494
 40
1.832595714594045
  0
ACDBSECTIONVIEWSTYLE
  5
733
102
{ACAD_XDICTIONARY
360
FA8
102
}
102
{ACAD_REACTORS
330
732
102
}
330
732
100
AcDbModelDocViewStyle
 70
     0
  3
Metric50
290
     0
100
AcDbSectionViewStyle
 70
     0
 71
     0
 90
      102
 71
     1
340
11
 62
   256
 40
5.0
340
0
340
0
 62
   256
 40
5.0
300
I, O, Q, S, X, Z
 40
10.0
 90
        0
 40
2.5
 90
        0
 71
     2
340
16
 90
       25
 62
   256
340
16
 90
       50
 62
   256
 40
5.0
 40
2.5
 40
5.0
 71
     3
340
11
 62
   256
 40
5.0
 90
        0
 40
15.0
 90
        1
300
%<\AcVar ViewSectionStartId>%-%<\AcVar ViewSectionEndId>% (%<\AcVar ViewScale \f "%sn">%)
 71
     4
 62
   256
 62
   257
300
ANSI31
 40
1.0
 90
        0
290
     0
290
     0
 90
        6
 40
0.0
 40
1.570796326794896
 40
0.2617993877991494
 40
1.308996938995747
 40
-0.2617993877991494
 40
1.832595714594044
  0
TABLESTYLE
  5
6DE
102
{ACAD_XDICTIONARY
360
8A7
102
}
102
{ACAD_REACTORS
330
6D2
102
}
330
6D2
100
AcDbTableStyle
280
     0
  3
Standard
 70
     0
 71
     0
 40
1.5
 41
1.5
280
     0
281
     0
  7
Standard
140
4.5
170
     2
 62
     0
 63
     7
283
     0
 90
      512
 91
        0
  1

274
    -2
284
     1
 64
     0
275
    -2
285
     1
 65
     0
276
    -2
286
     1
 66
     0
277
    -2
287
     1
 67
     0
278
    -2
288
     1
 68
     0
279
    -2
289
     1
 69
     0
  7
Standard
140
6.0
170
     5
 62
     0
 63
     7
283
     0
 90
      512
 91
        0
  1

274
    -2
284
     1
 64
     0
275
    -2
285
     1
 65
     0
276
    -2
286
     1
 66
     0
277
    -2
287
     1
 67
     0
278
    -2
288
     1
 68
     0
279
    -2
289
     1
 69
     0
  7
Standard
140
4.5
170
     5
 62
     0
 63
     7
283
     0
 90
      512
 91
        0
  1

274
    -2
284
     1
 64
     0
275
    -2
285
     1
 65
     0
276
    -2
286
     1
 66
     0
277
    -2
287
     1
 67
     0
278
    -2
288
     1
 68
     0
279
    -2
289
     1
 69
     0
  0
VISUALSTYLE
  5
2F
102
{ACAD_REACTORS
330
2A
102
}
330
2A
100
AcDbVisualStyle
  2

 70
     4
177
     3
291
     0
 70
    58
 90
        0
176
     1
 90
        2
176
     1
 90
        0
176
     1
 90
        0
176
     1
 40
0.6
176
     1
 40
30.0
176
     1
 62
     7
176
     1
 90
        1
176
     1
 90
        4
176
     1
 62
     7
176
     1
 62
   257
176
     1
 90
        1
176
     1
 90
        1
176
     1
 40
1.0
176
     1
 90
        0
176
     1
 62
   257
176
     1
 40
1.0
176
     1
 90
        1
176
     1
 90
        6
176
     1
 90
        2
176
     1
 62
     7
176
     1
 90
        5
176
     1
 90
        0
176
     1
 90
        0
176
     1
290
     0
176
     1
 90
        1
176
     1
 40
0.0
176
     1
 90
        0
176
     1
290
     1
176
     1
290
     1
176
     1
290
     0
176
     1
290
     0
176
     1
290
     0
176
     1
290
     0
176
     1
290
     0
176
     1
290
     0
176
     1
290
     0
176
     1
 90
       50
176
     1
 40
0.0
176
     1
 40
1.0
176
     1
 90
        0
176
     1
 62
    18
176
     1
 90
       50
176
     1
 90
        3
176
     1
 62
     5
420
      255
176
     1
290
     0
176
     1
 90
       50
176
     1
 90
       50
176
     1
 90
       50
176
     1
290
     0
176
     1
 90
       50
176
     1
 62
   256
176
     0
 40
1.0
176
     0
 90
        2
176
     1
  1
strokes_ogs.tif
176
     1
290
     0
176
     1
 40
1.0
176
     1
 40
1.0
176
     1
1001
ACAD
1000
AcDbSavedByObjectVersion
1070
     0
  0
VISUALSTYLE
  5
31
102
{ACAD_REACTORS
330
2A
102
}
330
2A
100
AcDbVisualStyle
  2

 70
     6
177
     3
291
     0
 70
    58
 90
        1
176
     1
 90
        2
176
     1
 90
        2
176
     1
 90
        0
176
     1
 40
0.6
176
     1
 40
30.0
176
     1
 62
     7
176
     1
 90
        2
176
     1
 90
        2
176
     1
 62
     7
176
     1
 62
   257
176
     1
 90
        2
176
     1
 90
        1
176
     1
 40
40.0
176
     1
 90
        0
176
     1
 62
   257
176
     1
 40
1.0
176
     1
 90
        1
176
     1
 90
        6
176
     1
 90
        2
176
     1
 62
     7
176
     1
 90
        3
176
     1
 90
        0
176
     1
 90
        0
176
     1
290
     0
176
     1
 90
        1
176
     1
 40
0.0
176
     1
 90
        0
176
     1
290
     0
176
     1
290
     1
176
     1
290
     1
176
     1
290
     0
176
     1
290
     0
176
     1
290
     0
176
     1
290
     0
176
     1
290
     0
176
     1
290
     0
176
     1
 90
       50
176
     1
 40
0.0
176
     1
 40
1.0
176
     1
 90
        0
176
     1
 62
    18
176
     1
 90
       50
176
     1
 90
        3
176
     1
 62
     5
420
      255
176
     1
290
     0
176
     1
 90
       50
176
     1
 90
       50
176
     1
 90
       50
176
     1
290
     0
176
     1
 90
       50
176
     1
 62
   256
176
     0
 40
1.0
176
     0
 90
        2
176
     1
  1
strokes_ogs.tif
176
     1
290
     0
176
     1
 40
1.0
176
     1
 40
1.0
176
     1
1001
ACAD
1000
AcDbSavedByObjectVersion
1070
     0
  0
VISUALSTYLE
  5
30
102
{ACAD_REACTORS
330
2A
102
}
330
2A
100
AcDbVisualStyle
  2

 70
     5
177
     3
291
     0
 70
    58
 90
        0
176
     1
 90
        2
176
     1
 90
        0
176
     1
 90
        0
176
     1
 40
0.6
176
     1
 40
30.0
176
     1
 62
     7
176
     1
 90
        1
176
     1
 90
        4
176
     1
 62
     7
176
     1
 62
   257
176
     1
 90
        1
176
     1
 90
        1
176
     1
 40
1.0
176
     1
 90
        0
176
     1
 62
   257
176
     1
 40
1.0
176
     1
 90
        1
176
     1
 90
        6
176
     1
 90
        2
176
     1
 62
     7
176
     1
 90
        5
176
     1
 90
        0
176
     1
 90
        0
176
     1
290
     0
176
     1
 90
        1
176
     1
 40
0.0
176
     1
 90
        0
176
     1
290
     0
176
     1
290
     1
176
     1
290
     1
176
     1
290
     0
176
     1
290
     0
176
     1
290
     0
176
     1
290
     0
176
     1
290
     0
176
     1
290
     0
176
     1
 90
       50
176
     1
 40
0.0
176
     1
 40
1.0
176
     1
 90
        0
176
     1
 62
    18
176
     1
 90
       50
176
     1
 90
        3
176
     1
 62
     5
420
      255
176
     1
290
     0
176
     1
 90
       50
176
     1
 90
       50
176
     1
 90
       50
176
     1
290
     0
176
     1
 90
       50
176
     1
 62
   256
176
     0
 40
1.0
176
     0
 90
        2
176
     1
  1
strokes_ogs.tif
176
     1
290
     0
176
     1
 40
1.0
176
     1
 40
1.0
176
     1
1001
ACAD
1000
AcDbSavedByObjectVersion
1070
     0
  0
VISUALSTYLE
  5
32
102
{ACAD_REACTORS
330
2A
102
}
330
2A
100
AcDbVisualStyle
  2

 70
     7
177
     3
291
     1
 70
    58
 90
        1
176
     1
 90
        0
176
     1
 90
        1
176
     1
 90
        0
176
     1
 40
0.6
176
     1
 40
30.0
176
     1
 62
     7
176
     1
 90
        0
176
     1
 90
        4
176
     1
 62
     7
176
     1
 62
   257
176
     1
 90
        1
176
     1
 90
        1
176
     1
 40
1.0
176
     1
 90
        8
176
     1
 62
     7
176
     1
 40
1.0
176
     1
 90
        1
176
     1
 90
        6
176
     1
 90
        2
176
     1
 62
     7
176
     1
 90
        5
176
     1
 90
        0
176
     1
 90
        0
176
     1
290
     0
176
     1
 90
        1
176
     1
 40
0.0
176
     1
 90
        0
176
     1
290
     0
176
     1
290
     1
176
     1
290
     1
176
     1
290
     0
176
     1
290
     0
176
     1
290
     0
176
     1
290
     0
176
     1
290
     0
176
     1
290
     0
176
     1
 90
       50
176
     1
 40
0.0
176
     1
 40
1.0
176
     1
 90
        0
176
     1
 62
    18
176
     1
 90
       50
176
     1
 90
        3
176
     1
 62
     5
420
      255
176
     1
290
     0
176
     1
 90
       50
176
     1
 90
       50
176
     1
 90
       50
176
     1
290
     0
176
     1
 90
       50
176
     1
 62
   256
176
     0
 40
1.0
176
     0
 90
        2
176
     1
  1
strokes_ogs.tif
176
     1
290
     0
176
     1
 40
1.0
176
     1
 40
1.0
176
     1
1001
ACAD
1000
AcDbSavedByObjectVersion
1070
     0
  0
VISUALSTYLE
  5
36
102
{ACAD_REACTORS
330
2A
102
}
330
2A
100
AcDbVisualStyle
  2

 70
    12
177
     3
291
     1
 70
    58
 90
        2
176
     1
 90
        2
176
     1
 90
        0
176
     1
 90
        0
176
     1
 40
0.6
176
     1
 40
30.0
176
     1
 62
     7
176
     1
 90
        1
176
     1
 90
        4
176
     1
 62
     7
176
     1
 62
   257
176
     1
 90
        1
176
     1
 90
        1
176
     1
 40
1.0
176
     1
 90
        8
176
     1
 62
     7
176
     1
 40
1.0
176
     1
 90
        1
176
     1
 90
        6
176
     1
 90
        2
176
     1
 62
     7
176
     1
 90
        5
176
     1
 90
        0
176
     1
 90
        0
176
     1
290
     0
176
     1
 90
        1
176
     1
 40
50.0
176
     1
 90
        0
176
     1
290
     0
176
     1
290
     1
176
     1
290
     1
176
     1
290
     0
176
     1
290
     0
176
     1
290
     0
176
     1
290
     0
176
     1
290
     0
176
     1
290
     0
176
     1
 90
       50
176
     1
 40
0.0
176
     1
 40
1.0
176
     1
 90
        0
176
     1
 62
    18
176
     1
 90
       50
176
     1
 90
        3
176
     1
 62
     5
420
      255
176
     1
290
     0
176
     1
 90
       50
176
     1
 90
       50
176
     1
 90
       50
176
     1
290
     0
176
     1
 90
       50
176
     1
 62
   256
176
     0
 40
1.0
176
     0
 90
        2
176
     1
  1
strokes_ogs.tif
176
     1
290
     0
176
     1
 40
1.0
176
     1
 40
1.0
176
     1
1001
ACAD
1000
AcDbSavedByObjectVersion
1070
     0
  0
VISUALSTYLE
  5
3A
102
{ACAD_REACTORS
330
2A
102
}
330
2A
100
AcDbVisualStyle
  2

 70
    16
177
     3
291
     1
 70
    58
 90
        2
176
     1
 90
        2
176
     1
 90
        3
176
     1
 90
        0
176
     1
 40
0.6
176
     1
 40
30.0
176
     1
 62
     8
176
     1
 90
        1
176
     1
 90
        4
176
     1
 62
     7
176
     1
 62
   257
176
     1
 90
        1
176
     1
 90
        1
176
     1
 40
1.0
176
     1
 90
        8
176
     1
 62
     8
176
     1
 40
1.0
176
     1
 90
        1
176
     1
 90
        6
176
     1
 90
        2
176
     1
 62
     7
176
     1
 90
        5
176
     1
 90
        0
176
     1
 90
        0
176
     1
290
     0
176
     1
 90
        1
176
     1
 40
0.0
176
     1
 90
        0
176
     1
290
     0
176
     1
290
     1
176
     1
290
     1
176
     1
290
     0
176
     1
290
     0
176
     1
290
     0
176
     1
290
     0
176
     1
290
     0
176
     1
290
     0
176
     1
 90
       50
176
     1
 40
0.0
176
     1
 40
1.0
176
     1
 90
        0
176
     1
 62
    18
176
     1
 90
       50
176
     1
 90
        3
176
     1
 62
     5
420
      255
176
     1
290
     0
176
     1
 90
       50
176
     1
 90
       50
176
     1
 90
       50
176
     1
290
     0
176
     1
 90
       50
176
     1
 62
   256
176
     0
 40
1.0
176
     0
 90
        2
176
     1
  1
strokes_ogs.tif
176
     1
290
     0
176
     1
 40
1.0
176
     1
 40
1.0
176
     1
1001
ACAD
1000
AcDbSavedByObjectVersion
1070
     0
  0
VISUALSTYLE
  5
34
102
{ACAD_REACTORS
330
2A
102
}
330
2A
100
AcDbVisualStyle
  2

 70
     9
177
     3
291
     0
 70
    58
 90
        3
176
     1
 90
        2
176
     1
 90
        0
176
     1
 90
        0
176
     1
 40
0.6
176
     1
 40
30.0
176
     1
 62
     7
176
     1
 90
        2
176
     1
 90
        2
176
     1
 62
     7
176
     1
 62
   257
176
     1
 90
        1
176
     1
 90
        1
176
     1
 40
40.0
176
     1
 90
        8
176
     1
 62
     7
176
     1
 40
1.0
176
     1
 90
        1
176
     1
 90
        6
176
     1
 90
        2
176
     1
 62
     7
176
     1
 90
        3
176
     1
 90
        0
176
     1
 90
        0
176
     1
290
     0
176
     1
 90
        1
176
     1
 40
0.0
176
     1
 90
        0
176
     1
290
     0
176
     1
290
     1
176
     1
290
     1
176
     1
290
     0
176
     1
290
     0
176
     1
290
     0
176
     1
290
     0
176
     1
290
     0
176
     1
290
     0
176
     1
 90
       50
176
     1
 40
0.0
176
     1
 40
1.0
176
     1
 90
        0
176
     1
 62
    18
176
     1
 90
       50
176
     1
 90
        3
176
     1
 62
     5
420
      255
176
     1
290
     0
176
     1
 90
       50
176
     1
 90
       50
176
     1
 90
       50
176
     1
290
     0
176
     1
 90
       50
176
     1
 62
   256
176
     0
 40
1.0
176
     0
 90
        2
176
     1
  1
strokes_ogs.tif
176
     1
290
     0
176
     1
 40
1.0
176
     1
 40
1.0
176
     1
1001
ACAD
1000
AcDbSavedByObjectVersion
1070
     0
  0
VISUALSTYLE
  5
35
102
{ACAD_REACTORS
330
2A
102
}
330
2A
100
AcDbVisualStyle
  2

 70
    11
177
     3
291
     1
 70
    58
 90
        2
176
     1
 90
        2
176
     1
 90
        0
176
     1
 90
        0
176
     1
 40
0.6
176
     1
 40
30.0
176
     1
 62
     7
176
     1
 90
        1
176
     1
 90
        4
176
     1
 62
     7
176
     1
 62
   257
176
     1
 90
        1
176
     1
 90
        1
176
     1
 40
1.0
176
     1
 90
        8
176
     1
 62
     7
176
     1
 40
1.0
176
     1
 90
        1
176
     1
 90
        6
176
     1
 90
        2
176
     1
 62
     7
176
     1
 90
        5
176
     1
 90
        0
176
     1
 90
        0
176
     1
290
     0
176
     1
 90
        1
176
     1
 40
-50.0
176
     1
 90
        0
176
     1
290
     0
176
     1
290
     1
176
     1
290
     1
176
     1
290
     0
176
     1
290
     0
176
     1
290
     0
176
     1
290
     0
176
     1
290
     0
176
     1
290
     0
176
     1
 90
       50
176
     1
 40
0.0
176
     1
 40
1.0
176
     1
 90
        0
176
     1
 62
    18
176
     1
 90
       50
176
     1
 90
        3
176
     1
 62
     5
420
      255
176
     1
290
     0
176
     1
 90
       50
176
     1
 90
       50
176
     1
 90
       50
176
     1
290
     0
176
     1
 90
       50
176
     1
 62
   256
176
     0
 40
1.0
176
     0
 90
        2
176
     1
  1
strokes_ogs.tif
176
     1
290
     0
176
     1
 40
1.0
176
     1
 40
1.0
176
     1
1001
ACAD
1000
AcDbSavedByObjectVersion
1070
     0
  0
VISUALSTYLE
  5
71E
102
{ACAD_REACTORS
330
2A
102
}
330
2A
100
AcDbVisualStyle
  2
EdgeColorOff
 70
    22
177
     3
291
     1
 70
    58
 90
        2
176
     0
 90
        2
176
     0
 90
        0
176
     0
 90
        0
176
     0
 40
0.6
176
     0
 40
30.0
176
     0
 62
     7
420
 16777215
176
     0
 90
        1
176
     0
 90
        4
176
     0
 62
     7
176
     0
 62
   257
176
     0
 90
        1
176
     0
 90
        1
176
     0
 40
1.0
176
     0
 90
        8
176
     2
 62
     7
176
     0
 40
1.0
176
     0
 90
        1
176
     0
 90
        6
176
     0
 90
        2
176
     0
 62
     7
176
     0
 90
        5
176
     0
 90
        0
176
     0
 90
        0
176
     0
290
     0
176
     0
 90
        1
176
     0
 40
0.0
176
     0
 90
        0
176
     0
290
     0
176
     1
290
     1
176
     1
290
     1
176
     1
290
     0
176
     1
290
     0
176
     1
290
     0
176
     1
290
     0
176
     1
290
     0
176
     1
290
     0
176
     1
 90
       50
176
     0
 40
0.0
176
     0
 40
1.0
176
     0
 90
        0
176
     0
 62
    18
176
     0
 90
       50
176
     0
 90
        3
176
     0
 62
     5
420
      255
176
     0
290
     0
176
     1
 90
       50
176
     0
 90
       50
176
     0
 90
       50
176
     0
290
     0
176
     1
 90
       50
176
     0
 62
   256
176
     0
 40
1.0
176
     0
 90
        2
176
     0
  1
strokes_ogs.tif
176
     0
290
     0
176
     1
 40
1.0
176
     0
 40
1.0
176
     0
1001
ACAD
1000
AcDbSavedByObjectVersion
1070
     0
  0
VISUALSTYLE
  5
39
102
{ACAD_REACTORS
330
2A
102
}
330
2A
100
AcDbVisualStyle
  2

 70
    15
177
     3
291
     1
 70
    58
 90
        2
176
     1
 90
        2
176
     1
 90
        0
176
     1
 90
        0
176
     1
 40
0.6
176
     1
 40
30.0
176
     1
 62
     7
176
     1
 90
        1
176
     1
 90
        4
176
     1
 62
     7
176
     1
 62
   257
176
     1
 90
        1
176
     1
 90
        1
176
     1
 40
1.0
176
     1
 90
        8
176
     1
 62
     7
176
     1
 40
1.0
176
     1
 90
        1
176
     1
 90
        6
176
     1
 90
        2
176
     1
 62
     7
176
     1
 90
        5
176
     1
 90
        0
176
     1
 90
        0
176
     1
290
     0
176
     1
 90
        1
176
     1
 40
0.0
176
     1
 90
        0
176
     1
290
     0
176
     1
290
     1
176
     1
290
     1
176
     1
290
     0
176
     1
290
     0
176
     1
290
     0
176
     1
290
     0
176
     1
290
     0
176
     1
290
     0
176
     1
 90
       50
176
     1
 40
0.0
176
     1
 40
1.0
176
     1
 90
        0
176
     1
 62
    18
176
     1
 90
       50
176
     1
 90
        3
176
     1
 62
     5
420
      255
176
     1
290
     0
176
     1
 90
       50
176
     1
 90
       50
176
     1
 90
       50
176
     1
290
     0
176
     1
 90
       50
176
     1
 62
   256
176
     0
 40
1.0
176
     0
 90
        2
176
     1
  1
strokes_ogs.tif
176
     1
290
     0
176
     1
 40
1.0
176
     1
 40
1.0
176
     1
1001
ACAD
1000
AcDbSavedByObjectVersion
1070
     0
  0
VISUALSTYLE
  5
2B
102
{ACAD_REACTORS
330
2A
102
}
330
2A
100
AcDbVisualStyle
  2

 70
     0
177
     3
291
     1
 70
    58
 90
        2
176
     1
 90
        1
176
     1
 90
        1
176
     1
 90
        2
176
     1
 40
0.6
176
     1
 40
30.0
176
     1
 62
     7
176
     1
 90
        0
176
     1
 90
        4
176
     1
 62
     7
176
     1
 62
   257
176
     1
 90
        1
176
     1
 90
        1
176
     1
 40
1.0
176
     1
 90
        8
176
     1
 62
     7
176
     1
 40
1.0
176
     1
 90
        1
176
     1
 90
        6
176
     1
 90
        2
176
     1
 62
     7
176
     1
 90
        5
176
     1
 90
        0
176
     1
 90
        0
176
     1
290
     0
176
     1
 90
       13
176
     1
 40
0.0
176
     1
 90
        0
176
     1
290
     0
176
     1
290
     1
176
     1
290
     1
176
     1
290
     0
176
     1
290
     0
176
     1
290
     0
176
     1
290
     0
176
     1
290
     0
176
     1
290
     0
176
     1
 90
       50
176
     1
 40
0.0
176
     1
 40
1.0
176
     1
 90
        0
176
     1
 62
    18
176
     1
 90
       50
176
     1
 90
        3
176
     1
 62
     5
420
      255
176
     1
290
     0
176
     1
 90
       50
176
     1
 90
       50
176
     1
 90
       50
176
     1
290
     0
176
     1
 90
       50
176
     1
 62
   256
176
     0
 40
1.0
176
     0
 90
        2
176
     1
  1
strokes_ogs.tif
176
     1
290
     0
176
     1
 40
1.0
176
     1
 40
1.0
176
     1
1001
ACAD
1000
AcDbSavedByObjectVersion
1070
     0
  0
VISUALSTYLE
  5
2C
102
{ACAD_REACTORS
330
2A
102
}
330
2A
100
AcDbVisualStyle
  2

 70
     1
177
     3
291
     1
 70
    58
 90
        2
176
     1
 90
        1
176
     1
 90
        1
176
     1
 90
        2
176
     1
 40
0.6
176
     1
 40
30.0
176
     1
 62
     7
176
     1
 90
        1
176
     1
 90
        4
176
     1
 62
     7
176
     1
 62
   257
176
     1
 90
        1
176
     1
 90
        1
176
     1
 40
1.0
176
     1
 90
        0
176
     1
 62
   257
176
     1
 40
1.0
176
     1
 90
        1
176
     1
 90
        6
176
     1
 90
        2
176
     1
 62
     7
176
     1
 90
        5
176
     1
 90
        0
176
     1
 90
        0
176
     1
290
     0
176
     1
 90
       13
176
     1
 40
0.0
176
     1
 90
        0
176
     1
290
     0
176
     1
290
     1
176
     1
290
     1
176
     1
290
     0
176
     1
290
     0
176
     1
290
     0
176
     1
290
     0
176
     1
290
     0
176
     1
290
     0
176
     1
 90
       50
176
     1
 40
0.0
176
     1
 40
1.0
176
     1
 90
        0
176
     1
 62
    18
176
     1
 90
       50
176
     1
 90
        3
176
     1
 62
     5
420
      255
176
     1
290
     0
176
     1
 90
       50
176
     1
 90
       50
176
     1
 90
       50
176
     1
290
     0
176
     1
 90
       50
176
     1
 62
   256
176
     0
 40
1.0
176
     0
 90
        2
176
     1
  1
strokes_ogs.tif
176
     1
290
     0
176
     1
 40
1.0
176
     1
 40
1.0
176
     1
1001
ACAD
1000
AcDbSavedByObjectVersion
1070
     0
  0
VISUALSTYLE
  5
2D
102
{ACAD_REACTORS
330
2A
102
}
330
2A
100
AcDbVisualStyle
  2

 70
     2
177
     3
291
     1
 70
    58
 90
        2
176
     1
 90
        2
176
     1
 90
        1
176
     1
 90
        2
176
     1
 40
0.6
176
     1
 40
30.0
176
     1
 62
     7
176
     1
 90
        0
176
     1
 90
        4
176
     1
 62
     7
176
     1
 62
   257
176
     1
 90
        1
176
     1
 90
        1
176
     1
 40
1.0
176
     1
 90
        0
176
     1
 62
     7
176
     1
 40
1.0
176
     1
 90
        1
176
     1
 90
        6
176
     1
 90
        2
176
     1
 62
     7
176
     1
 90
        5
176
     1
 90
        0
176
     1
 90
        0
176
     1
290
     0
176
     1
 90
       13
176
     1
 40
0.0
176
     1
 90
        0
176
     1
290
     0
176
     1
290
     1
176
     1
290
     1
176
     1
290
     0
176
     1
290
     0
176
     1
290
     0
176
     1
290
     0
176
     1
290
     0
176
     1
290
     0
176
     1
 90
       50
176
     1
 40
0.0
176
     1
 40
1.0
176
     1
 90
        0
176
     1
 62
    18
176
     1
 90
       50
176
     1
 90
        3
176
     1
 62
     5
420
      255
176
     1
290
     0
176
     1
 90
       50
176
     1
 90
       50
176
     1
 90
       50
176
     1
290
     0
176
     1
 90
       50
176
     1
 62
   256
176
     0
 40
1.0
176
     0
 90
        2
176
     1
  1
strokes_ogs.tif
176
     1
290
     0
176
     1
 40
1.0
176
     1
 40
1.0
176
     1
1001
ACAD
1000
AcDbSavedByObjectVersion
1070
     0
  0
VISUALSTYLE
  5
2E
102
{ACAD_REACTORS
330
2A
102
}
330
2A
100
AcDbVisualStyle
  2

 70
     3
177
     3
291
     1
 70
    58
 90
        2
176
     1
 90
        2
176
     1
 90
        1
176
     1
 90
        2
176
     1
 40
0.6
176
     1
 40
30.0
176
     1
 62
     7
176
     1
 90
        1
176
     1
 90
        4
176
     1
 62
     7
176
     1
 62
   257
176
     1
 90
        1
176
     1
 90
        1
176
     1
 40
1.0
176
     1
 90
        0
176
     1
 62
   257
176
     1
 40
1.0
176
     1
 90
        1
176
     1
 90
        6
176
     1
 90
        2
176
     1
 62
     7
176
     1
 90
        5
176
     1
 90
        0
176
     1
 90
        0
176
     1
290
     0
176
     1
 90
       13
176
     1
 40
0.0
176
     1
 90
        0
176
     1
290
     0
176
     1
290
     1
176
     1
290
     1
176
     1
290
     0
176
     1
290
     0
176
     1
290
     0
176
     1
290
     0
176
     1
290
     0
176
     1
290
     0
176
     1
 90
       50
176
     1
 40
0.0
176
     1
 40
1.0
176
     1
 90
        0
176
     1
 62
    18
176
     1
 90
       50
176
     1
 90
        3
176
     1
 62
     5
420
      255
176
     1
290
     0
176
     1
 90
       50
176
     1
 90
       50
176
     1
 90
       50
176
     1
290
     0
176
     1
 90
       50
176
     1
 62
   256
176
     0
 40
1.0
176
     0
 90
        2
176
     1
  1
strokes_ogs.tif
176
     1
290
     0
176
     1
 40
1.0
176
     1
 40
1.0
176
     1
1001
ACAD
1000
AcDbSavedByObjectVersion
1070
     0
  0
VISUALSTYLE
  5
716
102
{ACAD_REACTORS
330
2A
102
}
330
2A
100
AcDbVisualStyle
  2
Hidden
 70
     6
177
     3
291
     0
 70
    58
 90
        1
176
     1
 90
        2
176
     1
 90
        2
176
     1
 90
        0
176
     1
 40
0.6
176
     1
 40
30.0
176
     1
 62
     7
420
 16777215
176
     1
 90
        2
176
     1
 90
        2
176
     1
 62
     7
176
     1
 62
   257
176
     1
 90
        2
176
     1
 90
        1
176
     1
 40
40.0
176
     1
 90
        0
176
     1
 62
   257
176
     1
 40
1.0
176
     1
 90
        1
176
     1
 90
        6
176
     1
 90
        2
176
     1
 62
     7
176
     1
 90
        3
176
     1
 90
        0
176
     1
 90
        0
176
     1
290
     0
176
     1
 90
        1
176
     1
 40
0.0
176
     1
 90
        0
176
     1
290
     0
176
     1
290
     1
176
     1
290
     1
176
     1
290
     0
176
     1
290
     0
176
     1
290
     0
176
     1
290
     0
176
     1
290
     0
176
     1
290
     0
176
     1
 90
       50
176
     1
 40
0.0
176
     1
 40
1.0
176
     1
 90
        0
176
     1
 62
    18
176
     1
 90
       50
176
     1
 90
        3
176
     1
 62
     5
420
      255
176
     1
290
     0
176
     1
 90
       50
176
     1
 90
       50
176
     1
 90
       50
176
     1
290
     0
176
     1
 90
       50
176
     1
 62
   256
176
     0
 40
1.0
176
     0
 90
        2
176
     1
  1
strokes_ogs.tif
176
     1
290
     0
176
     1
 40
1.0
176
     1
 40
1.0
176
     1
1001
ACAD
1000
AcDbSavedByObjectVersion
1070
     0
  0
VISUALSTYLE
  5
71C
102
{ACAD_REACTORS
330
2A
102
}
330
2A
100
AcDbVisualStyle
  2
JitterOff
 70
    20
177
     3
291
     1
 70
    58
 90
        2
176
     0
 90
        2
176
     0
 90
        0
176
     0
 90
        0
176
     0
 40
0.6
176
     0
 40
30.0
176
     0
 62
     7
420
 16777215
176
     0
 90
        1
176
     0
 90
        4
176
     0
 62
     7
176
     0
 62
   257
176
     0
 90
        1
176
     0
 90
        1
176
     0
 40
1.0
176
     0
 90
       10
176
     2
 62
     7
176
     0
 40
1.0
176
     0
 90
        1
176
     0
 90
        6
176
     0
 90
        2
176
     0
 62
     7
176
     0
 90
        5
176
     0
 90
        0
176
     0
 90
        0
176
     0
290
     0
176
     0
 90
        1
176
     0
 40
0.0
176
     0
 90
        0
176
     0
290
     0
176
     1
290
     1
176
     1
290
     1
176
     1
290
     0
176
     1
290
     0
176
     1
290
     0
176
     1
290
     0
176
     1
290
     0
176
     1
290
     0
176
     1
 90
       50
176
     0
 40
0.0
176
     0
 40
1.0
176
     0
 90
        0
176
     0
 62
    18
176
     0
 90
       50
176
     0
 90
        3
176
     0
 62
     5
420
      255
176
     0
290
     0
176
     1
 90
       50
176
     0
 90
       50
176
     0
 90
       50
176
     0
290
     0
176
     1
 90
       50
176
     0
 62
   256
176
     0
 40
1.0
176
     0
 90
        2
176
     0
  1
strokes_ogs.tif
176
     0
290
     0
176
     1
 40
1.0
176
     0
 40
1.0
176
     0
1001
ACAD
1000
AcDbSavedByObjectVersion
1070
     0
  0
VISUALSTYLE
  5
38
102
{ACAD_REACTORS
330
2A
102
}
330
2A
100
AcDbVisualStyle
  2

 70
    14
177
     3
291
     1
 70
    58
 90
        2
176
     1
 90
        2
176
     1
 90
        0
176
     1
 90
        0
176
     1
 40
0.6
176
     1
 40
30.0
176
     1
 62
     7
176
     1
 90
        1
176
     1
 90
        4
176
     1
 62
     7
176
     1
 62
   257
176
     1
 90
        7
176
     1
 90
        7
176
     1
 40
1.0
176
     1
 90
        8
176
     1
 62
     7
176
     1
 40
1.0
176
     1
 90
        1
176
     1
 90
        6
176
     1
 90
        2
176
     1
 62
     7
176
     1
 90
        5
176
     1
 90
        0
176
     1
 90
        0
176
     1
290
     0
176
     1
 90
        1
176
     1
 40
0.0
176
     1
 90
        0
176
     1
290
     0
176
     1
290
     1
176
     1
290
     1
176
     1
290
     0
176
     1
290
     0
176
     1
290
     0
176
     1
290
     0
176
     1
290
     0
176
     1
290
     0
176
     1
 90
       50
176
     1
 40
0.0
176
     1
 40
1.0
176
     1
 90
        0
176
     1
 62
    18
176
     1
 90
       50
176
     1
 90
        3
176
     1
 62
     5
420
      255
176
     1
290
     0
176
     1
 90
       50
176
     1
 90
       50
176
     1
 90
       50
176
     1
290
     0
176
     1
 90
       50
176
     1
 62
   256
176
     0
 40
1.0
176
     0
 90
        2
176
     1
  1
strokes_ogs.tif
176
     1
290
     0
176
     1
 40
1.0
176
     1
 40
1.0
176
     1
1001
ACAD
1000
AcDbSavedByObjectVersion
1070
     0
  0
VISUALSTYLE
  5
71D
102
{ACAD_REACTORS
330
2A
102
}
330
2A
100
AcDbVisualStyle
  2
OverhangOff
 70
    21
177
     3
291
     1
 70
    58
 90
        2
176
     0
 90
        2
176
     0
 90
        0
176
     0
 90
        0
176
     0
 40
0.6
176
     0
 40
30.0
176
     0
 62
     7
420
 16777215
176
     0
 90
        1
176
     0
 90
        4
176
     0
 62
     7
176
     0
 62
   257
176
     0
 90
        1
176
     0
 90
        1
176
     0
 40
1.0
176
     0
 90
        9
176
     2
 62
     7
176
     0
 40
1.0
176
     0
 90
        1
176
     0
 90
        6
176
     0
 90
        2
176
     0
 62
     7
176
     0
 90
        5
176
     0
 90
        0
176
     0
 90
        0
176
     0
290
     0
176
     0
 90
        1
176
     0
 40
0.0
176
     0
 90
        0
176
     0
290
     0
176
     1
290
     1
176
     1
290
     1
176
     1
290
     0
176
     1
290
     0
176
     1
290
     0
176
     1
290
     0
176
     1
290
     0
176
     1
290
     0
176
     1
 90
       50
176
     0
 40
0.0
176
     0
 40
1.0
176
     0
 90
        0
176
     0
 62
    18
176
     0
 90
       50
176
     0
 90
        3
176
     0
 62
     5
420
      255
176
     0
290
     0
176
     1
 90
       50
176
     0
 90
       50
176
     0
 90
       50
176
     0
290
     0
176
     1
 90
       50
176
     0
 62
   256
176
     0
 40
1.0
176
     0
 90
        2
176
     0
  1
strokes_ogs.tif
176
     0
290
     0
176
     1
 40
1.0
176
     0
 40
1.0
176
     0
1001
ACAD
1000
AcDbSavedByObjectVersion
1070
     0
  0
VISUALSTYLE
  5
33
102
{ACAD_REACTORS
330
2A
102
}
330
2A
100
AcDbVisualStyle
  2

 70
     8
177
     3
291
     0
 70
    58
 90
        2
176
     1
 90
        2
176
     1
 90
        0
176
     1
 90
        0
176
     1
 40
0.6
176
     1
 40
30.0
176
     1
 62
     7
176
     1
 90
        1
176
     1
 90
        0
176
     1
 62
     7
176
     1
 62
   257
176
     1
 90
        1
176
     1
 90
        1
176
     1
 40
1.0
176
     1
 90
        8
176
     1
 62
     8
176
     1
 40
1.0
176
     1
 90
        1
176
     1
 90
        6
176
     1
 90
        2
176
     1
 62
     7
176
     1
 90
        5
176
     1
 90
        0
176
     1
 90
        0
176
     1
290
     0
176
     1
 90
       13
176
     1
 40
0.0
176
     1
 90
        0
176
     1
290
     0
176
     1
290
     1
176
     1
290
     1
176
     1
290
     0
176
     1
290
     0
176
     1
290
     0
176
     1
290
     0
176
     1
290
     0
176
     1
290
     0
176
     1
 90
       50
176
     1
 40
0.0
176
     1
 40
1.0
176
     1
 90
        0
176
     1
 62
    18
176
     1
 90
       50
176
     1
 90
        3
176
     1
 62
     5
420
      255
176
     1
290
     0
176
     1
 90
       50
176
     1
 90
       50
176
     1
 90
       50
176
     1
290
     0
176
     1
 90
       50
176
     1
 62
   256
176
     0
 40
1.0
176
     0
 90
        2
176
     1
  1
strokes_ogs.tif
176
     1
290
     0
176
     1
 40
1.0
176
     1
 40
1.0
176
     1
1001
ACAD
1000
AcDbSavedByObjectVersion
1070
     0
  0
VISUALSTYLE
  5
71B
102
{ACAD_REACTORS
330
2A
102
}
330
2A
100
AcDbVisualStyle
  2
Shaded
 70
    27
177
     3
291
     0
 70
    58
 90
        2
176
     1
 90
        2
176
     1
 90
        1
176
     1
 90
        2
176
     1
 40
0.6
176
     1
 40
30.0
176
     1
 62
     7
420
 16777215
176
     1
 90
        0
176
     1
 90
        4
176
     1
 62
     7
176
     1
 62
   257
176
     1
 90
        1
176
     1
 90
        1
176
     1
 40
1.0
176
     1
 90
        8
176
     1
 62
   257
176
     1
 40
1.0
176
     1
 90
        1
176
     1
 90
        6
176
     1
 90
        2
176
     1
 62
     8
420
  7895160
176
     1
 90
        3
176
     1
 90
        0
176
     1
 90
        0
176
     1
290
     0
176
     1
 90
        5
176
     1
 40
0.0
176
     1
 90
        0
176
     1
290
     0
176
     1
290
     1
176
     1
290
     1
176
     1
290
     0
176
     1
290
     0
176
     1
290
     0
176
     1
290
     0
176
     1
290
     0
176
     1
290
     0
176
     1
 90
       50
176
     1
 40
0.0
176
     1
 40
1.0
176
     1
 90
        0
176
     1
 62
    18
176
     1
 90
       50
176
     1
 90
        3
176
     1
 62
     5
420
      255
176
     1
290
     0
176
     1
 90
       50
176
     1
 90
       50
176
     1
 90
       50
176
     1
290
     0
176
     1
 90
       50
176
     1
 62
   256
176
     0
 40
1.0
176
     0
 90
        2
176
     1
  1
strokes_ogs.tif
176
     1
290
     0
176
     1
 40
1.0
176
     1
 40
1.0
176
     1
1001
ACAD
1000
AcDbSavedByObjectVersion
1070
     0
  0
VISUALSTYLE
  5
71A
102
{ACAD_REACTORS
330
2A
102
}
330
2A
100
AcDbVisualStyle
  2
Shaded with edges
 70
    26
177
     3
291
     0
 70
    58
 90
        2
176
     1
 90
        2
176
     1
 90
        1
176
     1
 90
        2
176
     1
 40
0.6
176
     1
 40
30.0
176
     1
 62
     7
420
 16777215
176
     1
 90
        1
176
     1
 90
        2
176
     1
 62
     7
176
     1
 62
   257
176
     1
 90
        2
176
     1
 90
        1
176
     1
 40
1.0
176
     1
 90
        8
176
     1
 62
   257
176
     1
 40
1.0
176
     1
 90
        1
176
     1
 90
        6
176
     1
 90
        2
176
     1
 62
     7
176
     1
 90
        3
176
     1
 90
        0
176
     1
 90
        0
176
     1
290
     0
176
     1
 90
        5
176
     1
 40
0.0
176
     1
 90
        0
176
     1
290
     0
176
     1
290
     1
176
     1
290
     1
176
     1
290
     0
176
     1
290
     0
176
     1
290
     0
176
     1
290
     0
176
     1
290
     0
176
     1
290
     0
176
     1
 90
       50
176
     1
 40
0.0
176
     1
 40
1.0
176
     1
 90
        0
176
     1
 62
    18
176
     1
 90
       50
176
     1
 90
        3
176
     1
 62
     5
420
      255
176
     1
290
     0
176
     1
 90
       50
176
     1
 90
       50
176
     1
 90
       50
176
     1
290
     0
176
     1
 90
       50
176
     1
 62
   256
176
     0
 40
1.0
176
     0
 90
        2
176
     1
  1
strokes_ogs.tif
176
     1
290
     0
176
     1
 40
1.0
176
     1
 40
1.0
176
     1
1001
ACAD
1000
AcDbSavedByObjectVersion
1070
     0
  0
VISUALSTYLE
  5
717
102
{ACAD_REACTORS
330
2A
102
}
330
2A
100
AcDbVisualStyle
  2
Shades of Gray
 70
    23
177
     3
291
     0
 70
    58
 90
        2
176
     1
 90
        2
176
     1
 90
        3
176
     1
 90
        0
176
     1
 40
0.6
176
     1
 40
30.0
176
     1
 62
     7
420
 16777215
176
     1
 90
        2
176
     1
 90
        2
176
     1
 62
     7
176
     1
 62
     7
176
     1
 90
        1
176
     1
 90
        1
176
     1
 40
40.0
176
     1
 90
        8
176
     1
 62
     7
176
     1
 40
1.0
176
     1
 90
        1
176
     1
 90
        6
176
     1
 90
        2
176
     1
 62
     7
176
     1
 90
        3
176
     1
 90
        0
176
     1
 90
        0
176
     1
290
     0
176
     1
 90
        1
176
     1
 40
0.0
176
     1
 90
        0
176
     1
290
     0
176
     1
290
     1
176
     1
290
     1
176
     1
290
     0
176
     1
290
     0
176
     1
290
     0
176
     1
290
     0
176
     1
290
     0
176
     1
290
     0
176
     1
 90
       50
176
     1
 40
0.0
176
     1
 40
1.0
176
     1
 90
        0
176
     1
 62
    18
176
     1
 90
       50
176
     1
 90
        3
176
     1
 62
     5
420
      255
176
     1
290
     0
176
     1
 90
       50
176
     1
 90
       50
176
     1
 90
       50
176
     1
290
     0
176
     1
 90
       50
176
     1
 62
   256
176
     0
 40
1.0
176
     0
 90
        2
176
     1
  1
strokes_ogs.tif
176
     1
290
     0
176
     1
 40
1.0
176
     1
 40
1.0
176
     1
1001
ACAD
1000
AcDbSavedByObjectVersion
1070
     0
  0
VISUALSTYLE
  5
718
102
{ACAD_REACTORS
330
2A
102
}
330
2A
100
AcDbVisualStyle
  2
Sketchy
 70
    24
177
     3
291
     0
 70
    58
 90
        1
176
     1
 90
        2
176
     1
 90
        2
176
     1
 90
        0
176
     1
 40
0.6
176
     1
 40
30.0
176
     1
 62
     7
420
 16777215
176
     1
 90
        2
176
     1
 90
        2
176
     1
 62
     7
176
     1
 62
     7
176
     1
 90
        1
176
     1
 90
        1
176
     1
 40
40.0
176
     1
 90
       11
176
     1
 62
     7
176
     1
 40
1.0
176
     1
 90
        1
176
     1
 90
        6
176
     1
 90
        2
176
     1
 62
     7
176
     1
 90
        6
176
     1
 90
        0
176
     1
 90
        0
176
     1
290
     0
176
     1
 90
        1
176
     1
 40
0.0
176
     1
 90
        0
176
     1
290
     0
176
     1
290
     1
176
     1
290
     1
176
     1
290
     0
176
     1
290
     0
176
     1
290
     0
176
     1
290
     0
176
     1
290
     0
176
     1
290
     0
176
     1
 90
       50
176
     1
 40
0.0
176
     1
 40
1.0
176
     1
 90
        0
176
     1
 62
    18
176
     1
 90
       50
176
     1
 90
        3
176
     1
 62
     5
420
      255
176
     1
290
     0
176
     1
 90
       50
176
     1
 90
       50
176
     1
 90
       50
176
     1
290
     0
176
     1
 90
       50
176
     1
 62
   256
176
     0
 40
1.0
176
     0
 90
        2
176
     1
  1
strokes_ogs.tif
176
     1
290
     0
176
     1
 40
1.0
176
     1
 40
1.0
176
     1
1001
ACAD
1000
AcDbSavedByObjectVersion
1070
     0
  0
VISUALSTYLE
  5
37
102
{ACAD_REACTORS
330
2A
102
}
330
2A
100
AcDbVisualStyle
  2

 70
    13
177
     3
291
     1
 70
    58
 90
        2
176
     1
 90
        2
176
     1
 90
        0
176
     1
 90
        0
176
     1
 40
0.6
176
     1
 40
30.0
176
     1
 62
     7
176
     1
 90
        1
176
     1
 90
        4
176
     1
 62
     7
176
     1
 62
   257
176
     1
 90
        1
176
     1
 90
        1
176
     1
 40
1.0
176
     1
 90
       12
176
     1
 62
     7
176
     1
 40
1.0
176
     1
 90
        1
176
     1
 90
        6
176
     1
 90
        2
176
     1
 62
     7
176
     1
 90
        5
176
     1
 90
        0
176
     1
 90
        0
176
     1
290
     0
176
     1
 90
        1
176
     1
 40
0.0
176
     1
 90
        0
176
     1
290
     0
176
     1
290
     1
176
     1
290
     1
176
     1
290
     0
176
     1
290
     0
176
     1
290
     0
176
     1
290
     0
176
     1
290
     0
176
     1
290
     0
176
     1
 90
       50
176
     1
 40
0.0
176
     1
 40
1.0
176
     1
 90
        0
176
     1
 62
    18
176
     1
 90
       50
176
     1
 90
        3
176
     1
 62
     5
420
      255
176
     1
290
     0
176
     1
 90
       50
176
     1
 90
       50
176
     1
 90
       50
176
     1
290
     0
176
     1
 90
       50
176
     1
 62
   256
176
     0
 40
1.0
176
     0
 90
        2
176
     1
  1
strokes_ogs.tif
176
     1
290
     0
176
     1
 40
1.0
176
     1
 40
1.0
176
     1
1001
ACAD
1000
AcDbSavedByObjectVersion
1070
     0
  0
VISUALSTYLE
  5
715
102
{ACAD_REACTORS
330
2A
102
}
330
2A
100
AcDbVisualStyle
  2
Wireframe
 70
     5
177
     3
291
     0
 70
    58
 90
        0
176
     1
 90
        2
176
     1
 90
        0
176
     1
 90
        0
176
     1
 40
0.6
176
     1
 40
30.0
176
     1
 62
     7
420
 16777215
176
     1
 90
        1
176
     1
 90
        4
176
     1
 62
     7
176
     1
 62
   257
176
     1
 90
        1
176
     1
 90
        1
176
     1
 40
1.0
176
     1
 90
        0
176
     1
 62
   257
176
     1
 40
1.0
176
     1
 90
        1
176
     1
 90
        6
176
     1
 90
        2
176
     1
 62
     7
176
     1
 90
        3
176
     1
 90
        0
176
     1
 90
        0
176
     1
290
     0
176
     1
 90
        1
176
     1
 40
0.0
176
     1
 90
        0
176
     1
290
     0
176
     1
290
     1
176
     1
290
     1
176
     1
290
     0
176
     1
290
     0
176
     1
290
     0
176
     1
290
     0
176
     1
290
     0
176
     1
290
     0
176
     1
 90
       50
176
     1
 40
0.0
176
     1
 40
1.0
176
     1
 90
        0
176
     1
 62
    18
176
     1
 90
       50
176
     1
 90
        3
176
     1
 62
     5
420
      255
176
     1
290
     0
176
     1
 90
       50
176
     1
 90
       50
176
     1
 90
       50
176
     1
290
     0
176
     1
 90
       50
176
     1
 62
   256
176
     0
 40
1.0
176
     0
 90
        2
176
     1
  1
strokes_ogs.tif
176
     1
290
     0
176
     1
 40
1.0
176
     1
 40
1.0
176
     1
1001
ACAD
1000
AcDbSavedByObjectVersion
1070
     0
  0
VISUALSTYLE
  5
719
102
{ACAD_REACTORS
330
2A
102
}
330
2A
100
AcDbVisualStyle
  2
X-Ray
 70
    25
177
     3
291
     0
 70
    58
 90
        2
176
     1
 90
        2
176
     1
 90
        1
176
     1
 90
        1
176
     1
 40
0.5
176
     1
 40
30.0
176
     1
 62
     7
420
 16777215
176
     1
 90
        1
176
     1
 90
        0
176
     1
 62
     7
176
     1
 62
   257
176
     1
 90
        1
176
     1
 90
        1
176
     1
 40
1.0
176
     1
 90
        8
176
     1
 62
     7
176
     1
 40
1.0
176
     1
 90
        1
176
     1
 90
        6
176
     1
 90
        2
176
     1
 62
     7
176
     1
 90
        3
176
     1
 90
        0
176
     1
 90
        0
176
     1
290
     0
176
     1
 90
       13
176
     1
 40
0.0
176
     1
 90
        0
176
     1
290
     0
176
     1
290
     1
176
     1
290
     1
176
     1
290
     0
176
     1
290
     0
176
     1
290
     0
176
     1
290
     0
176
     1
290
     0
176
     1
290
     0
176
     1
 90
       50
176
     1
 40
0.0
176
     1
 40
1.0
176
     1
 90
        0
176
     1
 62
    18
176
     1
 90
       50
176
     1
 90
        3
176
     1
 62
     5
420
      255
176
     1
290
     0
176
     1
 90
       50
176
     1
 90
       50
176
     1
 90
       50
176
     1
290
     0
176
     1
 90
       50
176
     1
 62
   256
176
     0
 40
1.0
176
     0
 90
        2
176
     1
  1
strokes_ogs.tif
176
     1
290
     0
176
     1
 40
1.0
176
     1
 40
1.0
176
     1
1001
ACAD
1000
AcDbSavedByObjectVersion
1070
     0
  0
DICTIONARYVAR
  5
8A3
102
{ACAD_REACTORS
330
6E1
102
}
330
6E1
100
DictionaryVariables
280
     0
  1
1:1
  0
DICTIONARYVAR
  5
89F
102
{ACAD_REACTORS
330
6E1
102
}
330
6E1
100
DictionaryVariables
280
     0
  1
STANDARD
  0
DICTIONARYVAR
  5
6E2
102
{ACAD_REACTORS
330
6E1
102
}
330
6E1
100
DictionaryVariables
280
     0
  1
STANDARD
  0
DICTIONARYVAR
  5
8A0
102
{ACAD_REACTORS
330
6E1
102
}
330
6E1
100
DictionaryVariables
280
     0
  1
Metric50
  0
DICTIONARYVAR
  5
8A1
102
{ACAD_REACTORS
330
6E1
102
}
330
6E1
100
DictionaryVariables
280
     0
  1
Metric50
  0
DICTIONARYVAR
  5
703
102
{ACAD_REACTORS
330
6E1
102
}
330
6E1
100
DictionaryVariables
280
     0
  1
1
  0
DICTIONARYVAR
  5
702
102
{ACAD_REACTORS
330
6E1
102
}
330
6E1
100
DictionaryVariables
280
     0
  1
0
  0
DICTIONARYVAR
  5
8A5
102
{ACAD_REACTORS
330
6E1
102
}
330
6E1
100
DictionaryVariables
280
     0
  1
1
  0
DICTIONARYVAR
  5
8A6
102
{ACAD_REACTORS
330
6E1
102
}
330
6E1
100
DictionaryVariables
280
     0
  1
15
  0
DICTIONARYVAR
  5
8A4
102
{ACAD_REACTORS
330
6E1
102
}
330
6E1
100
DictionaryVariables
280
     0
  1
0
  0
DICTIONARYVAR
  5
8A2
102
{ACAD_REACTORS
330
6E1
102
}
330
6E1
100
DictionaryVariables
280
     0
  1
0
  0
DICTIONARYVAR
  5
701
102
{ACAD_REACTORS
330
6E1
102
}
330
6E1
100
DictionaryVariables
280
     0
  1
127
  0
DICTIONARY
  5
FAE
330
8CD
100
AcDbDictionary
280
     1
281
     1
  3
ACAD_XREC_ROUNDTRIP
360
FAF
  0
DICTIONARY
  5
FAA
330
735
100
AcDbDictionary
280
     1
281
     1
  3
ACAD_XREC_ROUNDTRIP
360
FAB
  0
DICTIONARY
  5
70D
330
6DB
100
AcDbDictionary
280
     1
281
     1
  3
ACAD_XREC_ROUNDTRIP
360
70E
  0
DICTIONARY
  5
70B
330
6DA
100
AcDbDictionary
280
     1
281
     1
  3
ACAD_XREC_ROUNDTRIP
360
70C
  0
DICTIONARY
  5
70F
330
6DC
100
AcDbDictionary
280
     1
281
     1
  3
ACAD_XREC_ROUNDTRIP
360
710
  0
DICTIONARY
  5
FAC
330
8CC
100
AcDbDictionary
280
     1
281
     1
  3
ACAD_XREC_ROUNDTRIP
360
FAD
  0
DICTIONARY
  5
FA8
330
733
100
AcDbDictionary
280
     1
281
     1
  3
ACAD_XREC_ROUNDTRIP
360
FA9
  0
DICTIONARY
  5
8A7
330
6DE
100
AcDbDictionary
280
     1
281
     1
  3
ACAD_ROUNDTRIP_2008_TABLESTYLE_CELLSTYLEMAP
360
FA6
  0
XRECORD
  5
FAF
102
{ACAD_REACTORS
330
FAE
102
}
330
FAE
100
AcDbXrecord
280
     1
102
DISPLAYNAME
  1
Imperial24
102
FLAGS
 90
        0
  0
XRECORD
  5
FAB
102
{ACAD_REACTORS
330
FAA
102
}
330
FAA
100
AcDbXrecord
280
     1
102
DISPLAYNAME
  1
Metric50
102
FLAGS
 90
        0
  0
XRECORD
  5
70E
102
{ACAD_REACTORS
330
70D
102
}
330
70D
100
AcDbXrecord
280
     1
102
MATERIAL
148
0.0
149
0.0
149
0.0
 93
        0
 94
       63
282
     0
 72
     1
 77
     1
171
     1
175
     1
179
     1
273
     0
  0
XRECORD
  5
70C
102
{ACAD_REACTORS
330
70B
102
}
330
70B
100
AcDbXrecord
280
     1
102
MATERIAL
148
0.0
149
0.0
149
0.0
 93
        0
 94
       63
282
     0
 72
     1
 77
     1
171
     1
175
     1
179
     1
273
     0
  0
XRECORD
  5
710
102
{ACAD_REACTORS
330
70F
102
}
330
70F
100
AcDbXrecord
280
     1
102
MATERIAL
148
0.0
149
0.0
149
0.0
 93
        0
 94
       63
282
     0
 72
     1
 77
     1
171
     1
175
     1
179
     1
273
     0
  0
XRECORD
  5
FAD
102
{ACAD_REACTORS
330
FAC
102
}
330
FAC
100
AcDbXrecord
280
     1
102
DISPLAYNAME
  1
Imperial24
102
FLAGS
 90
        0
  0
XRECORD
  5
FA9
102
{ACAD_REACTORS
330
FA8
102
}
330
FA8
100
AcDbXrecord
280
     1
102
DISPLAYNAME
  1
Metric50
102
FLAGS
 90
        0
  0
CELLSTYLEMAP
  5
FA6
102
{ACAD_REACTORS
330
8A7
102
}
330
8A7
100
AcDbCellStyleMap
 90
        3
300
CELLSTYLE
  1
TABLEFORMAT_BEGIN
 90
        5
170
     1
 91
        0
 92
    32768
 62
   257
 93
        1
300
CONTENTFORMAT
  1
CONTENTFORMAT_BEGIN
 90
        0
 91
        0
 92
      512
 93
        0
300

 40
0.0
140
1.0
 94
        5
 62
     0
340
11
144
6.0
309
CONTENTFORMAT_END
171
     1
301
MARGIN
  1
CELLMARGIN_BEGIN
 40
1.5
 40
1.5
 40
1.5
 40
1.5
 40
0.18
 40
0.18
309
CELLMARGIN_END
 94
        6
 95
        1
302
GRIDFORMAT
  1
GRIDFORMAT_BEGIN
 90
        0
 91
        1
 62
     0
 92
       -2
340
0
 93
        0
 40
0.045
309
GRIDFORMAT_END
 95
        2
302
GRIDFORMAT
  1
GRIDFORMAT_BEGIN
 90
        0
 91
        1
 62
     0
 92
       -2
340
0
 93
        0
 40
0.045
309
GRIDFORMAT_END
 95
        4
302
GRIDFORMAT
  1
GRIDFORMAT_BEGIN
 90
        0
 91
        1
 62
     0
 92
       -2
340
0
 93
        0
 40
0.045
309
GRIDFORMAT_END
 95
        8
302
GRIDFORMAT
  1
GRIDFORMAT_BEGIN
 90
        0
 91
        1
 62
     0
 92
       -2
340
0
 93
        0
 40
0.045
309
GRIDFORMAT_END
 95
       16
302
GRIDFORMAT
  1
GRIDFORMAT_BEGIN
 90
        0
 91
        1
 62
     0
 92
       -2
340
0
 93
        0
 40
0.045
309
GRIDFORMAT_END
 95
       32
302
GRIDFORMAT
  1
GRIDFORMAT_BEGIN
 90
        0
 91
        1
 62
     0
 92
       -2
340
0
 93
        0
 40
0.045
309
GRIDFORMAT_END
309
TABLEFORMAT_END
  1
CELLSTYLE_BEGIN
 90
        1
 91
        1
300
_TITLE
309
CELLSTYLE_END
300
CELLSTYLE
  1
TABLEFORMAT_BEGIN
 90
        5
170
     1
 91
        0
 92
        0
 62
   257
 93
        1
300
CONTENTFORMAT
  1
CONTENTFORMAT_BEGIN
 90
        0
 91
        0
 92
      512
 93
        0
300

 40
0.0
140
1.0
 94
        5
 62
     0
340
11
144
4.5
309
CONTENTFORMAT_END
171
     1
301
MARGIN
  1
CELLMARGIN_BEGIN
 40
1.5
 40
1.5
 40
1.5
 40
1.5
 40
0.18
 40
0.18
309
CELLMARGIN_END
 94
        6
 95
        1
302
GRIDFORMAT
  1
GRIDFORMAT_BEGIN
 90
        0
 91
        1
 62
     0
 92
       -2
340
0
 93
        0
 40
0.045
309
GRIDFORMAT_END
 95
        2
302
GRIDFORMAT
  1
GRIDFORMAT_BEGIN
 90
        0
 91
        1
 62
     0
 92
       -2
340
0
 93
        0
 40
0.045
309
GRIDFORMAT_END
 95
        4
302
GRIDFORMAT
  1
GRIDFORMAT_BEGIN
 90
        0
 91
        1
 62
     0
 92
       -2
340
0
 93
        0
 40
0.045
309
GRIDFORMAT_END
 95
        8
302
GRIDFORMAT
  1
GRIDFORMAT_BEGIN
 90
        0
 91
        1
 62
     0
 92
       -2
340
0
 93
        0
 40
0.045
309
GRIDFORMAT_END
 95
       16
302
GRIDFORMAT
  1
GRIDFORMAT_BEGIN
 90
        0
 91
        1
 62
     0
 92
       -2
340
0
 93
        0
 40
0.045
309
GRIDFORMAT_END
 95
       32
302
GRIDFORMAT
  1
GRIDFORMAT_BEGIN
 90
        0
 91
        1
 62
     0
 92
       -2
340
0
 93
        0
 40
0.045
309
GRIDFORMAT_END
309
TABLEFORMAT_END
  1
CELLSTYLE_BEGIN
 90
        2
 91
        1
300
_HEADER
309
CELLSTYLE_END
300
CELLSTYLE
  1
TABLEFORMAT_BEGIN
 90
        5
170
     1
 91
        0
 92
        0
 62
   257
 93
        1
300
CONTENTFORMAT
  1
CONTENTFORMAT_BEGIN
 90
        0
 91
        0
 92
      512
 93
        0
300

 40
0.0
140
1.0
 94
        2
 62
     0
340
11
144
4.5
309
CONTENTFORMAT_END
171
     1
301
MARGIN
  1
CELLMARGIN_BEGIN
 40
1.5
 40
1.5
 40
1.5
 40
1.5
 40
0.18
 40
0.18
309
CELLMARGIN_END
 94
        6
 95
        1
302
GRIDFORMAT
  1
GRIDFORMAT_BEGIN
 90
        0
 91
        1
 62
     0
 92
       -2
340
0
 93
        0
 40
0.045
309
GRIDFORMAT_END
 95
        2
302
GRIDFORMAT
  1
GRIDFORMAT_BEGIN
 90
        0
 91
        1
 62
     0
 92
       -2
340
0
 93
        0
 40
0.045
309
GRIDFORMAT_END
 95
        4
302
GRIDFORMAT
  1
GRIDFORMAT_BEGIN
 90
        0
 91
        1
 62
     0
 92
       -2
340
0
 93
        0
 40
0.045
309
GRIDFORMAT_END
 95
        8
302
GRIDFORMAT
  1
GRIDFORMAT_BEGIN
 90
        0
 91
        1
 62
     0
 92
       -2
340
0
 93
        0
 40
0.045
309
GRIDFORMAT_END
 95
       16
302
GRIDFORMAT
  1
GRIDFORMAT_BEGIN
 90
        0
 91
        1
 62
     0
 92
       -2
340
0
 93
        0
 40
0.045
309
GRIDFORMAT_END
 95
       32
302
GRIDFORMAT
  1
GRIDFORMAT_BEGIN
 90
        0
 91
        1
 62
     0
 92
       -2
340
0
 93
        0
 40
0.045
309
GRIDFORMAT_END
309
TABLEFORMAT_END
  1
CELLSTYLE_BEGIN
 90
        3
 91
        2
300
_DATA
309
CELLSTYLE_END
  0
ENDSEC
  0
EOF
