  0
SECTION
  2
HEADER
  9
$ACADVER
  1
AC1024
  9
$ACADMAINTVER
 70
   205
  9
$DWGCODEPAGE
  3
ANSI_1252
  9
$LASTSAVEDBY
  1
kaschu
  9
$INSBASE
 10
0.0
 20
0.0
 30
0.0
  9
$EXTMIN
 10
-1066.32718108924
 20
427.1656651687476
 30
0.0
  9
$EXTMAX
 10
1818.814640580531
 20
1891.94775439892
 30
0.000000000000001
  9
$LIMMIN
 10
0.0
 20
0.0
  9
$LIMMAX
 10
0.0
 20
0.0
  9
$ORTHOMODE
 70
     1
  9
$REGENMODE
 70
     1
  9
$FILLMODE
 70
     1
  9
$QTEXTMODE
 70
     0
  9
$MIRRTEXT
 70
     1
  9
$LTSCALE
 40
1.0
  9
$ATTMODE
 70
     1
  9
$TEXTSIZE
 40
0.0
  9
$TRACEWID
 40
0.05
  9
$TEXTSTYLE
  7
STANDARD
  9
$CLAYER
  8
0
  9
$CELTYPE
  6
CONTINUOUS
  9
$CECOLOR
 62
   256
  9
$CELTSCALE
 40
1.0
  9
$DISPSILH
 70
     0
  9
$DIMSCALE
 40
1.0
  9
$DIMASZ
 40
0.18
  9
$DIMEXO
 40
0.0625
  9
$DIMDLI
 40
0.38
  9
$DIMRND
 40
0.0
  9
$DIMDLE
 40
0.0
  9
$DIMEXE
 40
0.18
  9
$DIMTP
 40
0.0
  9
$DIMTM
 40
0.0
  9
$DIMTXT
 40
0.18
  9
$DIMCEN
 40
0.09
  9
$DIMTSZ
 40
0.0
  9
$DIMTOL
 70
     0
  9
$DIMLIM
 70
     0
  9
$DIMTIH
 70
     1
  9
$DIMTOH
 70
     1
  9
$DIMSE1
 70
     0
  9
$DIMSE2
 70
     0
  9
$DIMTAD
 70
     0
  9
$DIMZIN
 70
     0
  9
$DIMBLK
  1

  9
$DIMASO
 70
     1
  9
$DIMSHO
 70
     1
  9
$DIMPOST
  1

  9
$DIMAPOST
  1

  9
$DIMALT
 70
     0
  9
$DIMALTD
 70
     2
  9
$DIMALTF
 40
25.4
  9
$DIMLFAC
 40
1.0
  9
$DIMTOFL
 70
     0
  9
$DIMTVP
 40
0.0
  9
$DIMTIX
 70
     0
  9
$DIMSOXD
 70
     0
  9
$DIMSAH
 70
     0
  9
$DIMBLK1
  1

  9
$DIMBLK2
  1

  9
$DIMSTYLE
  2
STANDARD
  9
$DIMCLRD
 70
     0
  9
$DIMCLRE
 70
     0
  9
$DIMCLRT
 70
     0
  9
$DIMTFAC
 40
1.0
  9
$DIMGAP
 40
0.09
  9
$DIMJUST
 70
     0
  9
$DIMSD1
 70
     0
  9
$DIMSD2
 70
     0
  9
$DIMTOLJ
 70
     1
  9
$DIMTZIN
 70
     0
  9
$DIMALTZ
 70
     0
  9
$DIMALTTZ
 70
     0
  9
$DIMUPT
 70
     0
  9
$DIMDEC
 70
     4
  9
$DIMTDEC
 70
     4
  9
$DIMALTU
 70
     2
  9
$DIMALTTD
 70
     2
  9
$DIMTXSTY
  7
STANDARD
  9
$DIMAUNIT
 70
     0
  9
$DIMADEC
 70
     0
  9
$DIMALTRND
 40
0.0
  9
$DIMAZIN
 70
     0
  9
$DIMDSEP
 70
    46
  9
$DIMATFIT
 70
     3
  9
$DIMFRAC
 70
     0
  9
$DIMLDRBLK
  1

  9
$DIMLUNIT
 70
     2
  9
$DIMLWD
 70
    -2
  9
$DIMLWE
 70
    -2
  9
$DIMTMOVE
 70
     0
  9
$DIMFXL
 40
1.0
  9
$DIMFXLON
 70
     0
  9
$DIMJOGANG
 40
0.7853981633974483
  9
$DIMTFILL
 70
     0
  9
$DIMTFILLCLR
 70
     0
  9
$DIMARCSYM
 70
     0
  9
$DIMLTYPE
  6

  9
$DIMLTEX1
  6

  9
$DIMLTEX2
  6

  9
$DIMTXTDIRECTION
 70
     0
  9
$LUNITS
 70
     2
  9
$LUPREC
 70
     4
  9
$SKETCHINC
 40
0.1
  9
$FILLETRAD
 40
0.0
  9
$AUNITS
 70
     0
  9
$AUPREC
 70
     0
  9
$MENU
  1
acad
  9
$ELEVATION
 40
0.0
  9
$PELEVATION
 40
0.0
  9
$THICKNESS
 40
0.0
  9
$LIMCHECK
 70
     0
  9
$CHAMFERA
 40
0.0
  9
$CHAMFERB
 40
0.0
  9
$CHAMFERC
 40
0.0
  9
$CHAMFERD
 40
0.0
  9
$SKPOLY
 70
     0
  9
$TDCREATE
 40
2444972.041666667
  9
$TDUCREATE
 40
2444972.000000000
  9
$TDUPDATE
 40
2458423.607099873
  9
$TDUUPDATE
 40
2458423.565433206
  9
$TDINDWG
 40
0.0764509375
  9
$TDUSRTIMER
 40
0.0764509375
  9
$USRTIMER
 70
     1
  9
$ANGBASE
 50
0.0
  9
$ANGDIR
 70
     0
  9
$PDMODE
 70
     0
  9
$PDSIZE
 40
0.0
  9
$PLINEWID
 40
0.0
  9
$SPLFRAME
 70
     0
  9
$SPLINETYPE
 70
     6
  9
$SPLINESEGS
 70
     8
  9
$HANDSEED
  5
2174
  9
$SURFTAB1
 70
     6
  9
$SURFTAB2
 70
     6
  9
$SURFTYPE
 70
     6
  9
$SURFU
 70
     6
  9
$SURFV
 70
     6
  9
$UCSBASE
  2

  9
$UCSNAME
  2

  9
$UCSORG
 10
0.0
 20
0.0
 30
0.0
  9
$UCSXDIR
 10
1.0
 20
0.0
 30
0.0
  9
$UCSYDIR
 10
0.0
 20
1.0
 30
0.0
  9
$UCSORTHOREF
  2

  9
$UCSORTHOVIEW
 70
     0
  9
$UCSORGTOP
 10
0.0
 20
0.0
 30
0.0
  9
$UCSORGBOTTOM
 10
0.0
 20
0.0
 30
0.0
  9
$UCSORGLEFT
 10
0.0
 20
0.0
 30
0.0
  9
$UCSORGRIGHT
 10
0.0
 20
0.0
 30
0.0
  9
$UCSORGFRONT
 10
0.0
 20
0.0
 30
0.0
  9
$UCSORGBACK
 10
0.0
 20
0.0
 30
0.0
  9
$PUCSBASE
  2

  9
$PUCSNAME
  2

  9
$PUCSORG
 10
0.0
 20
0.0
 30
0.0
  9
$PUCSXDIR
 10
1.0
 20
0.0
 30
0.0
  9
$PUCSYDIR
 10
0.0
 20
1.0
 30
0.0
  9
$PUCSORTHOREF
  2

  9
$PUCSORTHOVIEW
 70
     0
  9
$PUCSORGTOP
 10
0.0
 20
0.0
 30
0.0
  9
$PUCSORGBOTTOM
 10
0.0
 20
0.0
 30
0.0
  9
$PUCSORGLEFT
 10
0.0
 20
0.0
 30
0.0
  9
$PUCSORGRIGHT
 10
0.0
 20
0.0
 30
0.0
  9
$PUCSORGFRONT
 10
0.0
 20
0.0
 30
0.0
  9
$PUCSORGBACK
 10
0.0
 20
0.0
 30
0.0
  9
$USERI1
 70
     0
  9
$USERI2
 70
     0
  9
$USERI3
 70
     0
  9
$USERI4
 70
     0
  9
$USERI5
 70
     0
  9
$USERR1
 40
0.0
  9
$USERR2
 40
0.0
  9
$USERR3
 40
0.0
  9
$USERR4
 40
0.0
  9
$USERR5
 40
0.0
  9
$WORLDVIEW
 70
     1
  9
$SHADEDGE
 70
     3
  9
$SHADEDIF
 70
    70
  9
$TILEMODE
 70
     1
  9
$MAXACTVP
 70
    16
  9
$PINSBASE
 10
0.0
 20
0.0
 30
0.0
  9
$PLIMCHECK
 70
     0
  9
$PEXTMIN
 10
1.000000000000000E+20
 20
1.000000000000000E+20
 30
1.000000000000000E+20
  9
$PEXTMAX
 10
-1.000000000000000E+20
 20
-1.000000000000000E+20
 30
-1.000000000000000E+20
  9
$PLIMMIN
 10
0.0
 20
0.0
  9
$PLIMMAX
 10
12.0
 20
9.0
  9
$UNITMODE
 70
     0
  9
$VISRETAIN
 70
     0
  9
$PLINEGEN
 70
     1
  9
$PSLTSCALE
 70
     0
  9
$TREEDEPTH
 70
  3020
  9
$CMLSTYLE
  2
STANDARD
  9
$CMLJUST
 70
     0
  9
$CMLSCALE
 40
1.0
  9
$PROXYGRAPHICS
 70
     1
  9
$MEASUREMENT
 70
     0
  9
$CELWEIGHT
370
    -1
  9
$ENDCAPS
280
     0
  9
$JOINSTYLE
280
     0
  9
$LWDISPLAY
290
     0
  9
$INSUNITS
 70
     0
  9
$HYPERLINKBASE
  1

  9
$STYLESHEET
  1

  9
$XEDIT
290
     1
  9
$CEPSNTYPE
380
     0
  9
$PSTYLEMODE
290
     1
  9
$FINGERPRINTGUID
  2
{C42C7404-66E8-4EE7-B980-3F780FB4F119}
  9
$VERSIONGUID
  2
{8B4B798A-CC6E-41F9-B063-6FFD74206954}
  9
$EXTNAMES
290
     1
  9
$PSVPSCALE
 40
0.0
  9
$OLESTARTUP
290
     0
  9
$SORTENTS
280
   127
  9
$INDEXCTL
280
     0
  9
$HIDETEXT
280
     0
  9
$XCLIPFRAME
280
     2
  9
$HALOGAP
280
     0
  9
$OBSCOLOR
 70
   257
  9
$OBSLTYPE
280
     0
  9
$INTERSECTIONDISPLAY
280
     0
  9
$INTERSECTIONCOLOR
 70
   257
  9
$DIMASSOC
280
     1
  9
$PROJECTNAME
  1

  9
$CAMERADISPLAY
290
     0
  9
$LENSLENGTH
 40
50.0
  9
$CAMERAHEIGHT
 40
0.0
  9
$STEPSPERSEC
 40
2.0
  9
$STEPSIZE
 40
6.0
  9
$3DDWFPREC
 40
2.0
  9
$PSOLWIDTH
 40
0.25
  9
$PSOLHEIGHT
 40
4.0
  9
$LOFTANG1
 40
1.570796326794896
  9
$LOFTANG2
 40
1.570796326794896
  9
$LOFTMAG1
 40
0.0
  9
$LOFTMAG2
 40
0.0
  9
$LOFTPARAM
 70
     7
  9
$LOFTNORMALS
280
     1
  9
$LATITUDE
 40
37.795
  9
$LONGITUDE
 40
-122.394
  9
$NORTHDIRECTION
 40
0.0
  9
$TIMEZONE
 70
 -8000
  9
$LIGHTGLYPHDISPLAY
280
     1
  9
$TILEMODELIGHTSYNCH
280
     1
  9
$CMATERIAL
347
665
  9
$SOLIDHIST
280
     0
  9
$SHOWHIST
280
     1
  9
$DWFFRAME
280
     2
  9
$DGNFRAME
280
     0
  9
$REALWORLDSCALE
290
     1
  9
$INTERFERECOLOR
 62
     1
  9
$INTERFEREOBJVS
345
687
  9
$INTERFEREVPVS
346
684
  9
$CSHADOW
280
     0
  9
$SHADOWPLANELOCATION
 40
0.0
  0
ENDSEC
  0
SECTION
  2
CLASSES
  0
CLASS
  1
IMAGE
  2
AcDbRasterImage
  3
ISM
 90
     2175
 91
        0
280
     0
281
     1
  0
CLASS
  1
DICTIONARYVAR
  2
AcDbDictionaryVar
  3
ObjectDBX Classes
 90
        0
 91
        9
280
     0
281
     0
  0
CLASS
  1
RASTERVARIABLES
  2
AcDbRasterVariables
  3
ISM
 90
        0
 91
        0
280
     0
281
     0
  0
CLASS
  1
IMAGEDEF
  2
AcDbRasterImageDef
  3
ISM
 90
        0
 91
        0
280
     0
281
     0
  0
CLASS
  1
IMAGEDEF_REACTOR
  2
AcDbRasterImageDefReactor
  3
ISM
 90
        1
 91
        0
280
     0
281
     0
  0
CLASS
  1
IDBUFFER
  2
AcDbIdBuffer
  3
ObjectDBX Classes
 90
        0
 91
        0
280
     0
281
     0
  0
CLASS
  1
SPATIAL_FILTER
  2
AcDbSpatialFilter
  3
ObjectDBX Classes
 90
        0
 91
        0
280
     0
281
     0
  0
CLASS
  1
SORTENTSTABLE
  2
AcDbSortentsTable
  3
ObjectDBX Classes
 90
        0
 91
        1
280
     0
281
     0
  0
CLASS
  1
LAYER_INDEX
  2
AcDbLayerIndex
  3
ObjectDBX Classes
 90
        0
 91
        0
280
     0
281
     0
  0
CLASS
  1
SPATIAL_INDEX
  2
AcDbSpatialIndex
  3
ObjectDBX Classes
 90
        0
 91
        0
280
     0
281
     0
  0
CLASS
  1
OBJECT_PTR
  2
CAseDLPNTableRecord
  3
"ASE-LPNTableRecord"
 90
        0
 91
        0
280
     0
281
     0
  0
CLASS
  1
PLOTSETTINGS
  2
AcDbPlotSettings
  3
ObjectDBX Classes
 90
        0
 91
        0
280
     0
281
     0
  0
CLASS
  1
ACDBDICTIONARYWDFLT
  2
AcDbDictionaryWithDefault
  3
ObjectDBX Classes
 90
        0
 91
        1
280
     0
281
     0
  0
CLASS
  1
WIPEOUT
  2
AcDbWipeout
  3
WipeOut|Product Desc: Object Enabler for WipeOut entity | Company: Autodesk, Inc. | WEB Address: www.autodesk.com
 90
     2175
 91
        0
280
     0
281
     1
  0
CLASS
  1
WIPEOUTVARIABLES
  2
AcDbWipeoutVariables
  3
"WipeOut|Product Desc:     WipeOut Dbx Application|Company:          Autodesk, Inc.|WEB Address:      www.autodesk.com"
 90
        0
 91
        0
280
     0
281
     0
  0
CLASS
  1
RTEXT
  2
RText
  3
RText|AutoCAD Express Tool|expresstools@autodesk.com
 90
        0
 91
        0
280
     0
281
     1
  0
CLASS
  1
ARCALIGNEDTEXT
  2
AcDbArcAlignedText
  3
ATEXT|AutoCAD Express Tool|expresstools@autodesk.com
 90
        0
 91
        0
280
     0
281
     1
  0
CLASS
  1
MATERIAL
  2
AcDbMaterial
  3
ObjectDBX Classes
 90
     1153
 91
        3
280
     0
281
     0
  0
CLASS
  1
VISUALSTYLE
  2
AcDbVisualStyle
  3
ObjectDBX Classes
 90
     4095
 91
       24
280
     0
281
     0
  0
CLASS
  1
TABLESTYLE
  2
AcDbTableStyle
  3
ObjectDBX Classes
 90
     4095
 91
        1
280
     0
281
     0
  0
CLASS
  1
SCALE
  2
AcDbScale
  3
ObjectDBX Classes
 90
     1153
 91
       17
280
     0
281
     0
  0
CLASS
  1
MLEADERSTYLE
  2
AcDbMLeaderStyle
  3
ACDB_MLEADERSTYLE_CLASS
 90
     4095
 91
        1
280
     0
281
     0
  0
CLASS
  1
ACDBSECTIONVIEWSTYLE
  2
AcDbSectionViewStyle
  3
ObjectDBX Classes
 90
     1025
 91
        2
280
     0
281
     0
  0
CLASS
  1
ACDBDETAILVIEWSTYLE
  2
AcDbDetailViewStyle
  3
ObjectDBX Classes
 90
     1025
 91
        2
280
     0
281
     0
  0
CLASS
  1
CELLSTYLEMAP
  2
AcDbCellStyleMap
  3
ObjectDBX Classes
 90
     1152
 91
        3
280
     0
281
     0
  0
ENDSEC
  0
SECTION
  2
TABLES
  0
TABLE
  2
VPORT
  5
7
330
0
100
AcDbSymbolTable
 70
     1
  0
VPORT
  5
15
330
7
100
AcDbSymbolTableRecord
100
AcDbViewportTableRecord
  2
*ACTIVE
 70
     0
 10
0.0
 20
0.0
 11
1.0
 21
1.0
 12
-39.10090023014141
 22
1271.600088923488
 13
0.0
 23
0.0
 14
1.0
 24
1.0
 15
0.0
 25
0.0
 16
0.0
 26
0.0
 36
1.0
 17
0.0
 27
0.0
 37
0.0
 40
1757.70222102795
 41
2.274482758620689
 42
50.0
 43
0.0
 44
0.0
 50
0.0
 51
0.0
 71
     0
 72
   100
 73
     1
 74
     1
 75
     0
 76
     0
 77
     0
 78
     0
281
     0
 65
     1
110
0.0
120
0.0
130
0.0
111
1.0
121
0.0
131
0.0
112
0.0
122
1.0
132
0.0
 79
     0
146
0.0
348
683
 60
     3
 61
     5
292
     1
282
     1
141
0.0
142
0.0
 63
   250
421
  3355443
1001
ACAD_NAV_VCDISPLAY
1070
     3
  0
ENDTAB
  0
TABLE
  2
LTYPE
  5
4
330
0
100
AcDbSymbolTable
 70
     2
  0
LTYPE
  5
11
330
4
100
AcDbSymbolTableRecord
100
AcDbLinetypeTableRecord
  2
BYBLOCK
 70
     0
  3

 72
    65
 73
     0
 40
0.0
  0
LTYPE
  5
12
330
4
100
AcDbSymbolTableRecord
100
AcDbLinetypeTableRecord
  2
BYLAYER
 70
     0
  3

 72
    65
 73
     0
 40
0.0
  0
LTYPE
  5
13
330
4
100
AcDbSymbolTableRecord
100
AcDbLinetypeTableRecord
  2
CONTINUOUS
 70
     0
  3
Solid line
 72
    65
 73
     0
 40
0.0
  0
LTYPE
  5
1E
330
4
100
AcDbSymbolTableRecord
100
AcDbLinetypeTableRecord
  2
STANDARD
 70
     0
  3

 72
    65
 73
     0
 40
0.0
  0
ENDTAB
  0
TABLE
  2
LAYER
  5
2
102
{ACAD_XDICTIONARY
360
6CF
102
}
330
0
100
AcDbSymbolTable
 70
     4
  0
LAYER
  5
14
102
{ACAD_XDICTIONARY
360
6B8
102
}
330
2
100
AcDbSymbolTableRecord
100
AcDbLayerTableRecord
  2
0
 70
     0
 62
     7
  6
CONTINUOUS
370
    -3
390
663
347
675
  0
LAYER
  5
1D
102
{ACAD_XDICTIONARY
360
6BA
102
}
330
2
100
AcDbSymbolTableRecord
100
AcDbLayerTableRecord
  2
BEMA_UNG
 70
     0
 62
   171
  6
CONTINUOUS
370
    -3
390
663
347
675
  0
LAYER
  5
6CC
330
2
100
AcDbSymbolTableRecord
100
AcDbLayerTableRecord
  2
HEWI
 70
     0
 62
     7
  6
CONTINUOUS
370
     9
390
663
347
675
1001
AcAecLayerStandard
1000

1000

1001
AcCmTransparency
1071
        0
  0
LAYER
  5
929
330
2
100
AcDbSymbolTableRecord
100
AcDbLayerTableRecord
  2
Defpoints
 70
     0
 62
     7
  6
CONTINUOUS
290
     0
370
    -3
390
663
347
675
  0
ENDTAB
  0
TABLE
  2
STYLE
  5
3
330
0
100
AcDbSymbolTable
 70
     2
  0
STYLE
  5
17
330
3
100
AcDbSymbolTableRecord
100
AcDbTextStyleTableRecord
  2
STANDARD
 70
     0
 40
0.0
 41
1.0
 50
0.0
 71
     0
 42
0.0
  3
txt
  4

  0
STYLE
  5
A59
330
3
100
AcDbSymbolTableRecord
100
AcDbTextStyleTableRecord
  2
Arial
 70
     0
 40
0.0
 41
1.0
 50
0.0
 71
     0
 42
35.0
  3
arial.ttf
  4

1001
ACAD
1000
Arial
1071
       34
  0
ENDTAB
  0
TABLE
  2
VIEW
  5
5
330
0
100
AcDbSymbolTable
 70
     0
  0
ENDTAB
  0
TABLE
  2
UCS
  5
6
330
0
100
AcDbSymbolTable
 70
     0
  0
ENDTAB
  0
TABLE
  2
APPID
  5
8
330
0
100
AcDbSymbolTable
 70
     6
  0
APPID
  5
16
330
8
100
AcDbSymbolTableRecord
100
AcDbRegAppTableRecord
  2
ACAD
 70
     0
  0
APPID
  5
6BC
330
8
100
AcDbSymbolTableRecord
100
AcDbRegAppTableRecord
  2
ACAD_NAV_VCDISPLAY
 70
     0
  0
APPID
  5
6CD
330
8
100
AcDbSymbolTableRecord
100
AcDbRegAppTableRecord
  2
AcAecLayerStandard
 70
     0
  0
APPID
  5
6CE
330
8
100
AcDbSymbolTableRecord
100
AcDbRegAppTableRecord
  2
AcCmTransparency
 70
     0
  0
APPID
  5
1A57
330
8
100
AcDbSymbolTableRecord
100
AcDbRegAppTableRecord
  2
ACAD_PSEXT
 70
     0
  0
APPID
  5
1BF6
330
8
100
AcDbSymbolTableRecord
100
AcDbRegAppTableRecord
  2
ACAD_EXEMPT_FROM_CAD_STANDARDS
 70
     0
  0
ENDTAB
  0
TABLE
  2
DIMSTYLE
  5
9
330
0
100
AcDbSymbolTable
 70
     2
100
AcDbDimStyleTable
 71
     1
340
18
  0
DIMSTYLE
105
18
102
{ACAD_REACTORS
330
928
330
20E6
330
20FE
102
}
330
9
100
AcDbSymbolTableRecord
100
AcDbDimStyleTableRecord
  2
STANDARD
 70
     0
289
     0
340
17
  0
DIMSTYLE
105
A5A
330
9
100
AcDbSymbolTableRecord
100
AcDbDimStyleTableRecord
  2
ISO-25
 70
     0
 41
2.5
 42
0.625
 43
3.75
 44
1.25
 73
     0
 74
     0
 77
     1
 78
     8
140
2.5
141
2.5
143
0.03937007874016
147
0.625
171
     3
172
     1
271
     2
272
     2
274
     3
278
    44
283
     0
284
     8
340
17
  0
ENDTAB
  0
TABLE
  2
BLOCK_RECORD
  5
1
330
0
100
AcDbSymbolTable
 70
     8
  0
BLOCK_RECORD
  5
A
102
{ACAD_XDICTIONARY
360
1C0D
102
}
330
1
100
AcDbSymbolTableRecord
100
AcDbBlockTableRecord
  2
*MODEL_SPACE
340
6B3
 70
     0
280
     1
281
     0
  0
BLOCK_RECORD
  5
B
330
1
100
AcDbSymbolTableRecord
100
AcDbBlockTableRecord
  2
*PAPER_SPACE
340
6B4
 70
     0
280
     1
281
     0
  0
BLOCK_RECORD
  5
92A
330
1
100
AcDbSymbolTableRecord
100
AcDbBlockTableRecord
  2
*D0
340
0
 70
     0
280
     1
281
     0
  0
BLOCK_RECORD
  5
A54
330
1
100
AcDbSymbolTableRecord
100
AcDbBlockTableRecord
  2
_Dot
340
0
102
{BLKREFS
102
}
 70
     0
280
     1
281
     0
  0
BLOCK_RECORD
  5
1DB8
330
1
100
AcDbSymbolTableRecord
100
AcDbBlockTableRecord
  2
*D5
340
0
 70
     0
280
     1
281
     0
  0
BLOCK_RECORD
  5
20E7
330
1
100
AcDbSymbolTableRecord
100
AcDbBlockTableRecord
  2
*D6
340
0
 70
     0
280
     1
281
     0
  0
BLOCK_RECORD
  5
20FF
330
1
100
AcDbSymbolTableRecord
100
AcDbBlockTableRecord
  2
*D7
340
0
 70
     0
280
     1
281
     0
  0
ENDTAB
  0
ENDSEC
  0
SECTION
  2
BLOCKS
  0
BLOCK
  5
D
330
A
100
AcDbEntity
  8
0
100
AcDbBlockBegin
  2
*MODEL_SPACE
 70
     0
 10
0.0
 20
0.0
 30
0.0
  3
*MODEL_SPACE
  1

  0
ENDBLK
  5
E
330
A
100
AcDbEntity
  8
0
100
AcDbBlockEnd
  0
BLOCK
  5
F
330
B
100
AcDbEntity
 67
     1
  8
0
100
AcDbBlockBegin
  2
*PAPER_SPACE
 70
     0
 10
0.0
 20
0.0
 30
0.0
  3
*PAPER_SPACE
  1

  0
ENDBLK
  5
10
330
B
100
AcDbEntity
 67
     1
  8
0
100
AcDbBlockEnd
  0
BLOCK
  5
92B
330
92A
100
AcDbEntity
  8
0
100
AcDbBlockBegin
  2
*D0
 70
     1
 10
0.0
 20
0.0
 30
0.0
  3
*D0
  1

  0
LINE
  5
1E04
330
92A
100
AcDbEntity
  8
0
  6
Continuous
 62
     0
440
 16777216
370
    -2
100
AcDbLine
 10
-644.2656706030377
 20
1601.109512339239
 30
0.0
 11
-644.2656706030377
 21
1727.411333488958
 31
0.0
  0
LINE
  5
1E05
330
92A
100
AcDbEntity
  8
0
  6
Continuous
 62
     0
440
 16777216
370
    -2
100
AcDbLine
 10
-144.2656706030377
 20
1601.109512339239
 30
0.0
 11
-144.2656706030377
 21
1727.411333488958
 31
0.0
  0
LINE
  5
1E06
330
92A
100
AcDbEntity
  8
0
  6
Continuous
 62
     0
440
 16777216
370
    -2
100
AcDbLine
 10
-629.2656706030377
 20
1727.231333488958
 30
0.0
 11
-490.9323372697044
 21
1727.231333488958
 31
0.0
  0
LINE
  5
1E07
330
92A
100
AcDbEntity
  8
0
  6
Continuous
 62
     0
440
 16777216
370
    -2
100
AcDbLine
 10
-159.2656706030377
 20
1727.231333488958
 30
0.0
 11
-297.599003936371
 21
1727.231333488958
 31
0.0
  0
SOLID
  5
1E08
330
92A
100
AcDbEntity
  8
0
  6
Continuous
 62
     0
440
 16777216
100
AcDbTrace
 10
-629.2656706030377
 20
1729.731333488958
 30
0.0
 11
-629.2656706030377
 21
1724.731333488958
 31
0.0
 12
-644.2656706030377
 22
1727.231333488958
 32
0.0
 13
-644.2656706030377
 23
1727.231333488958
 33
0.0
  0
SOLID
  5
1E09
330
92A
100
AcDbEntity
  8
0
  6
Continuous
 62
     0
440
 16777216
100
AcDbTrace
 10
-159.2656706030377
 20
1729.731333488958
 30
0.0
 11
-159.2656706030377
 21
1724.731333488958
 31
0.0
 12
-144.2656706030377
 22
1727.231333488958
 32
0.0
 13
-144.2656706030377
 23
1727.231333488958
 33
0.0
  0
MTEXT
  5
1E0A
330
92A
100
AcDbEntity
  8
0
  6
Continuous
 62
     0
440
 16777216
100
AcDbMText
 10
-394.2656706030377
 20
1727.231333488958
 30
0.0
 40
20.0
 41
0.0
 46
0.0
 71
     5
 72
     1
  1
\A1;486 - 586
 73
     1
 44
1.0
  0
POINT
  5
1E0B
330
92A
100
AcDbEntity
  8
Defpoints
  6
Continuous
 62
     0
440
 16777216
100
AcDbPoint
 10
-644.2656706030377
 20
1601.047012339239
 30
0.0
  0
POINT
  5
1E0C
330
92A
100
AcDbEntity
  8
Defpoints
  6
Continuous
 62
     0
440
 16777216
100
AcDbPoint
 10
-144.2656706030377
 20
1601.047012339239
 30
0.0
  0
POINT
  5
1E0D
330
92A
100
AcDbEntity
  8
Defpoints
  6
Continuous
 62
     0
440
 16777216
100
AcDbPoint
 10
-144.2656706030377
 20
1727.231333488958
 30
0.0
  0
ENDBLK
  5
92C
330
92A
100
AcDbEntity
  8
0
100
AcDbBlockEnd
  0
BLOCK
  5
A55
330
A54
100
AcDbEntity
  8
0
100
AcDbBlockBegin
  2
_Dot
 70
     0
 10
0.0
 20
0.0
 30
0.0
  3
_Dot
  1

  0
LWPOLYLINE
  5
A56
330
A54
100
AcDbEntity
  8
0
  6
ByBlock
 62
     0
100
AcDbPolyline
 90
        2
 70
     1
 43
0.5
 10
-0.25
 20
0.0
 42
1.0
 10
0.25
 20
0.0
 42
1.0
  0
LINE
  5
A57
330
A54
100
AcDbEntity
  8
0
  6
ByBlock
 62
     0
370
    -2
100
AcDbLine
 10
-0.5
 20
0.0
 30
0.0
 11
-1.0
 21
0.0
 31
0.0
  0
ENDBLK
  5
A58
330
A54
100
AcDbEntity
  8
0
100
AcDbBlockEnd
  0
BLOCK
  5
1DB9
330
1DB8
100
AcDbEntity
  8
0
100
AcDbBlockBegin
  2
*D5
 70
     1
 10
0.0
 20
0.0
 30
0.0
  3
*D5
  1

  0
LINE
  5
1DBB
330
1DB8
100
AcDbEntity
  8
0
  6
Continuous
 62
     0
440
 16777216
370
    -2
100
AcDbLine
 10
-704.2656992132672
 20
1600.984512339239
 30
0.0
 11
-704.2656992132672
 21
1462.110359629839
 31
0.0
  0
LINE
  5
1DBC
330
1DB8
100
AcDbEntity
  8
0
  6
Continuous
 62
     0
440
 16777216
370
    -2
100
AcDbLine
 10
-84.26564199280823
 20
1600.984512339239
 30
0.0
 11
-84.26564199280825
 21
1462.110359629839
 31
0.0
  0
LINE
  5
1DBD
330
1DB8
100
AcDbEntity
  8
0
  6
Continuous
 62
     0
440
 16777216
370
    -2
100
AcDbLine
 10
-704.0856992132672
 20
1462.290359629839
 30
0.0
 11
-394.8956706030378
 21
1462.290359629839
 31
0.0
  0
LINE
  5
1DBE
330
1DB8
100
AcDbEntity
  8
0
  6
Continuous
 62
     0
440
 16777216
370
    -2
100
AcDbLine
 10
-84.44564199280826
 20
1462.290359629839
 30
0.0
 11
-393.6356706030378
 21
1462.290359629839
 31
0.0
  0
SOLID
  5
1DBF
330
1DB8
100
AcDbEntity
  8
0
  6
Continuous
 62
     0
440
 16777216
100
AcDbTrace
 10
-704.0856992132672
 20
1462.320359629839
 30
0.0
 11
-704.0856992132672
 21
1462.260359629839
 31
0.0
 12
-704.2656992132672
 22
1462.290359629839
 32
0.0
 13
-704.2656992132672
 23
1462.290359629839
 33
0.0
  0
SOLID
  5
1DC0
330
1DB8
100
AcDbEntity
  8
0
  6
Continuous
 62
     0
440
 16777216
100
AcDbTrace
 10
-84.44564199280826
 20
1462.320359629839
 30
0.0
 11
-84.44564199280826
 21
1462.260359629839
 31
0.0
 12
-84.26564199280825
 22
1462.290359629839
 32
0.0
 13
-84.26564199280825
 23
1462.290359629839
 33
0.0
  0
MTEXT
  5
1DC1
330
1DB8
100
AcDbEntity
  8
0
  6
Continuous
 62
     0
440
 16777216
100
AcDbMText
 10
-394.2656706030378
 20
1462.290359629839
 30
0.0
 40
0.18
 41
0.0
 46
0.0
 71
     5
 72
     1
  1
\A1;620.0001
 73
     1
 44
1.0
  0
POINT
  5
1DC2
330
1DB8
100
AcDbEntity
  8
Defpoints
  6
Continuous
 62
     0
440
 16777216
100
AcDbPoint
 10
-704.2656992132672
 20
1601.047012339239
 30
0.0
  0
POINT
  5
1DC3
330
1DB8
100
AcDbEntity
  8
Defpoints
  6
Continuous
 62
     0
440
 16777216
100
AcDbPoint
 10
-84.26564199280823
 20
1601.047012339239
 30
0.0
  0
POINT
  5
1DC4
330
1DB8
100
AcDbEntity
  8
Defpoints
  6
Continuous
 62
     0
440
 16777216
100
AcDbPoint
 10
-84.26564199280825
 20
1462.290359629839
 30
0.0
  0
ENDBLK
  5
1DBA
330
1DB8
100
AcDbEntity
  8
0
100
AcDbBlockEnd
  0
BLOCK
  5
20E8
330
20E7
100
AcDbEntity
  8
0
100
AcDbBlockBegin
  2
*D6
 70
     1
 10
0.0
 20
0.0
 30
0.0
  3
*D6
  1

  0
LINE
  5
20F4
330
20E7
100
AcDbEntity
  8
0
  6
Continuous
 62
     0
440
 16777216
370
    -2
100
AcDbLine
 10
-644.2656706030377
 20
1191.398428234313
 30
0.0
 11
-644.2656706030377
 21
1317.700249384031
 31
0.0
  0
LINE
  5
20F5
330
20E7
100
AcDbEntity
  8
0
  6
Continuous
 62
     0
440
 16777216
370
    -2
100
AcDbLine
 10
-144.2656706030377
 20
1191.398428234313
 30
0.0
 11
-144.2656706030377
 21
1317.700249384031
 31
0.0
  0
LINE
  5
20F6
330
20E7
100
AcDbEntity
  8
0
  6
Continuous
 62
     0
440
 16777216
370
    -2
100
AcDbLine
 10
-629.2656706030377
 20
1317.520249384031
 30
0.0
 11
-490.9323372697044
 21
1317.520249384031
 31
0.0
  0
LINE
  5
20F7
330
20E7
100
AcDbEntity
  8
0
  6
Continuous
 62
     0
440
 16777216
370
    -2
100
AcDbLine
 10
-159.2656706030377
 20
1317.520249384031
 30
0.0
 11
-297.599003936371
 21
1317.520249384031
 31
0.0
  0
SOLID
  5
20F8
330
20E7
100
AcDbEntity
  8
0
  6
Continuous
 62
     0
440
 16777216
100
AcDbTrace
 10
-629.2656706030377
 20
1320.020249384031
 30
0.0
 11
-629.2656706030377
 21
1315.020249384031
 31
0.0
 12
-644.2656706030377
 22
1317.520249384031
 32
0.0
 13
-644.2656706030377
 23
1317.520249384031
 33
0.0
  0
SOLID
  5
20F9
330
20E7
100
AcDbEntity
  8
0
  6
Continuous
 62
     0
440
 16777216
100
AcDbTrace
 10
-159.2656706030377
 20
1320.020249384031
 30
0.0
 11
-159.2656706030377
 21
1315.020249384031
 31
0.0
 12
-144.2656706030377
 22
1317.520249384031
 32
0.0
 13
-144.2656706030377
 23
1317.520249384031
 33
0.0
  0
MTEXT
  5
20FA
330
20E7
100
AcDbEntity
  8
0
  6
Continuous
 62
     0
440
 16777216
100
AcDbMText
 10
-394.2656706030377
 20
1317.520249384031
 30
0.0
 40
20.0
 41
0.0
 46
0.0
 71
     5
 72
     1
  1
\A1;486 - 586
 73
     1
 44
1.0
  0
POINT
  5
20FB
330
20E7
100
AcDbEntity
  8
Defpoints
  6
Continuous
 62
     0
440
 16777216
100
AcDbPoint
 10
-644.2656706030377
 20
1191.335928234313
 30
0.0
  0
POINT
  5
20FC
330
20E7
100
AcDbEntity
  8
Defpoints
  6
Continuous
 62
     0
440
 16777216
100
AcDbPoint
 10
-144.2656706030377
 20
1191.335928234313
 30
0.0
  0
POINT
  5
20FD
330
20E7
100
AcDbEntity
  8
Defpoints
  6
Continuous
 62
     0
440
 16777216
100
AcDbPoint
 10
-144.2656706030377
 20
1317.520249384031
 30
0.0
  0
ENDBLK
  5
20E9
330
20E7
100
AcDbEntity
  8
0
100
AcDbBlockEnd
  0
BLOCK
  5
2100
330
20FF
100
AcDbEntity
  8
0
100
AcDbBlockBegin
  2
*D7
 70
     1
 10
0.0
 20
0.0
 30
0.0
  3
*D7
  1

  0
LINE
  5
212A
330
20FF
100
AcDbEntity
  8
0
  6
Continuous
 62
     0
440
 16777216
370
    -2
100
AcDbLine
 10
-674.6325991634639
 20
1192.461817336928
 30
0.0
 11
-674.6325991634639
 21
1360.027068998097
 31
0.0
  0
LINE
  5
212B
330
20FF
100
AcDbEntity
  8
0
  6
Continuous
 62
     0
440
 16777216
370
    -2
100
AcDbLine
 10
-113.2584718168951
 20
1193.970355804117
 30
0.0
 11
-113.2584718168951
 21
1360.027068998097
 31
0.0
  0
LINE
  5
212C
330
20FF
100
AcDbEntity
  8
0
  6
Continuous
 62
     0
440
 16777216
370
    -2
100
AcDbLine
 10
-659.6325991634639
 20
1359.847068998097
 30
0.0
 11
-490.6122021568462
 21
1359.847068998097
 31
0.0
  0
LINE
  5
212D
330
20FF
100
AcDbEntity
  8
0
  6
Continuous
 62
     0
440
 16777216
370
    -2
100
AcDbLine
 10
-128.2584718168951
 20
1359.847068998097
 30
0.0
 11
-297.2788688235129
 21
1359.847068998097
 31
0.0
  0
SOLID
  5
212E
330
20FF
100
AcDbEntity
  8
0
  6
Continuous
 62
     0
440
 16777216
100
AcDbTrace
 10
-659.6325991634639
 20
1362.347068998096
 30
0.0
 11
-659.6325991634639
 21
1357.347068998097
 31
0.0
 12
-674.6325991634639
 22
1359.847068998097
 32
0.0
 13
-674.6325991634639
 23
1359.847068998097
 33
0.0
  0
SOLID
  5
212F
330
20FF
100
AcDbEntity
  8
0
  6
Continuous
 62
     0
440
 16777216
100
AcDbTrace
 10
-128.2584718168951
 20
1362.347068998096
 30
0.0
 11
-128.2584718168951
 21
1357.347068998097
 31
0.0
 12
-113.2584718168951
 22
1359.847068998097
 32
0.0
 13
-113.2584718168951
 23
1359.847068998097
 33
0.0
  0
MTEXT
  5
2130
330
20FF
100
AcDbEntity
  8
0
  6
Continuous
 62
     0
440
 16777216
100
AcDbMText
 10
-393.9455354901796
 20
1359.847068998097
 30
0.0
 40
20.0
 41
0.0
 46
0.0
 71
     5
 72
     1
  1
\A1;548 - 648
 73
     1
 44
1.0
  0
POINT
  5
2131
330
20FF
100
AcDbEntity
  8
Defpoints
  6
Continuous
 62
     0
440
 16777216
100
AcDbPoint
 10
-674.6325991634639
 20
1192.399317336928
 30
0.0
  0
POINT
  5
2132
330
20FF
100
AcDbEntity
  8
Defpoints
  6
Continuous
 62
     0
440
 16777216
100
AcDbPoint
 10
-113.2584718168951
 20
1193.907855804117
 30
0.0
  0
POINT
  5
2133
330
20FF
100
AcDbEntity
  8
Defpoints
  6
Continuous
 62
     0
440
 16777216
100
AcDbPoint
 10
-113.2584718168951
 20
1359.847068998097
 30
0.0
  0
ENDBLK
  5
2101
330
20FF
100
AcDbEntity
  8
0
100
AcDbBlockEnd
  0
ENDSEC
  0
SECTION
  2
ENTITIES
  0
LINE
  5
21
330
A
100
AcDbEntity
  8
HEWI
  6
STANDARD
 62
     7
100
AcDbLine
 10
-153.0656812841901
 20
1585.047065745001
 30
0.0
 11
-147.4656866247662
 21
1585.047065745001
 31
0.0
  0
LINE
  5
22
330
A
100
AcDbEntity
  8
HEWI
  6
STANDARD
 62
     7
100
AcDbLine
 10
-494.2656801397808
 20
1626.247016916876
 30
0.0
 11
-294.2656610662946
 21
1626.247016916876
 31
0.0
  0
LINE
  5
25
330
A
100
AcDbEntity
  8
HEWI
  6
STANDARD
 62
     7
100
AcDbLine
 10
-502.0156572515973
 20
1504.347068796759
 30
0.0
 11
-286.5156648809918
 21
1504.347068796759
 31
0.0
  0
LINE
  5
26
330
A
100
AcDbEntity
  8
HEWI
  6
STANDARD
 62
     7
100
AcDbLine
 10
-502.0156572515973
 20
1514.347068796759
 30
0.0
 11
-286.5156648809918
 21
1514.347068796759
 31
0.0
  0
LINE
  5
27
330
A
100
AcDbEntity
  8
HEWI
  6
STANDARD
 62
     7
100
AcDbLine
 10
-294.2656610662946
 20
1617.247001658087
 30
0.0
 11
-147.2657011206158
 21
1617.247001658087
 31
0.0
  0
LINE
  5
29
330
A
100
AcDbEntity
  8
HEWI
  6
STANDARD
 62
     7
100
AcDbLine
 10
-294.2656610662946
 20
1585.247032175665
 30
0.0
 11
-147.2657011206158
 21
1585.247032175665
 31
0.0
  0
LINE
  5
35
330
A
100
AcDbEntity
  8
HEWI
  6
STANDARD
 62
     7
100
AcDbLine
 10
-294.2656610662946
 20
1514.347068796759
 30
0.0
 11
-294.2656610662946
 21
1626.247016916876
 31
0.0
  0
LINE
  5
36
330
A
100
AcDbEntity
  8
HEWI
  6
STANDARD
 62
     7
100
AcDbLine
 10
-494.2656801397808
 20
1514.347068796759
 30
0.0
 11
-494.2656801397808
 21
1626.247016916876
 31
0.0
  0
LINE
  5
148
330
A
100
AcDbEntity
  8
HEWI
  6
STANDARD
 62
     7
100
AcDbLine
 10
-516.5856645758159
 20
1513.593055735235
 30
0.0
 11
-513.9256761724956
 21
1513.790046702031
 31
0.0
  0
LINE
  5
14C
330
A
100
AcDbEntity
  8
HEWI
  6
STANDARD
 62
     7
100
AcDbLine
 10
-513.2056902105817
 20
1503.816062937384
 30
0.0
 11
-510.4186723883159
 21
1504.011070261603
 31
0.0
  0
LINE
  5
14D
330
A
100
AcDbEntity
  8
HEWI
  6
STANDARD
 62
     7
100
AcDbLine
 10
-513.9256761724956
 20
1513.790046702031
 30
0.0
 11
-511.0896776373395
 21
1513.988029490118
 31
0.0
  0
LINE
  5
14E
330
A
100
AcDbEntity
  8
HEWI
  6
STANDARD
 62
     7
100
AcDbLine
 10
-511.0896776373395
 20
1513.988029490118
 30
0.0
 11
-509.0156648809918
 21
1514.12406159461
 31
0.0
  0
LINE
  5
14F
330
A
100
AcDbEntity
  8
HEWI
  6
STANDARD
 62
     7
100
AcDbLine
 10
-510.4186723883159
 20
1504.011070261603
 30
0.0
 11
-508.3796785528668
 21
1504.144050608282
 31
0.0
  0
LINE
  5
153
330
A
100
AcDbEntity
  8
HEWI
  6
STANDARD
 62
     7
100
AcDbLine
 10
-508.3796785528668
 20
1504.144050608282
 30
0.0
 11
-506.490678613902
 21
1504.247047434454
 31
0.0
  0
LINE
  5
154
330
A
100
AcDbEntity
  8
HEWI
  6
STANDARD
 62
     7
100
AcDbLine
 10
-509.0156648809918
 20
1514.12406159461
 30
0.0
 11
-506.9376848394878
 21
1514.237052927618
 31
0.0
  0
LINE
  5
157
330
A
100
AcDbEntity
  8
HEWI
  6
STANDARD
 62
     7
100
AcDbLine
 10
-506.9376848394878
 20
1514.237052927618
 30
0.0
 11
-502.0156572515973
 21
1514.347068796759
 31
0.0
  0
LINE
  5
158
330
A
100
AcDbEntity
  8
HEWI
  6
STANDARD
 62
     7
100
AcDbLine
 10
-506.490678613902
 20
1504.247047434454
 30
0.0
 11
-502.0156572515973
 21
1504.347068796759
 31
0.0
  0
LINE
  5
15B
330
A
100
AcDbEntity
  8
HEWI
  6
STANDARD
 62
     7
100
AcDbLine
 10
-286.5156648809918
 20
1504.347068796759
 30
0.0
 11
-282.0406625921735
 21
1504.247047434454
 31
0.0
  0
LINE
  5
15C
330
A
100
AcDbEntity
  8
HEWI
  6
STANDARD
 62
     7
100
AcDbLine
 10
-286.5156648809918
 20
1514.347068796759
 30
0.0
 11
-281.5936754400738
 21
1514.237052927618
 31
0.0
  0
LINE
  5
15F
330
A
100
AcDbEntity
  8
HEWI
  6
STANDARD
 62
     7
100
AcDbLine
 10
-281.5936754400738
 20
1514.237052927618
 30
0.0
 11
-279.5156572515973
 21
1514.12406159461
 31
0.0
  0
LINE
  5
160
330
A
100
AcDbEntity
  8
HEWI
  6
STANDARD
 62
     7
100
AcDbLine
 10
-282.0406625921735
 20
1504.247047434454
 30
0.0
 11
-280.1516626532086
 21
1504.144050608282
 31
0.0
  0
LINE
  5
294
330
A
100
AcDbEntity
  8
HEWI
  6
STANDARD
 62
     7
100
AcDbLine
 10
-641.2656400854594
 20
1155.977550712707
 30
0.0
 11
-568.5656641180522
 21
1155.977550712707
 31
0.0
  0
LINE
  5
296
330
A
100
AcDbEntity
  8
HEWI
  6
STANDARD
 62
     7
100
AcDbLine
 10
-641.2656400854594
 20
1123.97750493634
 30
0.0
 11
-568.5656641180522
 21
1123.97750493634
 31
0.0
  0
LINE
  5
487
330
A
100
AcDbEntity
  8
HEWI
  6
STANDARD
 62
     7
100
AcDbLine
 10
253.4848505032818
 20
1164.938204534248
 30
0.0
 11
157.5848489774029
 21
1164.938204534248
 31
0.0
  0
LINE
  5
488
330
A
100
AcDbEntity
  8
HEWI
  6
STANDARD
 62
     7
100
AcDbLine
 10
153.5848527921001
 20
1118.427164800362
 30
0.0
 11
149.5848375333111
 21
1118.427164800362
 31
0.0
  0
LINE
  5
489
330
A
100
AcDbEntity
  8
HEWI
  6
STANDARD
 62
     7
100
AcDbLine
 10
153.5848527921001
 20
1117.938196904854
 30
0.0
 11
149.5848375333111
 21
1117.938196904854
 31
0.0
  0
LINE
  5
48A
330
A
100
AcDbEntity
  8
HEWI
  6
STANDARD
 62
     7
100
AcDbLine
 10
253.4848505032818
 20
1160.938189275459
 30
0.0
 11
157.5848489774029
 21
1160.938189275459
 31
0.0
  0
LINE
  5
48B
330
A
100
AcDbEntity
  8
HEWI
  6
STANDARD
 62
     7
100
AcDbLine
 10
261.4848428738873
 20
1003.938181646065
 30
0.0
 11
257.4848657620709
 21
1003.938181646065
 31
0.0
  0
LINE
  5
48E
330
A
100
AcDbEntity
  8
HEWI
  6
STANDARD
 62
     7
100
AcDbLine
 10
277.7958398831646
 20
1003.938181646065
 30
0.0
 11
277.6858621609966
 21
1003.938181646065
 31
0.0
  0
LINE
  5
492
330
A
100
AcDbEntity
  8
HEWI
  6
STANDARD
 62
     7
100
AcDbLine
 10
277.7958398831646
 20
1223.938181646065
 30
0.0
 11
277.6858621609966
 21
1223.938181646065
 31
0.0
  0
LINE
  5
495
330
A
100
AcDbEntity
  8
HEWI
  6
STANDARD
 62
     7
100
AcDbLine
 10
267.0288568509381
 20
1278.938181646065
 30
0.0
 11
266.4848428738872
 21
1278.938181646065
 31
0.0
  0
LINE
  5
496
330
A
100
AcDbEntity
  8
HEWI
  6
STANDARD
 62
     7
100
AcDbLine
 10
267.0288568509381
 20
948.9381816460655
 30
0.0
 11
266.4848428738872
 21
948.9381816460655
 31
0.0
  0
LINE
  5
497
330
A
100
AcDbEntity
  8
HEWI
  6
STANDARD
 62
     7
100
AcDbLine
 10
191.5848642361919
 20
1118.938181646065
 30
0.0
 11
153.5848527921001
 21
1118.938181646065
 31
0.0
  0
LINE
  5
49C
330
A
100
AcDbEntity
  8
HEWI
  6
STANDARD
 62
     7
100
AcDbLine
 10
257.4848657620709
 20
1003.938181646065
 30
0.0
 11
257.4848657620709
 21
1156.938212163643
 31
0.0
  0
LINE
  5
49D
330
A
100
AcDbEntity
  8
HEWI
  6
STANDARD
 62
     7
100
AcDbLine
 10
261.4848428738873
 20
953.9381816460654
 30
0.0
 11
261.4848428738873
 21
1273.938181646065
 31
0.0
  0
LINE
  5
49E
330
A
100
AcDbEntity
  8
HEWI
  6
STANDARD
 62
     7
100
AcDbLine
 10
153.5848527921001
 20
1156.138193853097
 30
0.0
 11
153.5848527921001
 21
1156.938212163643
 31
0.0
  0
LINE
  5
49F
330
A
100
AcDbEntity
  8
HEWI
  6
STANDARD
 62
     7
100
AcDbLine
 10
153.5848527921001
 20
1117.938196904854
 30
0.0
 11
153.5848527921001
 21
1156.138193853097
 31
0.0
  0
LINE
  5
4A0
330
A
100
AcDbEntity
  8
HEWI
  6
STANDARD
 62
     7
100
AcDbLine
 10
277.7958398831646
 20
1003.938181646065
 30
0.0
 11
277.7958398831646
 21
1223.938181646065
 31
0.0
  0
LINE
  5
4A1
330
A
100
AcDbEntity
  8
HEWI
  6
STANDARD
 62
     7
100
AcDbLine
 10
195.5848413480083
 20
1122.938196904854
 30
0.0
 11
195.5848413480083
 21
1160.938189275459
 31
0.0
  0
LINE
  5
4A3
330
A
100
AcDbEntity
  8
HEWI
  6
STANDARD
 62
     7
100
AcDbLine
 10
271.9218545926373
 20
1276.761210210519
 30
0.0
 11
271.6638284695904
 21
1277.004206426338
 31
0.0
  0
LINE
  5
4A5
330
A
100
AcDbEntity
  8
HEWI
  6
STANDARD
 62
     7
100
AcDbLine
 10
272.1998315823833
 20
951.4401652886435
 30
0.0
 11
271.9278436673444
 21
951.1221721245807
 31
0.0
  0
LINE
  5
4A9
330
A
100
AcDbEntity
  8
HEWI
  6
STANDARD
 62
     7
100
AcDbLine
 10
194.9328332913676
 20
1120.749171025948
 30
0.0
 11
194.4128519070904
 21
1120.110209233955
 31
0.0
  0
LINE
  5
4AA
330
A
100
AcDbEntity
  8
HEWI
  6
STANDARD
 62
     7
100
AcDbLine
 10
263.7488657010357
 20
949.7531535698936
 30
0.0
 11
262.9488473904888
 21
950.4031779839555
 31
0.0
  0
LINE
  5
4AB
330
A
100
AcDbEntity
  8
HEWI
  6
STANDARD
 62
     7
100
AcDbLine
 10
154.7568422330181
 20
1159.76719165583
 30
0.0
 11
154.2368417752544
 21
1159.127199895576
 31
0.0
  0
LINE
  5
4AC
330
A
100
AcDbEntity
  8
HEWI
  6
STANDARD
 62
     7
100
AcDbLine
 10
256.3128381741802
 20
1159.76719165583
 30
0.0
 11
255.6738382352154
 21
1160.286181218819
 31
0.0
  0
LINE
  5
4AD
330
A
100
AcDbEntity
  8
HEWI
  6
STANDARD
 62
     7
100
AcDbLine
 10
271.6638284695904
 20
1277.004206426338
 30
0.0
 11
270.8658319485944
 21
1277.652209050851
 31
0.0
  0
LINE
  5
4AE
330
A
100
AcDbEntity
  8
HEWI
  6
STANDARD
 62
     7
100
AcDbLine
 10
272.8458505643169
 20
952.2362163140336
 30
0.0
 11
272.1998315823833
 21
951.4401652886435
 31
0.0
  0
LINE
  5
4AF
330
A
100
AcDbEntity
  8
HEWI
  6
STANDARD
 62
     7
100
AcDbLine
 10
262.9488473904888
 20
1277.474177129463
 30
0.0
 11
262.299852944688
 21
1276.674196965889
 31
0.0
  0
LINE
  5
4B1
330
A
100
AcDbEntity
  8
HEWI
  6
STANDARD
 62
     7
100
AcDbLine
 10
270.8658319485944
 20
1277.652209050851
 30
0.0
 11
270.6198602689068
 21
1277.836191899972
 31
0.0
  0
LINE
  5
4B3
330
A
100
AcDbEntity
  8
HEWI
  6
STANDARD
 62
     7
100
AcDbLine
 10
273.1298547757427
 20
952.6362254693076
 30
0.0
 11
272.8458505643169
 21
952.2362163140336
 31
0.0
  0
LINE
  5
4B6
330
A
100
AcDbEntity
  8
HEWI
  6
STANDARD
 62
     7
100
AcDbLine
 10
273.4258371365826
 20
953.1302287652057
 30
0.0
 11
273.1298547757427
 21
952.6362254693076
 31
0.0
  0
LINE
  5
4BD
330
A
100
AcDbEntity
  8
HEWI
  6
STANDARD
 62
     7
100
AcDbLine
 10
270.6198602689068
 20
1277.836191899972
 30
0.0
 11
270.3858285916607
 21
1277.971194036202
 31
0.0
  0
LINE
  5
4C3
330
A
100
AcDbEntity
  8
HEWI
  6
STANDARD
 62
     7
100
AcDbLine
 10
264.2418390286724
 20
949.4971873833696
 30
0.0
 11
263.7488657010357
 21
949.7531535698936
 31
0.0
  0
LINE
  5
4C4
330
A
100
AcDbEntity
  8
HEWI
  6
STANDARD
 62
     7
100
AcDbLine
 10
262.299852944688
 20
1276.674196965889
 30
0.0
 11
261.8358331692974
 21
1275.779192693428
 31
0.0
  0
LINE
  5
4C5
330
A
100
AcDbEntity
  8
HEWI
  6
STANDARD
 62
     7
100
AcDbLine
 10
255.6738382352154
 20
1160.286181218819
 30
0.0
 11
254.9568658841412
 21
1160.657198674873
 31
0.0
  0
LINE
  5
4C6
330
A
100
AcDbEntity
  8
HEWI
  6
STANDARD
 62
     7
100
AcDbLine
 10
154.2368417752544
 20
1159.127199895576
 30
0.0
 11
153.8658433926861
 21
1158.410227544502
 31
0.0
  0
LINE
  5
4C7
330
A
100
AcDbEntity
  8
HEWI
  6
STANDARD
 62
     7
100
AcDbLine
 10
195.3038507474224
 20
1121.466181523995
 30
0.0
 11
194.9328332913676
 21
1120.749171025948
 31
0.0
  0
LINE
  5
4C8
330
A
100
AcDbEntity
  8
HEWI
  6
STANDARD
 62
     7
100
AcDbLine
 10
270.3858285916607
 20
1277.971194036202
 30
0.0
 11
269.4918542874615
 21
1278.433192022041
 31
0.0
  0
LINE
  5
4C9
330
A
100
AcDbEntity
  8
HEWI
  6
STANDARD
 62
     7
100
AcDbLine
 10
264.6448617947857
 20
949.2892100884485
 30
0.0
 11
264.2418390286724
 21
949.4971873833696
 31
0.0
  0
LINE
  5
4CA
330
A
100
AcDbEntity
  8
HEWI
  6
STANDARD
 62
     7
100
AcDbLine
 10
273.8798624051373
 20
954.0182139946976
 30
0.0
 11
273.4258371365826
 21
953.1302287652057
 31
0.0
  0
LINE
  5
4CB
330
A
100
AcDbEntity
  8
HEWI
  6
STANDARD
 62
     7
100
AcDbLine
 10
274.1838556302349
 20
954.6221568657916
 30
0.0
 11
273.8798624051373
 21
954.0182139946976
 31
0.0
  0
LINE
  5
4D1
330
A
100
AcDbEntity
  8
HEWI
  6
STANDARD
 62
     7
100
AcDbLine
 10
150.4788499844829
 20
1160.612185247139
 30
0.0
 11
150.1468378079693
 21
1159.883196599678
 31
0.0
  0
LINE
  5
4D2
330
A
100
AcDbEntity
  8
HEWI
  6
STANDARD
 62
     7
100
AcDbLine
 10
257.1588617337505
 20
1164.044192083077
 30
0.0
 11
256.4298349393169
 21
1164.376185186104
 31
0.0
  0
LINE
  5
4DA
330
A
100
AcDbEntity
  8
HEWI
  6
STANDARD
 62
     7
100
AcDbLine
 10
274.4968515408794
 20
955.3671672417685
 30
0.0
 11
274.1838556302349
 21
954.6221568657916
 31
0.0
  0
LINE
  5
4DB
330
A
100
AcDbEntity
  8
HEWI
  6
STANDARD
 62
     7
100
AcDbLine
 10
269.4918542874615
 20
1278.433192022041
 30
0.0
 11
269.2708307278912
 21
1278.523180730538
 31
0.0
  0
LINE
  5
4E0
330
A
100
AcDbEntity
  8
HEWI
  6
STANDARD
 62
     7
100
AcDbLine
 10
274.8178583157819
 20
956.2832286431355
 30
0.0
 11
274.4968515408794
 21
955.3671672417685
 31
0.0
  0
LINE
  5
4E8
330
A
100
AcDbEntity
  8
HEWI
  6
STANDARD
 62
     7
100
AcDbLine
 10
256.4298349393169
 20
1164.376185186104
 30
0.0
 11
255.6858545316021
 21
1164.62917590876
 31
0.0
  0
LINE
  5
4E9
330
A
100
AcDbEntity
  8
HEWI
  6
STANDARD
 62
     7
100
AcDbLine
 10
150.1468378079693
 20
1159.883196599678
 30
0.0
 11
149.893847085313
 21
1159.13917804499
 31
0.0
  0
LINE
  5
4EE
330
A
100
AcDbEntity
  8
HEWI
  6
STANDARD
 62
     7
100
AcDbLine
 10
265.1618295682232
 20
949.1312053277056
 30
0.0
 11
264.6448617947857
 21
949.2892100884485
 31
0.0
  0
LINE
  5
4EF
330
A
100
AcDbEntity
  8
HEWI
  6
STANDARD
 62
     7
100
AcDbLine
 10
275.1448541653912
 20
957.4001720025105
 30
0.0
 11
274.8178583157819
 21
956.2832286431355
 31
0.0
  0
LINE
  5
4F1
330
A
100
AcDbEntity
  8
HEWI
  6
STANDARD
 62
     7
100
AcDbLine
 10
261.8358331692974
 20
1275.779192693428
 30
0.0
 11
261.5678506863873
 21
1274.848177678779
 31
0.0
  0
LINE
  5
4F2
330
A
100
AcDbEntity
  8
HEWI
  6
STANDARD
 62
     7
100
AcDbLine
 10
195.517855264024
 20
1122.210200078682
 30
0.0
 11
195.3038507474224
 21
1121.466181523995
 31
0.0
  0
LINE
  5
4F3
330
A
100
AcDbEntity
  8
HEWI
  6
STANDARD
 62
     7
100
AcDbLine
 10
153.8658433926861
 20
1158.410227544502
 30
0.0
 11
153.6518388760845
 21
1157.666208989815
 31
0.0
  0
LINE
  5
4F4
330
A
100
AcDbEntity
  8
HEWI
  6
STANDARD
 62
     7
100
AcDbLine
 10
254.9568658841412
 20
1160.657198674873
 30
0.0
 11
254.2128473294537
 21
1160.871203191475
 31
0.0
  0
LINE
  5
4F5
330
A
100
AcDbEntity
  8
HEWI
  6
STANDARD
 62
     7
100
AcDbLine
 10
269.2708307278912
 20
1278.523180730538
 30
0.0
 11
268.3418375027935
 21
1278.78917957087
 31
0.0
  0
LINE
  5
4F7
330
A
100
AcDbEntity
  8
HEWI
  6
STANDARD
 62
     7
100
AcDbLine
 10
275.3738504422466
 20
958.2642009331745
 30
0.0
 11
275.1448541653912
 21
957.4001720025105
 31
0.0
  0
LINE
  5
4F8
330
A
100
AcDbEntity
  8
HEWI
  6
STANDARD
 62
     7
100
AcDbLine
 10
265.5748468411724
 20
949.0221812798544
 30
0.0
 11
265.1618295682232
 21
949.1312053277056
 31
0.0
  0
LINE
  5
4FC
330
A
100
AcDbEntity
  8
HEWI
  6
STANDARD
 62
     7
100
AcDbLine
 10
275.6888299954693
 20
959.5731761529016
 30
0.0
 11
275.3738504422466
 21
958.2642009331745
 31
0.0
  0
LINE
  5
4FE
330
A
100
AcDbEntity
  8
HEWI
  6
STANDARD
 62
     7
100
AcDbLine
 10
255.6858545316021
 20
1164.62917590876
 30
0.0
 11
254.9408441556256
 21
1164.805186040597
 31
0.0
  0
LINE
  5
509
330
A
100
AcDbEntity
  8
HEWI
  6
STANDARD
 62
     7
100
AcDbLine
 10
275.8438592923444
 20
960.3221538140335
 30
0.0
 11
275.6888299954693
 21
959.5731761529016
 31
0.0
  0
LINE
  5
50C
330
A
100
AcDbEntity
  8
HEWI
  6
STANDARD
 62
     7
100
AcDbLine
 10
275.9968286526959
 20
961.1401774956746
 30
0.0
 11
275.8438592923444
 21
960.3221538140335
 31
0.0
  0
LINE
  5
50D
330
A
100
AcDbEntity
  8
HEWI
  6
STANDARD
 62
     7
100
AcDbLine
 10
276.1448389066021
 20
962.0222117974327
 30
0.0
 11
275.9968286526959
 21
961.1401774956746
 31
0.0
  0
LINE
  5
512
330
A
100
AcDbEntity
  8
HEWI
  6
STANDARD
 62
     7
100
AcDbLine
 10
276.2868600858013
 20
962.9661967827836
 30
0.0
 11
276.1448389066021
 21
962.0222117974327
 31
0.0
  0
LINE
  5
513
330
A
100
AcDbEntity
  8
HEWI
  6
STANDARD
 62
     7
100
AcDbLine
 10
268.3418375027935
 20
1278.78917957087
 30
0.0
 11
268.0008417142194
 21
1278.839190252022
 31
0.0
  0
LINE
  5
51E
330
A
100
AcDbEntity
  8
HEWI
  6
STANDARD
 62
     7
100
AcDbLine
 10
276.4208322537701
 20
963.9681651665735
 30
0.0
 11
276.2868600858013
 21
962.9661967827836
 31
0.0
  0
LINE
  5
520
330
A
100
AcDbEntity
  8
HEWI
  6
STANDARD
 62
     7
100
AcDbLine
 10
266.0888391507427
 20
948.9581706597375
 30
0.0
 11
265.5748468411724
 21
949.0221812798544
 31
0.0
  0
LINE
  5
521
330
A
100
AcDbEntity
  8
HEWI
  6
STANDARD
 62
     7
100
AcDbLine
 10
276.5478616727155
 20
965.0211741997766
 30
0.0
 11
276.4208322537701
 21
963.9681651665735
 31
0.0
  0
LINE
  5
525
330
A
100
AcDbEntity
  8
HEWI
  6
STANDARD
 62
     7
100
AcDbLine
 10
276.6668420804302
 20
966.1221721245807
 30
0.0
 11
276.5478616727155
 21
965.0211741997766
 31
0.0
  0
LINE
  5
527
330
A
100
AcDbEntity
  8
HEWI
  6
STANDARD
 62
     7
100
AcDbLine
 10
268.0008417142194
 20
1278.839190252022
 30
0.0
 11
267.0288568509381
 21
1278.938181646065
 31
0.0
  0
LINE
  5
528
330
A
100
AcDbEntity
  8
HEWI
  6
STANDARD
 62
     7
100
AcDbLine
 10
276.7778497708599
 20
967.2701671196985
 30
0.0
 11
276.6668420804302
 21
966.1221721245807
 31
0.0
  0
LINE
  5
52A
330
A
100
AcDbEntity
  8
HEWI
  6
STANDARD
 62
     7
100
AcDbLine
 10
195.5848413480083
 20
1122.938196904854
 30
0.0
 11
195.517855264024
 21
1122.210200078682
 31
0.0
  0
LINE
  5
52B
330
A
100
AcDbEntity
  8
HEWI
  6
STANDARD
 62
     7
100
AcDbLine
 10
153.6518388760845
 20
1157.666208989815
 30
0.0
 11
153.5848527921001
 21
1156.938212163643
 31
0.0
  0
LINE
  5
52C
330
A
100
AcDbEntity
  8
HEWI
  6
STANDARD
 62
     7
100
AcDbLine
 10
254.2128473294537
 20
1160.871203191475
 30
0.0
 11
253.4848505032818
 21
1160.938189275459
 31
0.0
  0
LINE
  5
52F
330
A
100
AcDbEntity
  8
HEWI
  6
STANDARD
 62
     7
100
AcDbLine
 10
254.9408441556256
 20
1164.805186040597
 30
0.0
 11
253.4848505032818
 21
1164.938204534248
 31
0.0
  0
LINE
  5
530
330
A
100
AcDbEntity
  8
HEWI
  6
STANDARD
 62
     7
100
AcDbLine
 10
261.5678506863873
 20
1274.848177678779
 30
0.0
 11
261.4848428738873
 21
1273.938181646065
 31
0.0
  0
LINE
  5
533
330
A
100
AcDbEntity
  8
HEWI
  6
STANDARD
 62
     7
100
AcDbLine
 10
276.9758325589458
 20
969.6812083794634
 30
0.0
 11
276.7778497708599
 21
967.2701671196985
 31
0.0
  0
LINE
  5
538
330
A
100
AcDbEntity
  8
HEWI
  6
STANDARD
 62
     7
100
AcDbLine
 10
277.1428400052349
 20
972.1861674859097
 30
0.0
 11
276.9758325589458
 21
969.6812083794634
 31
0.0
  0
LINE
  5
53E
330
A
100
AcDbEntity
  8
HEWI
  6
STANDARD
 62
     7
100
AcDbLine
 10
277.2808557523052
 20
974.7431590630576
 30
0.0
 11
277.1428400052349
 21
972.1861674859097
 31
0.0
  0
LINE
  5
540
330
A
100
AcDbEntity
  8
HEWI
  6
STANDARD
 62
     7
100
AcDbLine
 10
266.4848428738872
 20
948.9381816460655
 30
0.0
 11
266.0888391507427
 21
948.9581706597375
 31
0.0
  0
LINE
  5
54C
330
A
100
AcDbEntity
  8
HEWI
  6
STANDARD
 62
     7
100
AcDbLine
 10
277.3958307278912
 20
977.3461558892295
 30
0.0
 11
277.2808557523052
 21
974.7431590630576
 31
0.0
  0
LINE
  5
54D
330
A
100
AcDbEntity
  8
HEWI
  6
STANDARD
 62
     7
100
AcDbLine
 10
277.4898630154888
 20
979.9802043511435
 30
0.0
 11
277.3958307278912
 21
977.3461558892295
 31
0.0
  0
LINE
  5
562
330
A
100
AcDbEntity
  8
HEWI
  6
STANDARD
 62
     7
100
AcDbLine
 10
277.7888589871685
 20
999.9361827446985
 30
0.0
 11
277.7838617337506
 21
998.6031749321975
 31
0.0
  0
LINE
  5
568
330
A
100
AcDbEntity
  8
HEWI
  6
STANDARD
 62
     7
100
AcDbLine
 10
277.7888589871685
 20
999.9361827446985
 30
0.0
 11
277.7858453763287
 21
1003.938181646065
 31
0.0
  0
LINE
  5
586
330
A
100
AcDbEntity
  8
HEWI
  6
STANDARD
 62
     7
100
AcDbLine
 10
277.6788431180279
 20
1239.98920703669
 30
0.0
 11
277.6278406155865
 21
1242.662203557686
 31
0.0
  0
LINE
  5
58D
330
A
100
AcDbEntity
  8
HEWI
  6
STANDARD
 62
     7
100
AcDbLine
 10
277.6278406155865
 20
1242.662203557686
 30
0.0
 11
277.564859963731
 21
1245.331194646553
 31
0.0
  0
LINE
  5
596
330
A
100
AcDbEntity
  8
HEWI
  6
STANDARD
 62
     7
100
AcDbLine
 10
277.564859963731
 20
1245.331194646553
 30
0.0
 11
277.4878412259381
 21
1247.988207586006
 31
0.0
  0
LINE
  5
5A1
330
A
100
AcDbEntity
  8
HEWI
  6
STANDARD
 62
     7
100
AcDbLine
 10
277.4878412259381
 20
1247.988207586006
 30
0.0
 11
277.392855264024
 21
1250.622179753976
 31
0.0
  0
LINE
  5
5A9
330
A
100
AcDbEntity
  8
HEWI
  6
STANDARD
 62
     7
100
AcDbLine
 10
277.392855264024
 20
1250.622179753976
 30
0.0
 11
277.2768503201763
 21
1253.228190190987
 31
0.0
  0
LINE
  5
5BC
330
A
100
AcDbEntity
  8
HEWI
  6
STANDARD
 62
     7
100
AcDbLine
 10
266.4848428738872
 20
1278.938181646065
 30
0.0
 11
266.0888391507427
 21
1278.918192632393
 31
0.0
  0
LINE
  5
5BD
330
A
100
AcDbEntity
  8
HEWI
  6
STANDARD
 62
     7
100
AcDbLine
 10
277.2768503201763
 20
1253.228190190987
 30
0.0
 11
277.136850930528
 21
1255.7991817071
 31
0.0
  0
LINE
  5
5C4
330
A
100
AcDbEntity
  8
HEWI
  6
STANDARD
 62
     7
100
AcDbLine
 10
277.136850930528
 20
1255.7991817071
 30
0.0
 11
276.9678598416607
 21
1258.307192571358
 31
0.0
  0
LINE
  5
5CC
330
A
100
AcDbEntity
  8
HEWI
  6
STANDARD
 62
     7
100
AcDbLine
 10
276.9678598416607
 20
1258.307192571358
 30
0.0
 11
276.768847085313
 21
1260.702173955635
 31
0.0
  0
LINE
  5
5D0
330
A
100
AcDbEntity
  8
HEWI
  6
STANDARD
 62
     7
100
AcDbLine
 10
261.5678506863873
 20
953.0282237603225
 30
0.0
 11
261.4848428738873
 21
953.9381816460654
 31
0.0
  0
LINE
  5
5D1
330
A
100
AcDbEntity
  8
HEWI
  6
STANDARD
 62
     7
100
AcDbLine
 10
157.5848489774029
 20
1164.938204534248
 30
0.0
 11
156.1288553250591
 21
1164.805186040597
 31
0.0
  0
LINE
  5
5D4
330
A
100
AcDbEntity
  8
HEWI
  6
STANDARD
 62
     7
100
AcDbLine
 10
192.3128610623638
 20
1119.005167730049
 30
0.0
 11
191.5848642361919
 21
1118.938181646065
 31
0.0
  0
LINE
  5
5D5
330
A
100
AcDbEntity
  8
HEWI
  6
STANDARD
 62
     7
100
AcDbLine
 10
157.5848489774029
 20
1160.938189275459
 30
0.0
 11
156.856852151231
 21
1160.871203191475
 31
0.0
  0
LINE
  5
5D6
330
A
100
AcDbEntity
  8
HEWI
  6
STANDARD
 62
     7
100
AcDbLine
 10
261.4848428738873
 20
1156.938212163643
 30
0.0
 11
261.3508325589458
 21
1158.394205815986
 31
0.0
  0
LINE
  5
5D7
330
A
100
AcDbEntity
  8
HEWI
  6
STANDARD
 62
     7
100
AcDbLine
 10
257.4848657620709
 20
1156.938212163643
 30
0.0
 11
257.4178415311138
 21
1157.666208989815
 31
0.0
  0
LINE
  5
5D9
330
A
100
AcDbEntity
  8
HEWI
  6
STANDARD
 62
     7
100
AcDbLine
 10
276.768847085313
 20
1260.702173955635
 30
0.0
 11
276.6568475735943
 21
1261.849177129463
 31
0.0
  0
LINE
  5
5DB
330
A
100
AcDbEntity
  8
HEWI
  6
STANDARD
 62
     7
100
AcDbLine
 10
268.0008417142194
 20
949.0372111870806
 30
0.0
 11
267.0288568509381
 21
948.9381816460655
 31
0.0
  0
LINE
  5
5DD
330
A
100
AcDbEntity
  8
HEWI
  6
STANDARD
 62
     7
100
AcDbLine
 10
276.6568475735943
 20
1261.849177129463
 30
0.0
 11
276.5358453763287
 21
1262.958185918527
 31
0.0
  0
LINE
  5
5DF
330
A
100
AcDbEntity
  8
HEWI
  6
STANDARD
 62
     7
100
AcDbLine
 10
276.5358453763287
 20
1262.958185918527
 30
0.0
 11
276.4068323148052
 21
1264.017184026436
 31
0.0
  0
LINE
  5
5E0
330
A
100
AcDbEntity
  8
HEWI
  6
STANDARD
 62
     7
100
AcDbLine
 10
266.0888391507427
 20
1278.918192632393
 30
0.0
 11
265.5748468411724
 21
1278.855173833565
 31
0.0
  0
LINE
  5
5E1
330
A
100
AcDbEntity
  8
HEWI
  6
STANDARD
 62
     7
100
AcDbLine
 10
276.4068323148052
 20
1264.017184026436
 30
0.0
 11
276.2718301785747
 21
1265.017206914621
 31
0.0
  0
LINE
  5
5ED
330
A
100
AcDbEntity
  8
HEWI
  6
STANDARD
 62
     7
100
AcDbLine
 10
268.3438592923443
 20
949.0881755425496
 30
0.0
 11
268.0008417142194
 21
949.0372111870806
 31
0.0
  0
LINE
  5
5EE
330
A
100
AcDbEntity
  8
HEWI
  6
STANDARD
 62
     7
100
AcDbLine
 10
276.2718301785747
 20
1265.017206914621
 30
0.0
 11
276.1298471463482
 21
1265.950205571847
 31
0.0
  0
LINE
  5
5F0
330
A
100
AcDbEntity
  8
HEWI
  6
STANDARD
 62
     7
100
AcDbLine
 10
276.1298471463482
 20
1265.950205571847
 30
0.0
 11
275.982828713731
 21
1266.817209966377
 31
0.0
  0
LINE
  5
5F1
330
A
100
AcDbEntity
  8
HEWI
  6
STANDARD
 62
     7
100
AcDbLine
 10
275.982828713731
 20
1266.817209966377
 30
0.0
 11
275.8308511746685
 21
1267.620203740791
 31
0.0
  0
LINE
  5
5F4
330
A
100
AcDbEntity
  8
HEWI
  6
STANDARD
 62
     7
100
AcDbLine
 10
275.8308511746685
 20
1267.620203740791
 30
0.0
 11
275.6758600247662
 21
1268.362200505928
 31
0.0
  0
LINE
  5
5F7
330
A
100
AcDbEntity
  8
HEWI
  6
STANDARD
 62
     7
100
AcDbLine
 10
261.3508325589458
 20
1158.394205815986
 30
0.0
 11
261.1758523953716
 21
1159.13917804499
 31
0.0
  0
LINE
  5
600
330
A
100
AcDbEntity
  8
HEWI
  6
STANDARD
 62
     7
100
AcDbLine
 10
156.1288553250591
 20
1164.805186040597
 30
0.0
 11
155.3838449490825
 21
1164.62917590876
 31
0.0
  0
LINE
  5
601
330
A
100
AcDbEntity
  8
HEWI
  6
STANDARD
 62
     7
100
AcDbLine
 10
275.6758600247662
 20
1268.362200505928
 30
0.0
 11
275.3588586819927
 21
1269.666178472238
 31
0.0
  0
LINE
  5
604
330
A
100
AcDbEntity
  8
HEWI
  6
STANDARD
 62
     7
100
AcDbLine
 10
275.3588586819927
 20
1269.666178472238
 30
0.0
 11
275.1298624051373
 21
1270.532191045479
 31
0.0
  0
LINE
  5
605
330
A
100
AcDbEntity
  8
HEWI
  6
STANDARD
 62
     7
100
AcDbLine
 10
265.5748468411724
 20
1278.855173833565
 30
0.0
 11
265.1618295682232
 21
1278.745196111397
 31
0.0
  0
LINE
  5
607
330
A
100
AcDbEntity
  8
HEWI
  6
STANDARD
 62
     7
100
AcDbLine
 10
269.271860696153
 20
949.3542125298544
 30
0.0
 11
268.3438592923443
 21
949.0881755425496
 31
0.0
  0
LINE
  5
608
330
A
100
AcDbEntity
  8
HEWI
  6
STANDARD
 62
     7
100
AcDbLine
 10
257.4178415311138
 20
1157.666208989815
 30
0.0
 11
257.2038370145123
 21
1158.410227544502
 31
0.0
  0
LINE
  5
609
330
A
100
AcDbEntity
  8
HEWI
  6
STANDARD
 62
     7
100
AcDbLine
 10
156.856852151231
 20
1160.871203191475
 30
0.0
 11
156.1128526700298
 21
1160.657198674873
 31
0.0
  0
LINE
  5
60A
330
A
100
AcDbEntity
  8
HEWI
  6
STANDARD
 62
     7
100
AcDbLine
 10
193.0568414700785
 20
1119.219172246651
 30
0.0
 11
192.3128610623638
 21
1119.005167730049
 31
0.0
  0
LINE
  5
60B
330
A
100
AcDbEntity
  8
HEWI
  6
STANDARD
 62
     7
100
AcDbLine
 10
261.8358331692974
 20
952.0982005669635
 30
0.0
 11
261.5678506863873
 21
953.0282237603225
 31
0.0
  0
LINE
  5
60C
330
A
100
AcDbEntity
  8
HEWI
  6
STANDARD
 62
     7
100
AcDbLine
 10
275.1298624051373
 20
1270.532191045479
 30
0.0
 11
274.803858376817
 21
1271.635172612861
 31
0.0
  0
LINE
  5
60D
330
A
100
AcDbEntity
  8
HEWI
  6
STANDARD
 62
     7
100
AcDbLine
 10
265.1618295682232
 20
1278.745196111397
 30
0.0
 11
264.6448617947857
 21
1278.587191350655
 31
0.0
  0
LINE
  5
610
330
A
100
AcDbEntity
  8
HEWI
  6
STANDARD
 62
     7
100
AcDbLine
 10
261.1758523953716
 20
1159.13917804499
 30
0.0
 11
260.9228616727155
 21
1159.883196599678
 31
0.0
  0
LINE
  5
611
330
A
100
AcDbEntity
  8
HEWI
  6
STANDARD
 62
     7
100
AcDbLine
 10
155.3838449490825
 20
1164.62917590876
 30
0.0
 11
154.6398454678814
 21
1164.376185186104
 31
0.0
  0
LINE
  5
61A
330
A
100
AcDbEntity
  8
HEWI
  6
STANDARD
 62
     7
100
AcDbLine
 10
274.803858376817
 20
1271.635172612861
 30
0.0
 11
274.4848352444927
 21
1272.53818774958
 31
0.0
  0
LINE
  5
61F
330
A
100
AcDbEntity
  8
HEWI
  6
STANDARD
 62
     7
100
AcDbLine
 10
274.4848352444927
 20
1272.53818774958
 30
0.0
 11
274.1728311551373
 21
1273.276179082588
 31
0.0
  0
LINE
  5
627
330
A
100
AcDbEntity
  8
HEWI
  6
STANDARD
 62
     7
100
AcDbLine
 10
154.6398454678814
 20
1164.376185186104
 30
0.0
 11
153.910837746934
 21
1164.044192083077
 31
0.0
  0
LINE
  5
628
330
A
100
AcDbEntity
  8
HEWI
  6
STANDARD
 62
     7
100
AcDbLine
 10
260.9228616727155
 20
1159.883196599678
 30
0.0
 11
260.5908304227154
 21
1160.612185247139
 31
0.0
  0
LINE
  5
62E
330
A
100
AcDbEntity
  8
HEWI
  6
STANDARD
 62
     7
100
AcDbLine
 10
269.7288614285747
 20
949.5811870171586
 30
0.0
 11
269.271860696153
 21
949.3542125298544
 31
0.0
  0
LINE
  5
62F
330
A
100
AcDbEntity
  8
HEWI
  6
STANDARD
 62
     7
100
AcDbLine
 10
274.1728311551373
 20
1273.276179082588
 30
0.0
 11
273.8688379300396
 21
1273.877184636788
 31
0.0
  0
LINE
  5
630
330
A
100
AcDbEntity
  8
HEWI
  6
STANDARD
 62
     7
100
AcDbLine
 10
273.8688379300396
 20
1273.877184636788
 30
0.0
 11
273.4158426297466
 21
1274.765208013252
 31
0.0
  0
LINE
  5
631
330
A
100
AcDbEntity
  8
HEWI
  6
STANDARD
 62
     7
100
AcDbLine
 10
270.6228357327741
 20
950.0421550347367
 30
0.0
 11
269.7288614285747
 21
949.5811870171586
 31
0.0
  0
LINE
  5
632
330
A
100
AcDbEntity
  8
HEWI
  6
STANDARD
 62
     7
100
AcDbLine
 10
264.6448617947857
 20
1278.587191350655
 30
0.0
 11
264.2418390286724
 21
1278.37917590876
 31
0.0
  0
LINE
  5
633
330
A
100
AcDbEntity
  8
HEWI
  6
STANDARD
 62
     7
100
AcDbLine
 10
257.2038370145123
 20
1158.410227544502
 30
0.0
 11
256.8328577054302
 21
1159.127199895576
 31
0.0
  0
LINE
  5
634
330
A
100
AcDbEntity
  8
HEWI
  6
STANDARD
 62
     7
100
AcDbLine
 10
193.7738519681255
 20
1119.590189702705
 30
0.0
 11
193.0568414700785
 21
1119.219172246651
 31
0.0
  0
LINE
  5
635
330
A
100
AcDbEntity
  8
HEWI
  6
STANDARD
 62
     7
100
AcDbLine
 10
156.1128526700298
 20
1160.657198674873
 30
0.0
 11
155.3958421719829
 21
1160.286181218819
 31
0.0
  0
LINE
  5
636
330
A
100
AcDbEntity
  8
HEWI
  6
STANDARD
 62
     7
100
AcDbLine
 10
262.299852944688
 20
951.2022044732134
 30
0.0
 11
261.8358331692974
 21
952.0982005669635
 31
0.0
  0
LINE
  5
637
330
A
100
AcDbEntity
  8
HEWI
  6
STANDARD
 62
     7
100
AcDbLine
 10
264.2418390286724
 20
1278.37917590876
 30
0.0
 11
263.7488657010357
 21
1278.123209722237
 31
0.0
  0
LINE
  5
640
330
A
100
AcDbEntity
  8
HEWI
  6
STANDARD
 62
     7
100
AcDbLine
 10
273.4158426297466
 20
1274.765208013252
 30
0.0
 11
273.1208520901958
 21
1275.255205877022
 31
0.0
  0
LINE
  5
643
330
A
100
AcDbEntity
  8
HEWI
  6
STANDARD
 62
     7
100
AcDbLine
 10
273.1208520901958
 20
1275.255205877022
 30
0.0
 11
272.8378397000591
 21
1275.650179631904
 31
0.0
  0
LINE
  5
646
330
A
100
AcDbEntity
  8
HEWI
  6
STANDARD
 62
     7
100
AcDbLine
 10
263.7488657010357
 20
1278.123209722237
 30
0.0
 11
262.9488473904888
 21
1277.474177129463
 31
0.0
  0
LINE
  5
647
330
A
100
AcDbEntity
  8
HEWI
  6
STANDARD
 62
     7
100
AcDbLine
 10
272.8378397000591
 20
1275.650179631904
 30
0.0
 11
272.1918588650982
 21
1276.446192510323
 31
0.0
  0
LINE
  5
648
330
A
100
AcDbEntity
  8
HEWI
  6
STANDARD
 62
     7
100
AcDbLine
 10
271.4208322537701
 20
950.6901958062217
 30
0.0
 11
270.6228357327741
 21
950.0421550347367
 31
0.0
  0
LINE
  5
649
330
A
100
AcDbEntity
  8
HEWI
  6
STANDARD
 62
     7
100
AcDbLine
 10
155.3958421719829
 20
1160.286181218819
 30
0.0
 11
154.7568422330181
 21
1159.76719165583
 31
0.0
  0
LINE
  5
64A
330
A
100
AcDbEntity
  8
HEWI
  6
STANDARD
 62
     7
100
AcDbLine
 10
262.9488473904888
 20
950.4031779839555
 30
0.0
 11
262.299852944688
 21
951.2022044732134
 31
0.0
  0
LINE
  5
64B
330
A
100
AcDbEntity
  8
HEWI
  6
STANDARD
 62
     7
100
AcDbLine
 10
256.8328577054302
 20
1159.127199895576
 30
0.0
 11
256.3128381741802
 21
1159.76719165583
 31
0.0
  0
LINE
  5
64C
330
A
100
AcDbEntity
  8
HEWI
  6
STANDARD
 62
     7
100
AcDbLine
 10
194.4128519070904
 20
1120.110209233955
 30
0.0
 11
193.7738519681255
 21
1119.590189702705
 31
0.0
  0
LINE
  5
64E
330
A
100
AcDbEntity
  8
HEWI
  6
STANDARD
 62
     7
100
AcDbLine
 10
271.9278436673444
 20
951.1221721245807
 30
0.0
 11
271.4208322537701
 21
950.6901958062217
 31
0.0
  0
LINE
  5
650
330
A
100
AcDbEntity
  8
HEWI
  6
STANDARD
 62
     7
100
AcDbLine
 10
272.1918588650982
 20
1276.446192510323
 30
0.0
 11
271.9218545926373
 21
1276.761210210519
 31
0.0
  0
ARC
  5
658
330
A
100
AcDbEntity
  8
HEWI
  6
STANDARD
 62
     7
100
AcDbCircle
 10
157.5757838880687
 20
1156.947278547492
 30
0.0
 40
7.987365770326673
100
AcDbArc
 50
117.3124676740781
 51
152.6878507499092
  0
ARC
  5
659
330
A
100
AcDbEntity
  8
HEWI
  6
STANDARD
 62
     7
100
AcDbCircle
 10
253.4940226175965
 20
1156.947425012664
 30
0.0
 40
7.987186525866746
100
AcDbArc
 50
27.31163076326741
 51
62.68773238698558
  0
ARC
  5
65B
330
A
100
AcDbEntity
  8
HEWI
  6
STANDARD
 62
     7
100
AcDbCircle
 10
-273.7247918963673
 20
997.1722120383535
 30
0.0
 40
551.4826932170343
100
AcDbArc
 50
358.2135629815638
 51
359.3182260007107
  0
ARC
  5
65C
330
A
100
AcDbEntity
  8
HEWI
  6
STANDARD
 62
     7
100
AcDbCircle
 10
-379.6839906822271
 20
999.5500530841686
 30
0.0
 40
657.4685342575053
100
AcDbArc
 50
358.5255117647588
 51
359.9174832896965
  0
ARC
  5
65D
330
A
100
AcDbEntity
  8
HEWI
  6
STANDARD
 62
     7
100
AcDbCircle
 10
-580.3222567931295
 20
1226.243575045428
 30
0.0
 40
858.1111989990544
100
AcDbArc
 50
359.8460695176144
 51
0.9178302126065693
  0
LINE
  5
82E
330
A
100
AcDbEntity
  8
HEWI
100
AcDbLine
 10
-286.5156706030377
 20
1278.97750493634
 30
0.0
 11
-502.0156706030377
 21
1278.97750493634
 31
0.0
  0
LINE
  5
82F
330
A
100
AcDbEntity
  8
HEWI
100
AcDbLine
 10
-502.0156706030377
 20
948.9775049363407
 30
0.0
 11
-286.5156706030377
 21
948.9775049363407
 31
0.0
  0
LINE
  5
830
330
A
100
AcDbEntity
  8
HEWI
100
AcDbLine
 10
-568.5656706030479
 20
1224.104504936339
 30
0.0
 11
-568.5656706030479
 21
1003.850504936339
 31
0.0
  0
LINE
  5
831
330
A
100
AcDbEntity
  8
HEWI
100
AcDbLine
 10
-502.0156706030377
 20
948.9775049363407
 30
0.0
 11
-508.6974906030429
 21
948.9775049363407
 31
0.0
  0
LINE
  5
832
330
A
100
AcDbEntity
  8
HEWI
100
AcDbLine
 10
-513.564060603034
 20
948.9775049363407
 30
0.0
 11
-508.6974906030429
 21
948.9775049363407
 31
0.0
  0
LINE
  5
833
330
A
100
AcDbEntity
  8
HEWI
100
AcDbLine
 10
-286.5156706030377
 20
948.9775049363407
 30
0.0
 11
-279.8338506030398
 21
948.9775049363407
 31
0.0
  0
LINE
  5
834
330
A
100
AcDbEntity
  8
HEWI
100
AcDbLine
 10
-502.0156706030377
 20
1278.97750493634
 30
0.0
 11
-508.6974906030429
 21
1278.97750493634
 31
0.0
  0
LINE
  5
835
330
A
100
AcDbEntity
  8
HEWI
100
AcDbLine
 10
-279.8338506030398
 20
948.9775049363407
 30
0.0
 11
-274.9670506030436
 21
948.9775049363407
 31
0.0
  0
LINE
  5
836
330
A
100
AcDbEntity
  8
HEWI
100
AcDbLine
 10
-219.9656706030421
 20
1003.850504936339
 30
0.0
 11
-219.9656706030421
 21
1224.104504936339
 31
0.0
  0
LINE
  5
837
330
A
100
AcDbEntity
  8
HEWI
100
AcDbLine
 10
-274.9672806030342
 20
1278.97750493634
 30
0.0
 11
-279.8338506030398
 21
1278.97750493634
 31
0.0
  0
LINE
  5
838
330
A
100
AcDbEntity
  8
HEWI
100
AcDbLine
 10
-508.6974906030429
 20
1278.97750493634
 30
0.0
 11
-513.564290603039
 21
1278.97750493634
 31
0.0
  0
LINE
  5
839
330
A
100
AcDbEntity
  8
HEWI
100
AcDbLine
 10
-279.8338506030398
 20
1278.97750493634
 30
0.0
 11
-286.5156706030377
 21
1278.97750493634
 31
0.0
  0
LINE
  5
83A
330
A
100
AcDbEntity
  8
HEWI
100
AcDbLine
 10
-286.5156706030377
 20
953.9775049363406
 30
0.0
 11
-286.5156706030377
 21
1273.977504936341
 31
0.0
  0
LINE
  5
83B
330
A
100
AcDbEntity
  8
HEWI
100
AcDbLine
 10
-502.0156706030377
 20
1273.977504936341
 30
0.0
 11
-502.0156706030377
 21
953.9775049363406
 31
0.0
  0
LINE
  5
83C
330
A
100
AcDbEntity
  8
HEWI
100
AcDbLine
 10
-286.5156706030377
 20
1273.977504936341
 30
0.0
 11
-286.5156706030377
 21
1278.97750493634
 31
0.0
  0
LINE
  5
83D
330
A
100
AcDbEntity
  8
HEWI
100
AcDbLine
 10
-502.0156706030377
 20
1273.977504936341
 30
0.0
 11
-502.0156706030377
 21
1278.97750493634
 31
0.0
  0
LINE
  5
83E
330
A
100
AcDbEntity
  8
HEWI
100
AcDbLine
 10
-286.5156706030377
 20
948.9775049363407
 30
0.0
 11
-286.5156706030377
 21
953.9775049363406
 31
0.0
  0
LINE
  5
83F
330
A
100
AcDbEntity
  8
HEWI
100
AcDbLine
 10
-502.0156706030377
 20
948.9775049363407
 30
0.0
 11
-502.0156706030377
 21
953.9775049363406
 31
0.0
  0
SPLINE
  5
8E3
330
A
100
AcDbEntity
  8
HEWI
100
AcDbSpline
210
0.0
220
0.0
230
1.0
 70
     8
 71
     3
 72
    20
 73
    16
 74
     0
 42
0.000000001
 43
0.0000000001
 40
0.0
 40
0.0
 40
0.0
 40
0.0
 40
0.2500000000000034
 40
0.2500000000000034
 40
0.3750000000000051
 40
0.3750000000000051
 40
0.4375000000000053
 40
0.4375000000000053
 40
0.5000000000000055
 40
0.5000000000000055
 40
0.625000000000004
 40
0.625000000000004
 40
0.7500000000000027
 40
0.7500000000000027
 40
1.0
 40
1.0
 40
1.0
 40
1.0
 10
-568.5656674365658
 20
1223.977507495799
 30
0.0
 10
-568.5656674365658
 20
1231.740804646271
 30
0.0
 10
-568.2608692578344
 20
1239.514321042842
 30
0.0
 10
-566.1647303857082
 20
1250.966794904716
 30
0.0
 10
-565.1843905858023
 20
1254.720252713913
 30
0.0
 10
-562.8846232975468
 20
1260.085699965231
 30
0.0
 10
-561.9895787536354
 20
1261.795851800457
 30
0.0
 10
-559.8763353293163
 20
1265.019348026841
 30
0.0
 10
-558.6379235279003
 20
1266.548707462743
 30
0.0
 10
-554.5229348228368
 20
1270.61468493356
 30
0.0
 10
-551.1811328274691
 20
1272.678541090536
 30
0.0
 10
-544.0977000506375
 20
1275.656382049658
 30
0.0
 10
-540.3581788393478
 20
1276.621710302825
 30
0.0
 10
-528.9724993284672
 20
1278.677606251288
 30
0.0
 10
-521.2615443587111
 20
1278.977506503639
 30
0.0
 10
-513.5656674365657
 20
1278.977507495798
 30
0.0
  0
SPLINE
  5
8E4
330
A
100
AcDbEntity
  8
HEWI
100
AcDbSpline
210
0.0
220
0.0
230
1.0
 70
     8
 71
     3
 72
    20
 73
    16
 74
     0
 42
0.000000001
 43
0.0000000001
 40
0.0
 40
0.0
 40
0.0
 40
0.0
 40
0.2499999999999969
 40
0.2499999999999969
 40
0.3749999999999955
 40
0.3749999999999955
 40
0.4999999999999943
 40
0.4999999999999943
 40
0.5624999999999945
 40
0.5624999999999945
 40
0.6249999999999946
 40
0.6249999999999946
 40
0.7499999999999965
 40
0.7499999999999965
 40
1.0
 40
1.0
 40
1.0
 40
1.0
 10
-274.9656674365672
 20
1278.977507495798
 30
0.0
 10
-267.2697905392908
 20
1278.977507495798
 30
0.0
 10
-259.5588355446655
 20
1278.677606251288
 30
0.0
 10
-248.1731560337851
 20
1276.621710302823
 30
0.0
 10
-244.4336348224954
 20
1275.656382049658
 30
0.0
 10
-237.350202045671
 20
1272.678541090536
 30
0.0
 10
-234.0084000502959
 20
1270.61468493356
 30
0.0
 10
-229.8934113452326
 20
1266.548707462743
 30
0.0
 10
-228.6549995438165
 20
1265.019348026841
 30
0.0
 10
-226.5417561194975
 20
1261.795851800457
 30
0.0
 10
-225.6467115755861
 20
1260.085699965231
 30
0.0
 10
-223.3469442873304
 20
1254.720252713913
 30
0.0
 10
-222.3666044874319
 20
1250.966794904716
 30
0.0
 10
-220.2704656152985
 20
1239.514321042842
 30
0.0
 10
-219.9656674365672
 20
1231.740804646271
 30
0.0
 10
-219.9656674365672
 20
1223.977507495799
 30
0.0
  0
SPLINE
  5
8E5
330
A
100
AcDbEntity
  8
HEWI
100
AcDbSpline
210
0.0
220
0.0
230
1.0
 70
     8
 71
     3
 72
    20
 73
    16
 74
     0
 42
0.000000001
 43
0.0000000001
 40
0.0
 40
0.0
 40
0.0
 40
0.0
 40
0.2499999999999983
 40
0.2499999999999983
 40
0.3749999999999979
 40
0.3749999999999979
 40
0.4374999999999983
 40
0.4374999999999983
 40
0.4999999999999984
 40
0.4999999999999984
 40
0.6249999999999988
 40
0.6249999999999988
 40
0.7499999999999992
 40
0.7499999999999992
 40
1.0
 40
1.0
 40
1.0
 40
1.0
 10
-513.5656674365657
 20
948.9775074957986
 30
0.0
 10
-521.2625877968878
 20
948.9775084802836
 30
0.0
 10
-529.0502645155486
 20
949.2822321240597
 30
0.0
 10
-540.4494506460379
 20
951.3544741116366
 30
0.0
 10
-544.1787224763158
 20
952.3196089974565
 30
0.0
 10
-549.5376137824407
 20
954.5924008475255
 30
0.0
 10
-551.2473930471371
 20
955.4771145765906
 30
0.0
 10
-554.4741001461718
 20
957.5673520998249
 30
0.0
 10
-556.0077535314977
 20
958.7926867278426
 30
0.0
 10
-560.104811644922
 20
962.8870841432766
 30
0.0
 10
-562.1909187680923
 20
966.2195683710526
 30
0.0
 10
-565.2088215818349
 20
973.3240907734934
 30
0.0
 10
-566.1856919152763
 20
977.0777058586766
 30
0.0
 10
-568.2659777891297
 20
988.5195412045925
 30
0.0
 10
-568.5656674365658
 20
996.2362290730537
 30
0.0
 10
-568.5656674365658
 20
1003.977507495798
 30
0.0
  0
SPLINE
  5
8E6
330
A
100
AcDbEntity
  8
HEWI
100
AcDbSpline
210
0.0
220
0.0
230
1.0
 70
     8
 71
     3
 72
    20
 73
    16
 74
     0
 42
0.000000001
 43
0.0000000001
 40
0.0
 40
0.0
 40
0.0
 40
0.0
 40
0.2500000000000008
 40
0.2500000000000008
 40
0.3750000000000012
 40
0.3750000000000012
 40
0.5000000000000017
 40
0.5000000000000017
 40
0.5625000000000019
 40
0.5625000000000019
 40
0.6250000000000023
 40
0.6250000000000023
 40
0.7500000000000017
 40
0.7500000000000017
 40
1.0
 40
1.0
 40
1.0
 40
1.0
 10
-219.9656674365672
 20
1003.977507495798
 30
0.0
 10
-219.9656674365672
 20
996.2362290730537
 30
0.0
 10
-220.2653570840032
 20
988.5195412045925
 30
0.0
 10
-222.3456429578566
 20
977.0777058586766
 30
0.0
 10
-223.3225132912978
 20
973.3240907734934
 30
0.0
 10
-226.3404161050478
 20
966.2195683710526
 30
0.0
 10
-228.4265232282107
 20
962.8870841432766
 30
0.0
 10
-232.523581341635
 20
958.7926867278426
 30
0.0
 10
-234.0572347269683
 20
957.5673520998249
 30
0.0
 10
-237.283941826003
 20
955.4771145765906
 30
0.0
 10
-238.9937210906994
 20
954.5924008475255
 30
0.0
 10
-244.3526123968315
 20
952.3196089974565
 30
0.0
 10
-248.0818842271022
 20
951.3544741116366
 30
0.0
 10
-259.4810703575843
 20
949.2822321240597
 30
0.0
 10
-267.2687471009469
 20
948.9775074957986
 30
0.0
 10
-274.9656674365672
 20
948.9775074957986
 30
0.0
  0
ARC
  5
8FD
330
A
100
AcDbEntity
  8
HEWI
100
AcDbCircle
 10
-502.0156610662946
 20
1404.347068796759
 30
0.0
 40
100.0
100
AcDbArc
 50
90.0
 51
93.6485600000052
  0
ARC
  5
8FE
330
A
100
AcDbEntity
  8
HEWI
100
AcDbCircle
 10
317.1756610662981
 20
923.5235987967588
 30
0.0
 40
591.7999999999998
210
0.0
220
0.0
230
-1.0
100
AcDbArc
 50
93.6485600000052
 51
94.12499200002612
  0
ARC
  5
8FF
330
A
100
AcDbEntity
  8
HEWI
100
AcDbCircle
 10
471.3556610662982
 20
923.5235987967588
 30
0.0
 40
591.7999999999998
210
0.0
220
0.0
230
-1.0
100
AcDbArc
 50
85.87500799997387
 51
86.35143999999483
  0
ARC
  5
900
330
A
100
AcDbEntity
  8
HEWI
100
AcDbCircle
 10
502.0156610662946
 20
1404.347068796759
 30
0.0
 40
110.0
210
0.0
220
0.0
230
-1.0
100
AcDbArc
 50
86.35143999999483
 51
90.0
  0
ARC
  5
901
330
A
100
AcDbEntity
  8
HEWI
100
AcDbCircle
 10
-317.1756610662981
 20
923.5235987967588
 30
0.0
 40
581.7999999999998
100
AcDbArc
 50
85.87500799997387
 51
86.35143999999483
  0
ARC
  5
902
330
A
100
AcDbEntity
  8
HEWI
100
AcDbCircle
 10
-471.3556610662982
 20
923.5235987967588
 30
0.0
 40
581.7999999999998
100
AcDbArc
 50
93.6485600000052
 51
94.12499200002612
  0
SPLINE
  5
903
330
A
100
AcDbEntity
  8
HEWI
100
AcDbSpline
210
-0.0000000000000001
220
0.0000000000000003
230
1.0
 70
     8
 71
     3
 72
    10
 73
     6
 74
     0
 42
0.000000001
 43
0.0000000001
 40
0.0
 40
0.0
 40
0.0
 40
0.0
 40
0.5
 40
0.5
 40
1.0
 40
1.0
 40
1.0
 40
1.0
 10
-568.5656578998226
 20
1503.033356430693
 30
0.000000000000001
 10
-568.5656578998226
 20
1504.210858010818
 30
0.000000000000001
 10
-568.1332540919957
 20
1505.38358514222
 30
0.000000000000001
 10
-566.6044419986775
 20
1507.174890104562
 30
0.0
 10
-565.5142326305122
 20
1507.786204680966
 30
0.0
 10
-564.3513600129865
 20
1507.971237776916
 30
0.0
  0
SPLINE
  5
904
330
A
100
AcDbEntity
  8
HEWI
100
AcDbSpline
210
0.0
220
0.0
230
1.0
 70
     8
 71
     3
 72
    18
 73
    14
 74
     0
 42
0.000000001
 43
0.0000000001
 40
0.0
 40
0.0
 40
0.0
 40
0.0
 40
0.2499999999999999
 40
0.2499999999999999
 40
0.3749999999999996
 40
0.3749999999999996
 40
0.4999999999999993
 40
0.4999999999999993
 40
0.6249999999999992
 40
0.6249999999999992
 40
0.7499999999999987
 40
0.7499999999999987
 40
1.0
 40
1.0
 40
1.0
 40
1.0
 10
-513.2059953231421
 20
1503.816449480743
 30
0.000000000000001
 10
-520.2433623995658
 20
1503.308919209062
 30
0.000000000000001
 10
-527.2480261490402
 20
1502.674490459091
 30
0.000000000000001
 10
-537.6299209035335
 20
1501.547026142511
 30
0.000000000000001
 10
-541.0627289704191
 20
1501.14188663834
 30
0.000000000000001
 10
-547.5589983331794
 20
1500.320801553857
 30
0.000000000000001
 10
-550.6512677881167
 20
1499.899960672078
 30
0.000000000000001
 10
-555.6059893233451
 20
1499.196584029881
 30
0.000000000000001
 10
-557.4165869583651
 20
1498.924723893845
 30
0.000000000000001
 10
-559.9909202257968
 20
1498.533797439874
 30
0.000000000000001
 10
-560.7918251881693
 20
1498.408593112833
 30
0.000000000000001
 10
-562.5237096127005
 20
1498.137378114169
 30
0.000000000000001
 10
-562.780064355624
 20
1498.09545733057
 30
0.000000000000001
 10
-562.7799089046223
 20
1498.095482750925
 30
0.000000000000001
  0
SPLINE
  5
905
330
A
100
AcDbEntity
  8
HEWI
100
AcDbSpline
210
0.0
220
0.0
230
1.0
 70
     8
 71
     3
 72
    18
 73
    14
 74
     0
 42
0.000000001
 43
0.0000000001
 40
0.0
 40
0.0
 40
0.0
 40
0.0
 40
0.2500000000000013
 40
0.2500000000000013
 40
0.3750000000000009
 40
0.3750000000000009
 40
0.5000000000000007
 40
0.5000000000000007
 40
0.6250000000000006
 40
0.6250000000000006
 40
0.7500000000000001
 40
0.7500000000000001
 40
1.0
 40
1.0
 40
1.0
 40
1.0
 10
-225.751310663449
 20
1498.095467014515
 30
0.000000000000001
 10
-225.7514093625052
 20
1498.095483154423
 30
0.000000000000001
 10
-226.0076061869461
 20
1498.137378114169
 30
0.000000000000001
 10
-227.7394906114844
 20
1498.408593112833
 30
0.000000000000001
 10
-228.5403955738495
 20
1498.533797439874
 30
0.000000000000001
 10
-231.1147288412815
 20
1498.924723893845
 30
0.000000000000001
 10
-232.9253264763013
 20
1499.196584029881
 30
0.000000000000001
 10
-237.8800480115371
 20
1499.899960672078
 30
0.000000000000001
 10
-240.9723174664744
 20
1500.320801553857
 30
0.000000000000001
 10
-247.4685868292347
 20
1501.14188663834
 30
0.000000000000001
 10
-250.901394896113
 20
1501.547026142511
 30
0.000000000000001
 10
-261.2832896506063
 20
1502.674490459091
 30
0.000000000000001
 10
-268.2879534000806
 20
1503.308919209062
 30
0.000000000000001
 10
-275.3253204765117
 20
1503.816449480743
 30
0.000000000000001
  0
SPLINE
  5
906
330
A
100
AcDbEntity
  8
HEWI
100
AcDbSpline
210
0.0
220
0.0
230
1.0
 70
     8
 71
     3
 72
    10
 73
     6
 74
     0
 42
0.000000001
 43
0.0000000001
 40
0.0
 40
0.0
 40
0.0
 40
0.0
 40
0.5
 40
0.5
 40
1.0
 40
1.0
 40
1.0
 40
1.0
 10
-562.7799557866731
 20
1498.095475084469
 30
0.000000000000001
 10
-564.2025517960632
 20
1497.869115515985
 30
0.000000000000001
 10
-565.7158458701435
 20
1498.295032913611
 30
0.000000000000001
 10
-567.9072323149068
 20
1500.165299656759
 30
0.000000000000001
 10
-568.5656578998226
 20
1501.592864132827
 30
0.000000000000001
 10
-568.5656578998226
 20
1503.033356430693
 30
0.000000000000001
  0
SPLINE
  5
907
330
A
100
AcDbEntity
  8
HEWI
100
AcDbSpline
210
0.0
220
0.0
230
1.0
 70
     8
 71
     3
 72
    10
 73
     6
 74
     0
 42
0.000000001
 43
0.0000000001
 40
0.0
 40
0.0
 40
0.0
 40
0.0
 40
0.5
 40
0.5
 40
1.0
 40
1.0
 40
1.0
 40
1.0
 10
-219.965657899824
 20
1503.033356430693
 30
0.000000000000001
 10
-219.965657899824
 20
1501.592864132827
 30
0.000000000000001
 10
-220.6240834847397
 20
1500.165299656759
 30
0.000000000000001
 10
-222.815469929503
 20
1498.295032913611
 30
0.000000000000001
 10
-224.3287640035835
 20
1497.869115515985
 30
0.000000000000001
 10
-225.7513600129807
 20
1498.095475084469
 30
0.000000000000001
  0
SPLINE
  5
908
330
A
100
AcDbEntity
  8
HEWI
100
AcDbSpline
210
0.0
220
0.0
230
1.0
 70
     8
 71
     3
 72
    20
 73
    16
 74
     0
 42
0.000000001
 43
0.0000000001
 40
0.0
 40
0.0
 40
0.0
 40
0.0
 40
0.2499999999999973
 40
0.2499999999999973
 40
0.3749999999999971
 40
0.3749999999999971
 40
0.437499999999997
 40
0.437499999999997
 40
0.4999999999999969
 40
0.4999999999999969
 40
0.6249999999999979
 40
0.6249999999999979
 40
0.7499999999999992
 40
0.7499999999999992
 40
1.0
 40
1.0
 40
1.0
 40
1.0
 10
-564.3514093613687
 20
1507.97122969999
 30
0.0
 10
-564.3513106645897
 20
1507.971245853844
 30
0.0
 10
-564.0873194172366
 20
1508.014453710694
 30
0.0
 10
-562.2861523863377
 20
1508.296424598733
 30
0.0
 10
-561.4526849644517
 20
1508.426679607927
 30
0.0
 10
-559.4383188909179
 20
1508.732236279344
 30
0.0
 10
-558.6434206364266
 20
1508.851727635662
 30
0.0
 10
-556.7367536757285
 20
1509.132888698581
 30
0.0
 10
-555.600556597272
 20
1509.298041291725
 30
0.0
 10
-551.7768378327221
 20
1509.839474057685
 30
0.0
 10
-548.6219331544764
 20
1510.267302640144
 30
0.0
 10
-542.0383290812008
 20
1511.096752787783
 30
0.0
 10
-538.568875954674
 20
1511.504865831035
 30
0.0
 10
-528.0900603972388
 20
1512.639738292667
 30
0.0
 10
-521.023753624517
 20
1513.278610177028
 30
0.0
 10
-513.9253204765175
 20
1513.790544493512
 30
0.0
  0
SPLINE
  5
909
330
A
100
AcDbEntity
  8
HEWI
100
AcDbSpline
210
0.0
220
0.0
230
1.0
 70
     8
 71
     3
 72
    20
 73
    16
 74
     0
 42
0.000000001
 43
0.0000000001
 40
0.0
 40
0.0
 40
0.0
 40
0.0
 40
0.2501026463115671
 40
0.2501026463115671
 40
0.3751539694673513
 40
0.3751539694673513
 40
0.5002052926231357
 40
0.5002052926231357
 40
0.5627309542010269
 40
0.5627309542010269
 40
0.6252566157789185
 40
0.6252566157789185
 40
0.7503079389347013
 40
0.7503079389347013
 40
1.0
 40
1.0
 40
1.0
 40
1.0
 10
-274.6059953231363
 20
1513.790544493512
 30
0.0
 10
-267.5075621751296
 20
1513.278610177028
 30
0.0
 10
-260.4412554024077
 20
1512.639738292667
 30
0.0
 10
-249.9624398449725
 20
1511.504865831035
 30
0.0
 10
-246.4929867184458
 20
1511.096752787783
 30
0.0
 10
-239.9093826451701
 20
1510.267302640144
 30
0.0
 10
-236.7544779669318
 20
1509.839474057685
 30
0.0
 10
-232.9307592023745
 20
1509.298041291725
 30
0.0
 10
-231.794562123918
 20
1509.132888698581
 30
0.0
 10
-229.8878951632271
 20
1508.851727635662
 30
0.0
 10
-229.0929969087285
 20
1508.732236279344
 30
0.0
 10
-227.0786308352019
 20
1508.426679607927
 30
0.0
 10
-226.2451634133088
 20
1508.296424598733
 30
0.0
 10
-224.4459676599929
 20
1508.014762312218
 30
0.0
 10
-224.1807170343948
 20
1507.971362348462
 30
0.0
 10
-224.1800040419896
 20
1507.971245674902
 30
0.0
  0
SPLINE
  5
90A
330
A
100
AcDbEntity
  8
HEWI
100
AcDbSpline
210
-0.0000000000000003
220
-0.0000000000000001
230
1.0
 70
     8
 71
     3
 72
    10
 73
     6
 74
     0
 42
0.000000001
 43
0.0000000001
 40
0.0
 40
0.0
 40
0.0
 40
0.0
 40
0.5
 40
0.5
 40
1.0
 40
1.0
 40
1.0
 40
1.0
 10
-224.1799557866674
 20
1507.971237776916
 30
0.0
 10
-223.0170831691414
 20
1507.786204680966
 30
0.0
 10
-221.9268738009762
 20
1507.174890104562
 30
0.0
 10
-220.3980617076506
 20
1505.38358514222
 30
0.000000000000001
 10
-219.965657899824
 20
1504.210858010818
 30
0.000000000000001
 10
-219.965657899824
 20
1503.033356430693
 30
0.000000000000001
  0
DIMENSION
  5
928
330
A
100
AcDbEntity
  8
0
  6
Continuous
100
AcDbDimension
280
     0
  2
*D0
 10
-144.2656706030377
 20
1727.231333488958
 30
0.0
 11
-394.2656706030377
 21
1727.231333488958
 31
0.0
 70
    32
  1
486 - 586
 71
     5
 42
500.0
 73
     0
 74
     0
 75
     0
  3
STANDARD
100
AcDbAlignedDimension
 13
-644.2656706030377
 23
1601.047012339239
 33
0.0
 14
-144.2656706030377
 24
1601.047012339239
 34
0.0
100
AcDbRotatedDimension
1001
ACAD
1000
DSTYLE
1002
{
1070
   271
1070
     0
1070
    41
1040
15.0
1070
   147
1040
10.0
1070
   140
1040
20.0
1070
   289
1070
     3
1002
}
  0
LINE
  5
980
330
A
100
AcDbEntity
  8
HEWI
  6
STANDARD
 62
     7
100
AcDbLine
 10
-635.465640848399
 20
1122.471123355329
 30
0.0
 11
-641.0656355078227
 21
1122.471123355329
 31
0.0
  0
LINE
  5
981
330
A
100
AcDbEntity
  8
HEWI
  6
STANDARD
 62
     7
100
AcDbLine
 10
-635.465640848399
 20
1154.871101993024
 30
0.0
 11
-641.0656355078227
 21
1154.871101993024
 31
0.0
  0
LINE
  5
982
330
A
100
AcDbEntity
  8
HEWI
  6
STANDARD
 62
     7
100
AcDbLine
 10
-568.5656641180522
 20
1155.977550712707
 30
0.0
 11
-641.2656400854595
 21
1155.977550712707
 31
0.0
  0
LINE
  5
983
330
A
100
AcDbEntity
  8
HEWI
  6
STANDARD
 62
     7
100
AcDbLine
 10
-568.5656831915387
 20
1123.97750493634
 30
0.0
 11
-641.2656400854595
 21
1123.977504936341
 31
0.0
  0
LINE
  5
984
330
A
100
AcDbEntity
  8
HEWI
  6
STANDARD
 62
     7
100
AcDbLine
 10
-644.2656706030377
 20
1122.671089785993
 30
0.0
 11
-644.2656706030377
 21
1154.67113556236
 31
0.0
  0
LINE
  5
985
330
A
100
AcDbEntity
  8
HEWI
  6
STANDARD
 62
     7
100
AcDbLine
 10
-635.2656362707623
 20
1122.671089785993
 30
0.0
 11
-635.2656362707623
 21
1154.67113556236
 31
0.0
  0
LINE
  5
986
330
A
100
AcDbEntity
  8
HEWI
  6
STANDARD
 62
     7
100
AcDbLine
 10
-635.2656362707623
 20
1154.67113556236
 30
0.0
 11
-635.465640848399
 21
1154.871101993024
 31
0.0
  0
LINE
  5
987
330
A
100
AcDbEntity
  8
HEWI
  6
STANDARD
 62
     7
100
AcDbLine
 10
-644.0656660254009
 20
1122.471123355329
 30
0.0
 11
-644.2656706030377
 21
1122.671089785993
 31
0.0
  0
LINE
  5
988
330
A
100
AcDbEntity
  8
HEWI
  6
STANDARD
 62
     7
100
AcDbLine
 10
-635.2656362707623
 20
1122.671089785993
 30
0.0
 11
-635.465640848399
 21
1122.471123355329
 31
0.0
  0
LINE
  5
989
330
A
100
AcDbEntity
  8
HEWI
  6
STANDARD
 62
     7
100
AcDbLine
 10
-644.0656660254009
 20
1154.871101993024
 30
0.0
 11
-644.2656706030377
 21
1154.67113556236
 31
0.0
  0
CIRCLE
  5
1BEA
330
A
100
AcDbEntity
  8
HEWI
100
AcDbCircle
 10
174.5829245150946
 20
1133.936236412738
 30
0.0
 40
1.149999999999999
  0
CIRCLE
  5
1BEB
330
A
100
AcDbEntity
  8
HEWI
100
AcDbCircle
 10
-174.5829245150946
 20
1133.936236412738
 30
0.0
 40
1.45
210
0.0
220
0.0
230
-1.0
  0
CIRCLE
  5
1BEC
330
A
100
AcDbEntity
  8
HEWI
100
AcDbCircle
 10
174.5829245150946
 20
1145.936236412738
 30
0.0
 40
1.149999999999999
  0
CIRCLE
  5
1BED
330
A
100
AcDbEntity
  8
HEWI
100
AcDbCircle
 10
-174.5829245150946
 20
1145.936236412738
 30
0.0
 40
1.45
210
0.0
220
0.0
230
-1.0
  0
ARC
  5
1BEE
330
A
100
AcDbEntity
  8
HEWI
100
AcDbCircle
 10
-174.5829245150946
 20
1139.936236412738
 30
0.0
 40
4.891099999999998
210
0.0
220
0.0
230
-1.0
100
AcDbArc
 50
86.77686000000727
 51
93.21749599999392
  0
ARC
  5
1BEF
330
A
100
AcDbEntity
  8
HEWI
100
AcDbCircle
 10
-174.5829245150946
 20
1139.936236412738
 30
0.0
 40
4.891099999999998
210
0.0
220
0.0
230
-1.0
100
AcDbArc
 50
266.782485000012
 51
273.223120999998
  0
ARC
  5
1BF0
330
A
100
AcDbEntity
  8
HEWI
100
AcDbCircle
 10
174.5829245150946
 20
1139.936236412738
 30
0.0
 40
5.5
100
AcDbArc
 50
78.55311799998563
 51
101.4412400000023
  0
ARC
  5
1BF1
330
A
100
AcDbEntity
  8
HEWI
100
AcDbCircle
 10
174.5829245150946
 20
1139.936236412738
 30
0.0
 40
5.5
100
AcDbArc
 50
258.5587479999804
 51
281.4468699999976
  0
ARC
  5
1BF2
330
A
100
AcDbEntity
  8
HEWI
100
AcDbCircle
 10
174.5829245150946
 20
1139.936236412738
 30
0.0
 40
5.099999999999998
100
AcDbArc
 50
82.57500800001318
 51
97.4193790000144
  0
ARC
  5
1BF3
330
A
100
AcDbEntity
  8
HEWI
100
AcDbCircle
 10
174.5829245150946
 20
1139.936236412738
 30
0.0
 40
5.099999999999998
100
AcDbArc
 50
262.5806319999997
 51
277.4250019999939
  0
CIRCLE
  5
1BF4
330
A
100
AcDbEntity
  8
HEWI
100
AcDbCircle
 10
-174.5829245150946
 20
1139.936236412738
 30
0.0
 40
21.0
210
0.0
220
0.0
230
-1.0
  0
CIRCLE
  5
1BF5
330
A
100
AcDbEntity
  8
HEWI
100
AcDbCircle
 10
174.5829245150946
 20
1139.936236412738
 30
0.0
 40
20.8
  0
LINE
  5
1BFD
330
A
100
AcDbEntity
  8
HEWI
  6
STANDARD
 62
     7
100
AcDbLine
 10
149.5848375333111
 20
1117.938196904854
 30
0.0
 11
149.5848375333111
 21
1157.339962787895
 31
0.0
  0
LINE
  5
1C0C
330
A
100
AcDbEntity
  8
HEWI
  6
STANDARD
 62
     7
100
AcDbLine
 10
150.0024815811841
 20
1159.521459074575
 30
0.0
 11
149.648749481398
 21
1158.034550269268
 31
0.0
  0
LINE
  5
1C0F
330
A
100
AcDbEntity
  8
HEWI
  6
STANDARD
 62
     7
100
AcDbLine
 10
149.648749481398
 20
1158.034550269268
 30
0.0
 11
149.5817633974136
 21
1157.306553443096
 31
0.0
  0
LINE
  5
1C10
330
A
100
AcDbEntity
  8
HEWI
  6
STANDARD
 62
     7
100
AcDbLine
 10
-1042.016191709357
 20
1164.938204534248
 30
0.0
 11
-946.1161901834783
 21
1164.938204534248
 31
0.0
  0
LINE
  5
1C11
330
A
100
AcDbEntity
  8
HEWI
  6
STANDARD
 62
     7
100
AcDbLine
 10
-942.1161939981756
 20
1118.427164800362
 30
0.0
 11
-938.1161787393866
 21
1118.427164800362
 31
0.0
  0
LINE
  5
1C12
330
A
100
AcDbEntity
  8
HEWI
  6
STANDARD
 62
     7
100
AcDbLine
 10
-942.1161939981756
 20
1117.938196904854
 30
0.0
 11
-938.1161787393866
 21
1117.938196904854
 31
0.0
  0
LINE
  5
1C13
330
A
100
AcDbEntity
  8
HEWI
  6
STANDARD
 62
     7
100
AcDbLine
 10
-1042.016191709357
 20
1160.938189275459
 30
0.0
 11
-946.1161901834783
 21
1160.938189275459
 31
0.0
  0
LINE
  5
1C14
330
A
100
AcDbEntity
  8
HEWI
  6
STANDARD
 62
     7
100
AcDbLine
 10
-1050.016184079963
 20
1003.938181646065
 30
0.0
 11
-1046.016206968146
 21
1003.938181646065
 31
0.0
  0
LINE
  5
1C15
330
A
100
AcDbEntity
  8
HEWI
  6
STANDARD
 62
     7
100
AcDbLine
 10
-1066.32718108924
 20
1003.938181646065
 30
0.0
 11
-1066.217203367072
 21
1003.938181646065
 31
0.0
  0
LINE
  5
1C16
330
A
100
AcDbEntity
  8
HEWI
  6
STANDARD
 62
     7
100
AcDbLine
 10
-1066.32718108924
 20
1223.938181646065
 30
0.0
 11
-1066.217203367072
 21
1223.938181646065
 31
0.0
  0
LINE
  5
1C17
330
A
100
AcDbEntity
  8
HEWI
  6
STANDARD
 62
     7
100
AcDbLine
 10
-1055.560198057013
 20
1278.938181646065
 30
0.0
 11
-1055.016184079963
 21
1278.938181646065
 31
0.0
  0
LINE
  5
1C18
330
A
100
AcDbEntity
  8
HEWI
  6
STANDARD
 62
     7
100
AcDbLine
 10
-1055.560198057013
 20
948.9381816460655
 30
0.0
 11
-1055.016184079963
 21
948.9381816460655
 31
0.0
  0
LINE
  5
1C19
330
A
100
AcDbEntity
  8
HEWI
  6
STANDARD
 62
     7
100
AcDbLine
 10
-980.1162054422674
 20
1118.938181646065
 30
0.0
 11
-942.1161939981756
 21
1118.938181646065
 31
0.0
  0
LINE
  5
1C1A
330
A
100
AcDbEntity
  8
HEWI
  6
STANDARD
 62
     7
100
AcDbLine
 10
-1046.016206968146
 20
1003.938181646065
 30
0.0
 11
-1046.016206968146
 21
1156.938212163643
 31
0.0
  0
LINE
  5
1C1B
330
A
100
AcDbEntity
  8
HEWI
  6
STANDARD
 62
     7
100
AcDbLine
 10
-1050.016184079963
 20
953.9381816460654
 30
0.0
 11
-1050.016184079963
 21
1273.938181646065
 31
0.0
  0
LINE
  5
1C1C
330
A
100
AcDbEntity
  8
HEWI
  6
STANDARD
 62
     7
100
AcDbLine
 10
-942.1161939981756
 20
1156.138193853097
 30
0.0
 11
-942.1161939981756
 21
1156.938212163643
 31
0.0
  0
LINE
  5
1C1D
330
A
100
AcDbEntity
  8
HEWI
  6
STANDARD
 62
     7
100
AcDbLine
 10
-942.1161939981756
 20
1117.938196904854
 30
0.0
 11
-942.1161939981756
 21
1156.138193853097
 31
0.0
  0
LINE
  5
1C1E
330
A
100
AcDbEntity
  8
HEWI
  6
STANDARD
 62
     7
100
AcDbLine
 10
-1066.32718108924
 20
1003.938181646065
 30
0.0
 11
-1066.32718108924
 21
1223.938181646065
 31
0.0
  0
LINE
  5
1C1F
330
A
100
AcDbEntity
  8
HEWI
  6
STANDARD
 62
     7
100
AcDbLine
 10
-984.1161825540837
 20
1122.938196904854
 30
0.0
 11
-984.1161825540837
 21
1160.938189275459
 31
0.0
  0
LINE
  5
1C20
330
A
100
AcDbEntity
  8
HEWI
  6
STANDARD
 62
     7
100
AcDbLine
 10
-1060.453195798713
 20
1276.761210210519
 30
0.0
 11
-1060.195169675666
 21
1277.004206426338
 31
0.0
  0
LINE
  5
1C21
330
A
100
AcDbEntity
  8
HEWI
  6
STANDARD
 62
     7
100
AcDbLine
 10
-1060.731172788458
 20
951.4401652886435
 30
0.0
 11
-1060.45918487342
 21
951.1221721245807
 31
0.0
  0
LINE
  5
1C22
330
A
100
AcDbEntity
  8
HEWI
  6
STANDARD
 62
     7
100
AcDbLine
 10
-983.4641744974431
 20
1120.749171025948
 30
0.0
 11
-982.9441931131658
 21
1120.110209233955
 31
0.0
  0
LINE
  5
1C23
330
A
100
AcDbEntity
  8
HEWI
  6
STANDARD
 62
     7
100
AcDbLine
 10
-1052.280206907111
 20
949.7531535698936
 30
0.0
 11
-1051.480188596564
 21
950.4031779839555
 31
0.0
  0
LINE
  5
1C24
330
A
100
AcDbEntity
  8
HEWI
  6
STANDARD
 62
     7
100
AcDbLine
 10
-943.2881834390936
 20
1159.76719165583
 30
0.0
 11
-942.7681829813298
 21
1159.127199895576
 31
0.0
  0
LINE
  5
1C25
330
A
100
AcDbEntity
  8
HEWI
  6
STANDARD
 62
     7
100
AcDbLine
 10
-1044.844179380255
 20
1159.76719165583
 30
0.0
 11
-1044.205179441291
 21
1160.286181218819
 31
0.0
  0
LINE
  5
1C26
330
A
100
AcDbEntity
  8
HEWI
  6
STANDARD
 62
     7
100
AcDbLine
 10
-1060.195169675666
 20
1277.004206426338
 30
0.0
 11
-1059.39717315467
 21
1277.652209050851
 31
0.0
  0
LINE
  5
1C27
330
A
100
AcDbEntity
  8
HEWI
  6
STANDARD
 62
     7
100
AcDbLine
 10
-1061.377191770392
 20
952.2362163140336
 30
0.0
 11
-1060.731172788458
 21
951.4401652886435
 31
0.0
  0
LINE
  5
1C28
330
A
100
AcDbEntity
  8
HEWI
  6
STANDARD
 62
     7
100
AcDbLine
 10
-1051.480188596564
 20
1277.474177129463
 30
0.0
 11
-1050.831194150763
 21
1276.674196965889
 31
0.0
  0
LINE
  5
1C29
330
A
100
AcDbEntity
  8
HEWI
  6
STANDARD
 62
     7
100
AcDbLine
 10
-1059.39717315467
 20
1277.652209050851
 30
0.0
 11
-1059.151201474982
 21
1277.836191899972
 31
0.0
  0
LINE
  5
1C2A
330
A
100
AcDbEntity
  8
HEWI
  6
STANDARD
 62
     7
100
AcDbLine
 10
-1061.661195981818
 20
952.6362254693076
 30
0.0
 11
-1061.377191770392
 21
952.2362163140336
 31
0.0
  0
LINE
  5
1C2B
330
A
100
AcDbEntity
  8
HEWI
  6
STANDARD
 62
     7
100
AcDbLine
 10
-1061.957178342658
 20
953.1302287652057
 30
0.0
 11
-1061.661195981818
 21
952.6362254693076
 31
0.0
  0
LINE
  5
1C2C
330
A
100
AcDbEntity
  8
HEWI
  6
STANDARD
 62
     7
100
AcDbLine
 10
-1059.151201474982
 20
1277.836191899972
 30
0.0
 11
-1058.917169797736
 21
1277.971194036202
 31
0.0
  0
LINE
  5
1C2D
330
A
100
AcDbEntity
  8
HEWI
  6
STANDARD
 62
     7
100
AcDbLine
 10
-1052.773180234748
 20
949.4971873833696
 30
0.0
 11
-1052.280206907111
 21
949.7531535698936
 31
0.0
  0
LINE
  5
1C2E
330
A
100
AcDbEntity
  8
HEWI
  6
STANDARD
 62
     7
100
AcDbLine
 10
-1050.831194150763
 20
1276.674196965889
 30
0.0
 11
-1050.367174375373
 21
1275.779192693428
 31
0.0
  0
LINE
  5
1C2F
330
A
100
AcDbEntity
  8
HEWI
  6
STANDARD
 62
     7
100
AcDbLine
 10
-1044.205179441291
 20
1160.286181218819
 30
0.0
 11
-1043.488207090216
 21
1160.657198674873
 31
0.0
  0
LINE
  5
1C30
330
A
100
AcDbEntity
  8
HEWI
  6
STANDARD
 62
     7
100
AcDbLine
 10
-942.7681829813298
 20
1159.127199895576
 30
0.0
 11
-942.3971845987615
 21
1158.410227544502
 31
0.0
  0
LINE
  5
1C31
330
A
100
AcDbEntity
  8
HEWI
  6
STANDARD
 62
     7
100
AcDbLine
 10
-983.8351919534979
 20
1121.466181523995
 30
0.0
 11
-983.4641744974431
 21
1120.749171025948
 31
0.0
  0
LINE
  5
1C32
330
A
100
AcDbEntity
  8
HEWI
  6
STANDARD
 62
     7
100
AcDbLine
 10
-1058.917169797736
 20
1277.971194036202
 30
0.0
 11
-1058.023195493537
 21
1278.433192022041
 31
0.0
  0
LINE
  5
1C33
330
A
100
AcDbEntity
  8
HEWI
  6
STANDARD
 62
     7
100
AcDbLine
 10
-1053.176203000861
 20
949.2892100884485
 30
0.0
 11
-1052.773180234748
 21
949.4971873833696
 31
0.0
  0
LINE
  5
1C34
330
A
100
AcDbEntity
  8
HEWI
  6
STANDARD
 62
     7
100
AcDbLine
 10
-1062.411203611213
 20
954.0182139946976
 30
0.0
 11
-1061.957178342658
 21
953.1302287652057
 31
0.0
  0
LINE
  5
1C35
330
A
100
AcDbEntity
  8
HEWI
  6
STANDARD
 62
     7
100
AcDbLine
 10
-1062.71519683631
 20
954.6221568657916
 30
0.0
 11
-1062.411203611213
 21
954.0182139946976
 31
0.0
  0
LINE
  5
1C36
330
A
100
AcDbEntity
  8
HEWI
  6
STANDARD
 62
     7
100
AcDbLine
 10
-939.0101911905583
 20
1160.612185247139
 30
0.0
 11
-938.6781790140448
 21
1159.883196599678
 31
0.0
  0
LINE
  5
1C37
330
A
100
AcDbEntity
  8
HEWI
  6
STANDARD
 62
     7
100
AcDbLine
 10
-1045.690202939826
 20
1164.044192083077
 30
0.0
 11
-1044.961176145392
 21
1164.376185186104
 31
0.0
  0
LINE
  5
1C38
330
A
100
AcDbEntity
  8
HEWI
  6
STANDARD
 62
     7
100
AcDbLine
 10
-1063.028192746955
 20
955.3671672417685
 30
0.0
 11
-1062.71519683631
 21
954.6221568657916
 31
0.0
  0
LINE
  5
1C39
330
A
100
AcDbEntity
  8
HEWI
  6
STANDARD
 62
     7
100
AcDbLine
 10
-1058.023195493537
 20
1278.433192022041
 30
0.0
 11
-1057.802171933967
 21
1278.523180730538
 31
0.0
  0
LINE
  5
1C3A
330
A
100
AcDbEntity
  8
HEWI
  6
STANDARD
 62
     7
100
AcDbLine
 10
-1063.349199521857
 20
956.2832286431355
 30
0.0
 11
-1063.028192746955
 21
955.3671672417685
 31
0.0
  0
LINE
  5
1C3B
330
A
100
AcDbEntity
  8
HEWI
  6
STANDARD
 62
     7
100
AcDbLine
 10
-1044.961176145392
 20
1164.376185186104
 30
0.0
 11
-1044.217195737678
 21
1164.62917590876
 31
0.0
  0
LINE
  5
1C3C
330
A
100
AcDbEntity
  8
HEWI
  6
STANDARD
 62
     7
100
AcDbLine
 10
-938.6781790140448
 20
1159.883196599678
 30
0.0
 11
-938.4251882913885
 21
1159.13917804499
 31
0.0
  0
LINE
  5
1C3D
330
A
100
AcDbEntity
  8
HEWI
  6
STANDARD
 62
     7
100
AcDbLine
 10
-1053.693170774299
 20
949.1312053277056
 30
0.0
 11
-1053.176203000861
 21
949.2892100884485
 31
0.0
  0
LINE
  5
1C3E
330
A
100
AcDbEntity
  8
HEWI
  6
STANDARD
 62
     7
100
AcDbLine
 10
-1063.676195371467
 20
957.4001720025105
 30
0.0
 11
-1063.349199521857
 21
956.2832286431355
 31
0.0
  0
LINE
  5
1C3F
330
A
100
AcDbEntity
  8
HEWI
  6
STANDARD
 62
     7
100
AcDbLine
 10
-1050.367174375373
 20
1275.779192693428
 30
0.0
 11
-1050.099191892463
 21
1274.848177678779
 31
0.0
  0
LINE
  5
1C40
330
A
100
AcDbEntity
  8
HEWI
  6
STANDARD
 62
     7
100
AcDbLine
 10
-984.0491964700994
 20
1122.210200078682
 30
0.0
 11
-983.8351919534979
 21
1121.466181523995
 31
0.0
  0
LINE
  5
1C41
330
A
100
AcDbEntity
  8
HEWI
  6
STANDARD
 62
     7
100
AcDbLine
 10
-942.3971845987615
 20
1158.410227544502
 30
0.0
 11
-942.18318008216
 21
1157.666208989815
 31
0.0
  0
LINE
  5
1C42
330
A
100
AcDbEntity
  8
HEWI
  6
STANDARD
 62
     7
100
AcDbLine
 10
-938.5338227872596
 20
1159.521459074575
 30
0.0
 11
-938.1800906874735
 21
1158.034550269268
 31
0.0
  0
LINE
  5
1C43
330
A
100
AcDbEntity
  8
HEWI
  6
STANDARD
 62
     7
100
AcDbLine
 10
-1043.488207090216
 20
1160.657198674873
 30
0.0
 11
-1042.744188535529
 21
1160.871203191475
 31
0.0
  0
LINE
  5
1C44
330
A
100
AcDbEntity
  8
HEWI
  6
STANDARD
 62
     7
100
AcDbLine
 10
-1057.802171933967
 20
1278.523180730538
 30
0.0
 11
-1056.873178708869
 21
1278.78917957087
 31
0.0
  0
LINE
  5
1C45
330
A
100
AcDbEntity
  8
HEWI
  6
STANDARD
 62
     7
100
AcDbLine
 10
-1063.905191648322
 20
958.2642009331745
 30
0.0
 11
-1063.676195371467
 21
957.4001720025105
 31
0.0
  0
LINE
  5
1C46
330
A
100
AcDbEntity
  8
HEWI
  6
STANDARD
 62
     7
100
AcDbLine
 10
-1054.106188047248
 20
949.0221812798544
 30
0.0
 11
-1053.693170774299
 21
949.1312053277056
 31
0.0
  0
LINE
  5
1C47
330
A
100
AcDbEntity
  8
HEWI
  6
STANDARD
 62
     7
100
AcDbLine
 10
-1064.220171201545
 20
959.5731761529016
 30
0.0
 11
-1063.905191648322
 21
958.2642009331745
 31
0.0
  0
LINE
  5
1C48
330
A
100
AcDbEntity
  8
HEWI
  6
STANDARD
 62
     7
100
AcDbLine
 10
-1044.217195737678
 20
1164.62917590876
 30
0.0
 11
-1043.472185361701
 21
1164.805186040597
 31
0.0
  0
LINE
  5
1C49
330
A
100
AcDbEntity
  8
HEWI
  6
STANDARD
 62
     7
100
AcDbLine
 10
-1064.37520049842
 20
960.3221538140335
 30
0.0
 11
-1064.220171201545
 21
959.5731761529016
 31
0.0
  0
LINE
  5
1C4A
330
A
100
AcDbEntity
  8
HEWI
  6
STANDARD
 62
     7
100
AcDbLine
 10
-1064.528169858771
 20
961.1401774956746
 30
0.0
 11
-1064.37520049842
 21
960.3221538140335
 31
0.0
  0
LINE
  5
1C4B
330
A
100
AcDbEntity
  8
HEWI
  6
STANDARD
 62
     7
100
AcDbLine
 10
-1064.676180112678
 20
962.0222117974327
 30
0.0
 11
-1064.528169858771
 21
961.1401774956746
 31
0.0
  0
LINE
  5
1C4C
330
A
100
AcDbEntity
  8
HEWI
  6
STANDARD
 62
     7
100
AcDbLine
 10
-1064.818201291877
 20
962.9661967827836
 30
0.0
 11
-1064.676180112678
 21
962.0222117974327
 31
0.0
  0
LINE
  5
1C4D
330
A
100
AcDbEntity
  8
HEWI
  6
STANDARD
 62
     7
100
AcDbLine
 10
-1056.873178708869
 20
1278.78917957087
 30
0.0
 11
-1056.532182920295
 21
1278.839190252022
 31
0.0
  0
LINE
  5
1C4E
330
A
100
AcDbEntity
  8
HEWI
  6
STANDARD
 62
     7
100
AcDbLine
 10
-1064.952173459845
 20
963.9681651665735
 30
0.0
 11
-1064.818201291877
 21
962.9661967827836
 31
0.0
  0
LINE
  5
1C4F
330
A
100
AcDbEntity
  8
HEWI
  6
STANDARD
 62
     7
100
AcDbLine
 10
-1054.620180356818
 20
948.9581706597375
 30
0.0
 11
-1054.106188047248
 21
949.0221812798544
 31
0.0
  0
LINE
  5
1C50
330
A
100
AcDbEntity
  8
HEWI
  6
STANDARD
 62
     7
100
AcDbLine
 10
-1065.079202878791
 20
965.0211741997766
 30
0.0
 11
-1064.952173459845
 21
963.9681651665735
 31
0.0
  0
LINE
  5
1C51
330
A
100
AcDbEntity
  8
HEWI
  6
STANDARD
 62
     7
100
AcDbLine
 10
-1065.198183286505
 20
966.1221721245807
 30
0.0
 11
-1065.079202878791
 21
965.0211741997766
 31
0.0
  0
LINE
  5
1C52
330
A
100
AcDbEntity
  8
HEWI
  6
STANDARD
 62
     7
100
AcDbLine
 10
-1056.532182920295
 20
1278.839190252022
 30
0.0
 11
-1055.560198057013
 21
1278.938181646065
 31
0.0
  0
LINE
  5
1C53
330
A
100
AcDbEntity
  8
HEWI
  6
STANDARD
 62
     7
100
AcDbLine
 10
-1065.309190976935
 20
967.2701671196985
 30
0.0
 11
-1065.198183286505
 21
966.1221721245807
 31
0.0
  0
LINE
  5
1C54
330
A
100
AcDbEntity
  8
HEWI
  6
STANDARD
 62
     7
100
AcDbLine
 10
-984.1161825540837
 20
1122.938196904854
 30
0.0
 11
-984.0491964700994
 21
1122.210200078682
 31
0.0
  0
LINE
  5
1C55
330
A
100
AcDbEntity
  8
HEWI
  6
STANDARD
 62
     7
100
AcDbLine
 10
-942.18318008216
 20
1157.666208989815
 30
0.0
 11
-942.1161939981756
 21
1156.938212163643
 31
0.0
  0
LINE
  5
1C56
330
A
100
AcDbEntity
  8
HEWI
  6
STANDARD
 62
     7
100
AcDbLine
 10
-938.1800906874735
 20
1158.034550269268
 30
0.0
 11
-938.1131046034891
 21
1157.306553443096
 31
0.0
  0
LINE
  5
1C57
330
A
100
AcDbEntity
  8
HEWI
  6
STANDARD
 62
     7
100
AcDbLine
 10
-1042.744188535529
 20
1160.871203191475
 30
0.0
 11
-1042.016191709357
 21
1160.938189275459
 31
0.0
  0
LINE
  5
1C58
330
A
100
AcDbEntity
  8
HEWI
  6
STANDARD
 62
     7
100
AcDbLine
 10
-1043.472185361701
 20
1164.805186040597
 30
0.0
 11
-1042.016191709357
 21
1164.938204534248
 31
0.0
  0
LINE
  5
1C59
330
A
100
AcDbEntity
  8
HEWI
  6
STANDARD
 62
     7
100
AcDbLine
 10
-1050.099191892463
 20
1274.848177678779
 30
0.0
 11
-1050.016184079963
 21
1273.938181646065
 31
0.0
  0
LINE
  5
1C5A
330
A
100
AcDbEntity
  8
HEWI
  6
STANDARD
 62
     7
100
AcDbLine
 10
-1065.507173765021
 20
969.6812083794634
 30
0.0
 11
-1065.309190976935
 21
967.2701671196985
 31
0.0
  0
LINE
  5
1C5B
330
A
100
AcDbEntity
  8
HEWI
  6
STANDARD
 62
     7
100
AcDbLine
 10
-1065.67418121131
 20
972.1861674859097
 30
0.0
 11
-1065.507173765021
 21
969.6812083794634
 31
0.0
  0
LINE
  5
1C5C
330
A
100
AcDbEntity
  8
HEWI
  6
STANDARD
 62
     7
100
AcDbLine
 10
-1065.81219695838
 20
974.7431590630576
 30
0.0
 11
-1065.67418121131
 21
972.1861674859097
 31
0.0
  0
LINE
  5
1C5D
330
A
100
AcDbEntity
  8
HEWI
  6
STANDARD
 62
     7
100
AcDbLine
 10
-1055.016184079963
 20
948.9381816460655
 30
0.0
 11
-1054.620180356818
 21
948.9581706597375
 31
0.0
  0
LINE
  5
1C5E
330
A
100
AcDbEntity
  8
HEWI
  6
STANDARD
 62
     7
100
AcDbLine
 10
-1065.927171933966
 20
977.3461558892295
 30
0.0
 11
-1065.81219695838
 21
974.7431590630576
 31
0.0
  0
LINE
  5
1C5F
330
A
100
AcDbEntity
  8
HEWI
  6
STANDARD
 62
     7
100
AcDbLine
 10
-1066.021204221564
 20
979.9802043511435
 30
0.0
 11
-1065.927171933966
 21
977.3461558892295
 31
0.0
  0
LINE
  5
1C60
330
A
100
AcDbEntity
  8
HEWI
  6
STANDARD
 62
     7
100
AcDbLine
 10
-1066.320200193244
 20
999.9361827446985
 30
0.0
 11
-1066.315202939826
 21
998.6031749321975
 31
0.0
  0
LINE
  5
1C61
330
A
100
AcDbEntity
  8
HEWI
  6
STANDARD
 62
     7
100
AcDbLine
 10
-1066.320200193244
 20
999.9361827446985
 30
0.0
 11
-1066.317186582404
 21
1003.938181646065
 31
0.0
  0
LINE
  5
1C62
330
A
100
AcDbEntity
  8
HEWI
  6
STANDARD
 62
     7
100
AcDbLine
 10
-1066.210184324103
 20
1239.98920703669
 30
0.0
 11
-1066.159181821662
 21
1242.662203557686
 31
0.0
  0
LINE
  5
1C63
330
A
100
AcDbEntity
  8
HEWI
  6
STANDARD
 62
     7
100
AcDbLine
 10
-1066.159181821662
 20
1242.662203557686
 30
0.0
 11
-1066.096201169806
 21
1245.331194646553
 31
0.0
  0
LINE
  5
1C64
330
A
100
AcDbEntity
  8
HEWI
  6
STANDARD
 62
     7
100
AcDbLine
 10
-1066.096201169806
 20
1245.331194646553
 30
0.0
 11
-1066.019182432013
 21
1247.988207586006
 31
0.0
  0
LINE
  5
1C65
330
A
100
AcDbEntity
  8
HEWI
  6
STANDARD
 62
     7
100
AcDbLine
 10
-1066.019182432013
 20
1247.988207586006
 30
0.0
 11
-1065.924196470099
 21
1250.622179753976
 31
0.0
  0
LINE
  5
1C66
330
A
100
AcDbEntity
  8
HEWI
  6
STANDARD
 62
     7
100
AcDbLine
 10
-1065.924196470099
 20
1250.622179753976
 30
0.0
 11
-1065.808191526252
 21
1253.228190190987
 31
0.0
  0
LINE
  5
1C67
330
A
100
AcDbEntity
  8
HEWI
  6
STANDARD
 62
     7
100
AcDbLine
 10
-1055.016184079963
 20
1278.938181646065
 30
0.0
 11
-1054.620180356818
 21
1278.918192632393
 31
0.0
  0
LINE
  5
1C68
330
A
100
AcDbEntity
  8
HEWI
  6
STANDARD
 62
     7
100
AcDbLine
 10
-1065.808191526252
 20
1253.228190190987
 30
0.0
 11
-1065.668192136603
 21
1255.7991817071
 31
0.0
  0
LINE
  5
1C69
330
A
100
AcDbEntity
  8
HEWI
  6
STANDARD
 62
     7
100
AcDbLine
 10
-1065.668192136603
 20
1255.7991817071
 30
0.0
 11
-1065.499201047736
 21
1258.307192571358
 31
0.0
  0
LINE
  5
1C6A
330
A
100
AcDbEntity
  8
HEWI
  6
STANDARD
 62
     7
100
AcDbLine
 10
-1065.499201047736
 20
1258.307192571358
 30
0.0
 11
-1065.300188291388
 21
1260.702173955635
 31
0.0
  0
LINE
  5
1C6B
330
A
100
AcDbEntity
  8
HEWI
  6
STANDARD
 62
     7
100
AcDbLine
 10
-1050.099191892463
 20
953.0282237603225
 30
0.0
 11
-1050.016184079963
 21
953.9381816460654
 31
0.0
  0
LINE
  5
1C6C
330
A
100
AcDbEntity
  8
HEWI
  6
STANDARD
 62
     7
100
AcDbLine
 10
-946.1161901834783
 20
1164.938204534248
 30
0.0
 11
-944.6601965311344
 21
1164.805186040597
 31
0.0
  0
LINE
  5
1C6D
330
A
100
AcDbEntity
  8
HEWI
  6
STANDARD
 62
     7
100
AcDbLine
 10
-980.8442022684392
 20
1119.005167730049
 30
0.0
 11
-980.1162054422674
 21
1118.938181646065
 31
0.0
  0
LINE
  5
1C6E
330
A
100
AcDbEntity
  8
HEWI
  6
STANDARD
 62
     7
100
AcDbLine
 10
-946.1161901834783
 20
1160.938189275459
 30
0.0
 11
-945.3881933573065
 21
1160.871203191475
 31
0.0
  0
LINE
  5
1C6F
330
A
100
AcDbEntity
  8
HEWI
  6
STANDARD
 62
     7
100
AcDbLine
 10
-1050.016184079963
 20
1156.938212163643
 30
0.0
 11
-1049.882173765021
 21
1158.394205815986
 31
0.0
  0
LINE
  5
1C70
330
A
100
AcDbEntity
  8
HEWI
  6
STANDARD
 62
     7
100
AcDbLine
 10
-1046.016206968146
 20
1156.938212163643
 30
0.0
 11
-1045.949182737189
 21
1157.666208989815
 31
0.0
  0
LINE
  5
1C71
330
A
100
AcDbEntity
  8
HEWI
  6
STANDARD
 62
     7
100
AcDbLine
 10
-1065.300188291388
 20
1260.702173955635
 30
0.0
 11
-1065.18818877967
 21
1261.849177129463
 31
0.0
  0
LINE
  5
1C72
330
A
100
AcDbEntity
  8
HEWI
  6
STANDARD
 62
     7
100
AcDbLine
 10
-1056.532182920295
 20
949.0372111870806
 30
0.0
 11
-1055.560198057013
 21
948.9381816460655
 31
0.0
  0
LINE
  5
1C73
330
A
100
AcDbEntity
  8
HEWI
  6
STANDARD
 62
     7
100
AcDbLine
 10
-1065.18818877967
 20
1261.849177129463
 30
0.0
 11
-1065.067186582404
 21
1262.958185918527
 31
0.0
  0
LINE
  5
1C74
330
A
100
AcDbEntity
  8
HEWI
  6
STANDARD
 62
     7
100
AcDbLine
 10
-1065.067186582404
 20
1262.958185918527
 30
0.0
 11
-1064.93817352088
 21
1264.017184026436
 31
0.0
  0
LINE
  5
1C75
330
A
100
AcDbEntity
  8
HEWI
  6
STANDARD
 62
     7
100
AcDbLine
 10
-1054.620180356818
 20
1278.918192632393
 30
0.0
 11
-1054.106188047248
 21
1278.855173833565
 31
0.0
  0
LINE
  5
1C76
330
A
100
AcDbEntity
  8
HEWI
  6
STANDARD
 62
     7
100
AcDbLine
 10
-1064.93817352088
 20
1264.017184026436
 30
0.0
 11
-1064.80317138465
 21
1265.017206914621
 31
0.0
  0
LINE
  5
1C77
330
A
100
AcDbEntity
  8
HEWI
  6
STANDARD
 62
     7
100
AcDbLine
 10
-1056.87520049842
 20
949.0881755425496
 30
0.0
 11
-1056.532182920295
 21
949.0372111870806
 31
0.0
  0
LINE
  5
1C78
330
A
100
AcDbEntity
  8
HEWI
  6
STANDARD
 62
     7
100
AcDbLine
 10
-1064.80317138465
 20
1265.017206914621
 30
0.0
 11
-1064.661188352424
 21
1265.950205571847
 31
0.0
  0
LINE
  5
1C79
330
A
100
AcDbEntity
  8
HEWI
  6
STANDARD
 62
     7
100
AcDbLine
 10
-1064.661188352424
 20
1265.950205571847
 30
0.0
 11
-1064.514169919806
 21
1266.817209966377
 31
0.0
  0
LINE
  5
1C7A
330
A
100
AcDbEntity
  8
HEWI
  6
STANDARD
 62
     7
100
AcDbLine
 10
-1064.514169919806
 20
1266.817209966377
 30
0.0
 11
-1064.362192380744
 21
1267.620203740791
 31
0.0
  0
LINE
  5
1C7B
330
A
100
AcDbEntity
  8
HEWI
  6
STANDARD
 62
     7
100
AcDbLine
 10
-1064.362192380744
 20
1267.620203740791
 30
0.0
 11
-1064.207201230842
 21
1268.362200505928
 31
0.0
  0
LINE
  5
1C7C
330
A
100
AcDbEntity
  8
HEWI
  6
STANDARD
 62
     7
100
AcDbLine
 10
-1049.882173765021
 20
1158.394205815986
 30
0.0
 11
-1049.707193601447
 21
1159.13917804499
 31
0.0
  0
LINE
  5
1C7D
330
A
100
AcDbEntity
  8
HEWI
  6
STANDARD
 62
     7
100
AcDbLine
 10
-944.6601965311344
 20
1164.805186040597
 30
0.0
 11
-943.9151861551579
 21
1164.62917590876
 31
0.0
  0
LINE
  5
1C7E
330
A
100
AcDbEntity
  8
HEWI
  6
STANDARD
 62
     7
100
AcDbLine
 10
-1064.207201230842
 20
1268.362200505928
 30
0.0
 11
-1063.890199888068
 21
1269.666178472238
 31
0.0
  0
LINE
  5
1C7F
330
A
100
AcDbEntity
  8
HEWI
  6
STANDARD
 62
     7
100
AcDbLine
 10
-1063.890199888068
 20
1269.666178472238
 30
0.0
 11
-1063.661203611212
 21
1270.532191045479
 31
0.0
  0
LINE
  5
1C80
330
A
100
AcDbEntity
  8
HEWI
  6
STANDARD
 62
     7
100
AcDbLine
 10
-1054.106188047248
 20
1278.855173833565
 30
0.0
 11
-1053.693170774299
 21
1278.745196111397
 31
0.0
  0
LINE
  5
1C81
330
A
100
AcDbEntity
  8
HEWI
  6
STANDARD
 62
     7
100
AcDbLine
 10
-1057.803201902228
 20
949.3542125298544
 30
0.0
 11
-1056.87520049842
 21
949.0881755425496
 31
0.0
  0
LINE
  5
1C82
330
A
100
AcDbEntity
  8
HEWI
  6
STANDARD
 62
     7
100
AcDbLine
 10
-1045.949182737189
 20
1157.666208989815
 30
0.0
 11
-1045.735178220588
 21
1158.410227544502
 31
0.0
  0
LINE
  5
1C83
330
A
100
AcDbEntity
  8
HEWI
  6
STANDARD
 62
     7
100
AcDbLine
 10
-945.3881933573065
 20
1160.871203191475
 30
0.0
 11
-944.6441938761052
 21
1160.657198674873
 31
0.0
  0
LINE
  5
1C84
330
A
100
AcDbEntity
  8
HEWI
  6
STANDARD
 62
     7
100
AcDbLine
 10
-981.588182676154
 20
1119.219172246651
 30
0.0
 11
-980.8442022684392
 21
1119.005167730049
 31
0.0
  0
LINE
  5
1C85
330
A
100
AcDbEntity
  8
HEWI
  6
STANDARD
 62
     7
100
AcDbLine
 10
-1050.367174375373
 20
952.0982005669635
 30
0.0
 11
-1050.099191892463
 21
953.0282237603225
 31
0.0
  0
LINE
  5
1C86
330
A
100
AcDbEntity
  8
HEWI
  6
STANDARD
 62
     7
100
AcDbLine
 10
-1063.661203611212
 20
1270.532191045479
 30
0.0
 11
-1063.335199582892
 21
1271.635172612861
 31
0.0
  0
LINE
  5
1C87
330
A
100
AcDbEntity
  8
HEWI
  6
STANDARD
 62
     7
100
AcDbLine
 10
-1053.693170774299
 20
1278.745196111397
 30
0.0
 11
-1053.176203000861
 21
1278.587191350655
 31
0.0
  0
LINE
  5
1C88
330
A
100
AcDbEntity
  8
HEWI
  6
STANDARD
 62
     7
100
AcDbLine
 10
-1049.707193601447
 20
1159.13917804499
 30
0.0
 11
-1049.454202878791
 21
1159.883196599678
 31
0.0
  0
LINE
  5
1C89
330
A
100
AcDbEntity
  8
HEWI
  6
STANDARD
 62
     7
100
AcDbLine
 10
-943.9151861551579
 20
1164.62917590876
 30
0.0
 11
-943.1711866739568
 21
1164.376185186104
 31
0.0
  0
LINE
  5
1C8A
330
A
100
AcDbEntity
  8
HEWI
  6
STANDARD
 62
     7
100
AcDbLine
 10
-1063.335199582892
 20
1271.635172612861
 30
0.0
 11
-1063.016176450568
 21
1272.53818774958
 31
0.0
  0
LINE
  5
1C8B
330
A
100
AcDbEntity
  8
HEWI
  6
STANDARD
 62
     7
100
AcDbLine
 10
-1063.016176450568
 20
1272.53818774958
 30
0.0
 11
-1062.704172361213
 21
1273.276179082588
 31
0.0
  0
LINE
  5
1C8C
330
A
100
AcDbEntity
  8
HEWI
  6
STANDARD
 62
     7
100
AcDbLine
 10
-943.1711866739568
 20
1164.376185186104
 30
0.0
 11
-942.4421789530095
 21
1164.044192083077
 31
0.0
  0
LINE
  5
1C8D
330
A
100
AcDbEntity
  8
HEWI
  6
STANDARD
 62
     7
100
AcDbLine
 10
-1049.454202878791
 20
1159.883196599678
 30
0.0
 11
-1049.122171628791
 21
1160.612185247139
 31
0.0
  0
LINE
  5
1C8E
330
A
100
AcDbEntity
  8
HEWI
  6
STANDARD
 62
     7
100
AcDbLine
 10
-1058.26020263465
 20
949.5811870171586
 30
0.0
 11
-1057.803201902228
 21
949.3542125298544
 31
0.0
  0
LINE
  5
1C8F
330
A
100
AcDbEntity
  8
HEWI
  6
STANDARD
 62
     7
100
AcDbLine
 10
-1062.704172361213
 20
1273.276179082588
 30
0.0
 11
-1062.400179136115
 21
1273.877184636788
 31
0.0
  0
LINE
  5
1C90
330
A
100
AcDbEntity
  8
HEWI
  6
STANDARD
 62
     7
100
AcDbLine
 10
-1062.400179136115
 20
1273.877184636788
 30
0.0
 11
-1061.947183835822
 21
1274.765208013252
 31
0.0
  0
LINE
  5
1C91
330
A
100
AcDbEntity
  8
HEWI
  6
STANDARD
 62
     7
100
AcDbLine
 10
-1059.154176938849
 20
950.0421550347367
 30
0.0
 11
-1058.26020263465
 21
949.5811870171586
 31
0.0
  0
LINE
  5
1C92
330
A
100
AcDbEntity
  8
HEWI
  6
STANDARD
 62
     7
100
AcDbLine
 10
-1053.176203000861
 20
1278.587191350655
 30
0.0
 11
-1052.773180234748
 21
1278.37917590876
 31
0.0
  0
LINE
  5
1C93
330
A
100
AcDbEntity
  8
HEWI
  6
STANDARD
 62
     7
100
AcDbLine
 10
-1045.735178220588
 20
1158.410227544502
 30
0.0
 11
-1045.364198911505
 21
1159.127199895576
 31
0.0
  0
LINE
  5
1C94
330
A
100
AcDbEntity
  8
HEWI
  6
STANDARD
 62
     7
100
AcDbLine
 10
-982.3051931742009
 20
1119.590189702705
 30
0.0
 11
-981.588182676154
 21
1119.219172246651
 31
0.0
  0
LINE
  5
1C95
330
A
100
AcDbEntity
  8
HEWI
  6
STANDARD
 62
     7
100
AcDbLine
 10
-944.6441938761052
 20
1160.657198674873
 30
0.0
 11
-943.9271833780583
 21
1160.286181218819
 31
0.0
  0
LINE
  5
1C96
330
A
100
AcDbEntity
  8
HEWI
  6
STANDARD
 62
     7
100
AcDbLine
 10
-1050.831194150763
 20
951.2022044732134
 30
0.0
 11
-1050.367174375373
 21
952.0982005669635
 31
0.0
  0
LINE
  5
1C97
330
A
100
AcDbEntity
  8
HEWI
  6
STANDARD
 62
     7
100
AcDbLine
 10
-1052.773180234748
 20
1278.37917590876
 30
0.0
 11
-1052.280206907111
 21
1278.123209722237
 31
0.0
  0
LINE
  5
1C98
330
A
100
AcDbEntity
  8
HEWI
  6
STANDARD
 62
     7
100
AcDbLine
 10
-1061.947183835822
 20
1274.765208013252
 30
0.0
 11
-1061.652193296271
 21
1275.255205877022
 31
0.0
  0
LINE
  5
1C99
330
A
100
AcDbEntity
  8
HEWI
  6
STANDARD
 62
     7
100
AcDbLine
 10
-1061.652193296271
 20
1275.255205877022
 30
0.0
 11
-1061.369180906134
 21
1275.650179631904
 31
0.0
  0
LINE
  5
1C9A
330
A
100
AcDbEntity
  8
HEWI
  6
STANDARD
 62
     7
100
AcDbLine
 10
-1052.280206907111
 20
1278.123209722237
 30
0.0
 11
-1051.480188596564
 21
1277.474177129463
 31
0.0
  0
LINE
  5
1C9B
330
A
100
AcDbEntity
  8
HEWI
  6
STANDARD
 62
     7
100
AcDbLine
 10
-1061.369180906134
 20
1275.650179631904
 30
0.0
 11
-1060.723200071174
 21
1276.446192510323
 31
0.0
  0
LINE
  5
1C9C
330
A
100
AcDbEntity
  8
HEWI
  6
STANDARD
 62
     7
100
AcDbLine
 10
-1059.952173459845
 20
950.6901958062217
 30
0.0
 11
-1059.154176938849
 21
950.0421550347367
 31
0.0
  0
LINE
  5
1C9D
330
A
100
AcDbEntity
  8
HEWI
  6
STANDARD
 62
     7
100
AcDbLine
 10
-943.9271833780583
 20
1160.286181218819
 30
0.0
 11
-943.2881834390936
 21
1159.76719165583
 31
0.0
  0
LINE
  5
1C9E
330
A
100
AcDbEntity
  8
HEWI
  6
STANDARD
 62
     7
100
AcDbLine
 10
-1051.480188596564
 20
950.4031779839555
 30
0.0
 11
-1050.831194150763
 21
951.2022044732134
 31
0.0
  0
LINE
  5
1C9F
330
A
100
AcDbEntity
  8
HEWI
  6
STANDARD
 62
     7
100
AcDbLine
 10
-1045.364198911505
 20
1159.127199895576
 30
0.0
 11
-1044.844179380255
 21
1159.76719165583
 31
0.0
  0
LINE
  5
1CA0
330
A
100
AcDbEntity
  8
HEWI
  6
STANDARD
 62
     7
100
AcDbLine
 10
-982.9441931131658
 20
1120.110209233955
 30
0.0
 11
-982.3051931742009
 21
1119.590189702705
 31
0.0
  0
LINE
  5
1CA1
330
A
100
AcDbEntity
  8
HEWI
  6
STANDARD
 62
     7
100
AcDbLine
 10
-1060.45918487342
 20
951.1221721245807
 30
0.0
 11
-1059.952173459845
 21
950.6901958062217
 31
0.0
  0
LINE
  5
1CA2
330
A
100
AcDbEntity
  8
HEWI
  6
STANDARD
 62
     7
100
AcDbLine
 10
-1060.723200071174
 20
1276.446192510323
 30
0.0
 11
-1060.453195798713
 21
1276.761210210519
 31
0.0
  0
ARC
  5
1CA3
330
A
100
AcDbEntity
  8
HEWI
  6
STANDARD
 62
     7
100
AcDbCircle
 10
-946.1071250941442
 20
1156.947278547492
 30
0.0
 40
7.987365770326673
100
AcDbArc
 50
27.31214925009162
 51
62.68753232592483
  0
ARC
  5
1CA4
330
A
100
AcDbEntity
  8
HEWI
  6
STANDARD
 62
     7
100
AcDbCircle
 10
-1042.025363823672
 20
1156.947425012664
 30
0.0
 40
7.987186525866746
100
AcDbArc
 50
117.3122676130173
 51
152.6883692367325
  0
ARC
  5
1CA5
330
A
100
AcDbEntity
  8
HEWI
  6
STANDARD
 62
     7
100
AcDbCircle
 10
-514.8065493097081
 20
997.1722120383535
 30
0.0
 40
551.4826932170343
100
AcDbArc
 50
180.6817739992894
 51
181.7864370184362
  0
ARC
  5
1CA6
330
A
100
AcDbEntity
  8
HEWI
  6
STANDARD
 62
     7
100
AcDbCircle
 10
-408.8473505238483
 20
999.5500530841686
 30
0.0
 40
657.4685342575053
100
AcDbArc
 50
180.0825167103035
 51
181.4744882352412
  0
ARC
  5
1CA7
330
A
100
AcDbEntity
  8
HEWI
  6
STANDARD
 62
     7
100
AcDbCircle
 10
-208.2090844129459
 20
1226.243575045428
 30
0.0
 40
858.1111989990544
100
AcDbArc
 50
179.0821697873934
 51
180.1539304823856
  0
CIRCLE
  5
1CA8
330
A
100
AcDbEntity
  8
HEWI
100
AcDbCircle
 10
-963.11426572117
 20
1133.936236412738
 30
0.0
 40
1.149999999999999
  0
CIRCLE
  5
1CA9
330
A
100
AcDbEntity
  8
HEWI
100
AcDbCircle
 10
963.11426572117
 20
1133.936236412738
 30
0.0
 40
1.45
210
0.0
220
0.0
230
-1.0
  0
CIRCLE
  5
1CAA
330
A
100
AcDbEntity
  8
HEWI
100
AcDbCircle
 10
-963.11426572117
 20
1145.936236412738
 30
0.0
 40
1.149999999999999
  0
CIRCLE
  5
1CAB
330
A
100
AcDbEntity
  8
HEWI
100
AcDbCircle
 10
963.11426572117
 20
1145.936236412738
 30
0.0
 40
1.45
210
0.0
220
0.0
230
-1.0
  0
ARC
  5
1CAC
330
A
100
AcDbEntity
  8
HEWI
100
AcDbCircle
 10
963.11426572117
 20
1139.936236412738
 30
0.0
 40
4.891099999999998
210
0.0
220
0.0
230
-1.0
100
AcDbArc
 50
86.78250400000612
 51
93.22313999999272
  0
ARC
  5
1CAD
330
A
100
AcDbEntity
  8
HEWI
100
AcDbCircle
 10
963.11426572117
 20
1139.936236412738
 30
0.0
 40
4.891099999999998
210
0.0
220
0.0
230
-1.0
100
AcDbArc
 50
266.776879000002
 51
273.2175149999881
  0
ARC
  5
1CAE
330
A
100
AcDbEntity
  8
HEWI
100
AcDbCircle
 10
-963.11426572117
 20
1139.936236412738
 30
0.0
 40
5.5
100
AcDbArc
 50
78.55875999999785
 51
101.4468820000142
  0
ARC
  5
1CAF
330
A
100
AcDbEntity
  8
HEWI
100
AcDbCircle
 10
-963.11426572117
 20
1139.936236412738
 30
0.0
 40
5.5
100
AcDbArc
 50
258.5531300000024
 51
281.4412520000195
  0
ARC
  5
1CB0
330
A
100
AcDbEntity
  8
HEWI
100
AcDbCircle
 10
-963.11426572117
 20
1139.936236412738
 30
0.0
 40
5.099999999999998
100
AcDbArc
 50
82.58062099998559
 51
97.42499199998693
  0
ARC
  5
1CB1
330
A
100
AcDbEntity
  8
HEWI
100
AcDbCircle
 10
-963.11426572117
 20
1139.936236412738
 30
0.0
 40
5.099999999999998
100
AcDbArc
 50
262.574998000006
 51
277.4193680000003
  0
CIRCLE
  5
1CB2
330
A
100
AcDbEntity
  8
HEWI
100
AcDbCircle
 10
963.11426572117
 20
1139.936236412738
 30
0.0
 40
21.0
210
0.0
220
0.0
230
-1.0
  0
CIRCLE
  5
1CB3
330
A
100
AcDbEntity
  8
HEWI
100
AcDbCircle
 10
-963.11426572117
 20
1139.936236412738
 30
0.0
 40
20.8
  0
LINE
  5
1CB4
330
A
100
AcDbEntity
  8
HEWI
  6
STANDARD
 62
     7
100
AcDbLine
 10
-938.1161787393866
 20
1117.938196904854
 30
0.0
 11
-938.1161787393866
 21
1157.339962787895
 31
0.0
  0
LINE
  5
1CC7
330
A
100
AcDbEntity
  8
HEWI
  6
STANDARD
 62
     7
100
AcDbLine
 10
-644.065666025401
 20
1117.671127932966
 30
0.0
 11
-641.4656446630963
 21
1117.671127932966
 31
0.0
  0
LINE
  5
1CC8
330
A
100
AcDbEntity
  8
HEWI
  6
STANDARD
 62
     7
100
AcDbLine
 10
-644.065666025401
 20
1159.671097415388
 30
0.0
 11
-641.4656446630963
 21
1159.671097415388
 31
0.0
  0
LINE
  5
1CC9
330
A
100
AcDbEntity
  8
HEWI
  6
STANDARD
 62
     7
100
AcDbLine
 10
-641.2656400854595
 20
1117.871170657575
 30
0.0
 11
-641.2656400854595
 21
1159.471054690778
 31
0.0
  0
LINE
  5
1CCA
330
A
100
AcDbEntity
  8
HEWI
  6
STANDARD
 62
     7
100
AcDbLine
 10
-644.2656706030377
 20
1117.871170657575
 30
0.0
 11
-644.2656706030377
 21
1159.471054690778
 31
0.0
  0
LINE
  5
1CCB
330
A
100
AcDbEntity
  8
HEWI
  6
STANDARD
 62
     7
100
AcDbLine
 10
-644.065666025401
 20
1158.914108889997
 30
0.0
 11
-644.065666025401
 21
1159.334183352888
 31
0.0
  0
LINE
  5
1CCF
330
A
100
AcDbEntity
  8
HEWI
  6
STANDARD
 62
     7
100
AcDbLine
 10
-644.065666025401
 20
1118.008194583357
 30
0.0
 11
-644.065666025401
 21
1118.428116458356
 31
0.0
  0
LINE
  5
1CD0
330
A
100
AcDbEntity
  8
HEWI
  6
STANDARD
 62
     7
100
AcDbLine
 10
-641.4656446630963
 20
1158.914108889997
 30
0.0
 11
-641.4656446630963
 21
1159.334183352888
 31
0.0
  0
LINE
  5
1CD5
330
A
100
AcDbEntity
  8
HEWI
  6
STANDARD
 62
     7
100
AcDbLine
 10
-641.4656446630963
 20
1118.008194583357
 30
0.0
 11
-641.4656446630963
 21
1118.428116458356
 31
0.0
  0
LINE
  5
1CD6
330
A
100
AcDbEntity
  8
HEWI
  6
STANDARD
 62
     7
100
AcDbLine
 10
-644.2656706030377
 20
1117.871170657575
 30
0.0
 11
-644.065666025401
 21
1117.671127932966
 31
0.0
  0
LINE
  5
1CD7
330
A
100
AcDbEntity
  8
HEWI
  6
STANDARD
 62
     7
100
AcDbLine
 10
-641.4656446630963
 20
1159.671097415388
 30
0.0
 11
-641.2656400854595
 21
1159.471054690778
 31
0.0
  0
LINE
  5
1CD8
330
A
100
AcDbEntity
  8
HEWI
  6
STANDARD
 62
     7
100
AcDbLine
 10
-644.2656706030377
 20
1159.471054690778
 30
0.0
 11
-644.065666025401
 21
1159.671097415388
 31
0.0
  0
LINE
  5
1CD9
330
A
100
AcDbEntity
  8
HEWI
  6
STANDARD
 62
     7
100
AcDbLine
 10
-641.4656446630963
 20
1117.671127932966
 30
0.0
 11
-641.2656400854595
 21
1117.871170657575
 31
0.0
  0
LINE
  5
1CE9
330
A
100
AcDbEntity
  8
HEWI
  6
Continuous
100
AcDbLine
 10
-494.2656801397808
 20
1617.247001658087
 30
0.0
 11
-294.2656610662946
 21
1617.247001658087
 31
0.0
  0
LINE
  5
1CEA
330
A
100
AcDbEntity
  8
HEWI
  6
Continuous
100
AcDbLine
 10
-494.2656801397808
 20
1521.300068011981
 30
0.0
 11
-294.2656610662946
 21
1521.300068011982
 31
0.0
  0
LINE
  5
1CEC
330
A
100
AcDbEntity
  8
HEWI
  6
STANDARD
 62
     7
100
AcDbLine
 10
-153.0657003576764
 20
1617.247001658087
 30
0.0
 11
-147.4657056982525
 21
1617.247001658087
 31
0.0
  0
LINE
  5
1CED
330
A
100
AcDbEntity
  8
HEWI
  6
STANDARD
 62
     7
100
AcDbLine
 10
-147.2657011206158
 20
1585.046989451056
 30
0.0
 11
-147.2657011206158
 21
1617.047035227423
 31
0.0
  0
LINE
  5
1CEE
330
A
100
AcDbEntity
  8
HEWI
  6
STANDARD
 62
     7
100
AcDbLine
 10
-153.2657049353131
 20
1585.046989451056
 30
0.0
 11
-153.2657049353131
 21
1617.047035227423
 31
0.0
  0
LINE
  5
1CEF
330
A
100
AcDbEntity
  8
HEWI
  6
STANDARD
 62
     7
100
AcDbLine
 10
-153.2657049353131
 20
1617.047035227423
 30
0.0
 11
-153.0657003576764
 21
1617.247001658087
 31
0.0
  0
LINE
  5
1CF2
330
A
100
AcDbEntity
  8
HEWI
  6
STANDARD
 62
     7
100
AcDbLine
 10
-147.4657056982525
 20
1617.247001658087
 30
0.0
 11
-147.2657011206158
 21
1617.047035227423
 31
0.0
  0
LINE
  5
1CF3
330
A
100
AcDbEntity
  8
HEWI
  6
STANDARD
 62
     7
100
AcDbLine
 10
-144.2656706030377
 20
1585.046989451056
 30
0.0
 11
-144.2656706030377
 21
1617.047035227423
 31
0.0
  0
LINE
  5
1CF5
330
A
100
AcDbEntity
  8
HEWI
  6
STANDARD
 62
     7
100
AcDbLine
 10
-144.4656751806745
 20
1617.247001658087
 30
0.0
 11
-144.2656706030377
 21
1617.047035227423
 31
0.0
  0
LINE
  5
1CF6
330
A
100
AcDbEntity
  8
HEWI
  6
STANDARD
 62
     7
100
AcDbLine
 10
-144.4656751806744
 20
1580.047027598028
 30
0.0
 11
-147.0656965429791
 21
1580.047027598028
 31
0.0
  0
LINE
  5
1CF7
330
A
100
AcDbEntity
  8
HEWI
  6
STANDARD
 62
     7
100
AcDbLine
 10
-144.4656751806744
 20
1622.04699708045
 30
0.0
 11
-147.0656965429791
 21
1622.04699708045
 31
0.0
  0
LINE
  5
1CF8
330
A
100
AcDbEntity
  8
HEWI
  6
STANDARD
 62
     7
100
AcDbLine
 10
-147.2657011206158
 20
1580.247070322638
 30
0.0
 11
-147.2657011206158
 21
1621.846954355841
 31
0.0
  0
LINE
  5
1CF9
330
A
100
AcDbEntity
  8
HEWI
  6
STANDARD
 62
     7
100
AcDbLine
 10
-144.2656706030377
 20
1580.247070322638
 30
0.0
 11
-144.2656706030377
 21
1621.846954355841
 31
0.0
  0
LINE
  5
1CFA
330
A
100
AcDbEntity
  8
HEWI
  6
STANDARD
 62
     7
100
AcDbLine
 10
-144.4656751806744
 20
1621.29000855506
 30
0.0
 11
-144.4656751806744
 21
1621.71008301795
 31
0.0
  0
LINE
  5
1CFB
330
A
100
AcDbEntity
  8
HEWI
  6
STANDARD
 62
     7
100
AcDbLine
 10
-144.4656751806744
 20
1580.384094248419
 30
0.0
 11
-144.4656751806744
 21
1580.804016123419
 31
0.0
  0
LINE
  5
1CFC
330
A
100
AcDbEntity
  8
HEWI
  6
STANDARD
 62
     7
100
AcDbLine
 10
-147.0656965429791
 20
1621.29000855506
 30
0.0
 11
-147.0656965429791
 21
1621.71008301795
 31
0.0
  0
LINE
  5
1CFD
330
A
100
AcDbEntity
  8
HEWI
  6
STANDARD
 62
     7
100
AcDbLine
 10
-147.0656965429791
 20
1580.384094248419
 30
0.0
 11
-147.0656965429791
 21
1580.804016123419
 31
0.0
  0
LINE
  5
1CFE
330
A
100
AcDbEntity
  8
HEWI
  6
STANDARD
 62
     7
100
AcDbLine
 10
-144.2656706030377
 20
1580.247070322638
 30
0.0
 11
-144.4656751806744
 21
1580.047027598028
 31
0.0
  0
LINE
  5
1CFF
330
A
100
AcDbEntity
  8
HEWI
  6
STANDARD
 62
     7
100
AcDbLine
 10
-147.0656965429791
 20
1622.04699708045
 30
0.0
 11
-147.2657011206158
 21
1621.846954355841
 31
0.0
  0
LINE
  5
1D00
330
A
100
AcDbEntity
  8
HEWI
  6
STANDARD
 62
     7
100
AcDbLine
 10
-144.2656706030377
 20
1621.846954355841
 30
0.0
 11
-144.4656751806744
 21
1622.04699708045
 31
0.0
  0
LINE
  5
1D01
330
A
100
AcDbEntity
  8
HEWI
  6
STANDARD
 62
     7
100
AcDbLine
 10
-147.0656965429791
 20
1580.047027598028
 30
0.0
 11
-147.2657011206158
 21
1580.247070322638
 31
0.0
  0
LINE
  5
1DC6
330
A
100
AcDbEntity
  8
HEWI
  6
STANDARD
 62
     7
100
AcDbLine
 10
-635.4656599218854
 20
1585.047065745001
 30
0.0
 11
-641.0656545813091
 21
1585.047065745001
 31
0.0
  0
LINE
  5
1DC7
330
A
100
AcDbEntity
  8
HEWI
  6
STANDARD
 62
     7
100
AcDbLine
 10
-494.2656801397808
 20
1617.247001658087
 30
0.0
 11
-641.2656400854595
 21
1617.247001658087
 31
0.0
  0
LINE
  5
1DC8
330
A
100
AcDbEntity
  8
HEWI
  6
STANDARD
 62
     7
100
AcDbLine
 10
-494.2656801397808
 20
1585.247032175665
 30
0.0
 11
-641.2656400854595
 21
1585.247032175665
 31
0.0
  0
LINE
  5
1DC9
330
A
100
AcDbEntity
  8
HEWI
  6
STANDARD
 62
     7
100
AcDbLine
 10
-635.465640848399
 20
1617.247001658087
 30
0.0
 11
-641.0656355078229
 21
1617.247001658087
 31
0.0
  0
LINE
  5
1DCA
330
A
100
AcDbEntity
  8
HEWI
  6
STANDARD
 62
     7
100
AcDbLine
 10
-641.2656400854595
 20
1585.046989451056
 30
0.0
 11
-641.2656400854595
 21
1617.047035227423
 31
0.0
  0
LINE
  5
1DCB
330
A
100
AcDbEntity
  8
HEWI
  6
STANDARD
 62
     7
100
AcDbLine
 10
-635.2656362707623
 20
1585.046989451056
 30
0.0
 11
-635.2656362707623
 21
1617.047035227423
 31
0.0
  0
LINE
  5
1DCC
330
A
100
AcDbEntity
  8
HEWI
  6
STANDARD
 62
     7
100
AcDbLine
 10
-635.2656362707623
 20
1617.047035227423
 30
0.0
 11
-635.465640848399
 21
1617.247001658087
 31
0.0
  0
LINE
  5
1DCD
330
A
100
AcDbEntity
  8
HEWI
  6
STANDARD
 62
     7
100
AcDbLine
 10
-641.0656355078229
 20
1617.247001658087
 30
0.0
 11
-641.2656400854595
 21
1617.047035227423
 31
0.0
  0
LINE
  5
1DCE
330
A
100
AcDbEntity
  8
HEWI
  6
STANDARD
 62
     7
100
AcDbLine
 10
-644.2656706030377
 20
1585.046989451056
 30
0.0
 11
-644.2656706030377
 21
1617.047035227423
 31
0.0
  0
LINE
  5
1DCF
330
A
100
AcDbEntity
  8
HEWI
  6
STANDARD
 62
     7
100
AcDbLine
 10
-644.0656660254009
 20
1617.247001658087
 30
0.0
 11
-644.2656706030377
 21
1617.047035227423
 31
0.0
  0
LINE
  5
1DD0
330
A
100
AcDbEntity
  8
HEWI
  6
STANDARD
 62
     7
100
AcDbLine
 10
-644.065666025401
 20
1580.047027598028
 30
0.0
 11
-641.4656446630963
 21
1580.047027598028
 31
0.0
  0
LINE
  5
1DD1
330
A
100
AcDbEntity
  8
HEWI
  6
STANDARD
 62
     7
100
AcDbLine
 10
-644.065666025401
 20
1622.04699708045
 30
0.0
 11
-641.4656446630963
 21
1622.04699708045
 31
0.0
  0
LINE
  5
1DD2
330
A
100
AcDbEntity
  8
HEWI
  6
STANDARD
 62
     7
100
AcDbLine
 10
-641.2656400854595
 20
1580.247070322638
 30
0.0
 11
-641.2656400854595
 21
1621.846954355841
 31
0.0
  0
LINE
  5
1DD3
330
A
100
AcDbEntity
  8
HEWI
  6
STANDARD
 62
     7
100
AcDbLine
 10
-644.2656706030377
 20
1580.247070322638
 30
0.0
 11
-644.2656706030377
 21
1621.846954355841
 31
0.0
  0
LINE
  5
1DD4
330
A
100
AcDbEntity
  8
HEWI
  6
STANDARD
 62
     7
100
AcDbLine
 10
-644.065666025401
 20
1621.29000855506
 30
0.0
 11
-644.065666025401
 21
1621.71008301795
 31
0.0
  0
LINE
  5
1DD5
330
A
100
AcDbEntity
  8
HEWI
  6
STANDARD
 62
     7
100
AcDbLine
 10
-644.065666025401
 20
1580.384094248419
 30
0.0
 11
-644.065666025401
 21
1580.804016123419
 31
0.0
  0
LINE
  5
1DD6
330
A
100
AcDbEntity
  8
HEWI
  6
STANDARD
 62
     7
100
AcDbLine
 10
-641.4656446630963
 20
1621.29000855506
 30
0.0
 11
-641.4656446630963
 21
1621.71008301795
 31
0.0
  0
LINE
  5
1DD7
330
A
100
AcDbEntity
  8
HEWI
  6
STANDARD
 62
     7
100
AcDbLine
 10
-641.4656446630963
 20
1580.384094248419
 30
0.0
 11
-641.4656446630963
 21
1580.804016123419
 31
0.0
  0
LINE
  5
1DD8
330
A
100
AcDbEntity
  8
HEWI
  6
STANDARD
 62
     7
100
AcDbLine
 10
-644.2656706030377
 20
1580.247070322638
 30
0.0
 11
-644.065666025401
 21
1580.047027598028
 31
0.0
  0
LINE
  5
1DD9
330
A
100
AcDbEntity
  8
HEWI
  6
STANDARD
 62
     7
100
AcDbLine
 10
-641.4656446630963
 20
1622.04699708045
 30
0.0
 11
-641.2656400854595
 21
1621.846954355841
 31
0.0
  0
LINE
  5
1DDA
330
A
100
AcDbEntity
  8
HEWI
  6
STANDARD
 62
     7
100
AcDbLine
 10
-644.2656706030377
 20
1621.846954355841
 30
0.0
 11
-644.065666025401
 21
1622.04699708045
 31
0.0
  0
LINE
  5
1DDB
330
A
100
AcDbEntity
  8
HEWI
  6
STANDARD
 62
     7
100
AcDbLine
 10
-641.4656446630963
 20
1580.047027598028
 30
0.0
 11
-641.2656400854595
 21
1580.247070322638
 31
0.0
  0
LINE
  5
1E0E
330
A
100
AcDbEntity
  8
HEWI
  6
STANDARD
 62
     7
100
AcDbLine
 10
-147.2657011206159
 20
1155.977550712707
 30
0.0
 11
-219.9656770880232
 21
1155.977550712707
 31
0.0
  0
LINE
  5
1E0F
330
A
100
AcDbEntity
  8
HEWI
  6
STANDARD
 62
     7
100
AcDbLine
 10
-147.2657011206159
 20
1123.97750493634
 30
0.0
 11
-219.9656770880232
 21
1123.97750493634
 31
0.0
  0
LINE
  5
1E10
330
A
100
AcDbEntity
  8
HEWI
  6
STANDARD
 62
     7
100
AcDbLine
 10
-153.0657003576764
 20
1122.471123355329
 30
0.0
 11
-147.4657056982527
 21
1122.471123355329
 31
0.0
  0
LINE
  5
1E11
330
A
100
AcDbEntity
  8
HEWI
  6
STANDARD
 62
     7
100
AcDbLine
 10
-153.0657003576764
 20
1154.871101993024
 30
0.0
 11
-147.4657056982527
 21
1154.871101993024
 31
0.0
  0
LINE
  5
1E12
330
A
100
AcDbEntity
  8
HEWI
  6
STANDARD
 62
     7
100
AcDbLine
 10
-219.9656770880232
 20
1155.977550712707
 30
0.0
 11
-147.2657011206158
 21
1155.977550712707
 31
0.0
  0
LINE
  5
1E13
330
A
100
AcDbEntity
  8
HEWI
  6
STANDARD
 62
     7
100
AcDbLine
 10
-219.9656580145366
 20
1123.97750493634
 30
0.0
 11
-147.2657011206158
 21
1123.977504936341
 31
0.0
  0
LINE
  5
1E14
330
A
100
AcDbEntity
  8
HEWI
  6
STANDARD
 62
     7
100
AcDbLine
 10
-144.2656706030377
 20
1122.671089785993
 30
0.0
 11
-144.2656706030377
 21
1154.67113556236
 31
0.0
  0
LINE
  5
1E15
330
A
100
AcDbEntity
  8
HEWI
  6
STANDARD
 62
     7
100
AcDbLine
 10
-153.2657049353131
 20
1122.671089785993
 30
0.0
 11
-153.2657049353131
 21
1154.67113556236
 31
0.0
  0
LINE
  5
1E16
330
A
100
AcDbEntity
  8
HEWI
  6
STANDARD
 62
     7
100
AcDbLine
 10
-153.2657049353131
 20
1154.67113556236
 30
0.0
 11
-153.0657003576764
 21
1154.871101993024
 31
0.0
  0
LINE
  5
1E17
330
A
100
AcDbEntity
  8
HEWI
  6
STANDARD
 62
     7
100
AcDbLine
 10
-144.4656751806745
 20
1122.471123355329
 30
0.0
 11
-144.2656706030377
 21
1122.671089785993
 31
0.0
  0
LINE
  5
1E18
330
A
100
AcDbEntity
  8
HEWI
  6
STANDARD
 62
     7
100
AcDbLine
 10
-153.2657049353131
 20
1122.671089785993
 30
0.0
 11
-153.0657003576764
 21
1122.471123355329
 31
0.0
  0
LINE
  5
1E19
330
A
100
AcDbEntity
  8
HEWI
  6
STANDARD
 62
     7
100
AcDbLine
 10
-144.4656751806745
 20
1154.871101993024
 30
0.0
 11
-144.2656706030377
 21
1154.67113556236
 31
0.0
  0
LINE
  5
1E1A
330
A
100
AcDbEntity
  8
HEWI
  6
STANDARD
 62
     7
100
AcDbLine
 10
-144.4656751806744
 20
1117.671127932966
 30
0.0
 11
-147.0656965429791
 21
1117.671127932966
 31
0.0
  0
LINE
  5
1E1B
330
A
100
AcDbEntity
  8
HEWI
  6
STANDARD
 62
     7
100
AcDbLine
 10
-144.4656751806744
 20
1159.671097415388
 30
0.0
 11
-147.0656965429791
 21
1159.671097415388
 31
0.0
  0
LINE
  5
1E1C
330
A
100
AcDbEntity
  8
HEWI
  6
STANDARD
 62
     7
100
AcDbLine
 10
-147.2657011206158
 20
1117.871170657575
 30
0.0
 11
-147.2657011206158
 21
1159.471054690778
 31
0.0
  0
LINE
  5
1E1D
330
A
100
AcDbEntity
  8
HEWI
  6
STANDARD
 62
     7
100
AcDbLine
 10
-144.2656706030377
 20
1117.871170657575
 30
0.0
 11
-144.2656706030377
 21
1159.471054690778
 31
0.0
  0
LINE
  5
1E1E
330
A
100
AcDbEntity
  8
HEWI
  6
STANDARD
 62
     7
100
AcDbLine
 10
-144.4656751806744
 20
1158.914108889997
 30
0.0
 11
-144.4656751806744
 21
1159.334183352888
 31
0.0
  0
LINE
  5
1E1F
330
A
100
AcDbEntity
  8
HEWI
  6
STANDARD
 62
     7
100
AcDbLine
 10
-144.4656751806744
 20
1118.008194583357
 30
0.0
 11
-144.4656751806744
 21
1118.428116458356
 31
0.0
  0
LINE
  5
1E20
330
A
100
AcDbEntity
  8
HEWI
  6
STANDARD
 62
     7
100
AcDbLine
 10
-147.0656965429791
 20
1158.914108889997
 30
0.0
 11
-147.0656965429791
 21
1159.334183352888
 31
0.0
  0
LINE
  5
1E21
330
A
100
AcDbEntity
  8
HEWI
  6
STANDARD
 62
     7
100
AcDbLine
 10
-147.0656965429791
 20
1118.008194583357
 30
0.0
 11
-147.0656965429791
 21
1118.428116458356
 31
0.0
  0
LINE
  5
1E22
330
A
100
AcDbEntity
  8
HEWI
  6
STANDARD
 62
     7
100
AcDbLine
 10
-144.2656706030377
 20
1117.871170657575
 30
0.0
 11
-144.4656751806744
 21
1117.671127932966
 31
0.0
  0
LINE
  5
1E23
330
A
100
AcDbEntity
  8
HEWI
  6
STANDARD
 62
     7
100
AcDbLine
 10
-147.0656965429791
 20
1159.671097415388
 30
0.0
 11
-147.2657011206158
 21
1159.471054690778
 31
0.0
  0
LINE
  5
1E24
330
A
100
AcDbEntity
  8
HEWI
  6
STANDARD
 62
     7
100
AcDbLine
 10
-144.2656706030377
 20
1159.471054690778
 30
0.0
 11
-144.4656751806744
 21
1159.671097415388
 31
0.0
  0
LINE
  5
1E25
330
A
100
AcDbEntity
  8
HEWI
  6
STANDARD
 62
     7
100
AcDbLine
 10
-147.0656965429791
 20
1117.671127932966
 30
0.0
 11
-147.2657011206158
 21
1117.871170657575
 31
0.0
  0
LINE
  5
1F13
330
A
100
AcDbEntity
  8
HEWI
  6
STANDARD
 62
     8
100
AcDbLine
 10
-681.3981779272564
 20
1127.069526878479
 30
0.0
 11
-679.3211515600689
 21
1129.146553245667
 31
0.0
  0
LINE
  5
1F14
330
A
100
AcDbEntity
  8
HEWI
  6
STANDARD
 62
     8
100
AcDbLine
 10
-705.1371534521588
 20
1129.146553245667
 30
0.0
 11
-703.060165231944
 21
1127.069526878479
 31
0.0
  0
LINE
  5
1F15
330
A
100
AcDbEntity
  8
HEWI
  6
STANDARD
 62
     8
100
AcDbLine
 10
-680.2081449682721
 20
1151.998497215393
 30
0.0
 11
-679.8191602880963
 21
1151.596504417542
 31
0.0
  0
LINE
  5
1F16
330
A
100
AcDbEntity
  8
HEWI
  6
STANDARD
 62
     8
100
AcDbLine
 10
-680.9281690771588
 20
1127.277504173401
 30
0.0
 11
-680.2081449682721
 21
1127.956520286682
 31
0.0
  0
LINE
  5
1F17
330
A
100
AcDbEntity
  8
HEWI
  6
STANDARD
 62
     8
100
AcDbLine
 10
-704.9451597387799
 20
1128.69451161969
 30
0.0
 11
-704.2501600439557
 21
1127.956520286682
 31
0.0
  0
LINE
  5
1F18
330
A
100
AcDbEntity
  8
HEWI
  6
STANDARD
 62
     8
100
AcDbLine
 10
-704.2501600439557
 20
1151.998497215393
 30
0.0
 11
-703.4371717627057
 21
1152.759529319885
 31
0.0
  0
LINE
  5
1F19
330
A
100
AcDbEntity
  8
HEWI
  6
STANDARD
 62
     8
100
AcDbLine
 10
-679.8191602880963
 20
1151.596504417542
 30
0.0
 11
-679.2661817724713
 21
1150.975547996643
 31
0.0
  0
LINE
  5
1F1A
330
A
100
AcDbEntity
  8
HEWI
  6
STANDARD
 62
     8
100
AcDbLine
 10
-681.8801649267681
 20
1126.490532127503
 30
0.0
 11
-680.9281690771588
 21
1127.277504173401
 31
0.0
  0
LINE
  5
1F1B
330
A
100
AcDbEntity
  8
HEWI
  6
STANDARD
 62
     8
100
AcDbLine
 10
-705.7161482031354
 20
1129.628502098206
 30
0.0
 11
-704.9451597387799
 21
1128.69451161969
 31
0.0
  0
LINE
  5
1F1C
330
A
100
AcDbEntity
  8
HEWI
  6
STANDARD
 62
     8
100
AcDbLine
 10
-679.2661817724713
 20
1150.975547996643
 30
0.0
 11
-678.7421568090924
 21
1150.32651540387
 31
0.0
  0
LINE
  5
1F1D
330
A
100
AcDbEntity
  8
HEWI
  6
STANDARD
 62
     8
100
AcDbLine
 10
-702.5691755468853
 20
1153.453499046448
 30
0.0
 11
-702.2401579077252
 21
1153.717552391174
 31
0.0
  0
LINE
  5
1F1E
330
A
100
AcDbEntity
  8
HEWI
  6
STANDARD
 62
     8
100
AcDbLine
 10
-703.4371717627057
 20
1152.759529319885
 30
0.0
 11
-702.5691755468853
 21
1153.453499046448
 31
0.0
  0
LINE
  5
1F1F
330
A
100
AcDbEntity
  8
HEWI
  6
STANDARD
 62
     8
100
AcDbLine
 10
-706.362167185069
 20
1130.529533592346
 30
0.0
 11
-705.7161482031354
 21
1129.628502098206
 31
0.0
  0
LINE
  5
1F20
330
A
100
AcDbEntity
  8
HEWI
  6
STANDARD
 62
     8
100
AcDbLine
 10
-682.7811582739362
 20
1125.844551292542
 30
0.0
 11
-681.8801649267681
 21
1126.490532127503
 31
0.0
  0
LINE
  5
1F21
330
A
100
AcDbEntity
  8
HEWI
  6
STANDARD
 62
     8
100
AcDbLine
 10
-678.7421568090924
 20
1150.32651540387
 30
0.0
 11
-678.0291517431744
 21
1149.324547020081
 31
0.0
  0
LINE
  5
1F22
330
A
100
AcDbEntity
  8
HEWI
  6
STANDARD
 62
     8
100
AcDbLine
 10
-706.8221815283306
 20
1131.552559105042
 30
0.0
 11
-705.1371534521588
 21
1129.146553245667
 31
0.0
  0
LINE
  5
1F23
330
A
100
AcDbEntity
  8
HEWI
  6
STANDARD
 62
     8
100
AcDbLine
 10
-679.3211515600689
 20
1150.808540550354
 30
0.0
 11
-677.6361616308697
 21
1148.402534690979
 31
0.0
  0
LINE
  5
1F24
330
A
100
AcDbEntity
  8
HEWI
  6
STANDARD
 62
     8
100
AcDbLine
 10
-683.8041456396588
 20
1125.384575096253
 30
0.0
 11
-681.3981779272564
 21
1127.069526878479
 31
0.0
  0
LINE
  5
1F25
330
A
100
AcDbEntity
  8
HEWI
  6
STANDARD
 62
     8
100
AcDbLine
 10
-703.060165231944
 20
1152.885566917542
 30
0.0
 11
-700.654159372569
 21
1154.570518699768
 31
0.0
  0
LINE
  5
1F26
330
A
100
AcDbEntity
  8
HEWI
  6
STANDARD
 62
     8
100
AcDbLine
 10
-702.2401579077252
 20
1153.717552391174
 30
0.0
 11
-701.5001447851666
 21
1154.226509300354
 31
0.0
  0
LINE
  5
1F27
330
A
100
AcDbEntity
  8
HEWI
  6
STANDARD
 62
     8
100
AcDbLine
 10
-683.7291486914166
 20
1125.255562034729
 30
0.0
 11
-682.7811582739362
 21
1125.844551292542
 31
0.0
  0
LINE
  5
1F28
330
A
100
AcDbEntity
  8
HEWI
  6
STANDARD
 62
     8
100
AcDbLine
 10
-678.0291517431744
 20
1149.324547020081
 30
0.0
 11
-677.5071485693463
 21
1148.477531639221
 31
0.0
  0
LINE
  5
1F29
330
A
100
AcDbEntity
  8
HEWI
  6
STANDARD
 62
     8
100
AcDbLine
 10
-701.5001447851666
 20
1154.226509300354
 30
0.0
 11
-700.7291563208111
 21
1154.699531761292
 31
0.0
  0
LINE
  5
1F2A
330
A
100
AcDbEntity
  8
HEWI
  6
STANDARD
 62
     8
100
AcDbLine
 10
-706.9411619360455
 20
1131.484504905823
 30
0.0
 11
-706.362167185069
 21
1130.529533592346
 31
0.0
  0
LINE
  5
1F2B
330
A
100
AcDbEntity
  8
HEWI
  6
STANDARD
 62
     8
100
AcDbLine
 10
-707.1411665136822
 20
1131.814552513245
 30
0.0
 11
-706.9411619360455
 21
1131.484504905823
 31
0.0
  0
LINE
  5
1F2C
330
A
100
AcDbEntity
  8
HEWI
  6
STANDARD
 62
     8
100
AcDbLine
 10
-683.7501676733502
 20
1125.24350759137
 30
0.0
 11
-683.7291486914166
 21
1125.255562034729
 31
0.0
  0
LINE
  5
1F2D
330
A
100
AcDbEntity
  8
HEWI
  6
STANDARD
 62
     8
100
AcDbLine
 10
-677.5071485693463
 20
1148.477531639221
 30
0.0
 11
-677.0941694433697
 21
1147.718559471253
 31
0.0
  0
LINE
  5
1F2E
330
A
100
AcDbEntity
  8
HEWI
  6
STANDARD
 62
     8
100
AcDbLine
 10
-700.7291563208111
 20
1154.699531761292
 30
0.0
 11
-699.7801740820416
 21
1155.208564964417
 31
0.0
  0
LINE
  5
1F2F
330
A
100
AcDbEntity
  8
HEWI
  6
STANDARD
 62
     8
100
AcDbLine
 10
-684.7171552832135
 20
1124.727531639221
 30
0.0
 11
-683.7501676733502
 21
1125.24350759137
 31
0.0
  0
LINE
  5
1F30
330
A
100
AcDbEntity
  8
HEWI
  6
STANDARD
 62
     8
100
AcDbLine
 10
-677.9821546728619
 20
1148.398567405823
 30
0.0
 11
-677.2841795141705
 21
1147.087532249573
 31
0.0
  0
LINE
  5
1F31
330
A
100
AcDbEntity
  8
HEWI
  6
STANDARD
 62
     8
100
AcDbLine
 10
-707.5571592504986
 20
1132.625557151917
 30
0.0
 11
-707.1411665136822
 21
1131.814552513245
 31
0.0
  0
LINE
  5
1F32
330
A
100
AcDbEntity
  8
HEWI
  6
STANDARD
 62
     8
100
AcDbLine
 10
-684.8041685278424
 20
1124.851509300354
 30
0.0
 11
-684.748168771983
 21
1124.879509178284
 31
0.0
  0
LINE
  5
1F33
330
A
100
AcDbEntity
  8
HEWI
  6
STANDARD
 62
     8
100
AcDbLine
 10
-684.8981626684674
 20
1124.805504051331
 30
0.0
 11
-684.8041685278424
 21
1124.851509300354
 31
0.0
  0
LINE
  5
1F34
330
A
100
AcDbEntity
  8
HEWI
  6
STANDARD
 62
     8
100
AcDbLine
 10
-685.0261457617291
 20
1124.744545189026
 30
0.0
 11
-684.8981626684674
 21
1124.805504051331
 31
0.0
  0
LINE
  5
1F35
330
A
100
AcDbEntity
  8
HEWI
  6
STANDARD
 62
     8
100
AcDbLine
 10
-684.748168771983
 20
1124.879509178284
 30
0.0
 11
-684.7291715796002
 21
1124.888511863831
 31
0.0
  0
LINE
  5
1F36
330
A
100
AcDbEntity
  8
HEWI
  6
STANDARD
 62
     8
100
AcDbLine
 10
-677.6361616308697
 20
1148.402534690979
 30
0.0
 11
-676.3951643164166
 21
1145.740562645081
 31
0.0
  0
LINE
  5
1F37
330
A
100
AcDbEntity
  8
HEWI
  6
STANDARD
 62
     8
100
AcDbLine
 10
-708.0631788427838
 20
1134.21453115094
 30
0.0
 11
-706.8221815283306
 21
1131.552559105042
 31
0.0
  0
LINE
  5
1F38
330
A
100
AcDbEntity
  8
HEWI
  6
STANDARD
 62
     8
100
AcDbLine
 10
-686.4661558325299
 20
1124.143577781799
 30
0.0
 11
-683.8041456396588
 21
1125.384575096253
 31
0.0
  0
LINE
  5
1F39
330
A
100
AcDbEntity
  8
HEWI
  6
STANDARD
 62
     8
100
AcDbLine
 10
-700.654159372569
 20
1154.570518699768
 30
0.0
 11
-697.9921491796979
 21
1155.811516014221
 31
0.0
  0
LINE
  5
1F3A
330
A
100
AcDbEntity
  8
HEWI
  6
STANDARD
 62
     8
100
AcDbLine
 10
-685.1891477758893
 20
1124.668556419495
 30
0.0
 11
-685.0261457617291
 21
1124.744545189026
 31
0.0
  0
LINE
  5
1F3B
330
A
100
AcDbEntity
  8
HEWI
  6
STANDARD
 62
     8
100
AcDbLine
 10
-685.190177744151
 20
1124.668556419495
 30
0.0
 11
-685.0261457617291
 21
1124.744545189026
 31
0.0
  0
LINE
  5
1F3C
330
A
100
AcDbEntity
  8
HEWI
  6
STANDARD
 62
     8
100
AcDbLine
 10
-677.0941694433697
 20
1147.718559471253
 30
0.0
 11
-676.728149240733
 21
1146.927543846253
 31
0.0
  0
LINE
  5
1F3D
330
A
100
AcDbEntity
  8
HEWI
  6
STANDARD
 62
     8
100
AcDbLine
 10
-676.728149240733
 20
1146.927543846253
 30
0.0
 11
-676.5231474096784
 21
1146.483513084534
 31
0.0
  0
LINE
  5
1F3E
330
A
100
AcDbEntity
  8
HEWI
  6
STANDARD
 62
     8
100
AcDbLine
 10
-699.7801740820416
 20
1155.208564964417
 30
0.0
 11
-698.7901457006939
 21
1155.65854665387
 31
0.0
  0
LINE
  5
1F3F
330
A
100
AcDbEntity
  8
HEWI
  6
STANDARD
 62
     8
100
AcDbLine
 10
-685.384155100108
 20
1124.580513206604
 30
0.0
 11
-685.190177744151
 21
1124.668556419495
 31
0.0
  0
LINE
  5
1F40
330
A
100
AcDbEntity
  8
HEWI
  6
STANDARD
 62
     8
100
AcDbLine
 10
-698.7901457006939
 20
1155.65854665387
 30
0.0
 11
-698.7351759130963
 21
1155.683494773987
 31
0.0
  0
LINE
  5
1F41
330
A
100
AcDbEntity
  8
HEWI
  6
STANDARD
 62
     8
100
AcDbLine
 10
-685.384155100108
 20
1124.580513206604
 30
0.0
 11
-685.1891477758893
 21
1124.668556419495
 31
0.0
  0
LINE
  5
1F42
330
A
100
AcDbEntity
  8
HEWI
  6
STANDARD
 62
     8
100
AcDbLine
 10
-684.7291715796002
 20
1124.722114769104
 30
0.0
 11
-684.7171552832135
 21
1124.727531639221
 31
0.0
  0
LINE
  5
1F43
330
A
100
AcDbEntity
  8
HEWI
  6
STANDARD
 62
     8
100
AcDbLine
 10
-707.9351576025494
 20
1133.471504417542
 30
0.0
 11
-707.5571592504986
 21
1132.625557151917
 31
0.0
  0
LINE
  5
1F44
330
A
100
AcDbEntity
  8
HEWI
  6
STANDARD
 62
     8
100
AcDbLine
 10
-685.6081541235455
 20
1124.482551780823
 30
0.0
 11
-685.384155100108
 21
1124.580513206604
 31
0.0
  0
LINE
  5
1F45
330
A
100
AcDbEntity
  8
HEWI
  6
STANDARD
 62
     8
100
AcDbLine
 10
-685.6071623022565
 20
1124.483543602112
 30
0.0
 11
-685.384155100108
 21
1124.580513206604
 31
0.0
  0
LINE
  5
1F46
330
A
100
AcDbEntity
  8
HEWI
  6
STANDARD
 62
     8
100
AcDbLine
 10
-685.8591612036236
 20
1124.378563133362
 30
0.0
 11
-685.6071623022565
 21
1124.483543602112
 31
0.0
  0
LINE
  5
1F47
330
A
100
AcDbEntity
  8
HEWI
  6
STANDARD
 62
     8
100
AcDbLine
 10
-685.8591612036236
 20
1124.378563133362
 30
0.0
 11
-685.6081541235455
 21
1124.482551780823
 31
0.0
  0
LINE
  5
1F48
330
A
100
AcDbEntity
  8
HEWI
  6
STANDARD
 62
     8
100
AcDbLine
 10
-686.1341627295026
 20
1124.268547264221
 30
0.0
 11
-685.8591612036236
 21
1124.378563133362
 31
0.0
  0
LINE
  5
1F49
330
A
100
AcDbEntity
  8
HEWI
  6
STANDARD
 62
     8
100
AcDbLine
 10
-708.238159006358
 20
1134.257560936096
 30
0.0
 11
-707.9351576025494
 21
1133.471504417542
 31
0.0
  0
LINE
  5
1F4A
330
A
100
AcDbEntity
  8
HEWI
  6
STANDARD
 62
     8
100
AcDbLine
 10
-676.5231474096784
 20
1146.483513084534
 30
0.0
 11
-676.1441572363385
 21
1145.480552879456
 31
0.0
  0
LINE
  5
1F4B
330
A
100
AcDbEntity
  8
HEWI
  6
STANDARD
 62
     8
100
AcDbLine
 10
-698.7351759130963
 20
1155.683494773987
 30
0.0
 11
-697.7051695044049
 21
1156.071525779846
 31
0.0
  0
LINE
  5
1F4C
330
A
100
AcDbEntity
  8
HEWI
  6
STANDARD
 62
     8
100
AcDbLine
 10
-686.4611967260846
 20
1124.145866600159
 30
0.0
 11
-686.4301450903424
 21
1124.157539573792
 31
0.0
  0
LINE
  5
1F4D
330
A
100
AcDbEntity
  8
HEWI
  6
STANDARD
 62
     8
100
AcDbLine
 10
-686.5151746923932
 20
1124.125572410706
 30
0.0
 11
-686.4702757055767
 21
1124.14243337262
 31
0.0
  0
LINE
  5
1F4E
330
A
100
AcDbEntity
  8
HEWI
  6
STANDARD
 62
     8
100
AcDbLine
 10
-686.4301450903424
 20
1124.157539573792
 30
0.0
 11
-686.1341627295026
 21
1124.268547264221
 31
0.0
  0
LINE
  5
1F4F
330
A
100
AcDbEntity
  8
HEWI
  6
STANDARD
 62
     8
100
AcDbLine
 10
-698.0401762182721
 20
1155.687538353088
 30
0.0
 11
-697.3301466162213
 21
1155.931526390198
 31
0.0
  0
LINE
  5
1F50
330
A
100
AcDbEntity
  8
HEWI
  6
STANDARD
 62
     8
100
AcDbLine
 10
-687.061172312022
 20
1123.939567772034
 30
0.0
 11
-686.5151746923932
 21
1124.125572410706
 31
0.0
  0
LINE
  5
1F51
330
A
100
AcDbEntity
  8
HEWI
  6
STANDARD
 62
     8
100
AcDbLine
 10
-708.6501463110455
 20
1135.577522483948
 30
0.0
 11
-708.238159006358
 21
1134.257560936096
 31
0.0
  0
LINE
  5
1F52
330
A
100
AcDbEntity
  8
HEWI
  6
STANDARD
 62
     8
100
AcDbLine
 10
-687.3921735937604
 20
1123.836570945862
 30
0.0
 11
-687.061172312022
 21
1123.939567772034
 31
0.0
  0
LINE
  5
1F53
330
A
100
AcDbEntity
  8
HEWI
  6
STANDARD
 62
     8
100
AcDbLine
 10
-675.8291776831158
 20
1144.445549217346
 30
0.0
 11
-675.8081587011822
 21
1144.377495018128
 31
0.0
  0
LINE
  5
1F54
330
A
100
AcDbEntity
  8
HEWI
  6
STANDARD
 62
     8
100
AcDbLine
 10
-676.1441572363385
 20
1145.480552879456
 30
0.0
 11
-675.8291776831158
 21
1144.445549217346
 31
0.0
  0
LINE
  5
1F55
330
A
100
AcDbEntity
  8
HEWI
  6
STANDARD
 62
     8
100
AcDbLine
 10
-697.7051695044049
 20
1156.071525779846
 30
0.0
 11
-696.6291578466901
 21
1156.398521629456
 31
0.0
  0
LINE
  5
1F56
330
A
100
AcDbEntity
  8
HEWI
  6
STANDARD
 62
     8
100
AcDbLine
 10
-708.3961637671002
 20
1135.59751149762
 30
0.0
 11
-708.1831510717877
 21
1134.876533714417
 31
0.0
  0
LINE
  5
1F57
330
A
100
AcDbEntity
  8
HEWI
  6
STANDARD
 62
     8
100
AcDbLine
 10
-697.3301466162213
 20
1155.931526390198
 30
0.0
 11
-696.6091688330181
 21
1156.14453908551
 31
0.0
  0
LINE
  5
1F58
330
A
100
AcDbEntity
  8
HEWI
  6
STANDARD
 62
     8
100
AcDbLine
 10
-687.8491743261823
 20
1123.81055471051
 30
0.0
 11
-687.1281583960064
 21
1124.023567405823
 31
0.0
  0
LINE
  5
1F59
330
A
100
AcDbEntity
  8
HEWI
  6
STANDARD
 62
     8
100
AcDbLine
 10
-687.7291639502057
 20
1123.739525047424
 30
0.0
 11
-687.3921735937604
 21
1123.836570945862
 31
0.0
  0
LINE
  5
1F5A
330
A
100
AcDbEntity
  8
HEWI
  6
STANDARD
 62
     8
100
AcDbLine
 10
-689.3031461889752
 20
1123.383537498596
 30
0.0
 11
-686.4661558325299
 21
1124.143577781799
 31
0.0
  0
LINE
  5
1F5B
330
A
100
AcDbEntity
  8
HEWI
  6
STANDARD
 62
     8
100
AcDbLine
 10
-697.9921491796979
 20
1155.811516014221
 30
0.0
 11
-695.1551588232526
 21
1156.571556297424
 31
0.0
  0
LINE
  5
1F5C
330
A
100
AcDbEntity
  8
HEWI
  6
STANDARD
 62
     8
100
AcDbLine
 10
-708.8231809790142
 20
1137.051521507385
 30
0.0
 11
-708.0631788427838
 21
1134.21453115094
 31
0.0
  0
LINE
  5
1F5D
330
A
100
AcDbEntity
  8
HEWI
  6
STANDARD
 62
     8
100
AcDbLine
 10
-676.3951643164166
 20
1145.740562645081
 30
0.0
 11
-675.6351621801861
 21
1142.90349599469
 31
0.0
  0
LINE
  5
1F5E
330
A
100
AcDbEntity
  8
HEWI
  6
STANDARD
 62
     8
100
AcDbLine
 10
-688.3771665747174
 20
1123.573509422424
 30
0.0
 11
-687.7291639502057
 21
1123.739525047424
 31
0.0
  0
LINE
  5
1F5F
330
A
100
AcDbEntity
  8
HEWI
  6
STANDARD
 62
     8
100
AcDbLine
 10
-708.576179331065
 20
1136.327568260315
 30
0.0
 11
-708.3961637671002
 21
1135.59751149762
 31
0.0
  0
LINE
  5
1F60
330
A
100
AcDbEntity
  8
HEWI
  6
STANDARD
 62
     8
100
AcDbLine
 10
-688.5791547949322
 20
1123.630577293518
 30
0.0
 11
-687.8491743261823
 21
1123.81055471051
 31
0.0
  0
LINE
  5
1F61
330
A
100
AcDbEntity
  8
HEWI
  6
STANDARD
 62
     8
100
AcDbLine
 10
-696.6091688330181
 20
1156.14453908551
 30
0.0
 11
-695.8791502172955
 21
1156.324516502503
 31
0.0
  0
LINE
  5
1F62
330
A
100
AcDbEntity
  8
HEWI
  6
STANDARD
 62
     8
100
AcDbLine
 10
-675.8081587011822
 20
1144.377495018128
 30
0.0
 11
-675.556159799815
 21
1143.297554222229
 31
0.0
  0
LINE
  5
1F63
330
A
100
AcDbEntity
  8
HEWI
  6
STANDARD
 62
     8
100
AcDbLine
 10
-708.9251478369244
 20
1136.77556630719
 30
0.0
 11
-708.6501463110455
 21
1135.577522483948
 31
0.0
  0
LINE
  5
1F64
330
A
100
AcDbEntity
  8
HEWI
  6
STANDARD
 62
     8
100
AcDbLine
 10
-688.9995344336041
 20
1123.464866844299
 30
0.0
 11
-688.3771665747174
 21
1123.573509422424
 31
0.0
  0
LINE
  5
1F65
330
A
100
AcDbEntity
  8
HEWI
  6
STANDARD
 62
     8
100
AcDbLine
 10
-690.290160959483
 20
1123.239570823792
 30
0.0
 11
-689.6283491308698
 21
1123.355079856995
 31
0.0
  0
LINE
  5
1F66
330
A
100
AcDbEntity
  8
HEWI
  6
STANDARD
 62
     8
100
AcDbLine
 10
-709.0841444189557
 20
1137.758537498596
 30
0.0
 11
-708.9251478369244
 21
1136.77556630719
 31
0.0
  0
LINE
  5
1F67
330
A
100
AcDbEntity
  8
HEWI
  6
STANDARD
 62
     8
100
AcDbLine
 10
-675.384155100108
 20
1142.194496360901
 30
0.0
 11
-675.3381498510846
 21
1141.90251943219
 31
0.0
  0
LINE
  5
1F68
330
A
100
AcDbEntity
  8
HEWI
  6
STANDARD
 62
     8
100
AcDbLine
 10
-675.556159799815
 20
1143.297554222229
 30
0.0
 11
-675.384155100108
 21
1142.194496360901
 31
0.0
  0
LINE
  5
1F69
330
A
100
AcDbEntity
  8
HEWI
  6
STANDARD
 62
     8
100
AcDbLine
 10
-709.1691740210064
 20
1138.546501365784
 30
0.0
 11
-709.0841444189557
 21
1137.758537498596
 31
0.0
  0
LINE
  5
1F6A
330
A
100
AcDbEntity
  8
HEWI
  6
STANDARD
 62
     8
100
AcDbLine
 10
-675.6351621801861
 20
1142.90349599469
 30
0.0
 11
-675.37915784669
 21
1139.97754689801
 31
0.0
  0
LINE
  5
1F6B
330
A
100
AcDbEntity
  8
HEWI
  6
STANDARD
 62
     8
100
AcDbLine
 10
-695.1551588232526
 20
1156.571556297424
 30
0.0
 11
-692.2291715796002
 21
1156.827522483948
 31
0.0
  0
LINE
  5
1F6C
330
A
100
AcDbEntity
  8
HEWI
  6
STANDARD
 62
     8
100
AcDbLine
 10
-709.0791471655377
 20
1139.97754689801
 30
0.0
 11
-708.8231809790142
 21
1137.051521507385
 31
0.0
  0
LINE
  5
1F6D
330
A
100
AcDbEntity
  8
HEWI
  6
STANDARD
 62
     8
100
AcDbLine
 10
-692.2291715796002
 20
1123.127571312073
 30
0.0
 11
-689.3031461889752
 21
1123.383537498596
 31
0.0
  0
LINE
  5
1F6E
330
A
100
AcDbEntity
  8
HEWI
  6
STANDARD
 62
     8
100
AcDbLine
 10
-675.3381498510846
 20
1141.90251943219
 30
0.0
 11
-675.2561720068463
 21
1140.942512718323
 31
0.0
  0
LINE
  5
1F6F
330
A
100
AcDbEntity
  8
HEWI
  6
STANDARD
 62
     8
100
AcDbLine
 10
-709.217162912608
 20
1139.334541526917
 30
0.0
 11
-709.1691740210064
 21
1138.546501365784
 31
0.0
  0
LINE
  5
1F70
330
A
100
AcDbEntity
  8
HEWI
  6
STANDARD
 62
     8
100
AcDbLine
 10
-692.2291715796002
 20
1123.127571312073
 30
0.0
 11
-690.290160959483
 21
1123.239570823792
 31
0.0
  0
LINE
  5
1F71
330
A
100
AcDbEntity
  8
HEWI
  6
STANDARD
 62
     8
100
AcDbLine
 10
-693.3481748754986
 20
1156.940513816956
 30
0.0
 11
-692.2291715796002
 21
1156.977516380432
 31
0.0
  0
LINE
  5
1F72
330
A
100
AcDbEntity
  8
HEWI
  6
STANDARD
 62
     8
100
AcDbLine
 10
-675.2561720068463
 20
1140.942512718323
 30
0.0
 11
-675.2291639502057
 21
1139.97754689801
 31
0.0
  0
LINE
  5
1F73
330
A
100
AcDbEntity
  8
HEWI
  6
STANDARD
 62
     8
100
AcDbLine
 10
-709.2291792089947
 20
1139.97754689801
 30
0.0
 11
-709.217162912608
 21
1139.334541526917
 31
0.0
  0
LINE
  5
1F74
330
A
100
AcDbEntity
  8
HEWI
  6
STANDARD
 62
     8
100
AcDbLine
 10
-675.2411802465924
 20
1139.334541526917
 30
0.0
 11
-675.2291639502057
 21
1139.97754689801
 31
0.0
  0
LINE
  5
1F75
330
A
100
AcDbEntity
  8
HEWI
  6
STANDARD
 62
     8
100
AcDbLine
 10
-709.2291792089947
 20
1139.97754689801
 30
0.0
 11
-709.206176584483
 21
1140.860496727112
 31
0.0
  0
LINE
  5
1F76
330
A
100
AcDbEntity
  8
HEWI
  6
STANDARD
 62
     8
100
AcDbLine
 10
-692.2291715796002
 20
1156.977516380432
 30
0.0
 11
-691.1121519262799
 21
1156.940513816956
 31
0.0
  0
LINE
  5
1F77
330
A
100
AcDbEntity
  8
HEWI
  6
STANDARD
 62
     8
100
AcDbLine
 10
-694.1681821997174
 20
1123.239570823792
 30
0.0
 11
-692.2291715796002
 21
1123.127571312073
 31
0.0
  0
LINE
  5
1F78
330
A
100
AcDbEntity
  8
HEWI
  6
STANDARD
 62
     8
100
AcDbLine
 10
-675.290160959483
 20
1138.544517723206
 30
0.0
 11
-675.2411802465924
 21
1139.334541526917
 31
0.0
  0
LINE
  5
1F79
330
A
100
AcDbEntity
  8
HEWI
  6
STANDARD
 62
     8
100
AcDbLine
 10
-709.206176584483
 20
1140.860496727112
 30
0.0
 11
-709.1371687109479
 21
1141.743522850159
 31
0.0
  0
LINE
  5
1F7A
330
A
100
AcDbEntity
  8
HEWI
  6
STANDARD
 62
     8
100
AcDbLine
 10
-692.2291715796002
 20
1156.827522483948
 30
0.0
 11
-689.3031461889752
 21
1156.571556297424
 31
0.0
  0
LINE
  5
1F7B
330
A
100
AcDbEntity
  8
HEWI
  6
STANDARD
 62
     8
100
AcDbLine
 10
-695.1551588232526
 20
1123.383537498596
 30
0.0
 11
-692.2291715796002
 21
1123.127571312073
 31
0.0
  0
LINE
  5
1F7C
330
A
100
AcDbEntity
  8
HEWI
  6
STANDARD
 62
     8
100
AcDbLine
 10
-709.0791471655377
 20
1139.97754689801
 30
0.0
 11
-708.8231809790142
 21
1142.90349599469
 31
0.0
  0
LINE
  5
1F7D
330
A
100
AcDbEntity
  8
HEWI
  6
STANDARD
 62
     8
100
AcDbLine
 10
-675.6351621801861
 20
1137.051521507385
 30
0.0
 11
-675.37915784669
 21
1139.97754689801
 31
0.0
  0
LINE
  5
1F7E
330
A
100
AcDbEntity
  8
HEWI
  6
STANDARD
 62
     8
100
AcDbLine
 10
-691.1121519262799
 20
1156.940513816956
 30
0.0
 11
-690.0101621801861
 21
1156.832557884339
 31
0.0
  0
LINE
  5
1F7F
330
A
100
AcDbEntity
  8
HEWI
  6
STANDARD
 62
     8
100
AcDbLine
 10
-675.3741605932721
 20
1137.758537498596
 30
0.0
 11
-675.290160959483
 21
1138.544517723206
 31
0.0
  0
LINE
  5
1F80
330
A
100
AcDbEntity
  8
HEWI
  6
STANDARD
 62
     8
100
AcDbLine
 10
-709.118171518565
 20
1141.90251943219
 30
0.0
 11
-709.0841444189557
 21
1142.196556297425
 31
0.0
  0
LINE
  5
1F81
330
A
100
AcDbEntity
  8
HEWI
  6
STANDARD
 62
     8
100
AcDbLine
 10
-709.1371687109479
 20
1141.743522850159
 30
0.0
 11
-709.118171518565
 21
1141.90251943219
 31
0.0
  0
LINE
  5
1F82
330
A
100
AcDbEntity
  8
HEWI
  6
STANDARD
 62
     8
100
AcDbLine
 10
-675.5331571753033
 20
1136.77556630719
 30
0.0
 11
-675.3741605932721
 21
1137.758537498596
 31
0.0
  0
LINE
  5
1F83
330
A
100
AcDbEntity
  8
HEWI
  6
STANDARD
 62
     8
100
AcDbLine
 10
-709.0841444189557
 20
1142.196556297425
 30
0.0
 11
-708.9011533911237
 21
1143.300529686096
 31
0.0
  0
LINE
  5
1F84
330
A
100
AcDbEntity
  8
HEWI
  6
STANDARD
 62
     8
100
AcDbLine
 10
-690.0101621801861
 20
1156.832557884339
 30
0.0
 11
-688.9071806128034
 21
1156.649528709534
 31
0.0
  0
LINE
  5
1F85
330
A
100
AcDbEntity
  8
HEWI
  6
STANDARD
 62
     8
100
AcDbLine
 10
-694.829955881358
 20
1123.355079856995
 30
0.0
 11
-694.1681821997174
 21
1123.239570823792
 31
0.0
  0
LINE
  5
1F86
330
A
100
AcDbEntity
  8
HEWI
  6
STANDARD
 62
     8
100
AcDbLine
 10
-696.081176584483
 20
1123.573509422424
 30
0.0
 11
-695.4587705786236
 21
1123.464866844299
 31
0.0
  0
LINE
  5
1F87
330
A
100
AcDbEntity
  8
HEWI
  6
STANDARD
 62
     8
100
AcDbLine
 10
-675.8081587011822
 20
1135.577522483948
 30
0.0
 11
-675.5331571753033
 21
1136.77556630719
 31
0.0
  0
LINE
  5
1F88
330
A
100
AcDbEntity
  8
HEWI
  6
STANDARD
 62
     8
100
AcDbLine
 10
-708.6471708471783
 20
1144.376503196839
 30
0.0
 11
-708.6311491186627
 21
1144.445549217346
 31
0.0
  0
LINE
  5
1F89
330
A
100
AcDbEntity
  8
HEWI
  6
STANDARD
 62
     8
100
AcDbLine
 10
-688.9071806128034
 20
1156.649528709534
 30
0.0
 11
-687.8291471655377
 21
1156.398521629456
 31
0.0
  0
LINE
  5
1F8A
330
A
100
AcDbEntity
  8
HEWI
  6
STANDARD
 62
     8
100
AcDbLine
 10
-708.9011533911237
 20
1143.300529686096
 30
0.0
 11
-708.6471708471783
 21
1144.376503196839
 31
0.0
  0
LINE
  5
1F8B
330
A
100
AcDbEntity
  8
HEWI
  6
STANDARD
 62
     8
100
AcDbLine
 10
-696.7291792089947
 20
1123.739525047424
 30
0.0
 11
-696.081176584483
 21
1123.573509422424
 31
0.0
  0
LINE
  5
1F8C
330
A
100
AcDbEntity
  8
HEWI
  6
STANDARD
 62
     8
100
AcDbLine
 10
-708.8231809790142
 20
1142.90349599469
 30
0.0
 11
-708.0631788427838
 21
1145.740562645081
 31
0.0
  0
LINE
  5
1F8D
330
A
100
AcDbEntity
  8
HEWI
  6
STANDARD
 62
     8
100
AcDbLine
 10
-676.3951643164166
 20
1134.21453115094
 30
0.0
 11
-675.6351621801861
 21
1137.051521507385
 31
0.0
  0
LINE
  5
1F8E
330
A
100
AcDbEntity
  8
HEWI
  6
STANDARD
 62
     8
100
AcDbLine
 10
-689.3031461889752
 20
1156.571556297424
 30
0.0
 11
-686.4661558325299
 21
1155.811516014221
 31
0.0
  0
LINE
  5
1F8F
330
A
100
AcDbEntity
  8
HEWI
  6
STANDARD
 62
     8
100
AcDbLine
 10
-697.9921491796979
 20
1124.143577781799
 30
0.0
 11
-695.1551588232526
 21
1123.383537498596
 31
0.0
  0
LINE
  5
1F90
330
A
100
AcDbEntity
  8
HEWI
  6
STANDARD
 62
     8
100
AcDbLine
 10
-697.0671613867291
 20
1123.836570945862
 30
0.0
 11
-696.7291792089947
 21
1123.739525047424
 31
0.0
  0
LINE
  5
1F91
330
A
100
AcDbEntity
  8
HEWI
  6
STANDARD
 62
     8
100
AcDbLine
 10
-697.06616956544
 20
1123.836570945862
 30
0.0
 11
-696.7291792089947
 21
1123.739525047424
 31
0.0
  0
LINE
  5
1F92
330
A
100
AcDbEntity
  8
HEWI
  6
STANDARD
 62
     8
100
AcDbLine
 10
-687.8291471655377
 20
1156.398521629456
 30
0.0
 11
-686.7561491186627
 21
1156.072517601135
 31
0.0
  0
LINE
  5
1F93
330
A
100
AcDbEntity
  8
HEWI
  6
STANDARD
 62
     8
100
AcDbLine
 10
-708.6311491186627
 20
1144.445549217346
 30
0.0
 11
-708.315177744151
 21
1145.477501121643
 31
0.0
  0
LINE
  5
1F94
330
A
100
AcDbEntity
  8
HEWI
  6
STANDARD
 62
     8
100
AcDbLine
 10
-697.3971708471784
 20
1123.939567772034
 30
0.0
 11
-697.06616956544
 21
1123.836570945862
 31
0.0
  0
LINE
  5
1F95
330
A
100
AcDbEntity
  8
HEWI
  6
STANDARD
 62
     8
100
AcDbLine
 10
-697.3971708471784
 20
1123.939567772034
 30
0.0
 11
-697.0671613867291
 21
1123.836570945862
 31
0.0
  0
LINE
  5
1F96
330
A
100
AcDbEntity
  8
HEWI
  6
STANDARD
 62
     8
100
AcDbLine
 10
-676.2201460058697
 20
1134.257560936096
 30
0.0
 11
-675.8081587011822
 21
1135.577522483948
 31
0.0
  0
LINE
  5
1F97
330
A
100
AcDbEntity
  8
HEWI
  6
STANDARD
 62
     8
100
AcDbLine
 10
-697.9431684668072
 20
1124.125572410706
 30
0.0
 11
-697.3971708471784
 21
1123.939567772034
 31
0.0
  0
LINE
  5
1F98
330
A
100
AcDbEntity
  8
HEWI
  6
STANDARD
 62
     8
100
AcDbLine
 10
-698.0311735327252
 20
1124.157539573792
 30
0.0
 11
-697.9431684668072
 21
1124.125572410706
 31
0.0
  0
LINE
  5
1F99
330
A
100
AcDbEntity
  8
HEWI
  6
STANDARD
 62
     8
100
AcDbLine
 10
-698.3241804296978
 20
1124.268547264221
 30
0.0
 11
-698.0281599218853
 21
1124.157539573792
 31
0.0
  0
LINE
  5
1F9A
330
A
100
AcDbEntity
  8
HEWI
  6
STANDARD
 62
     8
100
AcDbLine
 10
-697.988029306651
 20
1124.14243337262
 30
0.0
 11
-697.9431684668072
 21
1124.125572410706
 31
0.0
  0
LINE
  5
1F9B
330
A
100
AcDbEntity
  8
HEWI
  6
STANDARD
 62
     8
100
AcDbLine
 10
-698.0281599218853
 20
1124.157539573792
 30
0.0
 11
-697.9971464331158
 21
1124.145866600159
 31
0.0
  0
LINE
  5
1F9C
330
A
100
AcDbEntity
  8
HEWI
  6
STANDARD
 62
     8
100
AcDbLine
 10
-708.315177744151
 20
1145.477501121643
 30
0.0
 11
-707.9351576025494
 21
1146.483513084534
 31
0.0
  0
LINE
  5
1F9D
330
A
100
AcDbEntity
  8
HEWI
  6
STANDARD
 62
     8
100
AcDbLine
 10
-698.3241804296978
 20
1124.268547264221
 30
0.0
 11
-698.0311735327252
 21
1124.157539573792
 31
0.0
  0
LINE
  5
1F9E
330
A
100
AcDbEntity
  8
HEWI
  6
STANDARD
 62
     8
100
AcDbLine
 10
-686.7561491186627
 20
1156.072517601135
 30
0.0
 11
-685.7241590673932
 21
1155.681511131409
 31
0.0
  0
LINE
  5
1F9F
330
A
100
AcDbEntity
  8
HEWI
  6
STANDARD
 62
     8
100
AcDbLine
 10
-685.7241590673932
 20
1155.681511131409
 30
0.0
 11
-685.6641538794049
 21
1155.65854665387
 31
0.0
  0
LINE
  5
1FA0
330
A
100
AcDbEntity
  8
HEWI
  6
STANDARD
 62
     8
100
AcDbLine
 10
-676.5231474096784
 20
1133.471504417542
 30
0.0
 11
-676.2201460058697
 21
1134.257560936096
 31
0.0
  0
LINE
  5
1FA1
330
A
100
AcDbEntity
  8
HEWI
  6
STANDARD
 62
     8
100
AcDbLine
 10
-698.5991819555768
 20
1124.378563133362
 30
0.0
 11
-698.3241804296978
 21
1124.268547264221
 31
0.0
  0
LINE
  5
1FA2
330
A
100
AcDbEntity
  8
HEWI
  6
STANDARD
 62
     8
100
AcDbLine
 10
-698.8511808569439
 20
1124.483543602112
 30
0.0
 11
-698.5991819555768
 21
1124.378563133362
 31
0.0
  0
LINE
  5
1FA3
330
A
100
AcDbEntity
  8
HEWI
  6
STANDARD
 62
     8
100
AcDbLine
 10
-707.9351576025494
 20
1146.483513084534
 30
0.0
 11
-707.7421720678814
 21
1146.93051931012
 31
0.0
  0
LINE
  5
1FA4
330
A
100
AcDbEntity
  8
HEWI
  6
STANDARD
 62
     8
100
AcDbLine
 10
-699.0741499121197
 20
1124.580513206604
 30
0.0
 11
-698.8511808569439
 21
1124.483543602112
 31
0.0
  0
LINE
  5
1FA5
330
A
100
AcDbEntity
  8
HEWI
  6
STANDARD
 62
     8
100
AcDbLine
 10
-676.8981702978619
 20
1132.630516258362
 30
0.0
 11
-676.5231474096784
 21
1133.471504417542
 31
0.0
  0
LINE
  5
1FA6
330
A
100
AcDbEntity
  8
HEWI
  6
STANDARD
 62
     8
100
AcDbLine
 10
-699.7401579077252
 20
1124.726539817932
 30
0.0
 11
-699.7291715796002
 21
1124.721580711487
 31
0.0
  0
LINE
  5
1FA7
330
A
100
AcDbEntity
  8
HEWI
  6
STANDARD
 62
     8
100
AcDbLine
 10
-699.2681654150494
 20
1124.668556419495
 30
0.0
 11
-699.0741499121197
 21
1124.580513206604
 31
0.0
  0
LINE
  5
1FA8
330
A
100
AcDbEntity
  8
HEWI
  6
STANDARD
 62
     8
100
AcDbLine
 10
-685.6641538794049
 20
1155.65854665387
 30
0.0
 11
-684.6791608984479
 21
1155.208564964417
 31
0.0
  0
LINE
  5
1FA9
330
A
100
AcDbEntity
  8
HEWI
  6
STANDARD
 62
     8
100
AcDbLine
 10
-699.4321592504986
 20
1124.744545189026
 30
0.0
 11
-699.2681654150494
 21
1124.668556419495
 31
0.0
  0
LINE
  5
1FAA
330
A
100
AcDbEntity
  8
HEWI
  6
STANDARD
 62
     8
100
AcDbLine
 10
-686.4661558325299
 20
1155.811516014221
 30
0.0
 11
-683.8041456396588
 21
1154.570518699768
 31
0.0
  0
LINE
  5
1FAB
330
A
100
AcDbEntity
  8
HEWI
  6
STANDARD
 62
     8
100
AcDbLine
 10
-700.654159372569
 20
1125.384575096253
 30
0.0
 11
-697.9921491796979
 21
1124.143577781799
 31
0.0
  0
LINE
  5
1FAC
330
A
100
AcDbEntity
  8
HEWI
  6
STANDARD
 62
     8
100
AcDbLine
 10
-677.6361616308697
 20
1131.552559105042
 30
0.0
 11
-676.3951643164166
 21
1134.21453115094
 31
0.0
  0
LINE
  5
1FAD
330
A
100
AcDbEntity
  8
HEWI
  6
STANDARD
 62
     8
100
AcDbLine
 10
-708.0631788427838
 20
1145.740562645081
 30
0.0
 11
-706.8221815283306
 21
1148.402534690979
 31
0.0
  0
LINE
  5
1FAE
330
A
100
AcDbEntity
  8
HEWI
  6
STANDARD
 62
     8
100
AcDbLine
 10
-699.7291715796002
 20
1124.888511863831
 30
0.0
 11
-699.7101743872174
 21
1124.879509178284
 31
0.0
  0
LINE
  5
1FAF
330
A
100
AcDbEntity
  8
HEWI
  6
STANDARD
 62
     8
100
AcDbLine
 10
-699.560180490733
 20
1124.805504051331
 30
0.0
 11
-699.4321592504986
 21
1124.744545189026
 31
0.0
  0
LINE
  5
1FB0
330
A
100
AcDbEntity
  8
HEWI
  6
STANDARD
 62
     8
100
AcDbLine
 10
-707.7421720678814
 20
1146.93051931012
 30
0.0
 11
-707.3641737158307
 21
1147.719551292541
 31
0.0
  0
LINE
  5
1FB1
330
A
100
AcDbEntity
  8
HEWI
  6
STANDARD
 62
     8
100
AcDbLine
 10
-699.654174631358
 20
1124.851509300354
 30
0.0
 11
-699.560180490733
 21
1124.805504051331
 31
0.0
  0
LINE
  5
1FB2
330
A
100
AcDbEntity
  8
HEWI
  6
STANDARD
 62
     8
100
AcDbLine
 10
-699.7101743872174
 20
1124.879509178284
 30
0.0
 11
-699.654174631358
 21
1124.851509300354
 31
0.0
  0
LINE
  5
1FB3
330
A
100
AcDbEntity
  8
HEWI
  6
STANDARD
 62
     8
100
AcDbLine
 10
-677.5071485693463
 20
1131.477562156799
 30
0.0
 11
-677.3281629736431
 21
1131.816536155823
 31
0.0
  0
LINE
  5
1FB4
330
A
100
AcDbEntity
  8
HEWI
  6
STANDARD
 62
     8
100
AcDbLine
 10
-677.3281629736431
 20
1131.816536155823
 30
0.0
 11
-676.8981702978619
 21
1132.630516258362
 31
0.0
  0
LINE
  5
1FB5
330
A
100
AcDbEntity
  8
HEWI
  6
STANDARD
 62
     8
100
AcDbLine
 10
-700.7071455175885
 20
1125.24350759137
 30
0.0
 11
-699.7401579077252
 21
1124.726539817932
 31
0.0
  0
LINE
  5
1FB6
330
A
100
AcDbEntity
  8
HEWI
  6
STANDARD
 62
     8
100
AcDbLine
 10
-684.6791608984479
 20
1155.208564964417
 30
0.0
 11
-683.7291486914166
 21
1154.699531761292
 31
0.0
  0
LINE
  5
1FB7
330
A
100
AcDbEntity
  8
HEWI
  6
STANDARD
 62
     8
100
AcDbLine
 10
-707.3641737158307
 20
1147.719551292541
 30
0.0
 11
-706.9511564428815
 21
1148.477531639221
 31
0.0
  0
LINE
  5
1FB8
330
A
100
AcDbEntity
  8
HEWI
  6
STANDARD
 62
     8
100
AcDbLine
 10
-700.7291563208111
 20
1125.255562034729
 30
0.0
 11
-700.7071455175885
 21
1125.24350759137
 31
0.0
  0
LINE
  5
1FB9
330
A
100
AcDbEntity
  8
HEWI
  6
STANDARD
 62
     8
100
AcDbLine
 10
-683.7291486914166
 20
1154.699531761292
 30
0.0
 11
-682.9571684057721
 21
1154.226509300354
 31
0.0
  0
LINE
  5
1FBA
330
A
100
AcDbEntity
  8
HEWI
  6
STANDARD
 62
     8
100
AcDbLine
 10
-706.9511564428815
 20
1148.477531639221
 30
0.0
 11
-706.4291532690533
 21
1149.324547020081
 31
0.0
  0
LINE
  5
1FBB
330
A
100
AcDbEntity
  8
HEWI
  6
STANDARD
 62
     8
100
AcDbLine
 10
-701.6781767065533
 20
1125.845543113831
 30
0.0
 11
-700.7291563208111
 21
1125.255562034729
 31
0.0
  0
LINE
  5
1FBC
330
A
100
AcDbEntity
  8
HEWI
  6
STANDARD
 62
     8
100
AcDbLine
 10
-678.0981596167095
 20
1130.527549949768
 30
0.0
 11
-677.5071485693463
 21
1131.477562156799
 31
0.0
  0
LINE
  5
1FBD
330
A
100
AcDbEntity
  8
HEWI
  6
STANDARD
 62
     8
100
AcDbLine
 10
-703.060165231944
 20
1127.069526878479
 30
0.0
 11
-700.654159372569
 21
1125.384575096253
 31
0.0
  0
LINE
  5
1FBE
330
A
100
AcDbEntity
  8
HEWI
  6
STANDARD
 62
     8
100
AcDbLine
 10
-683.8041456396588
 20
1154.570518699768
 30
0.0
 11
-681.3981779272564
 21
1152.885566917542
 31
0.0
  0
LINE
  5
1FBF
330
A
100
AcDbEntity
  8
HEWI
  6
STANDARD
 62
     8
100
AcDbLine
 10
-679.3211515600689
 20
1129.146553245667
 30
0.0
 11
-677.6361616308697
 21
1131.552559105042
 31
0.0
  0
LINE
  5
1FC0
330
A
100
AcDbEntity
  8
HEWI
  6
STANDARD
 62
     8
100
AcDbLine
 10
-706.8221815283306
 20
1148.402534690979
 30
0.0
 11
-705.1371534521588
 21
1150.808540550354
 31
0.0
  0
LINE
  5
1FC1
330
A
100
AcDbEntity
  8
HEWI
  6
STANDARD
 62
     8
100
AcDbLine
 10
-682.9571684057721
 20
1154.226509300354
 30
0.0
 11
-682.2331770117291
 21
1153.714500633362
 31
0.0
  0
LINE
  5
1FC2
330
A
100
AcDbEntity
  8
HEWI
  6
STANDARD
 62
     8
100
AcDbLine
 10
-682.2331770117291
 20
1153.714500633362
 30
0.0
 11
-681.8801649267681
 21
1153.464561668518
 31
0.0
  0
LINE
  5
1FC3
330
A
100
AcDbEntity
  8
HEWI
  6
STANDARD
 62
     8
100
AcDbLine
 10
-706.4291532690533
 20
1149.324547020081
 30
0.0
 11
-705.7161482031354
 21
1150.32651540387
 31
0.0
  0
LINE
  5
1FC4
330
A
100
AcDbEntity
  8
HEWI
  6
STANDARD
 62
     8
100
AcDbLine
 10
-702.5781782324322
 20
1126.490532127503
 30
0.0
 11
-701.6781767065533
 21
1125.845543113831
 31
0.0
  0
LINE
  5
1FC5
330
A
100
AcDbEntity
  8
HEWI
  6
STANDARD
 62
     8
100
AcDbLine
 10
-678.8591535742291
 20
1129.477516380432
 30
0.0
 11
-678.7471540625103
 21
1129.632545677307
 31
0.0
  0
LINE
  5
1FC6
330
A
100
AcDbEntity
  8
HEWI
  6
STANDARD
 62
     8
100
AcDbLine
 10
-678.7471540625103
 20
1129.632545677307
 30
0.0
 11
-678.0981596167095
 21
1130.527549949768
 31
0.0
  0
LINE
  5
1FC7
330
A
100
AcDbEntity
  8
HEWI
  6
STANDARD
 62
     8
100
AcDbLine
 10
-705.7161482031354
 20
1150.32651540387
 30
0.0
 11
-705.1911695654401
 21
1150.976539817932
 31
0.0
  0
LINE
  5
1FC8
330
A
100
AcDbEntity
  8
HEWI
  6
STANDARD
 62
     8
100
AcDbLine
 10
-681.8801649267681
 20
1153.464561668518
 30
0.0
 11
-681.0221632177838
 21
1152.760521141174
 31
0.0
  0
LINE
  5
1FC9
330
A
100
AcDbEntity
  8
HEWI
  6
STANDARD
 62
     8
100
AcDbLine
 10
-703.5301740820416
 20
1127.277504173401
 30
0.0
 11
-702.5781782324322
 21
1126.490532127503
 31
0.0
  0
LINE
  5
1FCA
330
A
100
AcDbEntity
  8
HEWI
  6
STANDARD
 62
     8
100
AcDbLine
 10
-679.5111616308697
 20
1128.696495262268
 30
0.0
 11
-678.8591535742291
 21
1129.477516380432
 31
0.0
  0
LINE
  5
1FCB
330
A
100
AcDbEntity
  8
HEWI
  6
STANDARD
 62
     8
100
AcDbLine
 10
-705.1911695654401
 20
1150.976539817932
 30
0.0
 11
-704.6241529638775
 21
1151.592537132385
 31
0.0
  0
LINE
  5
1FCC
330
A
100
AcDbEntity
  8
HEWI
  6
STANDARD
 62
     8
100
AcDbLine
 10
-704.6241529638775
 20
1151.592537132385
 30
0.0
 11
-704.2501600439557
 21
1151.998497215393
 31
0.0
  0
LINE
  5
1FCD
330
A
100
AcDbEntity
  8
HEWI
  6
STANDARD
 62
     8
100
AcDbLine
 10
-681.0221632177838
 20
1152.760521141174
 30
0.0
 11
-680.2081449682721
 21
1151.998497215393
 31
0.0
  0
LINE
  5
1FCE
330
A
100
AcDbEntity
  8
HEWI
  6
STANDARD
 62
     8
100
AcDbLine
 10
-680.2081449682721
 20
1127.956520286682
 30
0.0
 11
-679.5111616308697
 21
1128.696495262268
 31
0.0
  0
LINE
  5
1FCF
330
A
100
AcDbEntity
  8
HEWI
  6
STANDARD
 62
     8
100
AcDbLine
 10
-704.2501600439557
 20
1127.956520286682
 30
0.0
 11
-703.5301740820416
 21
1127.277504173401
 31
0.0
  0
LINE
  5
1FD0
330
A
100
AcDbEntity
  8
HEWI
  6
STANDARD
 62
     8
100
AcDbLine
 10
-705.1371534521588
 20
1150.808540550354
 30
0.0
 11
-703.060165231944
 21
1152.885566917542
 31
0.0
  0
LINE
  5
1FD1
330
A
100
AcDbEntity
  8
HEWI
  6
STANDARD
 62
     8
100
AcDbLine
 10
-681.3981779272564
 20
1152.885566917542
 30
0.0
 11
-679.3211515600689
 21
1150.808540550354
 31
0.0
  0
ARC
  5
1FD2
330
A
100
AcDbEntity
  8
HEWI
  6
STANDARD
 62
     8
100
AcDbCircle
 10
-692.2276711087367
 20
1139.978042167441
 30
0.0
 40
16.74835576013925
100
AcDbArc
 50
38.30103302899316
 51
51.16089727725748
  0
ARC
  5
1FD3
330
A
100
AcDbEntity
  8
HEWI
  6
STANDARD
 62
     8
100
AcDbCircle
 10
-692.2276711688787
 20
1139.975410193514
 30
0.0
 40
16.7472035540984
100
AcDbArc
 50
308.2997643625034
 51
321.1605179751316
  0
ARC
  5
1FD4
330
A
100
AcDbEntity
  8
HEWI
  6
STANDARD
 62
     8
100
AcDbCircle
 10
-692.2265579194498
 20
1139.980565527962
 30
0.0
 40
16.7537323430268
100
AcDbArc
 50
218.3018241119584
 51
231.1576381283074
  0
ARC
  5
1FD5
330
A
100
AcDbEntity
  8
HEWI
  6
STANDARD
 62
     8
100
AcDbCircle
 10
-692.2303480218884
 20
1139.979206583532
 30
0.0
 40
16.74775505391164
100
AcDbArc
 50
128.2995203073648
 51
141.1599419328848
  0
ARC
  5
1FD6
330
A
100
AcDbEntity
  8
HEWI
  6
STANDARD
 62
     8
100
AcDbCircle
 10
-692.2334399663661
 20
1139.974217279475
 30
0.0
 40
16.55511324718378
100
AcDbArc
 50
35.72873053581972
 51
61.43757544521658
  0
ARC
  5
1FD7
330
A
100
AcDbEntity
  8
HEWI
  6
STANDARD
 62
     8
100
AcDbCircle
 10
-692.2423457161051
 20
1139.964886317318
 30
0.0
 40
16.5327313401557
100
AcDbArc
 50
205.4224661996671
 51
246.6117414259916
  0
ARC
  5
1FD8
330
A
100
AcDbEntity
  8
HEWI
  6
STANDARD
 62
     8
100
AcDbCircle
 10
-692.2064970506682
 20
1139.998640646346
 30
0.0
 40
16.78067836527355
100
AcDbArc
 50
213.1739170186823
 51
226.0102534663618
  0
ARC
  5
1FD9
330
A
100
AcDbEntity
  8
HEWI
  6
STANDARD
 62
     8
100
AcDbCircle
 10
-692.228190289921
 20
1139.97920171353
 30
0.0
 40
16.74790568645557
100
AcDbArc
 50
30.58377236064423
 51
84.58999673303978
  0
ARC
  5
1FDA
330
A
100
AcDbEntity
  8
HEWI
  6
STANDARD
 62
     8
100
AcDbCircle
 10
-692.2502653279364
 20
1140.000221426942
 30
0.0
 40
16.78067836527355
100
AcDbArc
 50
303.1739170186825
 51
316.0102534663617
  0
ARC
  5
1FDB
330
A
100
AcDbEntity
  8
HEWI
  6
STANDARD
 62
     8
100
AcDbCircle
 10
-692.2304705456185
 20
1139.978282715638
 30
0.0
 40
16.74831747578485
100
AcDbArc
 50
120.5845054457728
 51
174.5894177147817
  0
ARC
  5
1FDC
330
A
100
AcDbEntity
  8
HEWI
  6
STANDARD
 62
     8
100
AcDbCircle
 10
-692.229532448297
 20
1139.974959513501
 30
0.0
 40
16.5479210939018
100
AcDbArc
 50
251.7266314774899
 51
308.3057468708223
  0
ARC
  5
1FDD
330
A
100
AcDbEntity
  8
HEWI
  6
STANDARD
 62
     8
100
AcDbCircle
 10
-692.2287814103181
 20
1139.980040938517
 30
0.0
 40
16.5480125044983
100
AcDbArc
 50
71.72670373023283
 51
128.3056261460018
  0
ARC
  5
1FDE
330
A
100
AcDbEntity
  8
HEWI
  6
STANDARD
 62
     8
100
AcDbCircle
 10
-692.2440078182642
 20
1139.965463865883
 30
0.0
 40
16.73067838033655
100
AcDbArc
 50
210.577460652614
 51
223.4494982136641
  0
ARC
  5
1FDF
330
A
100
AcDbEntity
  8
HEWI
  6
STANDARD
 62
     8
100
AcDbCircle
 10
-692.2200678987826
 20
1139.966624310422
 30
0.0
 40
16.73559626354858
100
AcDbArc
 50
300.5793599175284
 51
313.4475989487516
  0
ARC
  5
1FE0
330
A
100
AcDbEntity
  8
HEWI
  6
STANDARD
 62
     8
100
AcDbCircle
 10
-692.2284195854929
 20
1139.976968925312
 30
0.0
 40
16.75038872971103
100
AcDbArc
 50
107.732515502611
 51
125.730366882885
  0
ARC
  5
1FE1
330
A
100
AcDbEntity
  8
HEWI
  6
STANDARD
 62
     8
100
AcDbCircle
 10
-692.2306622872363
 20
1139.976194680817
 30
0.0
 40
16.7514888677943
100
AcDbArc
 50
17.73360463020999
 51
35.73002823808469
  0
ARC
  5
1FE2
330
A
100
AcDbEntity
  8
HEWI
  6
STANDARD
 62
     8
100
AcDbCircle
 10
-692.2301182783233
 20
1139.977382045196
 30
0.0
 40
16.74866887256897
100
AcDbArc
 50
197.7312409478226
 51
215.730896379274
  0
ARC
  5
1FE3
330
A
100
AcDbEntity
  8
HEWI
  6
STANDARD
 62
     8
100
AcDbCircle
 10
-692.2310174724741
 20
1139.980654508123
 30
0.0
 40
16.75314297511627
100
AcDbArc
 50
287.733568179089
 51
305.7281993164737
  0
ARC
  5
1FE4
330
A
100
AcDbEntity
  8
HEWI
  6
STANDARD
 62
     8
100
AcDbCircle
 10
-692.2514709140791
 20
1139.970386794216
 30
0.0
 40
16.77319215142041
100
AcDbArc
 50
7.457870410152741
 51
22.86410624229031
  0
ARC
  5
1FE5
330
A
100
AcDbEntity
  8
HEWI
  6
STANDARD
 62
     8
100
AcDbCircle
 10
-692.1970824654025
 20
1139.990739487535
 30
0.0
 40
16.78423924967695
100
AcDbArc
 50
195.1737613810969
 51
213.1337556823136
  0
ARC
  5
1FE6
330
A
100
AcDbEntity
  8
HEWI
  6
STANDARD
 62
     8
100
AcDbCircle
 10
-692.2439220759063
 20
1140.013188201087
 30
0.0
 40
16.78806539818245
100
AcDbArc
 50
285.1755941018374
 51
303.1315815913383
  0
ARC
  5
1FE7
330
A
100
AcDbEntity
  8
HEWI
  6
STANDARD
 62
     8
100
AcDbCircle
 10
-692.239652449786
 20
1139.976624894677
 30
0.0
 40
16.56015514451233
100
AcDbArc
 50
344.3147725213231
 51
20.29104490346437
  0
ARC
  5
1FE8
330
A
100
AcDbEntity
  8
HEWI
  6
STANDARD
 62
     8
100
AcDbCircle
 10
-692.2287314746679
 20
1139.978022243328
 30
0.0
 40
16.55060933618395
100
AcDbArc
 50
164.3038864872092
 51
200.301896591528
  0
ARC
  5
1FE9
330
A
100
AcDbEntity
  8
HEWI
  6
STANDARD
 62
     8
100
AcDbCircle
 10
-692.2495744466473
 20
1140.088256710419
 30
0.0
 40
16.88802808166489
100
AcDbArc
 50
93.72984029068151
 51
105.0303493529234
  0
ARC
  5
1FEA
330
A
100
AcDbEntity
  8
HEWI
  6
STANDARD
 62
     8
100
AcDbCircle
 10
-692.2241184898354
 20
1139.964157149467
 30
0.0
 40
16.76405160181976
100
AcDbArc
 50
92.31463557102129
 51
105.1635147574563
  0
ARC
  5
1FEB
330
A
100
AcDbEntity
  8
HEWI
  6
STANDARD
 62
     8
100
AcDbCircle
 10
-692.2280580270594
 20
1139.95723773068
 30
0.0
 40
16.72991318027813
100
AcDbArc
 50
269.7256218652933
 51
285.173319273939
  0
ARC
  5
1FEC
330
A
100
AcDbEntity
  8
HEWI
  6
STANDARD
 62
     8
100
AcDbCircle
 10
-692.2474128626888
 20
1139.976522444391
 30
0.0
 40
16.73194228548113
100
AcDbArc
 50
179.7260908773323
 51
195.1718864031753
  0
ARC
  5
1FED
330
A
100
AcDbEntity
  8
HEWI
  6
STANDARD
 62
     8
100
AcDbCircle
 10
-692.2310754893615
 20
1139.977691277263
 30
0.0
 40
16.75159628359536
100
AcDbArc
 50
346.8740496036508
 51
15.15650678307381
  0
ARC
  5
1FEE
330
A
100
AcDbEntity
  8
HEWI
  6
STANDARD
 62
     8
100
AcDbCircle
 10
-692.2321759319649
 20
1140.027940484171
 30
0.0
 40
16.69976199198083
100
AcDbArc
 50
84.5606173598753
 51
97.45581061034027
  0
ARC
  5
1FEF
330
A
100
AcDbEntity
  8
HEWI
  6
STANDARD
 62
     8
100
AcDbCircle
 10
-692.230779552533
 20
1140.047996727885
 30
0.0
 40
16.81988409832352
100
AcDbArc
 50
267.1736085026773
 51
279.9788421834207
  0
ARC
  5
1FF0
330
A
100
AcDbEntity
  8
HEWI
  6
STANDARD
 62
     8
100
AcDbCircle
 10
-692.1599238022543
 20
1139.979109440829
 30
0.0
 40
16.81868574853261
100
AcDbArc
 50
177.1732520015407
 51
189.9792713710621
  0
ARC
  5
1FF1
330
A
100
AcDbEntity
  8
HEWI
  6
STANDARD
 62
     8
100
AcDbCircle
 10
-692.2550266767282
 20
1139.979747888058
 30
0.0
 40
16.72373262052676
100
AcDbArc
 50
169.4332984315512
 51
182.3104396142582
  0
ARC
  5
1FF2
330
A
100
AcDbEntity
  8
HEWI
  6
STANDARD
 62
     8
100
AcDbCircle
 10
-692.2318666027074
 20
1139.944846811614
 30
0.0
 40
16.71691312986947
100
AcDbArc
 50
259.4306607647459
 51
272.3130772810587
  0
ARC
  5
1FF3
330
A
100
AcDbEntity
  8
HEWI
  6
STANDARD
 62
     8
100
AcDbCircle
 10
-692.2289062246566
 20
1139.982794844021
 30
0.0
 40
16.74434537942889
100
AcDbArc
 50
79.43971817089735
 51
94.87599917708957
  0
ARC
  5
1FF4
330
A
100
AcDbEntity
  8
HEWI
  6
STANDARD
 62
     8
100
AcDbCircle
 10
-692.2243897380906
 20
1140.0058761086
 30
0.0
 40
16.77837571484732
100
AcDbArc
 50
249.1756310427103
 51
264.5800823451241
  0
ARC
  5
1FF5
330
A
100
AcDbEntity
  8
HEWI
  6
STANDARD
 62
     8
100
AcDbCircle
 10
-692.2547400113042
 20
1139.981553505844
 30
0.0
 40
16.77551968794559
100
AcDbArc
 50
339.1747536906404
 51
354.5816856225867
  0
ARC
  5
1FF6
330
A
100
AcDbEntity
  8
HEWI
  6
STANDARD
 62
     8
100
AcDbCircle
 10
-692.2242159401323
 20
1139.976909461497
 30
0.0
 40
16.74545283972865
100
AcDbArc
 50
321.1491080459473
 51
352.0142089413255
  0
ARC
  5
1FF7
330
A
100
AcDbEntity
  8
HEWI
  6
STANDARD
 62
     8
100
AcDbCircle
 10
-692.2298325386529
 20
1139.97124902635
 30
0.0
 40
16.74407727963663
100
AcDbArc
 50
238.8622424060565
 51
262.0137617010596
  0
ARC
  5
1FF8
330
A
100
AcDbEntity
  8
HEWI
  6
STANDARD
 62
     8
100
AcDbCircle
 10
-692.2199580832418
 20
1139.972034904227
 30
0.0
 40
16.53924145116509
100
AcDbArc
 50
313.4328365668515
 51
339.1656309958067
  0
ARC
  5
1FF9
330
A
100
AcDbEntity
  8
HEWI
  6
STANDARD
 62
     8
100
AcDbCircle
 10
-692.2368266218675
 20
1139.982019502006
 30
0.0
 40
16.54106768442307
100
AcDbArc
 50
133.4342814598768
 51
159.1641861027735
  0
ARC
  5
1FFA
330
A
100
AcDbEntity
  8
HEWI
  6
STANDARD
 62
     8
100
AcDbCircle
 10
-692.2297764952514
 20
1139.976352278776
 30
0.0
 40
16.74847446895902
100
AcDbArc
 50
226.0145939504664
 51
254.3027532000955
  0
ARC
  5
1FFB
330
A
100
AcDbEntity
  8
HEWI
  6
STANDARD
 62
     8
100
AcDbCircle
 10
-692.2374480758073
 20
1139.984224445713
 30
0.0
 40
16.76034663783926
100
AcDbArc
 50
316.019166578557
 51
328.8665331648074
  0
LINE
  5
1FFD
330
A
100
AcDbEntity
  8
HEWI
  6
STANDARD
 62
     8
100
AcDbLine
 10
-107.133163278819
 20
1127.069526878479
 30
0.0
 11
-109.2101896460065
 21
1129.146553245667
 31
0.0
  0
LINE
  5
1FFE
330
A
100
AcDbEntity
  8
HEWI
  6
STANDARD
 62
     8
100
AcDbLine
 10
-83.39418775391663
 20
1129.146553245667
 30
0.0
 11
-85.47117597413148
 21
1127.069526878479
 31
0.0
  0
LINE
  5
1FFF
330
A
100
AcDbEntity
  8
HEWI
  6
STANDARD
 62
     8
100
AcDbLine
 10
-108.3231962378033
 20
1151.998497215393
 30
0.0
 11
-108.7121809179791
 21
1151.596504417542
 31
0.0
  0
LINE
  5
2000
330
A
100
AcDbEntity
  8
HEWI
  6
STANDARD
 62
     8
100
AcDbLine
 10
-107.6031721289166
 20
1127.277504173401
 30
0.0
 11
-108.3231962378033
 21
1127.956520286682
 31
0.0
  0
LINE
  5
2001
330
A
100
AcDbEntity
  8
HEWI
  6
STANDARD
 62
     8
100
AcDbLine
 10
-83.58618146729554
 20
1128.69451161969
 30
0.0
 11
-84.28118116211976
 21
1127.956520286682
 31
0.0
  0
LINE
  5
2002
330
A
100
AcDbEntity
  8
HEWI
  6
STANDARD
 62
     8
100
AcDbLine
 10
-84.28118116211976
 20
1151.998497215393
 30
0.0
 11
-85.09416944336976
 21
1152.759529319885
 31
0.0
  0
LINE
  5
2003
330
A
100
AcDbEntity
  8
HEWI
  6
STANDARD
 62
     8
100
AcDbLine
 10
-108.7121809179791
 20
1151.596504417542
 30
0.0
 11
-109.2651594336041
 21
1150.975547996643
 31
0.0
  0
LINE
  5
2004
330
A
100
AcDbEntity
  8
HEWI
  6
STANDARD
 62
     8
100
AcDbLine
 10
-106.6511762793072
 20
1126.490532127503
 30
0.0
 11
-107.6031721289166
 21
1127.277504173401
 31
0.0
  0
LINE
  5
2005
330
A
100
AcDbEntity
  8
HEWI
  6
STANDARD
 62
     8
100
AcDbLine
 10
-82.81519300294007
 20
1129.628502098206
 30
0.0
 11
-83.58618146729554
 21
1128.69451161969
 31
0.0
  0
LINE
  5
2006
330
A
100
AcDbEntity
  8
HEWI
  6
STANDARD
 62
     8
100
AcDbLine
 10
-109.2651594336041
 20
1150.975547996643
 30
0.0
 11
-109.789184396983
 21
1150.32651540387
 31
0.0
  0
LINE
  5
2007
330
A
100
AcDbEntity
  8
HEWI
  6
STANDARD
 62
     8
100
AcDbLine
 10
-85.96216565919007
 20
1153.453499046448
 30
0.0
 11
-86.29118329835023
 21
1153.717552391174
 31
0.0
  0
LINE
  5
2008
330
A
100
AcDbEntity
  8
HEWI
  6
STANDARD
 62
     8
100
AcDbLine
 10
-85.09416944336976
 20
1152.759529319885
 30
0.0
 11
-85.96216565919007
 21
1153.453499046448
 31
0.0
  0
LINE
  5
2009
330
A
100
AcDbEntity
  8
HEWI
  6
STANDARD
 62
     8
100
AcDbLine
 10
-82.16917402100648
 20
1130.529533592346
 30
0.0
 11
-82.81519300294007
 21
1129.628502098206
 31
0.0
  0
LINE
  5
200A
330
A
100
AcDbEntity
  8
HEWI
  6
STANDARD
 62
     8
100
AcDbLine
 10
-105.7501829321393
 20
1125.844551292542
 30
0.0
 11
-106.6511762793072
 21
1126.490532127503
 31
0.0
  0
LINE
  5
200B
330
A
100
AcDbEntity
  8
HEWI
  6
STANDARD
 62
     8
100
AcDbLine
 10
-109.789184396983
 20
1150.32651540387
 30
0.0
 11
-110.502189462901
 21
1149.324547020081
 31
0.0
  0
LINE
  5
200C
330
A
100
AcDbEntity
  8
HEWI
  6
STANDARD
 62
     8
100
AcDbLine
 10
-81.70915967774476
 20
1131.552559105042
 30
0.0
 11
-83.39418775391663
 21
1129.146553245667
 31
0.0
  0
LINE
  5
200D
330
A
100
AcDbEntity
  8
HEWI
  6
STANDARD
 62
     8
100
AcDbLine
 10
-109.2101896460065
 20
1150.808540550354
 30
0.0
 11
-110.8951795752057
 21
1148.402534690979
 31
0.0
  0
LINE
  5
200E
330
A
100
AcDbEntity
  8
HEWI
  6
STANDARD
 62
     8
100
AcDbLine
 10
-104.7271955664166
 20
1125.384575096253
 30
0.0
 11
-107.133163278819
 21
1127.069526878479
 31
0.0
  0
LINE
  5
200F
330
A
100
AcDbEntity
  8
HEWI
  6
STANDARD
 62
     8
100
AcDbLine
 10
-85.47117597413148
 20
1152.885566917542
 30
0.0
 11
-87.87718183350648
 21
1154.570518699768
 31
0.0
  0
LINE
  5
2010
330
A
100
AcDbEntity
  8
HEWI
  6
STANDARD
 62
     8
100
AcDbLine
 10
-86.29118329835023
 20
1153.717552391174
 30
0.0
 11
-87.03119642090882
 21
1154.226509300354
 31
0.0
  0
LINE
  5
2011
330
A
100
AcDbEntity
  8
HEWI
  6
STANDARD
 62
     8
100
AcDbLine
 10
-104.8021925146588
 20
1125.255562034729
 30
0.0
 11
-105.7501829321393
 21
1125.844551292542
 31
0.0
  0
LINE
  5
2012
330
A
100
AcDbEntity
  8
HEWI
  6
STANDARD
 62
     8
100
AcDbLine
 10
-110.502189462901
 20
1149.324547020081
 30
0.0
 11
-111.0241926367291
 21
1148.477531639221
 31
0.0
  0
LINE
  5
2013
330
A
100
AcDbEntity
  8
HEWI
  6
STANDARD
 62
     8
100
AcDbLine
 10
-87.03119642090882
 20
1154.226509300354
 30
0.0
 11
-87.80218488526429
 21
1154.699531761292
 31
0.0
  0
LINE
  5
2014
330
A
100
AcDbEntity
  8
HEWI
  6
STANDARD
 62
     8
100
AcDbLine
 10
-81.59017927002992
 20
1131.484504905823
 30
0.0
 11
-82.16917402100648
 21
1130.529533592346
 31
0.0
  0
LINE
  5
2015
330
A
100
AcDbEntity
  8
HEWI
  6
STANDARD
 62
     8
100
AcDbLine
 10
-81.3901746923932
 20
1131.814552513245
 30
0.0
 11
-81.59017927002992
 21
1131.484504905823
 31
0.0
  0
LINE
  5
2016
330
A
100
AcDbEntity
  8
HEWI
  6
STANDARD
 62
     8
100
AcDbLine
 10
-104.7811735327252
 20
1125.24350759137
 30
0.0
 11
-104.8021925146588
 21
1125.255562034729
 31
0.0
  0
LINE
  5
2017
330
A
100
AcDbEntity
  8
HEWI
  6
STANDARD
 62
     8
100
AcDbLine
 10
-111.0241926367291
 20
1148.477531639221
 30
0.0
 11
-111.4371717627057
 21
1147.718559471253
 31
0.0
  0
LINE
  5
2018
330
A
100
AcDbEntity
  8
HEWI
  6
STANDARD
 62
     8
100
AcDbLine
 10
-87.80218488526429
 20
1154.699531761292
 30
0.0
 11
-88.75116712403382
 21
1155.208564964417
 31
0.0
  0
LINE
  5
2019
330
A
100
AcDbEntity
  8
HEWI
  6
STANDARD
 62
     8
100
AcDbLine
 10
-103.8141859228619
 20
1124.727531639221
 30
0.0
 11
-104.7811735327252
 21
1125.24350759137
 31
0.0
  0
LINE
  5
201A
330
A
100
AcDbEntity
  8
HEWI
  6
STANDARD
 62
     8
100
AcDbLine
 10
-110.5491865332135
 20
1148.398567405823
 30
0.0
 11
-111.2471616919049
 21
1147.087532249573
 31
0.0
  0
LINE
  5
201B
330
A
100
AcDbEntity
  8
HEWI
  6
STANDARD
 62
     8
100
AcDbLine
 10
-80.97418195557679
 20
1132.625557151917
 30
0.0
 11
-81.3901746923932
 21
1131.814552513245
 31
0.0
  0
LINE
  5
201C
330
A
100
AcDbEntity
  8
HEWI
  6
STANDARD
 62
     8
100
AcDbLine
 10
-103.727172678233
 20
1124.851509300354
 30
0.0
 11
-103.7831724340924
 21
1124.879509178284
 31
0.0
  0
LINE
  5
201D
330
A
100
AcDbEntity
  8
HEWI
  6
STANDARD
 62
     8
100
AcDbLine
 10
-103.633178537608
 20
1124.805504051331
 30
0.0
 11
-103.727172678233
 21
1124.851509300354
 31
0.0
  0
LINE
  5
201E
330
A
100
AcDbEntity
  8
HEWI
  6
STANDARD
 62
     8
100
AcDbLine
 10
-103.5051954443463
 20
1124.744545189026
 30
0.0
 11
-103.633178537608
 21
1124.805504051331
 31
0.0
  0
LINE
  5
201F
330
A
100
AcDbEntity
  8
HEWI
  6
STANDARD
 62
     8
100
AcDbLine
 10
-103.7831724340924
 20
1124.879509178284
 30
0.0
 11
-103.8021696264752
 21
1124.888511863831
 31
0.0
  0
LINE
  5
2020
330
A
100
AcDbEntity
  8
HEWI
  6
STANDARD
 62
     8
100
AcDbLine
 10
-110.8951795752057
 20
1148.402534690979
 30
0.0
 11
-112.1361768896588
 21
1145.740562645081
 31
0.0
  0
LINE
  5
2021
330
A
100
AcDbEntity
  8
HEWI
  6
STANDARD
 62
     8
100
AcDbLine
 10
-80.46816236329163
 20
1134.21453115094
 30
0.0
 11
-81.70915967774476
 21
1131.552559105042
 31
0.0
  0
LINE
  5
2022
330
A
100
AcDbEntity
  8
HEWI
  6
STANDARD
 62
     8
100
AcDbLine
 10
-102.0651853735455
 20
1124.143577781799
 30
0.0
 11
-104.7271955664166
 21
1125.384575096253
 31
0.0
  0
LINE
  5
2023
330
A
100
AcDbEntity
  8
HEWI
  6
STANDARD
 62
     8
100
AcDbLine
 10
-87.87718183350648
 20
1154.570518699768
 30
0.0
 11
-90.53919202637757
 21
1155.811516014221
 31
0.0
  0
LINE
  5
2024
330
A
100
AcDbEntity
  8
HEWI
  6
STANDARD
 62
     8
100
AcDbLine
 10
-103.3421934301862
 20
1124.668556419495
 30
0.0
 11
-103.5051954443463
 21
1124.744545189026
 31
0.0
  0
LINE
  5
2025
330
A
100
AcDbEntity
  8
HEWI
  6
STANDARD
 62
     8
100
AcDbLine
 10
-103.3411634619244
 20
1124.668556419495
 30
0.0
 11
-103.5051954443463
 21
1124.744545189026
 31
0.0
  0
LINE
  5
2026
330
A
100
AcDbEntity
  8
HEWI
  6
STANDARD
 62
     8
100
AcDbLine
 10
-111.4371717627057
 20
1147.718559471253
 30
0.0
 11
-111.8031919653424
 21
1146.927543846253
 31
0.0
  0
LINE
  5
2027
330
A
100
AcDbEntity
  8
HEWI
  6
STANDARD
 62
     8
100
AcDbLine
 10
-111.8031919653424
 20
1146.927543846253
 30
0.0
 11
-112.0081937963971
 21
1146.483513084534
 31
0.0
  0
LINE
  5
2028
330
A
100
AcDbEntity
  8
HEWI
  6
STANDARD
 62
     8
100
AcDbLine
 10
-88.75116712403382
 20
1155.208564964417
 30
0.0
 11
-89.74119550538148
 21
1155.65854665387
 31
0.0
  0
LINE
  5
2029
330
A
100
AcDbEntity
  8
HEWI
  6
STANDARD
 62
     8
100
AcDbLine
 10
-103.1471861059674
 20
1124.580513206604
 30
0.0
 11
-103.3411634619244
 21
1124.668556419495
 31
0.0
  0
LINE
  5
202A
330
A
100
AcDbEntity
  8
HEWI
  6
STANDARD
 62
     8
100
AcDbLine
 10
-89.74119550538148
 20
1155.65854665387
 30
0.0
 11
-89.79616529297913
 21
1155.683494773987
 31
0.0
  0
LINE
  5
202B
330
A
100
AcDbEntity
  8
HEWI
  6
STANDARD
 62
     8
100
AcDbLine
 10
-103.1471861059674
 20
1124.580513206604
 30
0.0
 11
-103.3421934301862
 21
1124.668556419495
 31
0.0
  0
LINE
  5
202C
330
A
100
AcDbEntity
  8
HEWI
  6
STANDARD
 62
     8
100
AcDbLine
 10
-103.8021696264752
 20
1124.722114769104
 30
0.0
 11
-103.8141859228619
 21
1124.727531639221
 31
0.0
  0
LINE
  5
202D
330
A
100
AcDbEntity
  8
HEWI
  6
STANDARD
 62
     8
100
AcDbLine
 10
-80.59618360352601
 20
1133.471504417542
 30
0.0
 11
-80.97418195557679
 21
1132.625557151917
 31
0.0
  0
LINE
  5
202E
330
A
100
AcDbEntity
  8
HEWI
  6
STANDARD
 62
     8
100
AcDbLine
 10
-102.9231870825299
 20
1124.482551780823
 30
0.0
 11
-103.1471861059674
 21
1124.580513206604
 31
0.0
  0
LINE
  5
202F
330
A
100
AcDbEntity
  8
HEWI
  6
STANDARD
 62
     8
100
AcDbLine
 10
-102.9241789038189
 20
1124.483543602112
 30
0.0
 11
-103.1471861059674
 21
1124.580513206604
 31
0.0
  0
LINE
  5
2030
330
A
100
AcDbEntity
  8
HEWI
  6
STANDARD
 62
     8
100
AcDbLine
 10
-102.6721800024518
 20
1124.378563133362
 30
0.0
 11
-102.9241789038189
 21
1124.483543602112
 31
0.0
  0
LINE
  5
2031
330
A
100
AcDbEntity
  8
HEWI
  6
STANDARD
 62
     8
100
AcDbLine
 10
-102.6721800024518
 20
1124.378563133362
 30
0.0
 11
-102.9231870825299
 21
1124.482551780823
 31
0.0
  0
LINE
  5
2032
330
A
100
AcDbEntity
  8
HEWI
  6
STANDARD
 62
     8
100
AcDbLine
 10
-102.3971784765729
 20
1124.268547264221
 30
0.0
 11
-102.6721800024518
 21
1124.378563133362
 31
0.0
  0
LINE
  5
2033
330
A
100
AcDbEntity
  8
HEWI
  6
STANDARD
 62
     8
100
AcDbLine
 10
-80.29318219971742
 20
1134.257560936096
 30
0.0
 11
-80.59618360352601
 21
1133.471504417542
 31
0.0
  0
LINE
  5
2034
330
A
100
AcDbEntity
  8
HEWI
  6
STANDARD
 62
     8
100
AcDbLine
 10
-112.0081937963971
 20
1146.483513084534
 30
0.0
 11
-112.3871839697369
 21
1145.480552879456
 31
0.0
  0
LINE
  5
2035
330
A
100
AcDbEntity
  8
HEWI
  6
STANDARD
 62
     8
100
AcDbLine
 10
-89.79616529297913
 20
1155.683494773987
 30
0.0
 11
-90.82617170167054
 21
1156.071525779846
 31
0.0
  0
LINE
  5
2036
330
A
100
AcDbEntity
  8
HEWI
  6
STANDARD
 62
     8
100
AcDbLine
 10
-102.0701444799908
 20
1124.145866600159
 30
0.0
 11
-102.101196115733
 21
1124.157539573792
 31
0.0
  0
LINE
  5
2037
330
A
100
AcDbEntity
  8
HEWI
  6
STANDARD
 62
     8
100
AcDbLine
 10
-102.0161665136822
 20
1124.125572410706
 30
0.0
 11
-102.0610655004986
 21
1124.14243337262
 31
0.0
  0
LINE
  5
2038
330
A
100
AcDbEntity
  8
HEWI
  6
STANDARD
 62
     8
100
AcDbLine
 10
-102.101196115733
 20
1124.157539573792
 30
0.0
 11
-102.3971784765729
 21
1124.268547264221
 31
0.0
  0
LINE
  5
2039
330
A
100
AcDbEntity
  8
HEWI
  6
STANDARD
 62
     8
100
AcDbLine
 10
-90.49116498780335
 20
1155.687538353088
 30
0.0
 11
-91.20119458985413
 21
1155.931526390198
 31
0.0
  0
LINE
  5
203A
330
A
100
AcDbEntity
  8
HEWI
  6
STANDARD
 62
     8
100
AcDbLine
 10
-101.4701688940533
 20
1123.939567772034
 30
0.0
 11
-102.0161665136822
 21
1124.125572410706
 31
0.0
  0
LINE
  5
203B
330
A
100
AcDbEntity
  8
HEWI
  6
STANDARD
 62
     8
100
AcDbLine
 10
-79.88119489502992
 20
1135.577522483948
 30
0.0
 11
-80.29318219971742
 21
1134.257560936096
 31
0.0
  0
LINE
  5
203C
330
A
100
AcDbEntity
  8
HEWI
  6
STANDARD
 62
     8
100
AcDbLine
 10
-101.139167612315
 20
1123.836570945862
 30
0.0
 11
-101.4701688940533
 21
1123.939567772034
 31
0.0
  0
LINE
  5
203D
330
A
100
AcDbEntity
  8
HEWI
  6
STANDARD
 62
     8
100
AcDbLine
 10
-112.7021635229596
 20
1144.445549217346
 30
0.0
 11
-112.7231825048932
 21
1144.377495018128
 31
0.0
  0
LINE
  5
203E
330
A
100
AcDbEntity
  8
HEWI
  6
STANDARD
 62
     8
100
AcDbLine
 10
-112.3871839697369
 20
1145.480552879456
 30
0.0
 11
-112.7021635229596
 21
1144.445549217346
 31
0.0
  0
LINE
  5
203F
330
A
100
AcDbEntity
  8
HEWI
  6
STANDARD
 62
     8
100
AcDbLine
 10
-90.82617170167054
 20
1156.071525779846
 30
0.0
 11
-91.90218335938538
 21
1156.398521629456
 31
0.0
  0
LINE
  5
2040
330
A
100
AcDbEntity
  8
HEWI
  6
STANDARD
 62
     8
100
AcDbLine
 10
-80.13517743897523
 20
1135.59751149762
 30
0.0
 11
-80.34819013428773
 21
1134.876533714417
 31
0.0
  0
LINE
  5
2041
330
A
100
AcDbEntity
  8
HEWI
  6
STANDARD
 62
     8
100
AcDbLine
 10
-91.20119458985413
 20
1155.931526390198
 30
0.0
 11
-91.92217237305726
 21
1156.14453908551
 31
0.0
  0
LINE
  5
2042
330
A
100
AcDbEntity
  8
HEWI
  6
STANDARD
 62
     8
100
AcDbLine
 10
-100.6821668798932
 20
1123.81055471051
 30
0.0
 11
-101.403182810069
 21
1124.023567405823
 31
0.0
  0
LINE
  5
2043
330
A
100
AcDbEntity
  8
HEWI
  6
STANDARD
 62
     8
100
AcDbLine
 10
-100.8021772558697
 20
1123.739525047424
 30
0.0
 11
-101.139167612315
 21
1123.836570945862
 31
0.0
  0
LINE
  5
2044
330
A
100
AcDbEntity
  8
HEWI
  6
STANDARD
 62
     8
100
AcDbLine
 10
-99.22819501710023
 20
1123.383537498596
 30
0.0
 11
-102.0651853735455
 21
1124.143577781799
 31
0.0
  0
LINE
  5
2045
330
A
100
AcDbEntity
  8
HEWI
  6
STANDARD
 62
     8
100
AcDbLine
 10
-90.53919202637757
 20
1155.811516014221
 30
0.0
 11
-93.37618238282288
 21
1156.571556297424
 31
0.0
  0
LINE
  5
2046
330
A
100
AcDbEntity
  8
HEWI
  6
STANDARD
 62
     8
100
AcDbLine
 10
-79.70816022706117
 20
1137.051521507385
 30
0.0
 11
-80.46816236329163
 21
1134.21453115094
 31
0.0
  0
LINE
  5
2047
330
A
100
AcDbEntity
  8
HEWI
  6
STANDARD
 62
     8
100
AcDbLine
 10
-112.1361768896588
 20
1145.740562645081
 30
0.0
 11
-112.8961790258893
 21
1142.90349599469
 31
0.0
  0
LINE
  5
2048
330
A
100
AcDbEntity
  8
HEWI
  6
STANDARD
 62
     8
100
AcDbLine
 10
-100.154174631358
 20
1123.573509422424
 30
0.0
 11
-100.8021772558697
 21
1123.739525047424
 31
0.0
  0
LINE
  5
2049
330
A
100
AcDbEntity
  8
HEWI
  6
STANDARD
 62
     8
100
AcDbLine
 10
-79.95516187501038
 20
1136.327568260315
 30
0.0
 11
-80.13517743897523
 21
1135.59751149762
 31
0.0
  0
LINE
  5
204A
330
A
100
AcDbEntity
  8
HEWI
  6
STANDARD
 62
     8
100
AcDbLine
 10
-99.9521864111432
 20
1123.630577293518
 30
0.0
 11
-100.6821668798932
 21
1123.81055471051
 31
0.0
  0
LINE
  5
204B
330
A
100
AcDbEntity
  8
HEWI
  6
STANDARD
 62
     8
100
AcDbLine
 10
-91.92217237305726
 20
1156.14453908551
 30
0.0
 11
-92.65219098877992
 21
1156.324516502503
 31
0.0
  0
LINE
  5
204C
330
A
100
AcDbEntity
  8
HEWI
  6
STANDARD
 62
     8
100
AcDbLine
 10
-112.7231825048932
 20
1144.377495018128
 30
0.0
 11
-112.9751814062604
 21
1143.297554222229
 31
0.0
  0
LINE
  5
204D
330
A
100
AcDbEntity
  8
HEWI
  6
STANDARD
 62
     8
100
AcDbLine
 10
-79.60619336915101
 20
1136.77556630719
 30
0.0
 11
-79.88119489502992
 21
1135.577522483948
 31
0.0
  0
LINE
  5
204E
330
A
100
AcDbEntity
  8
HEWI
  6
STANDARD
 62
     8
100
AcDbLine
 10
-99.53180677247132
 20
1123.464866844299
 30
0.0
 11
-100.154174631358
 21
1123.573509422424
 31
0.0
  0
LINE
  5
204F
330
A
100
AcDbEntity
  8
HEWI
  6
STANDARD
 62
     8
100
AcDbLine
 10
-98.24118024659242
 20
1123.239570823792
 30
0.0
 11
-98.9029920752057
 21
1123.355079856995
 31
0.0
  0
LINE
  5
2050
330
A
100
AcDbEntity
  8
HEWI
  6
STANDARD
 62
     8
100
AcDbLine
 10
-79.44719678711976
 20
1137.758537498596
 30
0.0
 11
-79.60619336915101
 21
1136.77556630719
 31
0.0
  0
LINE
  5
2051
330
A
100
AcDbEntity
  8
HEWI
  6
STANDARD
 62
     8
100
AcDbLine
 10
-113.1471861059674
 20
1142.194496360901
 30
0.0
 11
-113.1931913549908
 21
1141.90251943219
 31
0.0
  0
LINE
  5
2052
330
A
100
AcDbEntity
  8
HEWI
  6
STANDARD
 62
     8
100
AcDbLine
 10
-112.9751814062604
 20
1143.297554222229
 30
0.0
 11
-113.1471861059674
 21
1142.194496360901
 31
0.0
  0
LINE
  5
2053
330
A
100
AcDbEntity
  8
HEWI
  6
STANDARD
 62
     8
100
AcDbLine
 10
-79.36216718506898
 20
1138.546501365784
 30
0.0
 11
-79.44719678711976
 21
1137.758537498596
 31
0.0
  0
LINE
  5
2054
330
A
100
AcDbEntity
  8
HEWI
  6
STANDARD
 62
     8
100
AcDbLine
 10
-112.8961790258893
 20
1142.90349599469
 30
0.0
 11
-113.1521833593854
 21
1139.97754689801
 31
0.0
  0
LINE
  5
2055
330
A
100
AcDbEntity
  8
HEWI
  6
STANDARD
 62
     8
100
AcDbLine
 10
-93.37618238282288
 20
1156.571556297424
 30
0.0
 11
-96.30216962647523
 21
1156.827522483948
 31
0.0
  0
LINE
  5
2056
330
A
100
AcDbEntity
  8
HEWI
  6
STANDARD
 62
     8
100
AcDbLine
 10
-79.45219404053773
 20
1139.97754689801
 30
0.0
 11
-79.70816022706117
 21
1137.051521507385
 31
0.0
  0
LINE
  5
2057
330
A
100
AcDbEntity
  8
HEWI
  6
STANDARD
 62
     8
100
AcDbLine
 10
-96.30216962647523
 20
1123.127571312073
 30
0.0
 11
-99.22819501710023
 21
1123.383537498596
 31
0.0
  0
LINE
  5
2058
330
A
100
AcDbEntity
  8
HEWI
  6
STANDARD
 62
     8
100
AcDbLine
 10
-113.1931913549908
 20
1141.90251943219
 30
0.0
 11
-113.2751691992291
 21
1140.942512718323
 31
0.0
  0
LINE
  5
2059
330
A
100
AcDbEntity
  8
HEWI
  6
STANDARD
 62
     8
100
AcDbLine
 10
-79.31417829346742
 20
1139.334541526917
 30
0.0
 11
-79.36216718506898
 21
1138.546501365784
 31
0.0
  0
LINE
  5
205A
330
A
100
AcDbEntity
  8
HEWI
  6
STANDARD
 62
     8
100
AcDbLine
 10
-96.30216962647523
 20
1123.127571312073
 30
0.0
 11
-98.24118024659242
 21
1123.239570823792
 31
0.0
  0
LINE
  5
205B
330
A
100
AcDbEntity
  8
HEWI
  6
STANDARD
 62
     8
100
AcDbLine
 10
-95.18316633057679
 20
1156.940513816956
 30
0.0
 11
-96.30216962647523
 21
1156.977516380432
 31
0.0
  0
LINE
  5
205C
330
A
100
AcDbEntity
  8
HEWI
  6
STANDARD
 62
     8
100
AcDbLine
 10
-113.2751691992291
 20
1140.942512718323
 30
0.0
 11
-113.3021772558697
 21
1139.97754689801
 31
0.0
  0
LINE
  5
205D
330
A
100
AcDbEntity
  8
HEWI
  6
STANDARD
 62
     8
100
AcDbLine
 10
-79.3021619970807
 20
1139.97754689801
 30
0.0
 11
-79.31417829346742
 21
1139.334541526917
 31
0.0
  0
LINE
  5
205E
330
A
100
AcDbEntity
  8
HEWI
  6
STANDARD
 62
     8
100
AcDbLine
 10
-113.290160959483
 20
1139.334541526917
 30
0.0
 11
-113.3021772558697
 21
1139.97754689801
 31
0.0
  0
LINE
  5
205F
330
A
100
AcDbEntity
  8
HEWI
  6
STANDARD
 62
     8
100
AcDbLine
 10
-79.3021619970807
 20
1139.97754689801
 30
0.0
 11
-79.32516462159242
 21
1140.860496727112
 31
0.0
  0
LINE
  5
2060
330
A
100
AcDbEntity
  8
HEWI
  6
STANDARD
 62
     8
100
AcDbLine
 10
-96.30216962647523
 20
1156.977516380432
 30
0.0
 11
-97.41918927979554
 21
1156.940513816956
 31
0.0
  0
LINE
  5
2061
330
A
100
AcDbEntity
  8
HEWI
  6
STANDARD
 62
     8
100
AcDbLine
 10
-94.36315900635804
 20
1123.239570823792
 30
0.0
 11
-96.30216962647523
 21
1123.127571312073
 31
0.0
  0
LINE
  5
2062
330
A
100
AcDbEntity
  8
HEWI
  6
STANDARD
 62
     8
100
AcDbLine
 10
-113.2411802465924
 20
1138.544517723206
 30
0.0
 11
-113.290160959483
 21
1139.334541526917
 31
0.0
  0
LINE
  5
2063
330
A
100
AcDbEntity
  8
HEWI
  6
STANDARD
 62
     8
100
AcDbLine
 10
-79.32516462159242
 20
1140.860496727112
 30
0.0
 11
-79.39417249512757
 21
1141.743522850159
 31
0.0
  0
LINE
  5
2064
330
A
100
AcDbEntity
  8
HEWI
  6
STANDARD
 62
     8
100
AcDbLine
 10
-96.30216962647523
 20
1156.827522483948
 30
0.0
 11
-99.22819501710023
 21
1156.571556297424
 31
0.0
  0
LINE
  5
2065
330
A
100
AcDbEntity
  8
HEWI
  6
STANDARD
 62
     8
100
AcDbLine
 10
-93.37618238282288
 20
1123.383537498596
 30
0.0
 11
-96.30216962647523
 21
1123.127571312073
 31
0.0
  0
LINE
  5
2066
330
A
100
AcDbEntity
  8
HEWI
  6
STANDARD
 62
     8
100
AcDbLine
 10
-79.45219404053773
 20
1139.97754689801
 30
0.0
 11
-79.70816022706117
 21
1142.90349599469
 31
0.0
  0
LINE
  5
2067
330
A
100
AcDbEntity
  8
HEWI
  6
STANDARD
 62
     8
100
AcDbLine
 10
-112.8961790258893
 20
1137.051521507385
 30
0.0
 11
-113.1521833593854
 21
1139.97754689801
 31
0.0
  0
LINE
  5
2068
330
A
100
AcDbEntity
  8
HEWI
  6
STANDARD
 62
     8
100
AcDbLine
 10
-97.41918927979554
 20
1156.940513816956
 30
0.0
 11
-98.52117902588929
 21
1156.832557884339
 31
0.0
  0
LINE
  5
2069
330
A
100
AcDbEntity
  8
HEWI
  6
STANDARD
 62
     8
100
AcDbLine
 10
-113.1571806128033
 20
1137.758537498596
 30
0.0
 11
-113.2411802465924
 21
1138.544517723206
 31
0.0
  0
LINE
  5
206A
330
A
100
AcDbEntity
  8
HEWI
  6
STANDARD
 62
     8
100
AcDbLine
 10
-79.41316968751038
 20
1141.90251943219
 30
0.0
 11
-79.44719678711976
 21
1142.196556297425
 31
0.0
  0
LINE
  5
206B
330
A
100
AcDbEntity
  8
HEWI
  6
STANDARD
 62
     8
100
AcDbLine
 10
-79.39417249512757
 20
1141.743522850159
 30
0.0
 11
-79.41316968751038
 21
1141.90251943219
 31
0.0
  0
LINE
  5
206C
330
A
100
AcDbEntity
  8
HEWI
  6
STANDARD
 62
     8
100
AcDbLine
 10
-112.9981840307721
 20
1136.77556630719
 30
0.0
 11
-113.1571806128033
 21
1137.758537498596
 31
0.0
  0
LINE
  5
206D
330
A
100
AcDbEntity
  8
HEWI
  6
STANDARD
 62
     8
100
AcDbLine
 10
-79.44719678711976
 20
1142.196556297425
 30
0.0
 11
-79.63018781495179
 21
1143.300529686096
 31
0.0
  0
LINE
  5
206E
330
A
100
AcDbEntity
  8
HEWI
  6
STANDARD
 62
     8
100
AcDbLine
 10
-98.52117902588929
 20
1156.832557884339
 30
0.0
 11
-99.6241605932721
 21
1156.649528709534
 31
0.0
  0
LINE
  5
206F
330
A
100
AcDbEntity
  8
HEWI
  6
STANDARD
 62
     8
100
AcDbLine
 10
-93.70138532471742
 20
1123.355079856995
 30
0.0
 11
-94.36315900635804
 21
1123.239570823792
 31
0.0
  0
LINE
  5
2070
330
A
100
AcDbEntity
  8
HEWI
  6
STANDARD
 62
     8
100
AcDbLine
 10
-92.45016462159242
 20
1123.573509422424
 30
0.0
 11
-93.07257062745179
 21
1123.464866844299
 31
0.0
  0
LINE
  5
2071
330
A
100
AcDbEntity
  8
HEWI
  6
STANDARD
 62
     8
100
AcDbLine
 10
-112.7231825048932
 20
1135.577522483948
 30
0.0
 11
-112.9981840307721
 21
1136.77556630719
 31
0.0
  0
LINE
  5
2072
330
A
100
AcDbEntity
  8
HEWI
  6
STANDARD
 62
     8
100
AcDbLine
 10
-79.8841703588971
 20
1144.376503196839
 30
0.0
 11
-79.90019208741273
 21
1144.445549217346
 31
0.0
  0
LINE
  5
2073
330
A
100
AcDbEntity
  8
HEWI
  6
STANDARD
 62
     8
100
AcDbLine
 10
-99.6241605932721
 20
1156.649528709534
 30
0.0
 11
-100.7021940405377
 21
1156.398521629456
 31
0.0
  0
LINE
  5
2074
330
A
100
AcDbEntity
  8
HEWI
  6
STANDARD
 62
     8
100
AcDbLine
 10
-79.63018781495179
 20
1143.300529686096
 30
0.0
 11
-79.8841703588971
 21
1144.376503196839
 31
0.0
  0
LINE
  5
2075
330
A
100
AcDbEntity
  8
HEWI
  6
STANDARD
 62
     8
100
AcDbLine
 10
-91.8021619970807
 20
1123.739525047424
 30
0.0
 11
-92.45016462159242
 21
1123.573509422424
 31
0.0
  0
LINE
  5
2076
330
A
100
AcDbEntity
  8
HEWI
  6
STANDARD
 62
     8
100
AcDbLine
 10
-79.70816022706117
 20
1142.90349599469
 30
0.0
 11
-80.46816236329163
 21
1145.740562645081
 31
0.0
  0
LINE
  5
2077
330
A
100
AcDbEntity
  8
HEWI
  6
STANDARD
 62
     8
100
AcDbLine
 10
-112.1361768896588
 20
1134.21453115094
 30
0.0
 11
-112.8961790258893
 21
1137.051521507385
 31
0.0
  0
LINE
  5
2078
330
A
100
AcDbEntity
  8
HEWI
  6
STANDARD
 62
     8
100
AcDbLine
 10
-99.22819501710023
 20
1156.571556297424
 30
0.0
 11
-102.0651853735455
 21
1155.811516014221
 31
0.0
  0
LINE
  5
2079
330
A
100
AcDbEntity
  8
HEWI
  6
STANDARD
 62
     8
100
AcDbLine
 10
-90.53919202637757
 20
1124.143577781799
 30
0.0
 11
-93.37618238282288
 21
1123.383537498596
 31
0.0
  0
LINE
  5
207A
330
A
100
AcDbEntity
  8
HEWI
  6
STANDARD
 62
     8
100
AcDbLine
 10
-91.46417981934632
 20
1123.836570945862
 30
0.0
 11
-91.8021619970807
 21
1123.739525047424
 31
0.0
  0
LINE
  5
207B
330
A
100
AcDbEntity
  8
HEWI
  6
STANDARD
 62
     8
100
AcDbLine
 10
-91.46517164063538
 20
1123.836570945862
 30
0.0
 11
-91.8021619970807
 21
1123.739525047424
 31
0.0
  0
LINE
  5
207C
330
A
100
AcDbEntity
  8
HEWI
  6
STANDARD
 62
     8
100
AcDbLine
 10
-100.7021940405377
 20
1156.398521629456
 30
0.0
 11
-101.7751920874127
 21
1156.072517601135
 31
0.0
  0
LINE
  5
207D
330
A
100
AcDbEntity
  8
HEWI
  6
STANDARD
 62
     8
100
AcDbLine
 10
-79.90019208741273
 20
1144.445549217346
 30
0.0
 11
-80.21616346192445
 21
1145.477501121643
 31
0.0
  0
LINE
  5
207E
330
A
100
AcDbEntity
  8
HEWI
  6
STANDARD
 62
     8
100
AcDbLine
 10
-91.1341703588971
 20
1123.939567772034
 30
0.0
 11
-91.46517164063538
 21
1123.836570945862
 31
0.0
  0
LINE
  5
207F
330
A
100
AcDbEntity
  8
HEWI
  6
STANDARD
 62
     8
100
AcDbLine
 10
-91.1341703588971
 20
1123.939567772034
 30
0.0
 11
-91.46417981934632
 21
1123.836570945862
 31
0.0
  0
LINE
  5
2080
330
A
100
AcDbEntity
  8
HEWI
  6
STANDARD
 62
     8
100
AcDbLine
 10
-112.3111952002057
 20
1134.257560936096
 30
0.0
 11
-112.7231825048932
 21
1135.577522483948
 31
0.0
  0
LINE
  5
2081
330
A
100
AcDbEntity
  8
HEWI
  6
STANDARD
 62
     8
100
AcDbLine
 10
-90.5881727392682
 20
1124.125572410706
 30
0.0
 11
-91.1341703588971
 21
1123.939567772034
 31
0.0
  0
LINE
  5
2082
330
A
100
AcDbEntity
  8
HEWI
  6
STANDARD
 62
     8
100
AcDbLine
 10
-90.50016767335023
 20
1124.157539573792
 30
0.0
 11
-90.5881727392682
 21
1124.125572410706
 31
0.0
  0
LINE
  5
2083
330
A
100
AcDbEntity
  8
HEWI
  6
STANDARD
 62
     8
100
AcDbLine
 10
-90.20716077637757
 20
1124.268547264221
 30
0.0
 11
-90.50318128419007
 21
1124.157539573792
 31
0.0
  0
LINE
  5
2084
330
A
100
AcDbEntity
  8
HEWI
  6
STANDARD
 62
     8
100
AcDbLine
 10
-90.54331189942445
 20
1124.14243337262
 30
0.0
 11
-90.5881727392682
 21
1124.125572410706
 31
0.0
  0
LINE
  5
2085
330
A
100
AcDbEntity
  8
HEWI
  6
STANDARD
 62
     8
100
AcDbLine
 10
-90.50318128419007
 20
1124.157539573792
 30
0.0
 11
-90.5341947729596
 21
1124.145866600159
 31
0.0
  0
LINE
  5
2086
330
A
100
AcDbEntity
  8
HEWI
  6
STANDARD
 62
     8
100
AcDbLine
 10
-80.21616346192445
 20
1145.477501121643
 30
0.0
 11
-80.59618360352601
 21
1146.483513084534
 31
0.0
  0
LINE
  5
2087
330
A
100
AcDbEntity
  8
HEWI
  6
STANDARD
 62
     8
100
AcDbLine
 10
-90.20716077637757
 20
1124.268547264221
 30
0.0
 11
-90.50016767335023
 21
1124.157539573792
 31
0.0
  0
LINE
  5
2088
330
A
100
AcDbEntity
  8
HEWI
  6
STANDARD
 62
     8
100
AcDbLine
 10
-101.7751920874127
 20
1156.072517601135
 30
0.0
 11
-102.8071821386822
 21
1155.681511131409
 31
0.0
  0
LINE
  5
2089
330
A
100
AcDbEntity
  8
HEWI
  6
STANDARD
 62
     8
100
AcDbLine
 10
-102.8071821386822
 20
1155.681511131409
 30
0.0
 11
-102.8671873266705
 21
1155.65854665387
 31
0.0
  0
LINE
  5
208A
330
A
100
AcDbEntity
  8
HEWI
  6
STANDARD
 62
     8
100
AcDbLine
 10
-112.0081937963971
 20
1133.471504417542
 30
0.0
 11
-112.3111952002057
 21
1134.257560936096
 31
0.0
  0
LINE
  5
208B
330
A
100
AcDbEntity
  8
HEWI
  6
STANDARD
 62
     8
100
AcDbLine
 10
-89.93215925049867
 20
1124.378563133362
 30
0.0
 11
-90.20716077637757
 21
1124.268547264221
 31
0.0
  0
LINE
  5
208C
330
A
100
AcDbEntity
  8
HEWI
  6
STANDARD
 62
     8
100
AcDbLine
 10
-89.68016034913148
 20
1124.483543602112
 30
0.0
 11
-89.93215925049867
 21
1124.378563133362
 31
0.0
  0
LINE
  5
208D
330
A
100
AcDbEntity
  8
HEWI
  6
STANDARD
 62
     8
100
AcDbLine
 10
-80.59618360352601
 20
1146.483513084534
 30
0.0
 11
-80.78916913819398
 21
1146.93051931012
 31
0.0
  0
LINE
  5
208E
330
A
100
AcDbEntity
  8
HEWI
  6
STANDARD
 62
     8
100
AcDbLine
 10
-89.4571912939557
 20
1124.580513206604
 30
0.0
 11
-89.68016034913148
 21
1124.483543602112
 31
0.0
  0
LINE
  5
208F
330
A
100
AcDbEntity
  8
HEWI
  6
STANDARD
 62
     8
100
AcDbLine
 10
-111.6331709082135
 20
1132.630516258362
 30
0.0
 11
-112.0081937963971
 21
1133.471504417542
 31
0.0
  0
LINE
  5
2090
330
A
100
AcDbEntity
  8
HEWI
  6
STANDARD
 62
     8
100
AcDbLine
 10
-88.79118329835023
 20
1124.726539817932
 30
0.0
 11
-88.80216962647523
 21
1124.721580711487
 31
0.0
  0
LINE
  5
2091
330
A
100
AcDbEntity
  8
HEWI
  6
STANDARD
 62
     8
100
AcDbLine
 10
-89.26317579102601
 20
1124.668556419495
 30
0.0
 11
-89.4571912939557
 21
1124.580513206604
 31
0.0
  0
LINE
  5
2092
330
A
100
AcDbEntity
  8
HEWI
  6
STANDARD
 62
     8
100
AcDbLine
 10
-102.8671873266705
 20
1155.65854665387
 30
0.0
 11
-103.8521803076275
 21
1155.208564964417
 31
0.0
  0
LINE
  5
2093
330
A
100
AcDbEntity
  8
HEWI
  6
STANDARD
 62
     8
100
AcDbLine
 10
-89.09918195557679
 20
1124.744545189026
 30
0.0
 11
-89.26317579102601
 21
1124.668556419495
 31
0.0
  0
LINE
  5
2094
330
A
100
AcDbEntity
  8
HEWI
  6
STANDARD
 62
     8
100
AcDbLine
 10
-102.0651853735455
 20
1155.811516014221
 30
0.0
 11
-104.7271955664166
 21
1154.570518699768
 31
0.0
  0
LINE
  5
2095
330
A
100
AcDbEntity
  8
HEWI
  6
STANDARD
 62
     8
100
AcDbLine
 10
-87.87718183350648
 20
1125.384575096253
 30
0.0
 11
-90.53919202637757
 21
1124.143577781799
 31
0.0
  0
LINE
  5
2096
330
A
100
AcDbEntity
  8
HEWI
  6
STANDARD
 62
     8
100
AcDbLine
 10
-110.8951795752057
 20
1131.552559105042
 30
0.0
 11
-112.1361768896588
 21
1134.21453115094
 31
0.0
  0
LINE
  5
2097
330
A
100
AcDbEntity
  8
HEWI
  6
STANDARD
 62
     8
100
AcDbLine
 10
-80.46816236329163
 20
1145.740562645081
 30
0.0
 11
-81.70915967774476
 21
1148.402534690979
 31
0.0
  0
LINE
  5
2098
330
A
100
AcDbEntity
  8
HEWI
  6
STANDARD
 62
     8
100
AcDbLine
 10
-88.80216962647523
 20
1124.888511863831
 30
0.0
 11
-88.82116681885804
 21
1124.879509178284
 31
0.0
  0
LINE
  5
2099
330
A
100
AcDbEntity
  8
HEWI
  6
STANDARD
 62
     8
100
AcDbLine
 10
-88.97116071534242
 20
1124.805504051331
 30
0.0
 11
-89.09918195557679
 21
1124.744545189026
 31
0.0
  0
LINE
  5
209A
330
A
100
AcDbEntity
  8
HEWI
  6
STANDARD
 62
     8
100
AcDbLine
 10
-80.78916913819398
 20
1146.93051931012
 30
0.0
 11
-81.16716749024476
 21
1147.719551292541
 31
0.0
  0
LINE
  5
209B
330
A
100
AcDbEntity
  8
HEWI
  6
STANDARD
 62
     8
100
AcDbLine
 10
-88.87716657471742
 20
1124.851509300354
 30
0.0
 11
-88.97116071534242
 21
1124.805504051331
 31
0.0
  0
LINE
  5
209C
330
A
100
AcDbEntity
  8
HEWI
  6
STANDARD
 62
     8
100
AcDbLine
 10
-88.82116681885804
 20
1124.879509178284
 30
0.0
 11
-88.87716657471742
 21
1124.851509300354
 31
0.0
  0
LINE
  5
209D
330
A
100
AcDbEntity
  8
HEWI
  6
STANDARD
 62
     8
100
AcDbLine
 10
-111.0241926367291
 20
1131.477562156799
 30
0.0
 11
-111.2031782324322
 21
1131.816536155823
 31
0.0
  0
LINE
  5
209E
330
A
100
AcDbEntity
  8
HEWI
  6
STANDARD
 62
     8
100
AcDbLine
 10
-111.2031782324322
 20
1131.816536155823
 30
0.0
 11
-111.6331709082135
 21
1132.630516258362
 31
0.0
  0
LINE
  5
209F
330
A
100
AcDbEntity
  8
HEWI
  6
STANDARD
 62
     8
100
AcDbLine
 10
-87.82419568848695
 20
1125.24350759137
 30
0.0
 11
-88.79118329835023
 21
1124.726539817932
 31
0.0
  0
LINE
  5
20A0
330
A
100
AcDbEntity
  8
HEWI
  6
STANDARD
 62
     8
100
AcDbLine
 10
-103.8521803076275
 20
1155.208564964417
 30
0.0
 11
-104.8021925146588
 21
1154.699531761292
 31
0.0
  0
LINE
  5
20A1
330
A
100
AcDbEntity
  8
HEWI
  6
STANDARD
 62
     8
100
AcDbLine
 10
-81.16716749024476
 20
1147.719551292541
 30
0.0
 11
-81.58018476319398
 21
1148.477531639221
 31
0.0
  0
LINE
  5
20A2
330
A
100
AcDbEntity
  8
HEWI
  6
STANDARD
 62
     8
100
AcDbLine
 10
-87.80218488526429
 20
1125.255562034729
 30
0.0
 11
-87.82419568848695
 21
1125.24350759137
 31
0.0
  0
LINE
  5
20A3
330
A
100
AcDbEntity
  8
HEWI
  6
STANDARD
 62
     8
100
AcDbLine
 10
-104.8021925146588
 20
1154.699531761292
 30
0.0
 11
-105.5741728003033
 21
1154.226509300354
 31
0.0
  0
LINE
  5
20A4
330
A
100
AcDbEntity
  8
HEWI
  6
STANDARD
 62
     8
100
AcDbLine
 10
-81.58018476319398
 20
1148.477531639221
 30
0.0
 11
-82.1021879370221
 21
1149.324547020081
 31
0.0
  0
LINE
  5
20A5
330
A
100
AcDbEntity
  8
HEWI
  6
STANDARD
 62
     8
100
AcDbLine
 10
-86.8531644995221
 20
1125.845543113831
 30
0.0
 11
-87.80218488526429
 21
1125.255562034729
 31
0.0
  0
LINE
  5
20A6
330
A
100
AcDbEntity
  8
HEWI
  6
STANDARD
 62
     8
100
AcDbLine
 10
-110.4331815893658
 20
1130.527549949768
 30
0.0
 11
-111.0241926367291
 21
1131.477562156799
 31
0.0
  0
LINE
  5
20A7
330
A
100
AcDbEntity
  8
HEWI
  6
STANDARD
 62
     8
100
AcDbLine
 10
-85.47117597413148
 20
1127.069526878479
 30
0.0
 11
-87.87718183350648
 21
1125.384575096253
 31
0.0
  0
LINE
  5
20A8
330
A
100
AcDbEntity
  8
HEWI
  6
STANDARD
 62
     8
100
AcDbLine
 10
-104.7271955664166
 20
1154.570518699768
 30
0.0
 11
-107.133163278819
 21
1152.885566917542
 31
0.0
  0
LINE
  5
20A9
330
A
100
AcDbEntity
  8
HEWI
  6
STANDARD
 62
     8
100
AcDbLine
 10
-109.2101896460065
 20
1129.146553245667
 30
0.0
 11
-110.8951795752057
 21
1131.552559105042
 31
0.0
  0
LINE
  5
20AA
330
A
100
AcDbEntity
  8
HEWI
  6
STANDARD
 62
     8
100
AcDbLine
 10
-81.70915967774476
 20
1148.402534690979
 30
0.0
 11
-83.39418775391663
 21
1150.808540550354
 31
0.0
  0
LINE
  5
20AB
330
A
100
AcDbEntity
  8
HEWI
  6
STANDARD
 62
     8
100
AcDbLine
 10
-105.5741728003033
 20
1154.226509300354
 30
0.0
 11
-106.2981641943463
 21
1153.714500633362
 31
0.0
  0
LINE
  5
20AC
330
A
100
AcDbEntity
  8
HEWI
  6
STANDARD
 62
     8
100
AcDbLine
 10
-106.2981641943463
 20
1153.714500633362
 30
0.0
 11
-106.6511762793072
 21
1153.464561668518
 31
0.0
  0
LINE
  5
20AD
330
A
100
AcDbEntity
  8
HEWI
  6
STANDARD
 62
     8
100
AcDbLine
 10
-82.1021879370221
 20
1149.324547020081
 30
0.0
 11
-82.81519300294007
 21
1150.32651540387
 31
0.0
  0
LINE
  5
20AE
330
A
100
AcDbEntity
  8
HEWI
  6
STANDARD
 62
     8
100
AcDbLine
 10
-85.9531629736432
 20
1126.490532127503
 30
0.0
 11
-86.8531644995221
 21
1125.845543113831
 31
0.0
  0
LINE
  5
20AF
330
A
100
AcDbEntity
  8
HEWI
  6
STANDARD
 62
     8
100
AcDbLine
 10
-109.6721876318463
 20
1129.477516380432
 30
0.0
 11
-109.7841871435651
 21
1129.632545677307
 31
0.0
  0
LINE
  5
20B0
330
A
100
AcDbEntity
  8
HEWI
  6
STANDARD
 62
     8
100
AcDbLine
 10
-109.7841871435651
 20
1129.632545677307
 30
0.0
 11
-110.4331815893658
 21
1130.527549949768
 31
0.0
  0
LINE
  5
20B1
330
A
100
AcDbEntity
  8
HEWI
  6
STANDARD
 62
     8
100
AcDbLine
 10
-82.81519300294007
 20
1150.32651540387
 30
0.0
 11
-83.34017164063538
 21
1150.976539817932
 31
0.0
  0
LINE
  5
20B2
330
A
100
AcDbEntity
  8
HEWI
  6
STANDARD
 62
     8
100
AcDbLine
 10
-106.6511762793072
 20
1153.464561668518
 30
0.0
 11
-107.5091779882916
 21
1152.760521141174
 31
0.0
  0
LINE
  5
20B3
330
A
100
AcDbEntity
  8
HEWI
  6
STANDARD
 62
     8
100
AcDbLine
 10
-85.00116712403382
 20
1127.277504173401
 30
0.0
 11
-85.9531629736432
 21
1126.490532127503
 31
0.0
  0
LINE
  5
20B4
330
A
100
AcDbEntity
  8
HEWI
  6
STANDARD
 62
     8
100
AcDbLine
 10
-109.0201795752057
 20
1128.696495262268
 30
0.0
 11
-109.6721876318463
 21
1129.477516380432
 31
0.0
  0
LINE
  5
20B5
330
A
100
AcDbEntity
  8
HEWI
  6
STANDARD
 62
     8
100
AcDbLine
 10
-83.34017164063538
 20
1150.976539817932
 30
0.0
 11
-83.90718824219788
 21
1151.592537132385
 31
0.0
  0
LINE
  5
20B6
330
A
100
AcDbEntity
  8
HEWI
  6
STANDARD
 62
     8
100
AcDbLine
 10
-83.90718824219788
 20
1151.592537132385
 30
0.0
 11
-84.28118116211976
 21
1151.998497215393
 31
0.0
  0
LINE
  5
20B7
330
A
100
AcDbEntity
  8
HEWI
  6
STANDARD
 62
     8
100
AcDbLine
 10
-107.5091779882916
 20
1152.760521141174
 30
0.0
 11
-108.3231962378033
 21
1151.998497215393
 31
0.0
  0
LINE
  5
20B8
330
A
100
AcDbEntity
  8
HEWI
  6
STANDARD
 62
     8
100
AcDbLine
 10
-108.3231962378033
 20
1127.956520286682
 30
0.0
 11
-109.0201795752057
 21
1128.696495262268
 31
0.0
  0
LINE
  5
20B9
330
A
100
AcDbEntity
  8
HEWI
  6
STANDARD
 62
     8
100
AcDbLine
 10
-84.28118116211976
 20
1127.956520286682
 30
0.0
 11
-85.00116712403382
 21
1127.277504173401
 31
0.0
  0
LINE
  5
20BA
330
A
100
AcDbEntity
  8
HEWI
  6
STANDARD
 62
     8
100
AcDbLine
 10
-83.39418775391663
 20
1150.808540550354
 30
0.0
 11
-85.47117597413148
 21
1152.885566917542
 31
0.0
  0
LINE
  5
20BB
330
A
100
AcDbEntity
  8
HEWI
  6
STANDARD
 62
     8
100
AcDbLine
 10
-107.133163278819
 20
1152.885566917542
 30
0.0
 11
-109.2101896460065
 21
1150.808540550354
 31
0.0
  0
ARC
  5
20BC
330
A
100
AcDbEntity
  8
HEWI
  6
STANDARD
 62
     8
100
AcDbCircle
 10
-96.30367009733868
 20
1139.978042167441
 30
0.0
 40
16.74835576013925
100
AcDbArc
 50
128.8391027227421
 51
141.6989669710066
  0
ARC
  5
20BD
330
A
100
AcDbEntity
  8
HEWI
  6
STANDARD
 62
     8
100
AcDbCircle
 10
-96.30367003719676
 20
1139.975410193514
 30
0.0
 40
16.7472035540984
100
AcDbArc
 50
218.8394820248675
 51
231.7002356374963
  0
ARC
  5
20BE
330
A
100
AcDbEntity
  8
HEWI
  6
STANDARD
 62
     8
100
AcDbCircle
 10
-96.30478328662571
 20
1139.980565527962
 30
0.0
 40
16.7537323430268
100
AcDbArc
 50
308.8423618716913
 51
321.6981758880426
  0
ARC
  5
20BF
330
A
100
AcDbEntity
  8
HEWI
  6
STANDARD
 62
     8
100
AcDbCircle
 10
-96.30099318418707
 20
1139.979206583532
 30
0.0
 40
16.74775505391164
100
AcDbArc
 50
38.84005806711542
 51
51.70047969263403
  0
ARC
  5
20C0
330
A
100
AcDbEntity
  8
HEWI
  6
STANDARD
 62
     8
100
AcDbCircle
 10
-96.29790123970929
 20
1139.974217279475
 30
0.0
 40
16.55511324718378
100
AcDbArc
 50
118.5624245547825
 51
144.2712694641803
  0
ARC
  5
20C1
330
A
100
AcDbEntity
  8
HEWI
  6
STANDARD
 62
     8
100
AcDbCircle
 10
-96.28899548997038
 20
1139.964886317318
 30
0.0
 40
16.5327313401557
100
AcDbArc
 50
293.388258574009
 51
334.5775338003339
  0
ARC
  5
20C2
330
A
100
AcDbEntity
  8
HEWI
  6
STANDARD
 62
     8
100
AcDbCircle
 10
-96.32484415540716
 20
1139.998640646346
 30
0.0
 40
16.78067836527355
100
AcDbArc
 50
313.9897465336391
 51
326.8260829813186
  0
ARC
  5
20C3
330
A
100
AcDbEntity
  8
HEWI
  6
STANDARD
 62
     8
100
AcDbCircle
 10
-96.30315091615443
 20
1139.97920171353
 30
0.0
 40
16.74790568645557
100
AcDbArc
 50
95.41000326696027
 51
149.4162276393547
  0
ARC
  5
20C4
330
A
100
AcDbEntity
  8
HEWI
  6
STANDARD
 62
     8
100
AcDbCircle
 10
-96.28107587813907
 20
1140.000221426942
 30
0.0
 40
16.78067836527355
100
AcDbArc
 50
223.9897465336374
 51
236.826082981317
  0
ARC
  5
20C5
330
A
100
AcDbEntity
  8
HEWI
  6
STANDARD
 62
     8
100
AcDbCircle
 10
-96.30087066045689
 20
1139.978282715638
 30
0.0
 40
16.74831747578485
100
AcDbArc
 50
5.41058228521746
 51
59.41549455422689
  0
ARC
  5
20C6
330
A
100
AcDbEntity
  8
HEWI
  6
STANDARD
 62
     8
100
AcDbCircle
 10
-96.30180875777842
 20
1139.974959513501
 30
0.0
 40
16.5479210939018
100
AcDbArc
 50
231.6942531291765
 51
288.2733685225101
  0
ARC
  5
20C7
330
A
100
AcDbEntity
  8
HEWI
  6
STANDARD
 62
     8
100
AcDbCircle
 10
-96.30255979575736
 20
1139.980040938517
 30
0.0
 40
16.5480125044983
100
AcDbArc
 50
51.69437385399763
 51
108.2732962697675
  0
ARC
  5
20C8
330
A
100
AcDbEntity
  8
HEWI
  6
STANDARD
 62
     8
100
AcDbCircle
 10
-96.28733338781126
 20
1139.965463865883
 30
0.0
 40
16.73067838033655
100
AcDbArc
 50
316.5505017863351
 51
329.4225393473869
  0
ARC
  5
20C9
330
A
100
AcDbEntity
  8
HEWI
  6
STANDARD
 62
     8
100
AcDbCircle
 10
-96.31127330729283
 20
1139.966624310422
 30
0.0
 40
16.73559626354858
100
AcDbArc
 50
226.5524010512474
 51
239.4206400824719
  0
ARC
  5
20CA
330
A
100
AcDbEntity
  8
HEWI
  6
STANDARD
 62
     8
100
AcDbCircle
 10
-96.30292162058253
 20
1139.976968925312
 30
0.0
 40
16.75038872971103
100
AcDbArc
 50
54.26963311711586
 51
72.26748449738952
  0
ARC
  5
20CB
330
A
100
AcDbEntity
  8
HEWI
  6
STANDARD
 62
     8
100
AcDbCircle
 10
-96.30067891883914
 20
1139.976194680817
 30
0.0
 40
16.7514888677943
100
AcDbArc
 50
144.2699717619165
 51
162.2663953697892
  0
ARC
  5
20CC
330
A
100
AcDbEntity
  8
HEWI
  6
STANDARD
 62
     8
100
AcDbCircle
 10
-96.30122292775219
 20
1139.977382045196
 30
0.0
 40
16.74866887256897
100
AcDbArc
 50
324.269103620727
 51
342.2687590521783
  0
ARC
  5
20CD
330
A
100
AcDbEntity
  8
HEWI
  6
STANDARD
 62
     8
100
AcDbCircle
 10
-96.30032373360132
 20
1139.980654508123
 30
0.0
 40
16.75314297511627
100
AcDbArc
 50
234.2718006835263
 51
252.2664318209117
  0
ARC
  5
20CE
330
A
100
AcDbEntity
  8
HEWI
  6
STANDARD
 62
     8
100
AcDbCircle
 10
-96.2798702919963
 20
1139.970386794216
 30
0.0
 40
16.77319215142041
100
AcDbArc
 50
157.1358937577106
 51
172.5421295898481
  0
ARC
  5
20CF
330
A
100
AcDbEntity
  8
HEWI
  6
STANDARD
 62
     8
100
AcDbCircle
 10
-96.33425874067302
 20
1139.990739487535
 30
0.0
 40
16.78423924967695
100
AcDbArc
 50
326.8662443176865
 51
344.8262386189031
  0
ARC
  5
20D0
330
A
100
AcDbEntity
  8
HEWI
  6
STANDARD
 62
     8
100
AcDbCircle
 10
-96.28741913016916
 20
1140.013188201087
 30
0.0
 40
16.78806539818245
100
AcDbArc
 50
236.8684184086609
 51
254.824405898163
  0
ARC
  5
20D1
330
A
100
AcDbEntity
  8
HEWI
  6
STANDARD
 62
     8
100
AcDbCircle
 10
-96.29168875628943
 20
1139.976624894677
 30
0.0
 40
16.56015514451233
100
AcDbArc
 50
159.7089550965372
 51
195.6852274786769
  0
ARC
  5
20D2
330
A
100
AcDbEntity
  8
HEWI
  6
STANDARD
 62
     8
100
AcDbCircle
 10
-96.30260973140753
 20
1139.978022243328
 30
0.0
 40
16.55060933618395
100
AcDbArc
 50
339.6981034084721
 51
15.69611351278996
  0
ARC
  5
20D3
330
A
100
AcDbEntity
  8
HEWI
  6
STANDARD
 62
     8
100
AcDbCircle
 10
-96.28176675942814
 20
1140.088256710419
 30
0.0
 40
16.88802808166489
100
AcDbArc
 50
74.96965064707615
 51
86.2701597093185
  0
ARC
  5
20D4
330
A
100
AcDbEntity
  8
HEWI
  6
STANDARD
 62
     8
100
AcDbCircle
 10
-96.30722271623994
 20
1139.964157149467
 30
0.0
 40
16.76405160181976
100
AcDbArc
 50
74.83648524254364
 51
87.68536442897874
  0
ARC
  5
20D5
330
A
100
AcDbEntity
  8
HEWI
  6
STANDARD
 62
     8
100
AcDbCircle
 10
-96.30328317901604
 20
1139.95723773068
 30
0.0
 40
16.72991318027813
100
AcDbArc
 50
254.8266807260616
 51
270.2743781347067
  0
ARC
  5
20D6
330
A
100
AcDbEntity
  8
HEWI
  6
STANDARD
 62
     8
100
AcDbCircle
 10
-96.28392834338661
 20
1139.976522444391
 30
0.0
 40
16.73194228548113
100
AcDbArc
 50
344.8281135968247
 51
0.2739091226676551
  0
ARC
  5
20D7
330
A
100
AcDbEntity
  8
HEWI
  6
STANDARD
 62
     8
100
AcDbCircle
 10
-96.30026571671397
 20
1139.977691277263
 30
0.0
 40
16.75159628359536
100
AcDbArc
 50
164.8434932169253
 51
193.1259503963491
  0
ARC
  5
20D8
330
A
100
AcDbEntity
  8
HEWI
  6
STANDARD
 62
     8
100
AcDbCircle
 10
-96.29916527411047
 20
1140.027940484171
 30
0.0
 40
16.69976199198083
100
AcDbArc
 50
82.54418938965972
 51
95.43938264012433
  0
ARC
  5
20D9
330
A
100
AcDbEntity
  8
HEWI
  6
STANDARD
 62
     8
100
AcDbCircle
 10
-96.30056165354245
 20
1140.047996727885
 30
0.0
 40
16.81988409832352
100
AcDbArc
 50
260.0211578165797
 51
272.8263914973227
  0
ARC
  5
20DA
330
A
100
AcDbEntity
  8
HEWI
  6
STANDARD
 62
     8
100
AcDbCircle
 10
-96.37141740382118
 20
1139.979109440829
 30
0.0
 40
16.81868574853261
100
AcDbArc
 50
350.0207286289379
 51
2.826747998459312
  0
ARC
  5
20DB
330
A
100
AcDbEntity
  8
HEWI
  6
STANDARD
 62
     8
100
AcDbCircle
 10
-96.27631452934725
 20
1139.979747888058
 30
0.0
 40
16.72373262052676
100
AcDbArc
 50
357.6895603857417
 51
10.5667015684488
  0
ARC
  5
20DC
330
A
100
AcDbEntity
  8
HEWI
  6
STANDARD
 62
     8
100
AcDbCircle
 10
-96.29947460336802
 20
1139.944846811614
 30
0.0
 40
16.71691312986947
100
AcDbArc
 50
267.6869227189413
 51
280.5693392352536
  0
ARC
  5
20DD
330
A
100
AcDbEntity
  8
HEWI
  6
STANDARD
 62
     8
100
AcDbCircle
 10
-96.30243498141886
 20
1139.982794844021
 30
0.0
 40
16.74434537942889
100
AcDbArc
 50
85.12400082291042
 51
100.5602818291026
  0
ARC
  5
20DE
330
A
100
AcDbEntity
  8
HEWI
  6
STANDARD
 62
     8
100
AcDbCircle
 10
-96.30695146798485
 20
1140.0058761086
 30
0.0
 40
16.77837571484732
100
AcDbArc
 50
275.4199176548762
 51
290.8243689572894
  0
ARC
  5
20DF
330
A
100
AcDbEntity
  8
HEWI
  6
STANDARD
 62
     8
100
AcDbCircle
 10
-96.27660119477127
 20
1139.981553505844
 30
0.0
 40
16.77551968794559
100
AcDbArc
 50
185.4183143774132
 51
200.8252463093603
  0
ARC
  5
20E0
330
A
100
AcDbEntity
  8
HEWI
  6
STANDARD
 62
     8
100
AcDbCircle
 10
-96.30712526594312
 20
1139.976909461497
 30
0.0
 40
16.74545283972865
100
AcDbArc
 50
187.9857910586753
 51
218.8508919540537
  0
ARC
  5
20E1
330
A
100
AcDbEntity
  8
HEWI
  6
STANDARD
 62
     8
100
AcDbCircle
 10
-96.30150866742248
 20
1139.97124902635
 30
0.0
 40
16.74407727963663
100
AcDbArc
 50
277.9862382989407
 51
301.137757593944
  0
ARC
  5
20E2
330
A
100
AcDbEntity
  8
HEWI
  6
STANDARD
 62
     8
100
AcDbCircle
 10
-96.31138312283361
 20
1139.972034904227
 30
0.0
 40
16.53924145116509
100
AcDbArc
 50
200.834369004195
 51
226.5671634331484
  0
ARC
  5
20E3
330
A
100
AcDbEntity
  8
HEWI
  6
STANDARD
 62
     8
100
AcDbCircle
 10
-96.29451458420795
 20
1139.982019502006
 30
0.0
 40
16.54106768442307
100
AcDbArc
 50
20.83581389722481
 51
46.56571854012202
  0
ARC
  5
20E4
330
A
100
AcDbEntity
  8
HEWI
  6
STANDARD
 62
     8
100
AcDbCircle
 10
-96.30156471082409
 20
1139.976352278776
 30
0.0
 40
16.74847446895902
100
AcDbArc
 50
285.6972467999048
 51
313.9854060495338
  0
ARC
  5
20E5
330
A
100
AcDbEntity
  8
HEWI
  6
STANDARD
 62
     8
100
AcDbCircle
 10
-96.29389313026809
 20
1139.984224445713
 30
0.0
 40
16.76034663783926
100
AcDbArc
 50
211.1334668351916
 51
223.9808334214432
  0
DIMENSION
  5
20E6
330
A
100
AcDbEntity
  8
0
  6
Continuous
100
AcDbDimension
280
     0
  2
*D6
 10
-144.2656706030377
 20
1317.520249384031
 30
0.0
 11
-394.2656706030377
 21
1317.520249384031
 31
0.0
 70
    32
  1
486 - 586
 71
     5
 42
500.0
 73
     0
 74
     0
 75
     0
  3
STANDARD
100
AcDbAlignedDimension
 13
-644.2656706030377
 23
1191.335928234313
 33
0.0
 14
-144.2656706030377
 24
1191.335928234313
 34
0.0
100
AcDbRotatedDimension
1001
ACAD
1000
DSTYLE
1002
{
1070
   271
1070
     0
1070
    41
1040
15.0
1070
   147
1040
10.0
1070
   140
1040
20.0
1070
   289
1070
     3
1002
}
  0
DIMENSION
  5
20FE
330
A
100
AcDbEntity
  8
0
  6
Continuous
100
AcDbDimension
280
     0
  2
*D7
 10
-113.2584718168951
 20
1359.847068998097
 30
0.0
 11
-393.9455354901796
 21
1359.847068998097
 31
0.0
 70
    32
  1
548 - 648
 71
     5
 42
561.3741273465688
 73
     0
 74
     0
 75
     0
  3
STANDARD
100
AcDbAlignedDimension
 13
-674.6325991634639
 23
1192.399317336928
 33
0.0
 14
-113.2584718168951
 24
1193.907855804117
 34
0.0
100
AcDbRotatedDimension
1001
ACAD
1000
DSTYLE
1002
{
1070
    41
1040
15.0
1070
   140
1040
20.0
1070
   147
1040
10.0
1070
   271
1070
     0
1070
   289
1070
     3
1002
}
  0
ENDSEC
  0
SECTION
  2
OBJECTS
  0
DICTIONARY
  5
19
330
0
100
AcDbDictionary
281
     1
  3
ACAD_CIP_PREVIOUS_PRODUCT_INFO
350
6B7
  3
ACAD_COLOR
350
696
  3
ACAD_DETAILVIEWSTYLE
350
6AF
  3
ACAD_GROUP
350
1A
  3
ACAD_LAYOUT
350
6B1
  3
ACAD_MATERIAL
350
664
  3
ACAD_MLEADERSTYLE
350
6AB
  3
ACAD_MLINESTYLE
350
1B
  3
ACAD_PLOTSETTINGS
350
6B2
  3
ACAD_PLOTSTYLENAME
350
662
  3
ACAD_SCALELIST
350
699
  3
ACAD_SECTIONVIEWSTYLE
350
6AD
  3
ACAD_TABLESTYLE
350
697
  3
ACAD_VISUALSTYLE
350
67D
  3
ACDB_RECOMPOSE_DATA
350
2135
  3
AcDbVariableDictionary
350
9A8
  3
AcDsDecomposeData
350
213B
  0
DICTIONARY
  5
6CF
330
2
100
AcDbDictionary
280
     1
281
     1
  3
ACAD_LAYERSTATES
360
6D0
  0
DICTIONARY
  5
6B8
330
14
100
AcDbDictionary
280
     1
281
     1
  3
ADSK_XREC_LAYER_RECONCILED
360
6B9
  0
DICTIONARY
  5
6BA
330
1D
100
AcDbDictionary
280
     1
281
     1
  3
ADSK_XREC_LAYER_RECONCILED
360
6BB
  0
DICTIONARY
  5
1C0D
330
A
100
AcDbDictionary
280
     1
281
     1
  3
ACAD_SORTENTS
360
1C0E
  0
XRECORD
  5
6B7
102
{ACAD_REACTORS
330
19
102
}
330
19
100
AcDbXrecord
280
     1
300
ACDLT
300
2016
300
ACDLT_F_S
  0
DICTIONARY
  5
696
102
{ACAD_REACTORS
330
19
102
}
330
19
100
AcDbDictionary
281
     1
  0
DICTIONARY
  5
6AF
102
{ACAD_REACTORS
330
19
102
}
330
19
100
AcDbDictionary
281
     1
  3
Imperial24
350
6B0
  3
Metric50
350
6D2
  0
DICTIONARY
  5
1A
102
{ACAD_REACTORS
330
19
102
}
330
19
100
AcDbDictionary
281
     1
  0
DICTIONARY
  5
6B1
102
{ACAD_REACTORS
330
19
102
}
330
19
100
AcDbDictionary
281
     1
  3
Layout1
350
6B4
  3
Model
350
6B3
  0
DICTIONARY
  5
664
102
{ACAD_REACTORS
330
19
102
}
330
19
100
AcDbDictionary
281
     1
  3
ByBlock
350
66D
  3
ByLayer
350
665
  3
Global
350
675
  0
DICTIONARY
  5
6AB
102
{ACAD_REACTORS
330
19
102
}
330
19
100
AcDbDictionary
281
     1
  3
Standard
350
6AC
  0
DICTIONARY
  5
1B
102
{ACAD_REACTORS
330
19
102
}
330
19
100
AcDbDictionary
281
     1
  3
STANDARD
350
1C
  0
DICTIONARY
  5
6B2
102
{ACAD_REACTORS
330
19
102
}
330
19
100
AcDbDictionary
281
     1
  0
ACDBDICTIONARYWDFLT
  5
662
102
{ACAD_REACTORS
330
19
102
}
330
19
100
AcDbDictionary
281
     1
  3
Normal
350
663
100
AcDbDictionaryWithDefault
340
663
  0
DICTIONARY
  5
699
102
{ACAD_REACTORS
330
19
102
}
330
19
100
AcDbDictionary
281
     1
  3
A0
350
69A
  3
A1
350
69B
  3
A2
350
69C
  3
A3
350
69D
  3
A4
350
69E
  3
A5
350
69F
  3
A6
350
6A0
  3
A7
350
6A1
  3
A8
350
6A2
  3
A9
350
6A3
  3
B0
350
6A4
  3
B1
350
6A5
  3
B2
350
6A6
  3
B3
350
6A7
  3
B4
350
6A8
  3
B5
350
6A9
  3
B6
350
6AA
  0
DICTIONARY
  5
6AD
102
{ACAD_REACTORS
330
19
102
}
330
19
100
AcDbDictionary
281
     1
  3
Imperial24
350
6AE
  3
Metric50
350
6D1
  0
DICTIONARY
  5
697
102
{ACAD_REACTORS
330
19
102
}
330
19
100
AcDbDictionary
281
     1
  3
Standard
350
698
  0
DICTIONARY
  5
67D
102
{ACAD_REACTORS
330
19
102
}
330
19
100
AcDbDictionary
281
     1
  3
2dWireframe
350
683
  3
Basic
350
682
  3
Brighten
350
689
  3
ColorChange
350
68D
  3
Conceptual
350
686
  3
Dim
350
688
  3
EdgeColorOff
350
695
  3
Facepattern
350
68C
  3
Flat
350
67E
  3
FlatWithEdges
350
67F
  3
Gouraud
350
680
  3
GouraudWithEdges
350
681
  3
Hidden
350
685
  3
JitterOff
350
693
  3
Linepattern
350
68B
  3
OverhangOff
350
694
  3
Realistic
350
687
  3
Shaded
350
692
  3
Shaded with edges
350
691
  3
Shades of Gray
350
68E
  3
Sketchy
350
68F
  3
Thicken
350
68A
  3
Wireframe
350
684
  3
X-Ray
350
690
  0
XRECORD
  5
2135
102
{ACAD_REACTORS
330
19
102
}
330
19
100
AcDbXrecord
280
     1
 90
        1
330
698
330
928
330
20E6
  0
DICTIONARY
  5
9A8
102
{ACAD_REACTORS
330
19
102
}
330
19
100
AcDbDictionary
281
     1
  3
CANNOSCALE
350
9AE
  3
CMLEADERSTYLE
350
9AA
  3
CTABLESTYLE
350
9A9
  3
CVIEWDETAILSTYLE
350
9AB
  3
CVIEWSECTIONSTYLE
350
9AC
  3
LAYEREVAL
350
9B0
  3
LAYERNOTIFY
350
9B1
  3
LIGHTINGUNITS
350
9AF
  3
MSLTSCALE
350
9AD
  0
DICTIONARY
  5
213B
102
{ACAD_REACTORS
330
19
102
}
330
19
100
AcDbDictionary
281
     1
  3
AcDsRecords
350
213D
  3
AcDsSchemas
350
213C
1001
ACAD
1070
     2
  0
DICTIONARY
  5
6D0
102
{ACAD_REACTORS
330
6CF
102
}
330
6CF
100
AcDbDictionary
281
     1
  0
XRECORD
  5
6B9
102
{ACAD_REACTORS
330
6B8
102
}
330
6B8
100
AcDbXrecord
280
     1
290
     1
  0
XRECORD
  5
6BB
102
{ACAD_REACTORS
330
6BA
102
}
330
6BA
100
AcDbXrecord
280
     1
290
     1
  0
SORTENTSTABLE
  5
1C0E
102
{ACAD_REACTORS
330
1C0D
102
}
330
1C0D
100
AcDbSortentsTable
330
A
331
5EE
  5
5F1
331
983
  5
985
331
83A
  5
83C
331
905
  5
907
331
521
  5
525
331
148
  5
148
331
4B6
  5
4B6
331
1BF1
  5
1BF3
331
5E0
  5
5ED
331
4C3
  5
4C3
331
636
  5
640
331
610
  5
61A
331
832
  5
834
331
64B
  5
64E
331
83F
  5
8E4
331
4A0
  5
4A0
331
22
  5
22
331
14D
  5
14D
331
658
  5
65B
331
62E
  5
630
331
533
  5
53E
331
4AD
  5
4AD
331
643
  5
647
331
909
  5
90D
331
837
  5
839
331
540
  5
54D
331
650
  5
659
331
5DD
  5
5E0
331
8E4
  5
8E6
331
54D
  5
568
331
48A
  5
48A
331
294
  5
294
331
27
  5
27
331
4A5
  5
4A5
331
65D
  5
82F
331
901
  5
903
331
4EF
  5
4EF
331
15F
  5
15F
331
1BED
  5
1BEF
331
5F7
  5
601
331
52A
  5
52B
331
632
  5
634
331
60C
  5
610
331
82E
  5
830
331
4F2
  5
4F2
331
562
  5
586
331
5D4
  5
5D6
331
984
  5
986
331
83B
  5
83D
331
906
  5
908
331
49C
  5
49C
331
1BF2
  5
1BF4
331
5E1
  5
5EE
331
604
  5
607
331
52F
  5
533
331
4A9
  5
4A9
331
487
  5
487
331
4C4
  5
4C4
331
5A9
  5
5BD
331
637
  5
643
331
611
  5
61F
331
5CC
  5
5D1
331
833
  5
835
331
4F7
  5
4F8
331
4D1
  5
4D1
331
1C0C
  5
4F4
331
64C
  5
650
331
5D9
  5
5DD
331
50C
  5
50D
331
4A1
  5
4A1
331
527
  5
528
331
14E
  5
14E
331
659
  5
65C
331
5A1
  5
5BC
331
62F
  5
631
331
8FD
  5
8FF
331
4AE
  5
4AE
331
15B
  5
15B
331
988
  5
124D
331
90A
  5
913
331
4FC
  5
4FE
331
608
  5
60A
331
8E5
  5
8FD
331
48B
  5
48B
331
4C8
  5
4C8
331
5D0
  5
5D4
331
980
  5
982
331
902
  5
904
331
51E
  5
520
331
35
  5
35
331
4B3
  5
4B3
331
1BEE
  5
1BF0
331
600
  5
604
331
52B
  5
52C
331
633
  5
635
331
60D
  5
611
331
82F
  5
831
331
538
  5
540
331
4F3
  5
4F3
331
648
  5
64A
331
61A
  5
627
331
5D5
  5
5D7
331
985
  5
987
331
83C
  5
83E
331
907
  5
909
331
49D
  5
49D
331
4DA
  5
4DA
331
1BF3
  5
1BF5
331
605
  5
608
331
58D
  5
5A1
331
530
  5
538
331
4AA
  5
4AA
331
157
  5
157
331
4C5
  5
4C5
331
640
  5
646
331
834
  5
836
331
4F8
  5
4FC
331
495
  5
495
331
4D2
  5
4D2
331
61F
  5
628
331
50D
  5
512
331
14F
  5
14F
331
8FE
  5
900
331
4AF
  5
4AF
331
15C
  5
15C
331
1BEA
  5
1BEC
331
5F4
  5
600
331
989
  5
124E
331
609
  5
60B
331
5C4
  5
5D0
331
5DF
  5
5E1
331
8E6
  5
8FE
331
4C9
  5
4C9
331
512
  5
513
331
29
  5
29
331
296
  5
296
331
5D1
  5
5D5
331
838
  5
83A
331
981
  5
983
331
903
  5
905
331
36
  5
36
331
1BEF
  5
1BF1
331
627
  5
62E
331
601
  5
605
331
5BC
  5
5C4
331
928
  5
981
331
52C
  5
530
331
153
  5
153
331
634
  5
636
331
830
  5
832
331
4F4
  5
4F5
331
160
  5
160
331
649
  5
64B
331
5D6
  5
5D9
331
83D
  5
83F
331
986
  5
988
331
509
  5
50C
331
49E
  5
49E
331
4DB
  5
4DB
331
1BF4
  5
1BFD
331
596
  5
5A9
331
4E8
  5
4E8
331
4AB
  5
4AB
331
158
  5
158
331
4C6
  5
4C6
331
5F0
  5
5F4
331
835
  5
837
331
53E
  5
54C
331
496
  5
496
331
64E
  5
658
331
5DB
  5
5DF
331
488
  5
488
331
25
  5
25
331
586
  5
596
331
4A3
  5
4A3
331
4E0
  5
4E0
331
65B
  5
65D
331
8FF
  5
901
331
568
  5
58D
331
1BEB
  5
1BED
331
646
  5
648
331
528
  5
52A
331
4FE
  5
509
331
4BD
  5
4BD
331
630
  5
632
331
60A
  5
60C
331
4CA
  5
4CA
331
513
  5
51E
331
839
  5
83B
331
5ED
  5
5F0
331
982
  5
984
331
904
  5
906
331
520
  5
521
331
1BF0
  5
1BF2
331
628
  5
62F
331
5BD
  5
5CC
331
154
  5
154
331
1BFD
  5
1C0F
331
635
  5
637
331
831
  5
833
331
4F5
  5
4F7
331
492
  5
492
331
64A
  5
64C
331
5D7
  5
5DB
331
83E
  5
8E3
331
987
  5
989
331
49F
  5
49F
331
525
  5
527
331
21
  5
21
331
14C
  5
14C
331
1BF5
  5
1C0C
331
607
  5
609
331
4AC
  5
4AC
331
4E9
  5
4E9
331
4C7
  5
4C7
331
5F1
  5
5F7
331
908
  5
90A
331
836
  5
838
331
497
  5
497
331
1C0F
  5
52F
331
8E3
  5
8E5
331
54C
  5
562
331
489
  5
489
331
26
  5
26
331
65C
  5
82E
331
900
  5
902
331
4EE
  5
4EE
331
4B1
  5
4B1
331
1BEC
  5
1BEE
331
647
  5
649
331
631
  5
633
331
60B
  5
60D
331
4F1
  5
4F1
331
48E
  5
48E
331
4CB
  5
4CB
  0
ACDBDETAILVIEWSTYLE
  5
6B0
102
{ACAD_XDICTIONARY
360
1D2A
102
}
102
{ACAD_REACTORS
330
6AF
102
}
330
6AF
100
AcDbModelDocViewStyle
 70
     0
  3
Imperial24
290
     0
100
AcDbDetailViewStyle
 70
     0
 71
     0
 90
        3
 71
     1
340
17
 62
   256
 40
0.24
340
0
 62
   256
 40
0.24
300

 40
0.36
280
     3
 71
     2
340
13
 90
       25
 62
   256
 71
     3
340
17
 62
   256
 40
0.24
 90
        1
 40
0.75
 90
        1
300
%<\AcVar ViewType \f "%tc1">% %<\AcVar ViewDetailId>%\PVARIA %<\AcVar ViewScale \f "%sn">%
 71
     4
340
13
 90
       25
 62
   256
340
13
 90
       25
 62
   256
280
     0
  0
ACDBDETAILVIEWSTYLE
  5
6D2
102
{ACAD_XDICTIONARY
360
1D2E
102
}
102
{ACAD_REACTORS
330
6AF
102
}
330
6AF
100
AcDbModelDocViewStyle
 70
     0
  3
Metric50
290
     0
100
AcDbDetailViewStyle
 70
     0
 71
     0
 90
        3
 71
     1
340
17
 62
   256
 40
5.0
340
0
 62
   256
 40
5.0
300

 40
0.0
280
     1
 71
     2
340
13
 90
       25
 62
   256
 71
     3
340
17
 62
   256
 40
5.0
 90
        0
 40
15.0
 90
        1
300
%<\AcVar ViewDetailId>% (%<\AcVar ViewScale \f "%sn">%)
 71
     4
340
13
 90
       25
 62
   256
340
13
 90
       25
 62
   256
280
     0
  0
LAYOUT
  5
6B4
102
{ACAD_REACTORS
330
6B1
102
}
330
6B1
100
AcDbPlotSettings
  1

  2
\\srvadruck01\MFSA15
  4

  6

 40
0.0
 41
0.0
 42
0.0
 43
0.0
 44
0.0
 45
0.0
 46
0.0
 47
0.0
 48
0.0
 49
0.0
140
0.0
141
0.0
142
1.0
143
1.0
 70
   688
 72
     0
 73
     0
 74
     5
  7

 75
    16
147
1.0
 76
     0
 77
     2
 78
   300
148
0.0
149
0.0
100
AcDbLayout
  1
Layout1
 70
     0
 71
     1
 10
0.0
 20
0.0
 11
12.0
 21
9.0
 12
0.0
 22
0.0
 32
0.0
 14
1.000000000000000E+20
 24
1.000000000000000E+20
 34
1.000000000000000E+20
 15
-1.000000000000000E+20
 25
-1.000000000000000E+20
 35
-1.000000000000000E+20
146
0.0
 13
0.0
 23
0.0
 33
0.0
 16
1.0
 26
0.0
 36
0.0
 17
0.0
 27
1.0
 37
0.0
 76
     0
330
B
  0
LAYOUT
  5
6B3
102
{ACAD_REACTORS
330
6B1
102
}
330
6B1
100
AcDbPlotSettings
  1

  2
\\srvadruck01\MFSA15
  4

  6

 40
0.0
 41
0.0
 42
0.0
 43
0.0
 44
0.0
 45
0.0
 46
0.0
 47
0.0
 48
0.0
 49
0.0
140
0.0
141
0.0
142
1.0
143
1.0
 70
  1712
 72
     0
 73
     0
 74
     0
  7

 75
     0
147
1.0
 76
     0
 77
     2
 78
   300
148
0.0
149
0.0
100
AcDbLayout
  1
Model
 70
     1
 71
     0
 10
0.0
 20
0.0
 11
12.0
 21
9.0
 12
0.0
 22
0.0
 32
0.0
 14
0.0
 24
0.0
 34
0.0
 15
0.0
 25
0.0
 35
0.0
146
0.0
 13
0.0
 23
0.0
 33
0.0
 16
1.0
 26
0.0
 36
0.0
 17
0.0
 27
1.0
 37
0.0
 76
     0
330
A
331
15
  0
MATERIAL
  5
66D
102
{ACAD_XDICTIONARY
360
66E
102
}
102
{ACAD_REACTORS
330
664
102
}
330
664
100
AcDbMaterial
  1
ByBlock
 72
     0
 43
0.0208333333333333
 43
0.0
 43
0.0
 43
0.0
 43
0.0
 43
0.0208333333333333
 43
0.0
 43
0.0
 43
0.0
 43
0.0
 43
1.0
 43
0.0
 43
0.0
 43
0.0
 43
0.0
 43
1.0
 77
     0
 47
0.0208333333333333
 47
0.0
 47
0.0
 47
0.0
 47
0.0
 47
0.0208333333333333
 47
0.0
 47
0.0
 47
0.0
 47
0.0
 47
1.0
 47
0.0
 47
0.0
 47
0.0
 47
0.0
 47
1.0
171
     0
 49
0.0208333333333333
 49
0.0
 49
0.0
 49
0.0
 49
0.0
 49
0.0208333333333333
 49
0.0
 49
0.0
 49
0.0
 49
0.0
 49
1.0
 49
0.0
 49
0.0
 49
0.0
 49
0.0
 49
1.0
175
     0
142
0.0208333333333333
142
0.0
142
0.0
142
0.0
142
0.0
142
0.0208333333333333
142
0.0
142
0.0
142
0.0
142
0.0
142
1.0
142
0.0
142
0.0
142
0.0
142
0.0
142
1.0
179
     0
144
0.0208333333333333
144
0.0
144
0.0
144
0.0
144
0.0
144
0.0208333333333333
144
0.0
144
0.0
144
0.0
144
0.0
144
1.0
144
0.0
144
0.0
144
0.0
144
0.0
144
1.0
147
0.0208333333333333
147
0.0
147
0.0
147
0.0
147
0.0
147
0.0208333333333333
147
0.0
147
0.0
147
0.0
147
0.0
147
1.0
147
0.0
147
0.0
147
0.0
147
0.0
147
1.0
  0
MATERIAL
  5
665
102
{ACAD_XDICTIONARY
360
666
102
}
102
{ACAD_REACTORS
330
664
102
}
330
664
100
AcDbMaterial
  1
ByLayer
 72
     0
 43
0.0208333333333333
 43
0.0
 43
0.0
 43
0.0
 43
0.0
 43
0.0208333333333333
 43
0.0
 43
0.0
 43
0.0
 43
0.0
 43
1.0
 43
0.0
 43
0.0
 43
0.0
 43
0.0
 43
1.0
 77
     0
 47
0.0208333333333333
 47
0.0
 47
0.0
 47
0.0
 47
0.0
 47
0.0208333333333333
 47
0.0
 47
0.0
 47
0.0
 47
0.0
 47
1.0
 47
0.0
 47
0.0
 47
0.0
 47
0.0
 47
1.0
171
     0
 49
0.0208333333333333
 49
0.0
 49
0.0
 49
0.0
 49
0.0
 49
0.0208333333333333
 49
0.0
 49
0.0
 49
0.0
 49
0.0
 49
1.0
 49
0.0
 49
0.0
 49
0.0
 49
0.0
 49
1.0
175
     0
142
0.0208333333333333
142
0.0
142
0.0
142
0.0
142
0.0
142
0.0208333333333333
142
0.0
142
0.0
142
0.0
142
0.0
142
1.0
142
0.0
142
0.0
142
0.0
142
0.0
142
1.0
179
     0
144
0.0208333333333333
144
0.0
144
0.0
144
0.0
144
0.0
144
0.0208333333333333
144
0.0
144
0.0
144
0.0
144
0.0
144
1.0
144
0.0
144
0.0
144
0.0
144
0.0
144
1.0
147
0.0208333333333333
147
0.0
147
0.0
147
0.0
147
0.0
147
0.0208333333333333
147
0.0
147
0.0
147
0.0
147
0.0
147
1.0
147
0.0
147
0.0
147
0.0
147
0.0
147
1.0
  0
MATERIAL
  5
675
102
{ACAD_XDICTIONARY
360
676
102
}
102
{ACAD_REACTORS
330
664
102
}
330
664
100
AcDbMaterial
  1
Global
 72
     0
 43
0.0208333333333333
 43
0.0
 43
0.0
 43
0.0
 43
0.0
 43
0.0208333333333333
 43
0.0
 43
0.0
 43
0.0
 43
0.0
 43
1.0
 43
0.0
 43
0.0
 43
0.0
 43
0.0
 43
1.0
 77
     0
 47
0.0208333333333333
 47
0.0
 47
0.0
 47
0.0
 47
0.0
 47
0.0208333333333333
 47
0.0
 47
0.0
 47
0.0
 47
0.0
 47
1.0
 47
0.0
 47
0.0
 47
0.0
 47
0.0
 47
1.0
171
     0
 49
0.0208333333333333
 49
0.0
 49
0.0
 49
0.0
 49
0.0
 49
0.0208333333333333
 49
0.0
 49
0.0
 49
0.0
 49
0.0
 49
1.0
 49
0.0
 49
0.0
 49
0.0
 49
0.0
 49
1.0
175
     0
142
0.0208333333333333
142
0.0
142
0.0
142
0.0
142
0.0
142
0.0208333333333333
142
0.0
142
0.0
142
0.0
142
0.0
142
1.0
142
0.0
142
0.0
142
0.0
142
0.0
142
1.0
179
     0
144
0.0208333333333333
144
0.0
144
0.0
144
0.0
144
0.0
144
0.0208333333333333
144
0.0
144
0.0
144
0.0
144
0.0
144
1.0
144
0.0
144
0.0
144
0.0
144
0.0
144
1.0
147
0.0208333333333333
147
0.0
147
0.0
147
0.0
147
0.0
147
0.0208333333333333
147
0.0
147
0.0
147
0.0
147
0.0
147
1.0
147
0.0
147
0.0
147
0.0
147
0.0
147
1.0
  0
MLEADERSTYLE
  5
6AC
102
{ACAD_XDICTIONARY
360
216E
102
}
102
{ACAD_REACTORS
330
6AB
102
}
330
6AB
100
AcDbMLeaderStyle
179
     2
170
     2
171
     1
172
     0
 90
        2
 40
0.0
 41
0.0
173
     1
 91
-1056964608
340
11
 92
       -2
290
     1
 42
0.09
291
     1
 43
0.36
  3
Standard
 44
0.18
300

342
17
174
     1
178
     6
175
     1
176
     0
 93
-1056964608
 45
0.18
292
     0
297
     0
 46
0.18
 94
-1056964608
 47
1.0
 49
1.0
140
1.0
293
     1
141
0.0
294
     1
177
     0
142
1.0
295
     0
296
     0
143
0.125
271
     0
272
     9
273
     9
  0
MLINESTYLE
  5
1C
102
{ACAD_REACTORS
330
1B
102
}
330
1B
100
AcDbMlineStyle
  2
STANDARD
 70
     0
  3

 62
     0
 51
90.0
 52
90.0
 71
     2
 49
0.5
 62
   256
  6
BYLAYER
 49
-0.5
 62
   256
  6
BYLAYER
  0
ACDBPLACEHOLDER
  5
663
102
{ACAD_REACTORS
330
662
102
}
330
662
  0
SCALE
  5
69A
102
{ACAD_REACTORS
330
699
102
}
330
699
100
AcDbScale
 70
     0
300
1:1
140
1.0
141
1.0
290
     1
  0
SCALE
  5
69B
102
{ACAD_REACTORS
330
699
102
}
330
699
100
AcDbScale
 70
     0
300
1/128" = 1'-0"
140
0.0078125
141
12.0
290
     0
  0
SCALE
  5
69C
102
{ACAD_REACTORS
330
699
102
}
330
699
100
AcDbScale
 70
     0
300
1/64" = 1'-0"
140
0.015625
141
12.0
290
     0
  0
SCALE
  5
69D
102
{ACAD_REACTORS
330
699
102
}
330
699
100
AcDbScale
 70
     0
300
1/32" = 1'-0"
140
0.03125
141
12.0
290
     0
  0
SCALE
  5
69E
102
{ACAD_REACTORS
330
699
102
}
330
699
100
AcDbScale
 70
     0
300
1/16" = 1'-0"
140
0.0625
141
12.0
290
     0
  0
SCALE
  5
69F
102
{ACAD_REACTORS
330
699
102
}
330
699
100
AcDbScale
 70
     0
300
3/32" = 1'-0"
140
0.09375
141
12.0
290
     0
  0
SCALE
  5
6A0
102
{ACAD_REACTORS
330
699
102
}
330
699
100
AcDbScale
 70
     0
300
1/8" = 1'-0"
140
0.125
141
12.0
290
     0
  0
SCALE
  5
6A1
102
{ACAD_REACTORS
330
699
102
}
330
699
100
AcDbScale
 70
     0
300
3/16" = 1'-0"
140
0.1875
141
12.0
290
     0
  0
SCALE
  5
6A2
102
{ACAD_REACTORS
330
699
102
}
330
699
100
AcDbScale
 70
     0
300
1/4" = 1'-0"
140
0.25
141
12.0
290
     0
  0
SCALE
  5
6A3
102
{ACAD_REACTORS
330
699
102
}
330
699
100
AcDbScale
 70
     0
300
3/8" = 1'-0"
140
0.375
141
12.0
290
     0
  0
SCALE
  5
6A4
102
{ACAD_REACTORS
330
699
102
}
330
699
100
AcDbScale
 70
     0
300
1/2" = 1'-0"
140
0.5
141
12.0
290
     0
  0
SCALE
  5
6A5
102
{ACAD_REACTORS
330
699
102
}
330
699
100
AcDbScale
 70
     0
300
3/4" = 1'-0"
140
0.75
141
12.0
290
     0
  0
SCALE
  5
6A6
102
{ACAD_REACTORS
330
699
102
}
330
699
100
AcDbScale
 70
     0
300
1" = 1'-0"
140
1.0
141
12.0
290
     0
  0
SCALE
  5
6A7
102
{ACAD_REACTORS
330
699
102
}
330
699
100
AcDbScale
 70
     0
300
1-1/2" = 1'-0"
140
1.5
141
12.0
290
     0
  0
SCALE
  5
6A8
102
{ACAD_REACTORS
330
699
102
}
330
699
100
AcDbScale
 70
     0
300
3" = 1'-0"
140
3.0
141
12.0
290
     0
  0
SCALE
  5
6A9
102
{ACAD_REACTORS
330
699
102
}
330
699
100
AcDbScale
 70
     0
300
6" = 1'-0"
140
6.0
141
12.0
290
     0
  0
SCALE
  5
6AA
102
{ACAD_REACTORS
330
699
102
}
330
699
100
AcDbScale
 70
     0
300
1'-0" = 1'-0"
140
12.0
141
12.0
290
     0
  0
ACDBSECTIONVIEWSTYLE
  5
6AE
102
{ACAD_XDICTIONARY
360
1D28
102
}
102
{ACAD_REACTORS
330
6AD
102
}
330
6AD
100
AcDbModelDocViewStyle
 70
     0
  3
Imperial24
290
     0
100
AcDbSectionViewStyle
 70
     0
 71
     0
 90
       78
 71
     1
340
17
 62
   256
 40
0.24
340
0
340
0
 62
   256
 40
0.24
300
I, O, Q, S, X, Z
 40
0.48
 90
        3
 40
0.18
 90
        1
 71
     2
340
13
 90
       25
 62
   256
340
13
 90
       50
 62
   256
 40
0.24
 40
0.0
 40
0.24
 71
     3
340
17
 62
   256
 40
0.24
 90
        1
 40
0.75
 90
        1
300
%<\AcVar ViewType \f "%tc1">% %<\AcVar ViewSectionStartId>%-%<\AcVar ViewSectionEndId>%\PVARIA %<\AcVar ViewScale \f "%sn">%
 71
     4
 62
   256
 62
   257
300
ANSI31
 40
1.0
 90
        0
290
     0
290
     0
 90
        6
 40
0.0
 40
1.570796326794896
 40
0.2617993877991494
 40
1.308996938995747
 40
-0.2617993877991494
 40
1.832595714594045
  0
ACDBSECTIONVIEWSTYLE
  5
6D1
102
{ACAD_XDICTIONARY
360
1D2C
102
}
102
{ACAD_REACTORS
330
6AD
102
}
330
6AD
100
AcDbModelDocViewStyle
 70
     0
  3
Metric50
290
     0
100
AcDbSectionViewStyle
 70
     0
 71
     0
 90
      102
 71
     1
340
17
 62
   256
 40
5.0
340
0
340
0
 62
   256
 40
5.0
300
I, O, Q, S, X, Z
 40
10.0
 90
        0
 40
2.5
 90
        0
 71
     2
340
13
 90
       25
 62
   256
340
13
 90
       50
 62
   256
 40
5.0
 40
2.5
 40
5.0
 71
     3
340
17
 62
   256
 40
5.0
 90
        0
 40
15.0
 90
        1
300
%<\AcVar ViewSectionStartId>%-%<\AcVar ViewSectionEndId>% (%<\AcVar ViewScale \f "%sn">%)
 71
     4
 62
   256
 62
   257
300
ANSI31
 40
1.0
 90
        0
290
     0
290
     0
 90
        6
 40
0.0
 40
1.570796326794896
 40
0.2617993877991494
 40
1.308996938995747
 40
-0.2617993877991494
 40
1.832595714594045
  0
TABLESTYLE
  5
698
102
{ACAD_XDICTIONARY
360
9FF
102
}
102
{ACAD_REACTORS
330
697
102
}
330
697
100
AcDbTableStyle
280
     0
  3
Standard
 70
     0
 71
     0
 40
0.06
 41
0.06
280
     0
281
     0
  7
STANDARD
140
0.18
170
     2
 62
     0
 63
     7
283
     0
 90
      512
 91
        0
  1

274
    -2
284
     1
 64
     0
275
    -2
285
     1
 65
     0
276
    -2
286
     1
 66
     0
277
    -2
287
     1
 67
     0
278
    -2
288
     1
 68
     0
279
    -2
289
     1
 69
     0
  7
STANDARD
140
0.25
170
     5
 62
     0
 63
     7
283
     0
 90
      512
 91
        0
  1

274
    -2
284
     1
 64
     0
275
    -2
285
     1
 65
     0
276
    -2
286
     1
 66
     0
277
    -2
287
     1
 67
     0
278
    -2
288
     1
 68
     0
279
    -2
289
     1
 69
     0
  7
STANDARD
140
0.18
170
     5
 62
     0
 63
     7
283
     0
 90
      512
 91
        0
  1

274
    -2
284
     1
 64
     0
275
    -2
285
     1
 65
     0
276
    -2
286
     1
 66
     0
277
    -2
287
     1
 67
     0
278
    -2
288
     1
 68
     0
279
    -2
289
     1
 69
     0
  0
VISUALSTYLE
  5
683
102
{ACAD_XDICTIONARY
360
2148
102
}
102
{ACAD_REACTORS
330
67D
102
}
330
67D
100
AcDbVisualStyle
  2
2dWireframe
 70
     4
177
     2
291
     0
 71
     0
176
     1
 72
     2
176
     1
 73
     0
176
     1
 90
        0
176
     1
 40
0.6
176
     1
 41
30.0
176
     1
 63
     7
421
 16777215
176
     1
 74
     1
176
     1
 91
        4
176
     1
 64
     7
176
     1
 65
   257
176
     1
 75
     1
176
     1
175
     1
176
     1
 42
1.0
176
     1
 92
        0
176
     1
 66
   257
176
     1
 43
1.0
176
     1
 76
     1
176
     1
 77
     6
176
     1
 78
     2
176
     1
 67
     7
176
     1
 79
     5
176
     1
170
     0
176
     1
171
     0
176
     1
290
     0
176
     1
 93
        1
176
     1
 44
0.0
176
     1
173
     0
176
     1
1001
ACAD
1000
AcDbSavedByObjectVersion
1070
     0
  0
VISUALSTYLE
  5
682
102
{ACAD_XDICTIONARY
360
2146
102
}
102
{ACAD_REACTORS
330
67D
102
}
330
67D
100
AcDbVisualStyle
  2
Basic
 70
     7
177
     2
291
     1
 71
     1
176
     1
 72
     0
176
     1
 73
     1
176
     1
 90
        0
176
     1
 40
0.6
176
     1
 41
30.0
176
     1
 63
     7
421
 16777215
176
     1
 74
     0
176
     1
 91
        4
176
     1
 64
     7
176
     1
 65
   257
176
     1
 75
     1
176
     1
175
     1
176
     1
 42
1.0
176
     1
 92
        8
176
     1
 66
     7
176
     1
 43
1.0
176
     1
 76
     1
176
     1
 77
     6
176
     1
 78
     2
176
     1
 67
     7
176
     1
 79
     5
176
     1
170
     0
176
     1
171
     0
176
     1
290
     0
176
     1
 93
        1
176
     1
 44
0.0
176
     1
173
     0
176
     1
1001
ACAD
1000
AcDbSavedByObjectVersion
1070
     0
  0
VISUALSTYLE
  5
689
102
{ACAD_XDICTIONARY
360
2154
102
}
102
{ACAD_REACTORS
330
67D
102
}
330
67D
100
AcDbVisualStyle
  2
Brighten
 70
    12
177
     2
291
     1
 71
     2
176
     1
 72
     2
176
     1
 73
     0
176
     1
 90
        0
176
     1
 40
0.6
176
     1
 41
30.0
176
     1
 63
     7
421
 16777215
176
     1
 74
     1
176
     1
 91
        4
176
     1
 64
     7
176
     1
 65
   257
176
     1
 75
     1
176
     1
175
     1
176
     1
 42
1.0
176
     1
 92
        8
176
     1
 66
     7
176
     1
 43
1.0
176
     1
 76
     1
176
     1
 77
     6
176
     1
 78
     2
176
     1
 67
     7
176
     1
 79
     5
176
     1
170
     0
176
     1
171
     0
176
     1
290
     0
176
     1
 93
        1
176
     1
 44
50.0
176
     1
173
     0
176
     1
1001
ACAD
1000
AcDbSavedByObjectVersion
1070
     0
  0
VISUALSTYLE
  5
68D
102
{ACAD_XDICTIONARY
360
215C
102
}
102
{ACAD_REACTORS
330
67D
102
}
330
67D
100
AcDbVisualStyle
  2
ColorChange
 70
    16
177
     2
291
     1
 71
     2
176
     1
 72
     2
176
     1
 73
     3
176
     1
 90
        0
176
     1
 40
0.6
176
     1
 41
30.0
176
     1
 63
     8
421
  8421504
176
     1
 74
     1
176
     1
 91
        4
176
     1
 64
     7
176
     1
 65
   257
176
     1
 75
     1
176
     1
175
     1
176
     1
 42
1.0
176
     1
 92
        8
176
     1
 66
     8
424
  8421504
176
     1
 43
1.0
176
     1
 76
     1
176
     1
 77
     6
176
     1
 78
     2
176
     1
 67
     7
176
     1
 79
     5
176
     1
170
     0
176
     1
171
     0
176
     1
290
     0
176
     1
 93
        1
176
     1
 44
0.0
176
     1
173
     0
176
     1
1001
ACAD
1000
AcDbSavedByObjectVersion
1070
     0
  0
VISUALSTYLE
  5
686
102
{ACAD_XDICTIONARY
360
214E
102
}
102
{ACAD_REACTORS
330
67D
102
}
330
67D
100
AcDbVisualStyle
  2
Conceptual
 70
     9
177
     2
291
     0
 71
     3
176
     1
 72
     2
176
     1
 73
     0
176
     1
 90
        0
176
     1
 40
0.6
176
     1
 41
30.0
176
     1
 63
     7
421
 16777215
176
     1
 74
     2
176
     1
 91
        2
176
     1
 64
     7
176
     1
 65
   257
176
     1
 75
     1
176
     1
175
     1
176
     1
 42
179.0
176
     1
 92
        8
176
     1
 66
     7
176
     1
 43
1.0
176
     1
 76
     1
176
     1
 77
     6
176
     1
 78
     2
176
     1
 67
     7
176
     1
 79
     3
176
     1
170
     0
176
     1
171
     0
176
     1
290
     0
176
     1
 93
        1
176
     1
 44
0.0
176
     1
173
     0
176
     1
1001
ACAD
1000
AcDbSavedByObjectVersion
1070
     0
  0
VISUALSTYLE
  5
688
102
{ACAD_XDICTIONARY
360
2152
102
}
102
{ACAD_REACTORS
330
67D
102
}
330
67D
100
AcDbVisualStyle
  2
Dim
 70
    11
177
     2
291
     1
 71
     2
176
     1
 72
     2
176
     1
 73
     0
176
     1
 90
        0
176
     1
 40
0.6
176
     1
 41
30.0
176
     1
 63
     7
421
 16777215
176
     1
 74
     1
176
     1
 91
        4
176
     1
 64
     7
176
     1
 65
   257
176
     1
 75
     1
176
     1
175
     1
176
     1
 42
1.0
176
     1
 92
        8
176
     1
 66
     7
176
     1
 43
1.0
176
     1
 76
     1
176
     1
 77
     6
176
     1
 78
     2
176
     1
 67
     7
176
     1
 79
     5
176
     1
170
     0
176
     1
171
     0
176
     1
290
     0
176
     1
 93
        1
176
     1
 44
-50.0
176
     1
173
     0
176
     1
1001
ACAD
1000
AcDbSavedByObjectVersion
1070
     0
  0
VISUALSTYLE
  5
695
102
{ACAD_XDICTIONARY
360
216C
102
}
102
{ACAD_REACTORS
330
67D
102
}
330
67D
100
AcDbVisualStyle
  2
EdgeColorOff
 70
    22
177
     2
291
     1
 71
     2
176
     0
 72
     2
176
     0
 73
     0
176
     0
 90
        0
176
     0
 40
0.6
176
     0
 41
30.0
176
     0
 63
     7
421
 16777215
176
     0
 74
     1
176
     0
 91
        4
176
     0
 64
     7
176
     0
 65
   257
176
     0
 75
     1
176
     0
175
     1
176
     0
 42
1.0
176
     0
 92
        8
176
     2
 66
     7
176
     0
 43
1.0
176
     0
 76
     1
176
     0
 77
     6
176
     0
 78
     2
176
     0
 67
     7
176
     0
 79
     5
176
     0
170
     0
176
     0
171
     0
176
     0
290
     0
176
     0
 93
        1
176
     0
 44
0.0
176
     0
173
     0
176
     0
1001
ACAD
1000
AcDbSavedByObjectVersion
1070
     0
  0
VISUALSTYLE
  5
68C
102
{ACAD_XDICTIONARY
360
215A
102
}
102
{ACAD_REACTORS
330
67D
102
}
330
67D
100
AcDbVisualStyle
  2
Facepattern
 70
    15
177
     2
291
     1
 71
     2
176
     1
 72
     2
176
     1
 73
     0
176
     1
 90
        0
176
     1
 40
0.6
176
     1
 41
30.0
176
     1
 63
     7
421
 16777215
176
     1
 74
     1
176
     1
 91
        4
176
     1
 64
     7
176
     1
 65
   257
176
     1
 75
     1
176
     1
175
     1
176
     1
 42
1.0
176
     1
 92
        8
176
     1
 66
     7
176
     1
 43
1.0
176
     1
 76
     1
176
     1
 77
     6
176
     1
 78
     2
176
     1
 67
     7
176
     1
 79
     5
176
     1
170
     0
176
     1
171
     0
176
     1
290
     0
176
     1
 93
        1
176
     1
 44
0.0
176
     1
173
     0
176
     1
1001
ACAD
1000
AcDbSavedByObjectVersion
1070
     0
  0
VISUALSTYLE
  5
67E
102
{ACAD_XDICTIONARY
360
213E
102
}
102
{ACAD_REACTORS
330
67D
102
}
330
67D
100
AcDbVisualStyle
  2
Flat
 70
     0
177
     2
291
     1
 71
     2
176
     1
 72
     1
176
     1
 73
     1
176
     1
 90
        2
176
     1
 40
0.6
176
     1
 41
30.0
176
     1
 63
     7
421
 16777215
176
     1
 74
     0
176
     1
 91
        0
176
     1
 64
     7
176
     1
 65
   257
176
     1
 75
     1
176
     1
175
     1
176
     1
 42
1.0
176
     1
 92
        8
176
     1
 66
     7
176
     1
 43
1.0
176
     1
 76
     1
176
     1
 77
     6
176
     1
 78
     2
176
     1
 67
     7
176
     1
 79
     5
176
     1
170
     0
176
     1
171
     0
176
     1
290
     0
176
     1
 93
       13
176
     1
 44
0.0
176
     1
173
     0
176
     1
1001
ACAD
1000
AcDbSavedByObjectVersion
1070
     0
  0
VISUALSTYLE
  5
67F
102
{ACAD_XDICTIONARY
360
2140
102
}
102
{ACAD_REACTORS
330
67D
102
}
330
67D
100
AcDbVisualStyle
  2
FlatWithEdges
 70
     1
177
     2
291
     1
 71
     2
176
     1
 72
     1
176
     1
 73
     1
176
     1
 90
        2
176
     1
 40
0.6
176
     1
 41
30.0
176
     1
 63
     7
421
 16777215
176
     1
 74
     1
176
     1
 91
        0
176
     1
 64
     7
176
     1
 65
   257
176
     1
 75
     1
176
     1
175
     1
176
     1
 42
1.0
176
     1
 92
        0
176
     1
 66
   257
176
     1
 43
1.0
176
     1
 76
     1
176
     1
 77
     6
176
     1
 78
     2
176
     1
 67
     7
176
     1
 79
     5
176
     1
170
     0
176
     1
171
     0
176
     1
290
     0
176
     1
 93
       13
176
     1
 44
0.0
176
     1
173
     0
176
     1
1001
ACAD
1000
AcDbSavedByObjectVersion
1070
     0
  0
VISUALSTYLE
  5
680
102
{ACAD_XDICTIONARY
360
2142
102
}
102
{ACAD_REACTORS
330
67D
102
}
330
67D
100
AcDbVisualStyle
  2
Gouraud
 70
     2
177
     2
291
     1
 71
     2
176
     1
 72
     2
176
     1
 73
     1
176
     1
 90
        2
176
     1
 40
0.6
176
     1
 41
30.0
176
     1
 63
     7
421
 16777215
176
     1
 74
     0
176
     1
 91
        0
176
     1
 64
     7
176
     1
 65
   257
176
     1
 75
     1
176
     1
175
     1
176
     1
 42
1.0
176
     1
 92
        0
176
     1
 66
     7
176
     1
 43
1.0
176
     1
 76
     1
176
     1
 77
     6
176
     1
 78
     2
176
     1
 67
     7
176
     1
 79
     5
176
     1
170
     0
176
     1
171
     0
176
     1
290
     0
176
     1
 93
       13
176
     1
 44
0.0
176
     1
173
     0
176
     1
1001
ACAD
1000
AcDbSavedByObjectVersion
1070
     0
  0
VISUALSTYLE
  5
681
102
{ACAD_XDICTIONARY
360
2144
102
}
102
{ACAD_REACTORS
330
67D
102
}
330
67D
100
AcDbVisualStyle
  2
GouraudWithEdges
 70
     3
177
     2
291
     1
 71
     2
176
     1
 72
     2
176
     1
 73
     1
176
     1
 90
        2
176
     1
 40
0.6
176
     1
 41
30.0
176
     1
 63
     7
421
 16777215
176
     1
 74
     1
176
     1
 91
        0
176
     1
 64
     7
176
     1
 65
   257
176
     1
 75
     1
176
     1
175
     1
176
     1
 42
1.0
176
     1
 92
        0
176
     1
 66
   257
176
     1
 43
1.0
176
     1
 76
     1
176
     1
 77
     6
176
     1
 78
     2
176
     1
 67
     7
176
     1
 79
     5
176
     1
170
     0
176
     1
171
     0
176
     1
290
     0
176
     1
 93
       13
176
     1
 44
0.0
176
     1
173
     0
176
     1
1001
ACAD
1000
AcDbSavedByObjectVersion
1070
     0
  0
VISUALSTYLE
  5
685
102
{ACAD_XDICTIONARY
360
214C
102
}
102
{ACAD_REACTORS
330
67D
102
}
330
67D
100
AcDbVisualStyle
  2
Hidden
 70
     6
177
     2
291
     0
 71
     1
176
     1
 72
     2
176
     1
 73
     2
176
     1
 90
        0
176
     1
 40
0.6
176
     1
 41
30.0
176
     1
 63
     7
421
 16777215
176
     1
 74
     2
176
     1
 91
        2
176
     1
 64
     7
176
     1
 65
   257
176
     1
 75
     2
176
     1
175
     1
176
     1
 42
40.0
176
     1
 92
        0
176
     1
 66
   257
176
     1
 43
1.0
176
     1
 76
     1
176
     1
 77
     6
176
     1
 78
     2
176
     1
 67
     7
176
     1
 79
     3
176
     1
170
     0
176
     1
171
     0
176
     1
290
     0
176
     1
 93
        1
176
     1
 44
0.0
176
     1
173
     0
176
     1
1001
ACAD
1000
AcDbSavedByObjectVersion
1070
     0
  0
VISUALSTYLE
  5
693
102
{ACAD_XDICTIONARY
360
2168
102
}
102
{ACAD_REACTORS
330
67D
102
}
330
67D
100
AcDbVisualStyle
  2
JitterOff
 70
    20
177
     2
291
     1
 71
     2
176
     0
 72
     2
176
     0
 73
     0
176
     0
 90
        0
176
     0
 40
0.6
176
     0
 41
30.0
176
     0
 63
     7
421
 16777215
176
     0
 74
     1
176
     0
 91
        4
176
     0
 64
     7
176
     0
 65
   257
176
     0
 75
     1
176
     0
175
     1
176
     0
 42
1.0
176
     0
 92
       10
176
     2
 66
     7
176
     0
 43
1.0
176
     0
 76
     1
176
     0
 77
     6
176
     0
 78
     2
176
     0
 67
     7
176
     0
 79
     5
176
     0
170
     0
176
     0
171
     0
176
     0
290
     0
176
     0
 93
        1
176
     0
 44
0.0
176
     0
173
     0
176
     0
1001
ACAD
1000
AcDbSavedByObjectVersion
1070
     0
  0
VISUALSTYLE
  5
68B
102
{ACAD_XDICTIONARY
360
2158
102
}
102
{ACAD_REACTORS
330
67D
102
}
330
67D
100
AcDbVisualStyle
  2
Linepattern
 70
    14
177
     2
291
     1
 71
     2
176
     1
 72
     2
176
     1
 73
     0
176
     1
 90
        0
176
     1
 40
0.6
176
     1
 41
30.0
176
     1
 63
     7
421
 16777215
176
     1
 74
     1
176
     1
 91
        4
176
     1
 64
     7
176
     1
 65
   257
176
     1
 75
     7
176
     1
175
     7
176
     1
 42
1.0
176
     1
 92
        8
176
     1
 66
     7
176
     1
 43
1.0
176
     1
 76
     1
176
     1
 77
     6
176
     1
 78
     2
176
     1
 67
     7
176
     1
 79
     5
176
     1
170
     0
176
     1
171
     0
176
     1
290
     0
176
     1
 93
        1
176
     1
 44
0.0
176
     1
173
     0
176
     1
1001
ACAD
1000
AcDbSavedByObjectVersion
1070
     0
  0
VISUALSTYLE
  5
694
102
{ACAD_XDICTIONARY
360
216A
102
}
102
{ACAD_REACTORS
330
67D
102
}
330
67D
100
AcDbVisualStyle
  2
OverhangOff
 70
    21
177
     2
291
     1
 71
     2
176
     0
 72
     2
176
     0
 73
     0
176
     0
 90
        0
176
     0
 40
0.6
176
     0
 41
30.0
176
     0
 63
     7
421
 16777215
176
     0
 74
     1
176
     0
 91
        4
176
     0
 64
     7
176
     0
 65
   257
176
     0
 75
     1
176
     0
175
     1
176
     0
 42
1.0
176
     0
 92
        9
176
     2
 66
     7
176
     0
 43
1.0
176
     0
 76
     1
176
     0
 77
     6
176
     0
 78
     2
176
     0
 67
     7
176
     0
 79
     5
176
     0
170
     0
176
     0
171
     0
176
     0
290
     0
176
     0
 93
        1
176
     0
 44
0.0
176
     0
173
     0
176
     0
1001
ACAD
1000
AcDbSavedByObjectVersion
1070
     0
  0
VISUALSTYLE
  5
687
102
{ACAD_XDICTIONARY
360
2150
102
}
102
{ACAD_REACTORS
330
67D
102
}
330
67D
100
AcDbVisualStyle
  2
Realistic
 70
     8
177
     2
291
     0
 71
     2
176
     1
 72
     3
176
     1
 73
     0
176
     1
 90
        2
176
     1
 40
0.6
176
     1
 41
30.0
176
     1
 63
     7
421
 16777215
176
     1
 74
     0
176
     1
 91
        0
176
     1
 64
     7
176
     1
 65
   257
176
     1
 75
     1
176
     1
175
     1
176
     1
 42
1.0
176
     1
 92
        8
176
     1
 66
   257
176
     1
 43
1.0
176
     1
 76
     1
176
     1
 77
     6
176
     1
 78
     2
176
     1
 67
     7
176
     1
 79
     3
176
     1
170
     0
176
     1
171
     0
176
     1
290
     0
176
     1
 93
       13
176
     1
 44
0.0
176
     1
173
     0
176
     1
1001
ACAD
1000
AcDbSavedByObjectVersion
1070
     0
  0
VISUALSTYLE
  5
692
102
{ACAD_XDICTIONARY
360
2166
102
}
102
{ACAD_REACTORS
330
67D
102
}
330
67D
100
AcDbVisualStyle
  2
Shaded
 70
    27
177
     2
291
     0
 71
     2
176
     1
 72
     2
176
     1
 73
     1
176
     1
 90
        2
176
     1
 40
0.6
176
     1
 41
30.0
176
     1
 63
     7
421
 16777215
176
     1
 74
     0
176
     1
 91
        4
176
     1
 64
     7
176
     1
 65
   257
176
     1
 75
     1
176
     1
175
     1
176
     1
 42
1.0
176
     1
 92
        8
176
     1
 66
   257
176
     1
 43
1.0
176
     1
 76
     1
176
     1
 77
     6
176
     1
 78
     2
176
     1
 67
     8
425
  7895160
176
     1
 79
     3
176
     1
170
     0
176
     1
171
     0
176
     1
290
     0
176
     1
 93
        5
176
     1
 44
0.0
176
     1
173
     0
176
     1
1001
ACAD
1000
AcDbSavedByObjectVersion
1070
     0
  0
VISUALSTYLE
  5
691
102
{ACAD_XDICTIONARY
360
2164
102
}
102
{ACAD_REACTORS
330
67D
102
}
330
67D
100
AcDbVisualStyle
  2
Shaded with edges
 70
    26
177
     2
291
     0
 71
     2
176
     1
 72
     2
176
     1
 73
     1
176
     1
 90
        2
176
     1
 40
0.6
176
     1
 41
30.0
176
     1
 63
     7
421
 16777215
176
     1
 74
     1
176
     1
 91
       10
176
     1
 64
     7
176
     1
 65
   257
176
     1
 75
     2
176
     1
175
     1
176
     1
 42
1.0
176
     1
 92
        8
176
     1
 66
   257
176
     1
 43
1.0
176
     1
 76
     1
176
     1
 77
     6
176
     1
 78
     2
176
     1
 67
     7
176
     1
 79
     3
176
     1
170
     0
176
     1
171
     0
176
     1
290
     0
176
     1
 93
        5
176
     1
 44
0.0
176
     1
173
     0
176
     1
1001
ACAD
1000
AcDbSavedByObjectVersion
1070
     0
  0
VISUALSTYLE
  5
68E
102
{ACAD_XDICTIONARY
360
215E
102
}
102
{ACAD_REACTORS
330
67D
102
}
330
67D
100
AcDbVisualStyle
  2
Shades of Gray
 70
    23
177
     2
291
     0
 71
     2
176
     1
 72
     2
176
     1
 73
     3
176
     1
 90
        0
176
     1
 40
0.6
176
     1
 41
30.0
176
     1
 63
     7
421
 16777215
176
     1
 74
     2
176
     1
 91
        2
176
     1
 64
     7
176
     1
 65
     7
176
     1
 75
     1
176
     1
175
     1
176
     1
 42
40.0
176
     1
 92
        8
176
     1
 66
     7
176
     1
 43
1.0
176
     1
 76
     1
176
     1
 77
     6
176
     1
 78
     2
176
     1
 67
     7
176
     1
 79
     3
176
     1
170
     0
176
     1
171
     0
176
     1
290
     0
176
     1
 93
        1
176
     1
 44
0.0
176
     1
173
     0
176
     1
1001
ACAD
1000
AcDbSavedByObjectVersion
1070
     0
  0
VISUALSTYLE
  5
68F
102
{ACAD_XDICTIONARY
360
2160
102
}
102
{ACAD_REACTORS
330
67D
102
}
330
67D
100
AcDbVisualStyle
  2
Sketchy
 70
    24
177
     2
291
     0
 71
     1
176
     1
 72
     2
176
     1
 73
     2
176
     1
 90
        0
176
     1
 40
0.6
176
     1
 41
30.0
176
     1
 63
     7
421
 16777215
176
     1
 74
     2
176
     1
 91
        2
176
     1
 64
     7
176
     1
 65
     7
176
     1
 75
     1
176
     1
175
     1
176
     1
 42
40.0
176
     1
 92
       11
176
     1
 66
     7
176
     1
 43
1.0
176
     1
 76
     1
176
     1
 77
     6
176
     1
 78
     2
176
     1
 67
     7
176
     1
 79
     6
176
     1
170
     0
176
     1
171
     0
176
     1
290
     0
176
     1
 93
        1
176
     1
 44
0.0
176
     1
173
     0
176
     1
1001
ACAD
1000
AcDbSavedByObjectVersion
1070
     0
  0
VISUALSTYLE
  5
68A
102
{ACAD_XDICTIONARY
360
2156
102
}
102
{ACAD_REACTORS
330
67D
102
}
330
67D
100
AcDbVisualStyle
  2
Thicken
 70
    13
177
     2
291
     1
 71
     2
176
     1
 72
     2
176
     1
 73
     0
176
     1
 90
        0
176
     1
 40
0.6
176
     1
 41
30.0
176
     1
 63
     7
421
 16777215
176
     1
 74
     1
176
     1
 91
        4
176
     1
 64
     7
176
     1
 65
   257
176
     1
 75
     1
176
     1
175
     1
176
     1
 42
1.0
176
     1
 92
       12
176
     1
 66
     7
176
     1
 43
1.0
176
     1
 76
     1
176
     1
 77
     6
176
     1
 78
     2
176
     1
 67
     7
176
     1
 79
     5
176
     1
170
     0
176
     1
171
     0
176
     1
290
     0
176
     1
 93
        1
176
     1
 44
0.0
176
     1
173
     0
176
     1
1001
ACAD
1000
AcDbSavedByObjectVersion
1070
     0
  0
VISUALSTYLE
  5
684
102
{ACAD_XDICTIONARY
360
214A
102
}
102
{ACAD_REACTORS
330
67D
102
}
330
67D
100
AcDbVisualStyle
  2
Wireframe
 70
     5
177
     2
291
     0
 71
     0
176
     1
 72
     2
176
     1
 73
     0
176
     1
 90
        0
176
     1
 40
0.6
176
     1
 41
30.0
176
     1
 63
     7
421
 16777215
176
     1
 74
     1
176
     1
 91
        4
176
     1
 64
     7
176
     1
 65
   257
176
     1
 75
     1
176
     1
175
     1
176
     1
 42
1.0
176
     1
 92
        0
176
     1
 66
   257
176
     1
 43
1.0
176
     1
 76
     1
176
     1
 77
     6
176
     1
 78
     2
176
     1
 67
     7
176
     1
 79
     3
176
     1
170
     0
176
     1
171
     0
176
     1
290
     0
176
     1
 93
        1
176
     1
 44
0.0
176
     1
173
     0
176
     1
1001
ACAD
1000
AcDbSavedByObjectVersion
1070
     0
  0
VISUALSTYLE
  5
690
102
{ACAD_XDICTIONARY
360
2162
102
}
102
{ACAD_REACTORS
330
67D
102
}
330
67D
100
AcDbVisualStyle
  2
X-Ray
 70
    25
177
     2
291
     0
 71
     2
176
     1
 72
     2
176
     1
 73
     1
176
     1
 90
        1
176
     1
 40
0.5
176
     1
 41
30.0
176
     1
 63
     7
421
 16777215
176
     1
 74
     1
176
     1
 91
        0
176
     1
 64
     7
176
     1
 65
   257
176
     1
 75
     1
176
     1
175
     1
176
     1
 42
1.0
176
     1
 92
        8
176
     1
 66
     7
176
     1
 43
1.0
176
     1
 76
     1
176
     1
 77
     6
176
     1
 78
     2
176
     1
 67
     7
176
     1
 79
     3
176
     1
170
     0
176
     1
171
     0
176
     1
290
     0
176
     1
 93
       13
176
     1
 44
0.0
176
     1
173
     0
176
     1
1001
ACAD
1000
AcDbSavedByObjectVersion
1070
     0
  0
DICTIONARYVAR
  5
9AE
102
{ACAD_REACTORS
330
9A8
102
}
330
9A8
100
DictionaryVariables
280
     0
  1
1:1
  0
DICTIONARYVAR
  5
9AA
102
{ACAD_REACTORS
330
9A8
102
}
330
9A8
100
DictionaryVariables
280
     0
  1
STANDARD
  0
DICTIONARYVAR
  5
9A9
102
{ACAD_REACTORS
330
9A8
102
}
330
9A8
100
DictionaryVariables
280
     0
  1
STANDARD
  0
DICTIONARYVAR
  5
9AB
102
{ACAD_REACTORS
330
9A8
102
}
330
9A8
100
DictionaryVariables
280
     0
  1
Imperial24
  0
DICTIONARYVAR
  5
9AC
102
{ACAD_REACTORS
330
9A8
102
}
330
9A8
100
DictionaryVariables
280
     0
  1
Imperial24
  0
DICTIONARYVAR
  5
9B0
102
{ACAD_REACTORS
330
9A8
102
}
330
9A8
100
DictionaryVariables
280
     0
  1
1
  0
DICTIONARYVAR
  5
9B1
102
{ACAD_REACTORS
330
9A8
102
}
330
9A8
100
DictionaryVariables
280
     0
  1
15
  0
DICTIONARYVAR
  5
9AF
102
{ACAD_REACTORS
330
9A8
102
}
330
9A8
100
DictionaryVariables
280
     0
  1
0
  0
DICTIONARYVAR
  5
9AD
102
{ACAD_REACTORS
330
9A8
102
}
330
9A8
100
DictionaryVariables
280
     0
  1
0
  0
DICTIONARY
  5
213D
102
{ACAD_REACTORS
330
213B
102
}
330
213B
100
AcDbDictionary
281
     1
  0
DICTIONARY
  5
213C
102
{ACAD_REACTORS
330
213B
102
}
330
213B
100
AcDbDictionary
281
     1
  3
8796086873824
350
2136
  3
8796086873840
350
2137
  3
8796086873856
350
2138
  3
8796086873872
350
2139
  3
8796086873888
350
213A
  0
DICTIONARY
  5
1D2A
330
6B0
100
AcDbDictionary
280
     1
281
     1
  3
ACAD_XREC_ROUNDTRIP
360
2171
  0
DICTIONARY
  5
1D2E
330
6D2
100
AcDbDictionary
280
     1
281
     1
  3
ACAD_XREC_ROUNDTRIP
360
2173
  0
DICTIONARY
  5
66E
330
66D
100
AcDbDictionary
280
     1
281
     1
  3
BUMPTILE
360
670
  3
DIFFUSETILE
360
66F
  3
OPACITYTILE
360
673
  3
REFLECTIONTILE
360
672
  3
REFRACTIONTILE
360
674
  3
SPECULARTILE
360
671
  0
DICTIONARY
  5
666
330
665
100
AcDbDictionary
280
     1
281
     1
  3
BUMPTILE
360
668
  3
DIFFUSETILE
360
667
  3
OPACITYTILE
360
66B
  3
REFLECTIONTILE
360
66A
  3
REFRACTIONTILE
360
66C
  3
SPECULARTILE
360
669
  0
DICTIONARY
  5
676
330
675
100
AcDbDictionary
280
     1
281
     1
  3
BUMPTILE
360
678
  3
DIFFUSETILE
360
677
  3
OPACITYTILE
360
67B
  3
REFLECTIONTILE
360
67A
  3
REFRACTIONTILE
360
67C
  3
SPECULARTILE
360
679
  0
DICTIONARY
  5
216E
330
6AC
100
AcDbDictionary
280
     1
281
     1
  3
ACAD_XREC_ROUNDTRIP
360
216F
  0
DICTIONARY
  5
1D28
330
6AE
100
AcDbDictionary
280
     1
281
     1
  3
ACAD_XREC_ROUNDTRIP
360
2170
  0
DICTIONARY
  5
1D2C
330
6D1
100
AcDbDictionary
280
     1
281
     1
  3
ACAD_XREC_ROUNDTRIP
360
2172
  0
DICTIONARY
  5
9FF
330
698
100
AcDbDictionary
280
     1
281
     1
  3
ACAD_ROUNDTRIP_2008_TABLESTYLE_CELLSTYLEMAP
360
2134
  0
DICTIONARY
  5
2148
330
683
100
AcDbDictionary
280
     1
281
     1
  3
ACAD_XREC_ROUNDTRIP
360
2149
  0
DICTIONARY
  5
2146
330
682
100
AcDbDictionary
280
     1
281
     1
  3
ACAD_XREC_ROUNDTRIP
360
2147
  0
DICTIONARY
  5
2154
330
689
100
AcDbDictionary
280
     1
281
     1
  3
ACAD_XREC_ROUNDTRIP
360
2155
  0
DICTIONARY
  5
215C
330
68D
100
AcDbDictionary
280
     1
281
     1
  3
ACAD_XREC_ROUNDTRIP
360
215D
  0
DICTIONARY
  5
214E
330
686
100
AcDbDictionary
280
     1
281
     1
  3
ACAD_XREC_ROUNDTRIP
360
214F
  0
DICTIONARY
  5
2152
330
688
100
AcDbDictionary
280
     1
281
     1
  3
ACAD_XREC_ROUNDTRIP
360
2153
  0
DICTIONARY
  5
216C
330
695
100
AcDbDictionary
280
     1
281
     1
  3
ACAD_XREC_ROUNDTRIP
360
216D
  0
DICTIONARY
  5
215A
330
68C
100
AcDbDictionary
280
     1
281
     1
  3
ACAD_XREC_ROUNDTRIP
360
215B
  0
DICTIONARY
  5
213E
330
67E
100
AcDbDictionary
280
     1
281
     1
  3
ACAD_XREC_ROUNDTRIP
360
213F
  0
DICTIONARY
  5
2140
330
67F
100
AcDbDictionary
280
     1
281
     1
  3
ACAD_XREC_ROUNDTRIP
360
2141
  0
DICTIONARY
  5
2142
330
680
100
AcDbDictionary
280
     1
281
     1
  3
ACAD_XREC_ROUNDTRIP
360
2143
  0
DICTIONARY
  5
2144
330
681
100
AcDbDictionary
280
     1
281
     1
  3
ACAD_XREC_ROUNDTRIP
360
2145
  0
DICTIONARY
  5
214C
330
685
100
AcDbDictionary
280
     1
281
     1
  3
ACAD_XREC_ROUNDTRIP
360
214D
  0
DICTIONARY
  5
2168
330
693
100
AcDbDictionary
280
     1
281
     1
  3
ACAD_XREC_ROUNDTRIP
360
2169
  0
DICTIONARY
  5
2158
330
68B
100
AcDbDictionary
280
     1
281
     1
  3
ACAD_XREC_ROUNDTRIP
360
2159
  0
DICTIONARY
  5
216A
330
694
100
AcDbDictionary
280
     1
281
     1
  3
ACAD_XREC_ROUNDTRIP
360
216B
  0
DICTIONARY
  5
2150
330
687
100
AcDbDictionary
280
     1
281
     1
  3
ACAD_XREC_ROUNDTRIP
360
2151
  0
DICTIONARY
  5
2166
330
692
100
AcDbDictionary
280
     1
281
     1
  3
ACAD_XREC_ROUNDTRIP
360
2167
  0
DICTIONARY
  5
2164
330
691
100
AcDbDictionary
280
     1
281
     1
  3
ACAD_XREC_ROUNDTRIP
360
2165
  0
DICTIONARY
  5
215E
330
68E
100
AcDbDictionary
280
     1
281
     1
  3
ACAD_XREC_ROUNDTRIP
360
215F
  0
DICTIONARY
  5
2160
330
68F
100
AcDbDictionary
280
     1
281
     1
  3
ACAD_XREC_ROUNDTRIP
360
2161
  0
DICTIONARY
  5
2156
330
68A
100
AcDbDictionary
280
     1
281
     1
  3
ACAD_XREC_ROUNDTRIP
360
2157
  0
DICTIONARY
  5
214A
330
684
100
AcDbDictionary
280
     1
281
     1
  3
ACAD_XREC_ROUNDTRIP
360
214B
  0
DICTIONARY
  5
2162
330
690
100
AcDbDictionary
280
     1
281
     1
  3
ACAD_XREC_ROUNDTRIP
360
2163
  0
XRECORD
  5
2136
102
{ACAD_REACTORS
330
213C
102
}
330
213C
100
AcDbXrecord
280
     1
  1
AcDb_Thumbnail_Schema
102
{ATTRRECORD
341
2137
  2
AcDbDs::TreatedAsObjectData
280
     1
291
     1
102
ATTRRECORD}
102
{ATTRRECORD
341
2138
  2
AcDbDs::Legacy
280
     1
291
     1
102
ATTRRECORD}
  2
AcDbDs::ID
280
    10
 91
        8
102
{ATTRRECORD
341
2139
  2
AcDs:Indexable
280
     1
291
     1
102
ATTRRECORD}
102
{ATTRRECORD
341
213A
  2
AcDbDs::HandleAttribute
280
     7
282
     1
102
ATTRRECORD}
  2
Thumbnail_Data
280
    15
 91
        0
  0
XRECORD
  5
2137
102
{ACAD_REACTORS
330
213C
102
}
330
213C
100
AcDbXrecord
280
     1
  1
AcDbDs::TreatedAsObjectDataSchema
  2
AcDbDs::TreatedAsObjectData
280
     1
 91
        0
  0
XRECORD
  5
2138
102
{ACAD_REACTORS
330
213C
102
}
330
213C
100
AcDbXrecord
280
     1
  1
AcDbDs::LegacySchema
  2
AcDbDs::Legacy
280
     1
 91
        0
  0
XRECORD
  5
2139
102
{ACAD_REACTORS
330
213C
102
}
330
213C
100
AcDbXrecord
280
     1
  1
AcDbDs::IndexedPropertySchema
  2
AcDs:Indexable
280
     1
 91
        0
  0
XRECORD
  5
213A
102
{ACAD_REACTORS
330
213C
102
}
330
213C
100
AcDbXrecord
280
     1
  1
AcDbDs::HandleAttributeSchema
  2
AcDbDs::HandleAttribute
280
     7
 91
        1
284
     1
  0
XRECORD
  5
2171
102
{ACAD_REACTORS
330
1D2A
102
}
330
1D2A
100
AcDbXrecord
280
     1
102
DISPLAYNAME
  1
Imperial24
102
FLAGS
 90
        0
  0
XRECORD
  5
2173
102
{ACAD_REACTORS
330
1D2E
102
}
330
1D2E
100
AcDbXrecord
280
     1
102
DISPLAYNAME
  1
Metric50
102
FLAGS
 90
        0
  0
XRECORD
  5
670
102
{ACAD_REACTORS
330
66E
102
}
330
66E
100
AcDbXrecord
280
     1
270
     1
271
     1
  0
XRECORD
  5
66F
102
{ACAD_REACTORS
330
66E
102
}
330
66E
100
AcDbXrecord
280
     1
270
     1
271
     1
  0
XRECORD
  5
673
102
{ACAD_REACTORS
330
66E
102
}
330
66E
100
AcDbXrecord
280
     1
270
     1
271
     1
  0
XRECORD
  5
672
102
{ACAD_REACTORS
330
66E
102
}
330
66E
100
AcDbXrecord
280
     1
270
     1
271
     1
  0
XRECORD
  5
674
102
{ACAD_REACTORS
330
66E
102
}
330
66E
100
AcDbXrecord
280
     1
270
     1
271
     1
  0
XRECORD
  5
671
102
{ACAD_REACTORS
330
66E
102
}
330
66E
100
AcDbXrecord
280
     1
270
     1
271
     1
  0
XRECORD
  5
668
102
{ACAD_REACTORS
330
666
102
}
330
666
100
AcDbXrecord
280
     1
270
     1
271
     1
  0
XRECORD
  5
667
102
{ACAD_REACTORS
330
666
102
}
330
666
100
AcDbXrecord
280
     1
270
     1
271
     1
  0
XRECORD
  5
66B
102
{ACAD_REACTORS
330
666
102
}
330
666
100
AcDbXrecord
280
     1
270
     1
271
     1
  0
XRECORD
  5
66A
102
{ACAD_REACTORS
330
666
102
}
330
666
100
AcDbXrecord
280
     1
270
     1
271
     1
  0
XRECORD
  5
66C
102
{ACAD_REACTORS
330
666
102
}
330
666
100
AcDbXrecord
280
     1
270
     1
271
     1
  0
XRECORD
  5
669
102
{ACAD_REACTORS
330
666
102
}
330
666
100
AcDbXrecord
280
     1
270
     1
271
     1
  0
XRECORD
  5
678
102
{ACAD_REACTORS
330
676
102
}
330
676
100
AcDbXrecord
280
     1
270
     1
271
     1
  0
XRECORD
  5
677
102
{ACAD_REACTORS
330
676
102
}
330
676
100
AcDbXrecord
280
     1
270
     1
271
     1
  0
XRECORD
  5
67B
102
{ACAD_REACTORS
330
676
102
}
330
676
100
AcDbXrecord
280
     1
270
     1
271
     1
  0
XRECORD
  5
67A
102
{ACAD_REACTORS
330
676
102
}
330
676
100
AcDbXrecord
280
     1
270
     1
271
     1
  0
XRECORD
  5
67C
102
{ACAD_REACTORS
330
676
102
}
330
676
100
AcDbXrecord
280
     1
270
     1
271
     1
  0
XRECORD
  5
679
102
{ACAD_REACTORS
330
676
102
}
330
676
100
AcDbXrecord
280
     1
270
     1
271
     1
  0
XRECORD
  5
216F
102
{ACAD_REACTORS
330
216E
102
}
330
216E
100
AcDbXrecord
280
     1
102
ACAD_ROUNDTRIP_2012_MLEADER_STYLE
298
     1
  0
XRECORD
  5
2170
102
{ACAD_REACTORS
330
1D28
102
}
330
1D28
100
AcDbXrecord
280
     1
102
DISPLAYNAME
  1
Imperial24
102
FLAGS
 90
        0
  0
XRECORD
  5
2172
102
{ACAD_REACTORS
330
1D2C
102
}
330
1D2C
100
AcDbXrecord
280
     1
102
DISPLAYNAME
  1
Metric50
102
FLAGS
 90
        0
  0
CELLSTYLEMAP
  5
2134
102
{ACAD_REACTORS
330
9FF
102
}
330
9FF
100
AcDbCellStyleMap
 90
        3
300
CELLSTYLE
  1
TABLEFORMAT_BEGIN
 90
        5
170
     1
 91
        0
 92
    32768
 62
   257
 93
        1
300
CONTENTFORMAT
  1
CONTENTFORMAT_BEGIN
 90
        0
 91
        0
 92
      512
 93
        0
300

 40
0.0
140
1.0
 94
        5
 62
     0
340
17
144
0.25
309
CONTENTFORMAT_END
171
     1
301
MARGIN
  1
CELLMARGIN_BEGIN
 40
0.06
 40
0.06
 40
0.06
 40
0.06
 40
0.18
 40
0.18
309
CELLMARGIN_END
 94
        6
 95
        1
302
GRIDFORMAT
  1
GRIDFORMAT_BEGIN
 90
        0
 91
        1
 62
     0
 92
       -2
340
0
 93
        0
 40
0.045
309
GRIDFORMAT_END
 95
        2
302
GRIDFORMAT
  1
GRIDFORMAT_BEGIN
 90
        0
 91
        1
 62
     0
 92
       -2
340
0
 93
        0
 40
0.045
309
GRIDFORMAT_END
 95
        4
302
GRIDFORMAT
  1
GRIDFORMAT_BEGIN
 90
        0
 91
        1
 62
     0
 92
       -2
340
0
 93
        0
 40
0.045
309
GRIDFORMAT_END
 95
        8
302
GRIDFORMAT
  1
GRIDFORMAT_BEGIN
 90
        0
 91
        1
 62
     0
 92
       -2
340
0
 93
        0
 40
0.045
309
GRIDFORMAT_END
 95
       16
302
GRIDFORMAT
  1
GRIDFORMAT_BEGIN
 90
        0
 91
        1
 62
     0
 92
       -2
340
0
 93
        0
 40
0.045
309
GRIDFORMAT_END
 95
       32
302
GRIDFORMAT
  1
GRIDFORMAT_BEGIN
 90
        0
 91
        1
 62
     0
 92
       -2
340
0
 93
        0
 40
0.045
309
GRIDFORMAT_END
309
TABLEFORMAT_END
  1
CELLSTYLE_BEGIN
 90
        1
 91
        1
300
_TITLE
309
CELLSTYLE_END
300
CELLSTYLE
  1
TABLEFORMAT_BEGIN
 90
        5
170
     1
 91
        0
 92
        0
 62
   257
 93
        1
300
CONTENTFORMAT
  1
CONTENTFORMAT_BEGIN
 90
        0
 91
        0
 92
      512
 93
        0
300

 40
0.0
140
1.0
 94
        5
 62
     0
340
17
144
0.18
309
CONTENTFORMAT_END
171
     1
301
MARGIN
  1
CELLMARGIN_BEGIN
 40
0.06
 40
0.06
 40
0.06
 40
0.06
 40
0.18
 40
0.18
309
CELLMARGIN_END
 94
        6
 95
        1
302
GRIDFORMAT
  1
GRIDFORMAT_BEGIN
 90
        0
 91
        1
 62
     0
 92
       -2
340
0
 93
        0
 40
0.045
309
GRIDFORMAT_END
 95
        2
302
GRIDFORMAT
  1
GRIDFORMAT_BEGIN
 90
        0
 91
        1
 62
     0
 92
       -2
340
0
 93
        0
 40
0.045
309
GRIDFORMAT_END
 95
        4
302
GRIDFORMAT
  1
GRIDFORMAT_BEGIN
 90
        0
 91
        1
 62
     0
 92
       -2
340
0
 93
        0
 40
0.045
309
GRIDFORMAT_END
 95
        8
302
GRIDFORMAT
  1
GRIDFORMAT_BEGIN
 90
        0
 91
        1
 62
     0
 92
       -2
340
0
 93
        0
 40
0.045
309
GRIDFORMAT_END
 95
       16
302
GRIDFORMAT
  1
GRIDFORMAT_BEGIN
 90
        0
 91
        1
 62
     0
 92
       -2
340
0
 93
        0
 40
0.045
309
GRIDFORMAT_END
 95
       32
302
GRIDFORMAT
  1
GRIDFORMAT_BEGIN
 90
        0
 91
        1
 62
     0
 92
       -2
340
0
 93
        0
 40
0.045
309
GRIDFORMAT_END
309
TABLEFORMAT_END
  1
CELLSTYLE_BEGIN
 90
        2
 91
        1
300
_HEADER
309
CELLSTYLE_END
300
CELLSTYLE
  1
TABLEFORMAT_BEGIN
 90
        5
170
     1
 91
        0
 92
        0
 62
   257
 93
        1
300
CONTENTFORMAT
  1
CONTENTFORMAT_BEGIN
 90
        0
 91
        0
 92
      512
 93
        0
300

 40
0.0
140
1.0
 94
        2
 62
     0
340
17
144
0.18
309
CONTENTFORMAT_END
171
     1
301
MARGIN
  1
CELLMARGIN_BEGIN
 40
0.06
 40
0.06
 40
0.06
 40
0.06
 40
0.18
 40
0.18
309
CELLMARGIN_END
 94
        6
 95
        1
302
GRIDFORMAT
  1
GRIDFORMAT_BEGIN
 90
        0
 91
        1
 62
     0
 92
       -2
340
0
 93
        0
 40
0.045
309
GRIDFORMAT_END
 95
        2
302
GRIDFORMAT
  1
GRIDFORMAT_BEGIN
 90
        0
 91
        1
 62
     0
 92
       -2
340
0
 93
        0
 40
0.045
309
GRIDFORMAT_END
 95
        4
302
GRIDFORMAT
  1
GRIDFORMAT_BEGIN
 90
        0
 91
        1
 62
     0
 92
       -2
340
0
 93
        0
 40
0.045
309
GRIDFORMAT_END
 95
        8
302
GRIDFORMAT
  1
GRIDFORMAT_BEGIN
 90
        0
 91
        1
 62
     0
 92
       -2
340
0
 93
        0
 40
0.045
309
GRIDFORMAT_END
 95
       16
302
GRIDFORMAT
  1
GRIDFORMAT_BEGIN
 90
        0
 91
        1
 62
     0
 92
       -2
340
0
 93
        0
 40
0.045
309
GRIDFORMAT_END
 95
       32
302
GRIDFORMAT
  1
GRIDFORMAT_BEGIN
 90
        0
 91
        1
 62
     0
 92
       -2
340
0
 93
        0
 40
0.045
309
GRIDFORMAT_END
309
TABLEFORMAT_END
  1
CELLSTYLE_BEGIN
 90
        3
 91
        2
300
_DATA
309
CELLSTYLE_END
  0
XRECORD
  5
2149
102
{ACAD_REACTORS
330
2148
102
}
330
2148
100
AcDbXrecord
280
     1
102
RTVSPost2010Prop28
280
     1
102
RTVSPost2010PropOp28
 70
     1
102
RTVSPost2010Prop29
280
     1
102
RTVSPost2010PropOp29
 70
     1
102
RTVSPost2010Prop30
280
     0
102
RTVSPost2010PropOp30
 70
     1
102
RTVSPost2010Prop31
280
     0
102
RTVSPost2010PropOp31
 70
     1
102
RTVSPost2010Prop32
280
     0
102
RTVSPost2010PropOp32
 70
     1
102
RTVSPost2010Prop33
280
     0
102
RTVSPost2010PropOp33
 70
     1
102
RTVSPost2010Prop34
280
     0
102
RTVSPost2010PropOp34
 70
     1
102
RTVSPost2010Prop35
280
     0
102
RTVSPost2010PropOp35
 70
     1
102
RTVSPost2010Prop36
280
     0
102
RTVSPost2010PropOp36
 70
     1
102
RTVSPost2010Prop37
 90
       50
102
RTVSPost2010PropOp37
 70
     1
102
RTVSPost2010Prop38
140
0.0
102
RTVSPost2010PropOp38
 70
     1
102
RTVSPost2010Prop39
140
1.0
102
RTVSPost2010PropOp39
 70
     1
102
RTVSPost2010Prop40
 90
        0
102
RTVSPost2010PropOp40
 70
     1
102
RTVSPost2010Prop41ColorIndex
 90
       18
102
RTVSPost2010Prop41ColorRGB
 90
        0
102
RTVSPost2010PropOp41
 70
     1
102
RTVSPost2010Prop42
 90
       50
102
RTVSPost2010PropOp42
 70
     1
102
RTVSPost2010Prop43
 90
        3
102
RTVSPost2010PropOp43
 70
     1
102
RTVSPost2010Prop44ColorIndex
 90
        5
102
RTVSPost2010Prop44ColorRGB
 90
      255
102
RTVSPost2010PropOp44
 70
     1
102
RTVSPost2010Prop45
280
     0
102
RTVSPost2010PropOp45
 70
     1
102
RTVSPost2010Prop46
 90
       50
102
RTVSPost2010PropOp46
 70
     1
102
RTVSPost2010Prop47
 90
       50
102
RTVSPost2010PropOp47
 70
     1
102
RTVSPost2010Prop48
 90
       50
102
RTVSPost2010PropOp48
 70
     1
102
RTVSPost2010Prop49
280
     0
102
RTVSPost2010PropOp49
 70
     1
102
RTVSPost2010Prop50
 90
       50
102
RTVSPost2010PropOp50
 70
     1
102
RTVSPost2010Prop51ColorIndex
 90
      256
102
RTVSPost2010Prop51ColorRGB
 90
-16777216
102
RTVSPost2010PropOp51
 70
     0
102
RTVSPost2010Prop52
140
1.0
102
RTVSPost2010PropOp52
 70
     0
102
RTVSPost2010Prop53
 90
        2
102
RTVSPost2010PropOp53
 70
     1
102
RTVSPost2010Prop54
  1
strokes_ogs.tif
102
RTVSPost2010PropOp54
 70
     1
102
RTVSPost2010Prop55
280
     0
102
RTVSPost2010PropOp55
 70
     1
102
RTVSPost2010Prop56
140
1.0
102
RTVSPost2010PropOp56
 70
     1
102
RTVSPost2010Prop57
140
1.0
102
RTVSPost2010PropOp57
 70
     1
  0
XRECORD
  5
2147
102
{ACAD_REACTORS
330
2146
102
}
330
2146
100
AcDbXrecord
280
     1
102
RTVSPost2010Prop28
280
     0
102
RTVSPost2010PropOp28
 70
     1
102
RTVSPost2010Prop29
280
     1
102
RTVSPost2010PropOp29
 70
     1
102
RTVSPost2010Prop30
280
     1
102
RTVSPost2010PropOp30
 70
     1
102
RTVSPost2010Prop31
280
     0
102
RTVSPost2010PropOp31
 70
     1
102
RTVSPost2010Prop32
280
     0
102
RTVSPost2010PropOp32
 70
     1
102
RTVSPost2010Prop33
280
     0
102
RTVSPost2010PropOp33
 70
     1
102
RTVSPost2010Prop34
280
     0
102
RTVSPost2010PropOp34
 70
     1
102
RTVSPost2010Prop35
280
     0
102
RTVSPost2010PropOp35
 70
     1
102
RTVSPost2010Prop36
280
     0
102
RTVSPost2010PropOp36
 70
     1
102
RTVSPost2010Prop37
 90
       50
102
RTVSPost2010PropOp37
 70
     1
102
RTVSPost2010Prop38
140
0.0
102
RTVSPost2010PropOp38
 70
     1
102
RTVSPost2010Prop39
140
1.0
102
RTVSPost2010PropOp39
 70
     1
102
RTVSPost2010Prop40
 90
        0
102
RTVSPost2010PropOp40
 70
     1
102
RTVSPost2010Prop41ColorIndex
 90
       18
102
RTVSPost2010Prop41ColorRGB
 90
        0
102
RTVSPost2010PropOp41
 70
     1
102
RTVSPost2010Prop42
 90
       50
102
RTVSPost2010PropOp42
 70
     1
102
RTVSPost2010Prop43
 90
        3
102
RTVSPost2010PropOp43
 70
     1
102
RTVSPost2010Prop44ColorIndex
 90
        5
102
RTVSPost2010Prop44ColorRGB
 90
      255
102
RTVSPost2010PropOp44
 70
     1
102
RTVSPost2010Prop45
280
     0
102
RTVSPost2010PropOp45
 70
     1
102
RTVSPost2010Prop46
 90
       50
102
RTVSPost2010PropOp46
 70
     1
102
RTVSPost2010Prop47
 90
       50
102
RTVSPost2010PropOp47
 70
     1
102
RTVSPost2010Prop48
 90
       50
102
RTVSPost2010PropOp48
 70
     1
102
RTVSPost2010Prop49
280
     0
102
RTVSPost2010PropOp49
 70
     1
102
RTVSPost2010Prop50
 90
       50
102
RTVSPost2010PropOp50
 70
     1
102
RTVSPost2010Prop51ColorIndex
 90
      256
102
RTVSPost2010Prop51ColorRGB
 90
-16777216
102
RTVSPost2010PropOp51
 70
     0
102
RTVSPost2010Prop52
140
1.0
102
RTVSPost2010PropOp52
 70
     0
102
RTVSPost2010Prop53
 90
        2
102
RTVSPost2010PropOp53
 70
     1
102
RTVSPost2010Prop54
  1
strokes_ogs.tif
102
RTVSPost2010PropOp54
 70
     1
102
RTVSPost2010Prop55
280
     0
102
RTVSPost2010PropOp55
 70
     1
102
RTVSPost2010Prop56
140
1.0
102
RTVSPost2010PropOp56
 70
     1
102
RTVSPost2010Prop57
140
1.0
102
RTVSPost2010PropOp57
 70
     1
  0
XRECORD
  5
2155
102
{ACAD_REACTORS
330
2154
102
}
330
2154
100
AcDbXrecord
280
     1
102
RTVSPost2010Prop28
280
     0
102
RTVSPost2010PropOp28
 70
     1
102
RTVSPost2010Prop29
280
     1
102
RTVSPost2010PropOp29
 70
     1
102
RTVSPost2010Prop30
280
     1
102
RTVSPost2010PropOp30
 70
     1
102
RTVSPost2010Prop31
280
     0
102
RTVSPost2010PropOp31
 70
     1
102
RTVSPost2010Prop32
280
     0
102
RTVSPost2010PropOp32
 70
     1
102
RTVSPost2010Prop33
280
     0
102
RTVSPost2010PropOp33
 70
     1
102
RTVSPost2010Prop34
280
     0
102
RTVSPost2010PropOp34
 70
     1
102
RTVSPost2010Prop35
280
     0
102
RTVSPost2010PropOp35
 70
     1
102
RTVSPost2010Prop36
280
     0
102
RTVSPost2010PropOp36
 70
     1
102
RTVSPost2010Prop37
 90
       50
102
RTVSPost2010PropOp37
 70
     1
102
RTVSPost2010Prop38
140
0.0
102
RTVSPost2010PropOp38
 70
     1
102
RTVSPost2010Prop39
140
1.0
102
RTVSPost2010PropOp39
 70
     1
102
RTVSPost2010Prop40
 90
        0
102
RTVSPost2010PropOp40
 70
     1
102
RTVSPost2010Prop41ColorIndex
 90
       18
102
RTVSPost2010Prop41ColorRGB
 90
        0
102
RTVSPost2010PropOp41
 70
     1
102
RTVSPost2010Prop42
 90
       50
102
RTVSPost2010PropOp42
 70
     1
102
RTVSPost2010Prop43
 90
        3
102
RTVSPost2010PropOp43
 70
     1
102
RTVSPost2010Prop44ColorIndex
 90
        5
102
RTVSPost2010Prop44ColorRGB
 90
      255
102
RTVSPost2010PropOp44
 70
     1
102
RTVSPost2010Prop45
280
     0
102
RTVSPost2010PropOp45
 70
     1
102
RTVSPost2010Prop46
 90
       50
102
RTVSPost2010PropOp46
 70
     1
102
RTVSPost2010Prop47
 90
       50
102
RTVSPost2010PropOp47
 70
     1
102
RTVSPost2010Prop48
 90
       50
102
RTVSPost2010PropOp48
 70
     1
102
RTVSPost2010Prop49
280
     0
102
RTVSPost2010PropOp49
 70
     1
102
RTVSPost2010Prop50
 90
       50
102
RTVSPost2010PropOp50
 70
     1
102
RTVSPost2010Prop51ColorIndex
 90
      256
102
RTVSPost2010Prop51ColorRGB
 90
-16777216
102
RTVSPost2010PropOp51
 70
     0
102
RTVSPost2010Prop52
140
1.0
102
RTVSPost2010PropOp52
 70
     0
102
RTVSPost2010Prop53
 90
        2
102
RTVSPost2010PropOp53
 70
     1
102
RTVSPost2010Prop54
  1
strokes_ogs.tif
102
RTVSPost2010PropOp54
 70
     1
102
RTVSPost2010Prop55
280
     0
102
RTVSPost2010PropOp55
 70
     1
102
RTVSPost2010Prop56
140
1.0
102
RTVSPost2010PropOp56
 70
     1
102
RTVSPost2010Prop57
140
1.0
102
RTVSPost2010PropOp57
 70
     1
  0
XRECORD
  5
215D
102
{ACAD_REACTORS
330
215C
102
}
330
215C
100
AcDbXrecord
280
     1
102
RTVSPost2010Prop28
280
     0
102
RTVSPost2010PropOp28
 70
     1
102
RTVSPost2010Prop29
280
     1
102
RTVSPost2010PropOp29
 70
     1
102
RTVSPost2010Prop30
280
     1
102
RTVSPost2010PropOp30
 70
     1
102
RTVSPost2010Prop31
280
     0
102
RTVSPost2010PropOp31
 70
     1
102
RTVSPost2010Prop32
280
     0
102
RTVSPost2010PropOp32
 70
     1
102
RTVSPost2010Prop33
280
     0
102
RTVSPost2010PropOp33
 70
     1
102
RTVSPost2010Prop34
280
     0
102
RTVSPost2010PropOp34
 70
     1
102
RTVSPost2010Prop35
280
     0
102
RTVSPost2010PropOp35
 70
     1
102
RTVSPost2010Prop36
280
     0
102
RTVSPost2010PropOp36
 70
     1
102
RTVSPost2010Prop37
 90
       50
102
RTVSPost2010PropOp37
 70
     1
102
RTVSPost2010Prop38
140
0.0
102
RTVSPost2010PropOp38
 70
     1
102
RTVSPost2010Prop39
140
1.0
102
RTVSPost2010PropOp39
 70
     1
102
RTVSPost2010Prop40
 90
        0
102
RTVSPost2010PropOp40
 70
     1
102
RTVSPost2010Prop41ColorIndex
 90
       18
102
RTVSPost2010Prop41ColorRGB
 90
        0
102
RTVSPost2010PropOp41
 70
     1
102
RTVSPost2010Prop42
 90
       50
102
RTVSPost2010PropOp42
 70
     1
102
RTVSPost2010Prop43
 90
        3
102
RTVSPost2010PropOp43
 70
     1
102
RTVSPost2010Prop44ColorIndex
 90
        5
102
RTVSPost2010Prop44ColorRGB
 90
      255
102
RTVSPost2010PropOp44
 70
     1
102
RTVSPost2010Prop45
280
     0
102
RTVSPost2010PropOp45
 70
     1
102
RTVSPost2010Prop46
 90
       50
102
RTVSPost2010PropOp46
 70
     1
102
RTVSPost2010Prop47
 90
       50
102
RTVSPost2010PropOp47
 70
     1
102
RTVSPost2010Prop48
 90
       50
102
RTVSPost2010PropOp48
 70
     1
102
RTVSPost2010Prop49
280
     0
102
RTVSPost2010PropOp49
 70
     1
102
RTVSPost2010Prop50
 90
       50
102
RTVSPost2010PropOp50
 70
     1
102
RTVSPost2010Prop51ColorIndex
 90
      256
102
RTVSPost2010Prop51ColorRGB
 90
-16777216
102
RTVSPost2010PropOp51
 70
     0
102
RTVSPost2010Prop52
140
1.0
102
RTVSPost2010PropOp52
 70
     0
102
RTVSPost2010Prop53
 90
        2
102
RTVSPost2010PropOp53
 70
     1
102
RTVSPost2010Prop54
  1
strokes_ogs.tif
102
RTVSPost2010PropOp54
 70
     1
102
RTVSPost2010Prop55
280
     0
102
RTVSPost2010PropOp55
 70
     1
102
RTVSPost2010Prop56
140
1.0
102
RTVSPost2010PropOp56
 70
     1
102
RTVSPost2010Prop57
140
1.0
102
RTVSPost2010PropOp57
 70
     1
  0
XRECORD
  5
214F
102
{ACAD_REACTORS
330
214E
102
}
330
214E
100
AcDbXrecord
280
     1
102
RTVSPost2010Prop28
280
     0
102
RTVSPost2010PropOp28
 70
     1
102
RTVSPost2010Prop29
280
     1
102
RTVSPost2010PropOp29
 70
     1
102
RTVSPost2010Prop30
280
     1
102
RTVSPost2010PropOp30
 70
     1
102
RTVSPost2010Prop31
280
     0
102
RTVSPost2010PropOp31
 70
     1
102
RTVSPost2010Prop32
280
     0
102
RTVSPost2010PropOp32
 70
     1
102
RTVSPost2010Prop33
280
     0
102
RTVSPost2010PropOp33
 70
     1
102
RTVSPost2010Prop34
280
     0
102
RTVSPost2010PropOp34
 70
     1
102
RTVSPost2010Prop35
280
     0
102
RTVSPost2010PropOp35
 70
     1
102
RTVSPost2010Prop36
280
     0
102
RTVSPost2010PropOp36
 70
     1
102
RTVSPost2010Prop37
 90
       50
102
RTVSPost2010PropOp37
 70
     1
102
RTVSPost2010Prop38
140
0.0
102
RTVSPost2010PropOp38
 70
     1
102
RTVSPost2010Prop39
140
1.0
102
RTVSPost2010PropOp39
 70
     1
102
RTVSPost2010Prop40
 90
        0
102
RTVSPost2010PropOp40
 70
     1
102
RTVSPost2010Prop41ColorIndex
 90
       18
102
RTVSPost2010Prop41ColorRGB
 90
        0
102
RTVSPost2010PropOp41
 70
     1
102
RTVSPost2010Prop42
 90
       50
102
RTVSPost2010PropOp42
 70
     1
102
RTVSPost2010Prop43
 90
        3
102
RTVSPost2010PropOp43
 70
     1
102
RTVSPost2010Prop44ColorIndex
 90
        5
102
RTVSPost2010Prop44ColorRGB
 90
      255
102
RTVSPost2010PropOp44
 70
     1
102
RTVSPost2010Prop45
280
     0
102
RTVSPost2010PropOp45
 70
     1
102
RTVSPost2010Prop46
 90
       50
102
RTVSPost2010PropOp46
 70
     1
102
RTVSPost2010Prop47
 90
       50
102
RTVSPost2010PropOp47
 70
     1
102
RTVSPost2010Prop48
 90
       50
102
RTVSPost2010PropOp48
 70
     1
102
RTVSPost2010Prop49
280
     0
102
RTVSPost2010PropOp49
 70
     1
102
RTVSPost2010Prop50
 90
       50
102
RTVSPost2010PropOp50
 70
     1
102
RTVSPost2010Prop51ColorIndex
 90
      256
102
RTVSPost2010Prop51ColorRGB
 90
-16777216
102
RTVSPost2010PropOp51
 70
     0
102
RTVSPost2010Prop52
140
1.0
102
RTVSPost2010PropOp52
 70
     0
102
RTVSPost2010Prop53
 90
        2
102
RTVSPost2010PropOp53
 70
     1
102
RTVSPost2010Prop54
  1
strokes_ogs.tif
102
RTVSPost2010PropOp54
 70
     1
102
RTVSPost2010Prop55
280
     0
102
RTVSPost2010PropOp55
 70
     1
102
RTVSPost2010Prop56
140
1.0
102
RTVSPost2010PropOp56
 70
     1
102
RTVSPost2010Prop57
140
1.0
102
RTVSPost2010PropOp57
 70
     1
  0
XRECORD
  5
2153
102
{ACAD_REACTORS
330
2152
102
}
330
2152
100
AcDbXrecord
280
     1
102
RTVSPost2010Prop28
280
     0
102
RTVSPost2010PropOp28
 70
     1
102
RTVSPost2010Prop29
280
     1
102
RTVSPost2010PropOp29
 70
     1
102
RTVSPost2010Prop30
280
     1
102
RTVSPost2010PropOp30
 70
     1
102
RTVSPost2010Prop31
280
     0
102
RTVSPost2010PropOp31
 70
     1
102
RTVSPost2010Prop32
280
     0
102
RTVSPost2010PropOp32
 70
     1
102
RTVSPost2010Prop33
280
     0
102
RTVSPost2010PropOp33
 70
     1
102
RTVSPost2010Prop34
280
     0
102
RTVSPost2010PropOp34
 70
     1
102
RTVSPost2010Prop35
280
     0
102
RTVSPost2010PropOp35
 70
     1
102
RTVSPost2010Prop36
280
     0
102
RTVSPost2010PropOp36
 70
     1
102
RTVSPost2010Prop37
 90
       50
102
RTVSPost2010PropOp37
 70
     1
102
RTVSPost2010Prop38
140
0.0
102
RTVSPost2010PropOp38
 70
     1
102
RTVSPost2010Prop39
140
1.0
102
RTVSPost2010PropOp39
 70
     1
102
RTVSPost2010Prop40
 90
        0
102
RTVSPost2010PropOp40
 70
     1
102
RTVSPost2010Prop41ColorIndex
 90
       18
102
RTVSPost2010Prop41ColorRGB
 90
        0
102
RTVSPost2010PropOp41
 70
     1
102
RTVSPost2010Prop42
 90
       50
102
RTVSPost2010PropOp42
 70
     1
102
RTVSPost2010Prop43
 90
        3
102
RTVSPost2010PropOp43
 70
     1
102
RTVSPost2010Prop44ColorIndex
 90
        5
102
RTVSPost2010Prop44ColorRGB
 90
      255
102
RTVSPost2010PropOp44
 70
     1
102
RTVSPost2010Prop45
280
     0
102
RTVSPost2010PropOp45
 70
     1
102
RTVSPost2010Prop46
 90
       50
102
RTVSPost2010PropOp46
 70
     1
102
RTVSPost2010Prop47
 90
       50
102
RTVSPost2010PropOp47
 70
     1
102
RTVSPost2010Prop48
 90
       50
102
RTVSPost2010PropOp48
 70
     1
102
RTVSPost2010Prop49
280
     0
102
RTVSPost2010PropOp49
 70
     1
102
RTVSPost2010Prop50
 90
       50
102
RTVSPost2010PropOp50
 70
     1
102
RTVSPost2010Prop51ColorIndex
 90
      256
102
RTVSPost2010Prop51ColorRGB
 90
-16777216
102
RTVSPost2010PropOp51
 70
     0
102
RTVSPost2010Prop52
140
1.0
102
RTVSPost2010PropOp52
 70
     0
102
RTVSPost2010Prop53
 90
        2
102
RTVSPost2010PropOp53
 70
     1
102
RTVSPost2010Prop54
  1
strokes_ogs.tif
102
RTVSPost2010PropOp54
 70
     1
102
RTVSPost2010Prop55
280
     0
102
RTVSPost2010PropOp55
 70
     1
102
RTVSPost2010Prop56
140
1.0
102
RTVSPost2010PropOp56
 70
     1
102
RTVSPost2010Prop57
140
1.0
102
RTVSPost2010PropOp57
 70
     1
  0
XRECORD
  5
216D
102
{ACAD_REACTORS
330
216C
102
}
330
216C
100
AcDbXrecord
280
     1
102
RTVSPost2010Prop28
280
     0
102
RTVSPost2010PropOp28
 70
     0
102
RTVSPost2010Prop29
280
     1
102
RTVSPost2010PropOp29
 70
     0
102
RTVSPost2010Prop30
280
     1
102
RTVSPost2010PropOp30
 70
     0
102
RTVSPost2010Prop31
280
     0
102
RTVSPost2010PropOp31
 70
     0
102
RTVSPost2010Prop32
280
     0
102
RTVSPost2010PropOp32
 70
     0
102
RTVSPost2010Prop33
280
     0
102
RTVSPost2010PropOp33
 70
     0
102
RTVSPost2010Prop34
280
     0
102
RTVSPost2010PropOp34
 70
     0
102
RTVSPost2010Prop35
280
     0
102
RTVSPost2010PropOp35
 70
     0
102
RTVSPost2010Prop36
280
     0
102
RTVSPost2010PropOp36
 70
     0
102
RTVSPost2010Prop37
 90
       50
102
RTVSPost2010PropOp37
 70
     0
102
RTVSPost2010Prop38
140
0.0
102
RTVSPost2010PropOp38
 70
     0
102
RTVSPost2010Prop39
140
1.0
102
RTVSPost2010PropOp39
 70
     0
102
RTVSPost2010Prop40
 90
        0
102
RTVSPost2010PropOp40
 70
     0
102
RTVSPost2010Prop41ColorIndex
 90
       18
102
RTVSPost2010Prop41ColorRGB
 90
        0
102
RTVSPost2010PropOp41
 70
     0
102
RTVSPost2010Prop42
 90
       50
102
RTVSPost2010PropOp42
 70
     0
102
RTVSPost2010Prop43
 90
        3
102
RTVSPost2010PropOp43
 70
     0
102
RTVSPost2010Prop44ColorIndex
 90
        5
102
RTVSPost2010Prop44ColorRGB
 90
      255
102
RTVSPost2010PropOp44
 70
     0
102
RTVSPost2010Prop45
280
     0
102
RTVSPost2010PropOp45
 70
     0
102
RTVSPost2010Prop46
 90
       50
102
RTVSPost2010PropOp46
 70
     0
102
RTVSPost2010Prop47
 90
       50
102
RTVSPost2010PropOp47
 70
     0
102
RTVSPost2010Prop48
 90
       50
102
RTVSPost2010PropOp48
 70
     0
102
RTVSPost2010Prop49
280
     0
102
RTVSPost2010PropOp49
 70
     0
102
RTVSPost2010Prop50
 90
       50
102
RTVSPost2010PropOp50
 70
     0
102
RTVSPost2010Prop51ColorIndex
 90
      256
102
RTVSPost2010Prop51ColorRGB
 90
-16777216
102
RTVSPost2010PropOp51
 70
     0
102
RTVSPost2010Prop52
140
1.0
102
RTVSPost2010PropOp52
 70
     0
102
RTVSPost2010Prop53
 90
        2
102
RTVSPost2010PropOp53
 70
     0
102
RTVSPost2010Prop54
  1
strokes_ogs.tif
102
RTVSPost2010PropOp54
 70
     0
102
RTVSPost2010Prop55
280
     0
102
RTVSPost2010PropOp55
 70
     0
102
RTVSPost2010Prop56
140
1.0
102
RTVSPost2010PropOp56
 70
     0
102
RTVSPost2010Prop57
140
1.0
102
RTVSPost2010PropOp57
 70
     0
  0
XRECORD
  5
215B
102
{ACAD_REACTORS
330
215A
102
}
330
215A
100
AcDbXrecord
280
     1
102
RTVSPost2010Prop28
280
     0
102
RTVSPost2010PropOp28
 70
     1
102
RTVSPost2010Prop29
280
     1
102
RTVSPost2010PropOp29
 70
     1
102
RTVSPost2010Prop30
280
     1
102
RTVSPost2010PropOp30
 70
     1
102
RTVSPost2010Prop31
280
     0
102
RTVSPost2010PropOp31
 70
     1
102
RTVSPost2010Prop32
280
     0
102
RTVSPost2010PropOp32
 70
     1
102
RTVSPost2010Prop33
280
     0
102
RTVSPost2010PropOp33
 70
     1
102
RTVSPost2010Prop34
280
     0
102
RTVSPost2010PropOp34
 70
     1
102
RTVSPost2010Prop35
280
     0
102
RTVSPost2010PropOp35
 70
     1
102
RTVSPost2010Prop36
280
     0
102
RTVSPost2010PropOp36
 70
     1
102
RTVSPost2010Prop37
 90
       50
102
RTVSPost2010PropOp37
 70
     1
102
RTVSPost2010Prop38
140
0.0
102
RTVSPost2010PropOp38
 70
     1
102
RTVSPost2010Prop39
140
1.0
102
RTVSPost2010PropOp39
 70
     1
102
RTVSPost2010Prop40
 90
        0
102
RTVSPost2010PropOp40
 70
     1
102
RTVSPost2010Prop41ColorIndex
 90
       18
102
RTVSPost2010Prop41ColorRGB
 90
        0
102
RTVSPost2010PropOp41
 70
     1
102
RTVSPost2010Prop42
 90
       50
102
RTVSPost2010PropOp42
 70
     1
102
RTVSPost2010Prop43
 90
        3
102
RTVSPost2010PropOp43
 70
     1
102
RTVSPost2010Prop44ColorIndex
 90
        5
102
RTVSPost2010Prop44ColorRGB
 90
      255
102
RTVSPost2010PropOp44
 70
     1
102
RTVSPost2010Prop45
280
     0
102
RTVSPost2010PropOp45
 70
     1
102
RTVSPost2010Prop46
 90
       50
102
RTVSPost2010PropOp46
 70
     1
102
RTVSPost2010Prop47
 90
       50
102
RTVSPost2010PropOp47
 70
     1
102
RTVSPost2010Prop48
 90
       50
102
RTVSPost2010PropOp48
 70
     1
102
RTVSPost2010Prop49
280
     0
102
RTVSPost2010PropOp49
 70
     1
102
RTVSPost2010Prop50
 90
       50
102
RTVSPost2010PropOp50
 70
     1
102
RTVSPost2010Prop51ColorIndex
 90
      256
102
RTVSPost2010Prop51ColorRGB
 90
-16777216
102
RTVSPost2010PropOp51
 70
     0
102
RTVSPost2010Prop52
140
1.0
102
RTVSPost2010PropOp52
 70
     0
102
RTVSPost2010Prop53
 90
        2
102
RTVSPost2010PropOp53
 70
     1
102
RTVSPost2010Prop54
  1
strokes_ogs.tif
102
RTVSPost2010PropOp54
 70
     1
102
RTVSPost2010Prop55
280
     0
102
RTVSPost2010PropOp55
 70
     1
102
RTVSPost2010Prop56
140
1.0
102
RTVSPost2010PropOp56
 70
     1
102
RTVSPost2010Prop57
140
1.0
102
RTVSPost2010PropOp57
 70
     1
  0
XRECORD
  5
213F
102
{ACAD_REACTORS
330
213E
102
}
330
213E
100
AcDbXrecord
280
     1
102
RTVSPost2010Prop28
280
     0
102
RTVSPost2010PropOp28
 70
     1
102
RTVSPost2010Prop29
280
     1
102
RTVSPost2010PropOp29
 70
     1
102
RTVSPost2010Prop30
280
     1
102
RTVSPost2010PropOp30
 70
     1
102
RTVSPost2010Prop31
280
     0
102
RTVSPost2010PropOp31
 70
     1
102
RTVSPost2010Prop32
280
     0
102
RTVSPost2010PropOp32
 70
     1
102
RTVSPost2010Prop33
280
     0
102
RTVSPost2010PropOp33
 70
     1
102
RTVSPost2010Prop34
280
     0
102
RTVSPost2010PropOp34
 70
     1
102
RTVSPost2010Prop35
280
     0
102
RTVSPost2010PropOp35
 70
     1
102
RTVSPost2010Prop36
280
     0
102
RTVSPost2010PropOp36
 70
     1
102
RTVSPost2010Prop37
 90
       50
102
RTVSPost2010PropOp37
 70
     1
102
RTVSPost2010Prop38
140
0.0
102
RTVSPost2010PropOp38
 70
     1
102
RTVSPost2010Prop39
140
1.0
102
RTVSPost2010PropOp39
 70
     1
102
RTVSPost2010Prop40
 90
        0
102
RTVSPost2010PropOp40
 70
     1
102
RTVSPost2010Prop41ColorIndex
 90
       18
102
RTVSPost2010Prop41ColorRGB
 90
        0
102
RTVSPost2010PropOp41
 70
     1
102
RTVSPost2010Prop42
 90
       50
102
RTVSPost2010PropOp42
 70
     1
102
RTVSPost2010Prop43
 90
        3
102
RTVSPost2010PropOp43
 70
     1
102
RTVSPost2010Prop44ColorIndex
 90
        5
102
RTVSPost2010Prop44ColorRGB
 90
      255
102
RTVSPost2010PropOp44
 70
     1
102
RTVSPost2010Prop45
280
     0
102
RTVSPost2010PropOp45
 70
     1
102
RTVSPost2010Prop46
 90
       50
102
RTVSPost2010PropOp46
 70
     1
102
RTVSPost2010Prop47
 90
       50
102
RTVSPost2010PropOp47
 70
     1
102
RTVSPost2010Prop48
 90
       50
102
RTVSPost2010PropOp48
 70
     1
102
RTVSPost2010Prop49
280
     0
102
RTVSPost2010PropOp49
 70
     1
102
RTVSPost2010Prop50
 90
       50
102
RTVSPost2010PropOp50
 70
     1
102
RTVSPost2010Prop51ColorIndex
 90
      256
102
RTVSPost2010Prop51ColorRGB
 90
-16777216
102
RTVSPost2010PropOp51
 70
     0
102
RTVSPost2010Prop52
140
1.0
102
RTVSPost2010PropOp52
 70
     0
102
RTVSPost2010Prop53
 90
        2
102
RTVSPost2010PropOp53
 70
     1
102
RTVSPost2010Prop54
  1
strokes_ogs.tif
102
RTVSPost2010PropOp54
 70
     1
102
RTVSPost2010Prop55
280
     0
102
RTVSPost2010PropOp55
 70
     1
102
RTVSPost2010Prop56
140
1.0
102
RTVSPost2010PropOp56
 70
     1
102
RTVSPost2010Prop57
140
1.0
102
RTVSPost2010PropOp57
 70
     1
  0
XRECORD
  5
2141
102
{ACAD_REACTORS
330
2140
102
}
330
2140
100
AcDbXrecord
280
     1
102
RTVSPost2010Prop28
280
     0
102
RTVSPost2010PropOp28
 70
     1
102
RTVSPost2010Prop29
280
     1
102
RTVSPost2010PropOp29
 70
     1
102
RTVSPost2010Prop30
280
     1
102
RTVSPost2010PropOp30
 70
     1
102
RTVSPost2010Prop31
280
     0
102
RTVSPost2010PropOp31
 70
     1
102
RTVSPost2010Prop32
280
     0
102
RTVSPost2010PropOp32
 70
     1
102
RTVSPost2010Prop33
280
     0
102
RTVSPost2010PropOp33
 70
     1
102
RTVSPost2010Prop34
280
     0
102
RTVSPost2010PropOp34
 70
     1
102
RTVSPost2010Prop35
280
     0
102
RTVSPost2010PropOp35
 70
     1
102
RTVSPost2010Prop36
280
     0
102
RTVSPost2010PropOp36
 70
     1
102
RTVSPost2010Prop37
 90
       50
102
RTVSPost2010PropOp37
 70
     1
102
RTVSPost2010Prop38
140
0.0
102
RTVSPost2010PropOp38
 70
     1
102
RTVSPost2010Prop39
140
1.0
102
RTVSPost2010PropOp39
 70
     1
102
RTVSPost2010Prop40
 90
        0
102
RTVSPost2010PropOp40
 70
     1
102
RTVSPost2010Prop41ColorIndex
 90
       18
102
RTVSPost2010Prop41ColorRGB
 90
        0
102
RTVSPost2010PropOp41
 70
     1
102
RTVSPost2010Prop42
 90
       50
102
RTVSPost2010PropOp42
 70
     1
102
RTVSPost2010Prop43
 90
        3
102
RTVSPost2010PropOp43
 70
     1
102
RTVSPost2010Prop44ColorIndex
 90
        5
102
RTVSPost2010Prop44ColorRGB
 90
      255
102
RTVSPost2010PropOp44
 70
     1
102
RTVSPost2010Prop45
280
     0
102
RTVSPost2010PropOp45
 70
     1
102
RTVSPost2010Prop46
 90
       50
102
RTVSPost2010PropOp46
 70
     1
102
RTVSPost2010Prop47
 90
       50
102
RTVSPost2010PropOp47
 70
     1
102
RTVSPost2010Prop48
 90
       50
102
RTVSPost2010PropOp48
 70
     1
102
RTVSPost2010Prop49
280
     0
102
RTVSPost2010PropOp49
 70
     1
102
RTVSPost2010Prop50
 90
       50
102
RTVSPost2010PropOp50
 70
     1
102
RTVSPost2010Prop51ColorIndex
 90
      256
102
RTVSPost2010Prop51ColorRGB
 90
-16777216
102
RTVSPost2010PropOp51
 70
     0
102
RTVSPost2010Prop52
140
1.0
102
RTVSPost2010PropOp52
 70
     0
102
RTVSPost2010Prop53
 90
        2
102
RTVSPost2010PropOp53
 70
     1
102
RTVSPost2010Prop54
  1
strokes_ogs.tif
102
RTVSPost2010PropOp54
 70
     1
102
RTVSPost2010Prop55
280
     0
102
RTVSPost2010PropOp55
 70
     1
102
RTVSPost2010Prop56
140
1.0
102
RTVSPost2010PropOp56
 70
     1
102
RTVSPost2010Prop57
140
1.0
102
RTVSPost2010PropOp57
 70
     1
  0
XRECORD
  5
2143
102
{ACAD_REACTORS
330
2142
102
}
330
2142
100
AcDbXrecord
280
     1
102
RTVSPost2010Prop28
280
     0
102
RTVSPost2010PropOp28
 70
     1
102
RTVSPost2010Prop29
280
     1
102
RTVSPost2010PropOp29
 70
     1
102
RTVSPost2010Prop30
280
     1
102
RTVSPost2010PropOp30
 70
     1
102
RTVSPost2010Prop31
280
     0
102
RTVSPost2010PropOp31
 70
     1
102
RTVSPost2010Prop32
280
     0
102
RTVSPost2010PropOp32
 70
     1
102
RTVSPost2010Prop33
280
     0
102
RTVSPost2010PropOp33
 70
     1
102
RTVSPost2010Prop34
280
     0
102
RTVSPost2010PropOp34
 70
     1
102
RTVSPost2010Prop35
280
     0
102
RTVSPost2010PropOp35
 70
     1
102
RTVSPost2010Prop36
280
     0
102
RTVSPost2010PropOp36
 70
     1
102
RTVSPost2010Prop37
 90
       50
102
RTVSPost2010PropOp37
 70
     1
102
RTVSPost2010Prop38
140
0.0
102
RTVSPost2010PropOp38
 70
     1
102
RTVSPost2010Prop39
140
1.0
102
RTVSPost2010PropOp39
 70
     1
102
RTVSPost2010Prop40
 90
        0
102
RTVSPost2010PropOp40
 70
     1
102
RTVSPost2010Prop41ColorIndex
 90
       18
102
RTVSPost2010Prop41ColorRGB
 90
        0
102
RTVSPost2010PropOp41
 70
     1
102
RTVSPost2010Prop42
 90
       50
102
RTVSPost2010PropOp42
 70
     1
102
RTVSPost2010Prop43
 90
        3
102
RTVSPost2010PropOp43
 70
     1
102
RTVSPost2010Prop44ColorIndex
 90
        5
102
RTVSPost2010Prop44ColorRGB
 90
      255
102
RTVSPost2010PropOp44
 70
     1
102
RTVSPost2010Prop45
280
     0
102
RTVSPost2010PropOp45
 70
     1
102
RTVSPost2010Prop46
 90
       50
102
RTVSPost2010PropOp46
 70
     1
102
RTVSPost2010Prop47
 90
       50
102
RTVSPost2010PropOp47
 70
     1
102
RTVSPost2010Prop48
 90
       50
102
RTVSPost2010PropOp48
 70
     1
102
RTVSPost2010Prop49
280
     0
102
RTVSPost2010PropOp49
 70
     1
102
RTVSPost2010Prop50
 90
       50
102
RTVSPost2010PropOp50
 70
     1
102
RTVSPost2010Prop51ColorIndex
 90
      256
102
RTVSPost2010Prop51ColorRGB
 90
-16777216
102
RTVSPost2010PropOp51
 70
     0
102
RTVSPost2010Prop52
140
1.0
102
RTVSPost2010PropOp52
 70
     0
102
RTVSPost2010Prop53
 90
        2
102
RTVSPost2010PropOp53
 70
     1
102
RTVSPost2010Prop54
  1
strokes_ogs.tif
102
RTVSPost2010PropOp54
 70
     1
102
RTVSPost2010Prop55
280
     0
102
RTVSPost2010PropOp55
 70
     1
102
RTVSPost2010Prop56
140
1.0
102
RTVSPost2010PropOp56
 70
     1
102
RTVSPost2010Prop57
140
1.0
102
RTVSPost2010PropOp57
 70
     1
  0
XRECORD
  5
2145
102
{ACAD_REACTORS
330
2144
102
}
330
2144
100
AcDbXrecord
280
     1
102
RTVSPost2010Prop28
280
     0
102
RTVSPost2010PropOp28
 70
     1
102
RTVSPost2010Prop29
280
     1
102
RTVSPost2010PropOp29
 70
     1
102
RTVSPost2010Prop30
280
     1
102
RTVSPost2010PropOp30
 70
     1
102
RTVSPost2010Prop31
280
     0
102
RTVSPost2010PropOp31
 70
     1
102
RTVSPost2010Prop32
280
     0
102
RTVSPost2010PropOp32
 70
     1
102
RTVSPost2010Prop33
280
     0
102
RTVSPost2010PropOp33
 70
     1
102
RTVSPost2010Prop34
280
     0
102
RTVSPost2010PropOp34
 70
     1
102
RTVSPost2010Prop35
280
     0
102
RTVSPost2010PropOp35
 70
     1
102
RTVSPost2010Prop36
280
     0
102
RTVSPost2010PropOp36
 70
     1
102
RTVSPost2010Prop37
 90
       50
102
RTVSPost2010PropOp37
 70
     1
102
RTVSPost2010Prop38
140
0.0
102
RTVSPost2010PropOp38
 70
     1
102
RTVSPost2010Prop39
140
1.0
102
RTVSPost2010PropOp39
 70
     1
102
RTVSPost2010Prop40
 90
        0
102
RTVSPost2010PropOp40
 70
     1
102
RTVSPost2010Prop41ColorIndex
 90
       18
102
RTVSPost2010Prop41ColorRGB
 90
        0
102
RTVSPost2010PropOp41
 70
     1
102
RTVSPost2010Prop42
 90
       50
102
RTVSPost2010PropOp42
 70
     1
102
RTVSPost2010Prop43
 90
        3
102
RTVSPost2010PropOp43
 70
     1
102
RTVSPost2010Prop44ColorIndex
 90
        5
102
RTVSPost2010Prop44ColorRGB
 90
      255
102
RTVSPost2010PropOp44
 70
     1
102
RTVSPost2010Prop45
280
     0
102
RTVSPost2010PropOp45
 70
     1
102
RTVSPost2010Prop46
 90
       50
102
RTVSPost2010PropOp46
 70
     1
102
RTVSPost2010Prop47
 90
       50
102
RTVSPost2010PropOp47
 70
     1
102
RTVSPost2010Prop48
 90
       50
102
RTVSPost2010PropOp48
 70
     1
102
RTVSPost2010Prop49
280
     0
102
RTVSPost2010PropOp49
 70
     1
102
RTVSPost2010Prop50
 90
       50
102
RTVSPost2010PropOp50
 70
     1
102
RTVSPost2010Prop51ColorIndex
 90
      256
102
RTVSPost2010Prop51ColorRGB
 90
-16777216
102
RTVSPost2010PropOp51
 70
     0
102
RTVSPost2010Prop52
140
1.0
102
RTVSPost2010PropOp52
 70
     0
102
RTVSPost2010Prop53
 90
        2
102
RTVSPost2010PropOp53
 70
     1
102
RTVSPost2010Prop54
  1
strokes_ogs.tif
102
RTVSPost2010PropOp54
 70
     1
102
RTVSPost2010Prop55
280
     0
102
RTVSPost2010PropOp55
 70
     1
102
RTVSPost2010Prop56
140
1.0
102
RTVSPost2010PropOp56
 70
     1
102
RTVSPost2010Prop57
140
1.0
102
RTVSPost2010PropOp57
 70
     1
  0
XRECORD
  5
214D
102
{ACAD_REACTORS
330
214C
102
}
330
214C
100
AcDbXrecord
280
     1
102
RTVSPost2010Prop28
280
     0
102
RTVSPost2010PropOp28
 70
     1
102
RTVSPost2010Prop29
280
     1
102
RTVSPost2010PropOp29
 70
     1
102
RTVSPost2010Prop30
280
     1
102
RTVSPost2010PropOp30
 70
     1
102
RTVSPost2010Prop31
280
     0
102
RTVSPost2010PropOp31
 70
     1
102
RTVSPost2010Prop32
280
     0
102
RTVSPost2010PropOp32
 70
     1
102
RTVSPost2010Prop33
280
     0
102
RTVSPost2010PropOp33
 70
     1
102
RTVSPost2010Prop34
280
     0
102
RTVSPost2010PropOp34
 70
     1
102
RTVSPost2010Prop35
280
     0
102
RTVSPost2010PropOp35
 70
     1
102
RTVSPost2010Prop36
280
     0
102
RTVSPost2010PropOp36
 70
     1
102
RTVSPost2010Prop37
 90
       50
102
RTVSPost2010PropOp37
 70
     1
102
RTVSPost2010Prop38
140
0.0
102
RTVSPost2010PropOp38
 70
     1
102
RTVSPost2010Prop39
140
1.0
102
RTVSPost2010PropOp39
 70
     1
102
RTVSPost2010Prop40
 90
        0
102
RTVSPost2010PropOp40
 70
     1
102
RTVSPost2010Prop41ColorIndex
 90
       18
102
RTVSPost2010Prop41ColorRGB
 90
        0
102
RTVSPost2010PropOp41
 70
     1
102
RTVSPost2010Prop42
 90
       50
102
RTVSPost2010PropOp42
 70
     1
102
RTVSPost2010Prop43
 90
        3
102
RTVSPost2010PropOp43
 70
     1
102
RTVSPost2010Prop44ColorIndex
 90
        5
102
RTVSPost2010Prop44ColorRGB
 90
      255
102
RTVSPost2010PropOp44
 70
     1
102
RTVSPost2010Prop45
280
     0
102
RTVSPost2010PropOp45
 70
     1
102
RTVSPost2010Prop46
 90
       50
102
RTVSPost2010PropOp46
 70
     1
102
RTVSPost2010Prop47
 90
       50
102
RTVSPost2010PropOp47
 70
     1
102
RTVSPost2010Prop48
 90
       50
102
RTVSPost2010PropOp48
 70
     1
102
RTVSPost2010Prop49
280
     0
102
RTVSPost2010PropOp49
 70
     1
102
RTVSPost2010Prop50
 90
       50
102
RTVSPost2010PropOp50
 70
     1
102
RTVSPost2010Prop51ColorIndex
 90
      256
102
RTVSPost2010Prop51ColorRGB
 90
-16777216
102
RTVSPost2010PropOp51
 70
     0
102
RTVSPost2010Prop52
140
1.0
102
RTVSPost2010PropOp52
 70
     0
102
RTVSPost2010Prop53
 90
        2
102
RTVSPost2010PropOp53
 70
     1
102
RTVSPost2010Prop54
  1
strokes_ogs.tif
102
RTVSPost2010PropOp54
 70
     1
102
RTVSPost2010Prop55
280
     0
102
RTVSPost2010PropOp55
 70
     1
102
RTVSPost2010Prop56
140
1.0
102
RTVSPost2010PropOp56
 70
     1
102
RTVSPost2010Prop57
140
1.0
102
RTVSPost2010PropOp57
 70
     1
  0
XRECORD
  5
2169
102
{ACAD_REACTORS
330
2168
102
}
330
2168
100
AcDbXrecord
280
     1
102
RTVSPost2010Prop28
280
     0
102
RTVSPost2010PropOp28
 70
     0
102
RTVSPost2010Prop29
280
     1
102
RTVSPost2010PropOp29
 70
     0
102
RTVSPost2010Prop30
280
     1
102
RTVSPost2010PropOp30
 70
     0
102
RTVSPost2010Prop31
280
     0
102
RTVSPost2010PropOp31
 70
     0
102
RTVSPost2010Prop32
280
     0
102
RTVSPost2010PropOp32
 70
     0
102
RTVSPost2010Prop33
280
     0
102
RTVSPost2010PropOp33
 70
     0
102
RTVSPost2010Prop34
280
     0
102
RTVSPost2010PropOp34
 70
     0
102
RTVSPost2010Prop35
280
     0
102
RTVSPost2010PropOp35
 70
     0
102
RTVSPost2010Prop36
280
     0
102
RTVSPost2010PropOp36
 70
     0
102
RTVSPost2010Prop37
 90
       50
102
RTVSPost2010PropOp37
 70
     0
102
RTVSPost2010Prop38
140
0.0
102
RTVSPost2010PropOp38
 70
     0
102
RTVSPost2010Prop39
140
1.0
102
RTVSPost2010PropOp39
 70
     0
102
RTVSPost2010Prop40
 90
        0
102
RTVSPost2010PropOp40
 70
     0
102
RTVSPost2010Prop41ColorIndex
 90
       18
102
RTVSPost2010Prop41ColorRGB
 90
        0
102
RTVSPost2010PropOp41
 70
     0
102
RTVSPost2010Prop42
 90
       50
102
RTVSPost2010PropOp42
 70
     0
102
RTVSPost2010Prop43
 90
        3
102
RTVSPost2010PropOp43
 70
     0
102
RTVSPost2010Prop44ColorIndex
 90
        5
102
RTVSPost2010Prop44ColorRGB
 90
      255
102
RTVSPost2010PropOp44
 70
     0
102
RTVSPost2010Prop45
280
     0
102
RTVSPost2010PropOp45
 70
     0
102
RTVSPost2010Prop46
 90
       50
102
RTVSPost2010PropOp46
 70
     0
102
RTVSPost2010Prop47
 90
       50
102
RTVSPost2010PropOp47
 70
     0
102
RTVSPost2010Prop48
 90
       50
102
RTVSPost2010PropOp48
 70
     0
102
RTVSPost2010Prop49
280
     0
102
RTVSPost2010PropOp49
 70
     0
102
RTVSPost2010Prop50
 90
       50
102
RTVSPost2010PropOp50
 70
     0
102
RTVSPost2010Prop51ColorIndex
 90
      256
102
RTVSPost2010Prop51ColorRGB
 90
-16777216
102
RTVSPost2010PropOp51
 70
     0
102
RTVSPost2010Prop52
140
1.0
102
RTVSPost2010PropOp52
 70
     0
102
RTVSPost2010Prop53
 90
        2
102
RTVSPost2010PropOp53
 70
     0
102
RTVSPost2010Prop54
  1
strokes_ogs.tif
102
RTVSPost2010PropOp54
 70
     0
102
RTVSPost2010Prop55
280
     0
102
RTVSPost2010PropOp55
 70
     0
102
RTVSPost2010Prop56
140
1.0
102
RTVSPost2010PropOp56
 70
     0
102
RTVSPost2010Prop57
140
1.0
102
RTVSPost2010PropOp57
 70
     0
  0
XRECORD
  5
2159
102
{ACAD_REACTORS
330
2158
102
}
330
2158
100
AcDbXrecord
280
     1
102
RTVSPost2010Prop28
280
     0
102
RTVSPost2010PropOp28
 70
     1
102
RTVSPost2010Prop29
280
     1
102
RTVSPost2010PropOp29
 70
     1
102
RTVSPost2010Prop30
280
     1
102
RTVSPost2010PropOp30
 70
     1
102
RTVSPost2010Prop31
280
     0
102
RTVSPost2010PropOp31
 70
     1
102
RTVSPost2010Prop32
280
     0
102
RTVSPost2010PropOp32
 70
     1
102
RTVSPost2010Prop33
280
     0
102
RTVSPost2010PropOp33
 70
     1
102
RTVSPost2010Prop34
280
     0
102
RTVSPost2010PropOp34
 70
     1
102
RTVSPost2010Prop35
280
     0
102
RTVSPost2010PropOp35
 70
     1
102
RTVSPost2010Prop36
280
     0
102
RTVSPost2010PropOp36
 70
     1
102
RTVSPost2010Prop37
 90
       50
102
RTVSPost2010PropOp37
 70
     1
102
RTVSPost2010Prop38
140
0.0
102
RTVSPost2010PropOp38
 70
     1
102
RTVSPost2010Prop39
140
1.0
102
RTVSPost2010PropOp39
 70
     1
102
RTVSPost2010Prop40
 90
        0
102
RTVSPost2010PropOp40
 70
     1
102
RTVSPost2010Prop41ColorIndex
 90
       18
102
RTVSPost2010Prop41ColorRGB
 90
        0
102
RTVSPost2010PropOp41
 70
     1
102
RTVSPost2010Prop42
 90
       50
102
RTVSPost2010PropOp42
 70
     1
102
RTVSPost2010Prop43
 90
        3
102
RTVSPost2010PropOp43
 70
     1
102
RTVSPost2010Prop44ColorIndex
 90
        5
102
RTVSPost2010Prop44ColorRGB
 90
      255
102
RTVSPost2010PropOp44
 70
     1
102
RTVSPost2010Prop45
280
     0
102
RTVSPost2010PropOp45
 70
     1
102
RTVSPost2010Prop46
 90
       50
102
RTVSPost2010PropOp46
 70
     1
102
RTVSPost2010Prop47
 90
       50
102
RTVSPost2010PropOp47
 70
     1
102
RTVSPost2010Prop48
 90
       50
102
RTVSPost2010PropOp48
 70
     1
102
RTVSPost2010Prop49
280
     0
102
RTVSPost2010PropOp49
 70
     1
102
RTVSPost2010Prop50
 90
       50
102
RTVSPost2010PropOp50
 70
     1
102
RTVSPost2010Prop51ColorIndex
 90
      256
102
RTVSPost2010Prop51ColorRGB
 90
-16777216
102
RTVSPost2010PropOp51
 70
     0
102
RTVSPost2010Prop52
140
1.0
102
RTVSPost2010PropOp52
 70
     0
102
RTVSPost2010Prop53
 90
        2
102
RTVSPost2010PropOp53
 70
     1
102
RTVSPost2010Prop54
  1
strokes_ogs.tif
102
RTVSPost2010PropOp54
 70
     1
102
RTVSPost2010Prop55
280
     0
102
RTVSPost2010PropOp55
 70
     1
102
RTVSPost2010Prop56
140
1.0
102
RTVSPost2010PropOp56
 70
     1
102
RTVSPost2010Prop57
140
1.0
102
RTVSPost2010PropOp57
 70
     1
  0
XRECORD
  5
216B
102
{ACAD_REACTORS
330
216A
102
}
330
216A
100
AcDbXrecord
280
     1
102
RTVSPost2010Prop28
280
     0
102
RTVSPost2010PropOp28
 70
     0
102
RTVSPost2010Prop29
280
     1
102
RTVSPost2010PropOp29
 70
     0
102
RTVSPost2010Prop30
280
     1
102
RTVSPost2010PropOp30
 70
     0
102
RTVSPost2010Prop31
280
     0
102
RTVSPost2010PropOp31
 70
     0
102
RTVSPost2010Prop32
280
     0
102
RTVSPost2010PropOp32
 70
     0
102
RTVSPost2010Prop33
280
     0
102
RTVSPost2010PropOp33
 70
     0
102
RTVSPost2010Prop34
280
     0
102
RTVSPost2010PropOp34
 70
     0
102
RTVSPost2010Prop35
280
     0
102
RTVSPost2010PropOp35
 70
     0
102
RTVSPost2010Prop36
280
     0
102
RTVSPost2010PropOp36
 70
     0
102
RTVSPost2010Prop37
 90
       50
102
RTVSPost2010PropOp37
 70
     0
102
RTVSPost2010Prop38
140
0.0
102
RTVSPost2010PropOp38
 70
     0
102
RTVSPost2010Prop39
140
1.0
102
RTVSPost2010PropOp39
 70
     0
102
RTVSPost2010Prop40
 90
        0
102
RTVSPost2010PropOp40
 70
     0
102
RTVSPost2010Prop41ColorIndex
 90
       18
102
RTVSPost2010Prop41ColorRGB
 90
        0
102
RTVSPost2010PropOp41
 70
     0
102
RTVSPost2010Prop42
 90
       50
102
RTVSPost2010PropOp42
 70
     0
102
RTVSPost2010Prop43
 90
        3
102
RTVSPost2010PropOp43
 70
     0
102
RTVSPost2010Prop44ColorIndex
 90
        5
102
RTVSPost2010Prop44ColorRGB
 90
      255
102
RTVSPost2010PropOp44
 70
     0
102
RTVSPost2010Prop45
280
     0
102
RTVSPost2010PropOp45
 70
     0
102
RTVSPost2010Prop46
 90
       50
102
RTVSPost2010PropOp46
 70
     0
102
RTVSPost2010Prop47
 90
       50
102
RTVSPost2010PropOp47
 70
     0
102
RTVSPost2010Prop48
 90
       50
102
RTVSPost2010PropOp48
 70
     0
102
RTVSPost2010Prop49
280
     0
102
RTVSPost2010PropOp49
 70
     0
102
RTVSPost2010Prop50
 90
       50
102
RTVSPost2010PropOp50
 70
     0
102
RTVSPost2010Prop51ColorIndex
 90
      256
102
RTVSPost2010Prop51ColorRGB
 90
-16777216
102
RTVSPost2010PropOp51
 70
     0
102
RTVSPost2010Prop52
140
1.0
102
RTVSPost2010PropOp52
 70
     0
102
RTVSPost2010Prop53
 90
        2
102
RTVSPost2010PropOp53
 70
     0
102
RTVSPost2010Prop54
  1
strokes_ogs.tif
102
RTVSPost2010PropOp54
 70
     0
102
RTVSPost2010Prop55
280
     0
102
RTVSPost2010PropOp55
 70
     0
102
RTVSPost2010Prop56
140
1.0
102
RTVSPost2010PropOp56
 70
     0
102
RTVSPost2010Prop57
140
1.0
102
RTVSPost2010PropOp57
 70
     0
  0
XRECORD
  5
2151
102
{ACAD_REACTORS
330
2150
102
}
330
2150
100
AcDbXrecord
280
     1
102
RTVSPost2010Prop28
280
     0
102
RTVSPost2010PropOp28
 70
     1
102
RTVSPost2010Prop29
280
     1
102
RTVSPost2010PropOp29
 70
     1
102
RTVSPost2010Prop30
280
     1
102
RTVSPost2010PropOp30
 70
     1
102
RTVSPost2010Prop31
280
     0
102
RTVSPost2010PropOp31
 70
     1
102
RTVSPost2010Prop32
280
     0
102
RTVSPost2010PropOp32
 70
     1
102
RTVSPost2010Prop33
280
     0
102
RTVSPost2010PropOp33
 70
     1
102
RTVSPost2010Prop34
280
     0
102
RTVSPost2010PropOp34
 70
     1
102
RTVSPost2010Prop35
280
     0
102
RTVSPost2010PropOp35
 70
     1
102
RTVSPost2010Prop36
280
     0
102
RTVSPost2010PropOp36
 70
     1
102
RTVSPost2010Prop37
 90
       50
102
RTVSPost2010PropOp37
 70
     1
102
RTVSPost2010Prop38
140
0.0
102
RTVSPost2010PropOp38
 70
     1
102
RTVSPost2010Prop39
140
1.0
102
RTVSPost2010PropOp39
 70
     1
102
RTVSPost2010Prop40
 90
        0
102
RTVSPost2010PropOp40
 70
     1
102
RTVSPost2010Prop41ColorIndex
 90
       18
102
RTVSPost2010Prop41ColorRGB
 90
        0
102
RTVSPost2010PropOp41
 70
     1
102
RTVSPost2010Prop42
 90
       50
102
RTVSPost2010PropOp42
 70
     1
102
RTVSPost2010Prop43
 90
        3
102
RTVSPost2010PropOp43
 70
     1
102
RTVSPost2010Prop44ColorIndex
 90
        5
102
RTVSPost2010Prop44ColorRGB
 90
      255
102
RTVSPost2010PropOp44
 70
     1
102
RTVSPost2010Prop45
280
     0
102
RTVSPost2010PropOp45
 70
     1
102
RTVSPost2010Prop46
 90
       50
102
RTVSPost2010PropOp46
 70
     1
102
RTVSPost2010Prop47
 90
       50
102
RTVSPost2010PropOp47
 70
     1
102
RTVSPost2010Prop48
 90
       50
102
RTVSPost2010PropOp48
 70
     1
102
RTVSPost2010Prop49
280
     0
102
RTVSPost2010PropOp49
 70
     1
102
RTVSPost2010Prop50
 90
       50
102
RTVSPost2010PropOp50
 70
     1
102
RTVSPost2010Prop51ColorIndex
 90
      256
102
RTVSPost2010Prop51ColorRGB
 90
-16777216
102
RTVSPost2010PropOp51
 70
     0
102
RTVSPost2010Prop52
140
1.0
102
RTVSPost2010PropOp52
 70
     0
102
RTVSPost2010Prop53
 90
        2
102
RTVSPost2010PropOp53
 70
     1
102
RTVSPost2010Prop54
  1
strokes_ogs.tif
102
RTVSPost2010PropOp54
 70
     1
102
RTVSPost2010Prop55
280
     0
102
RTVSPost2010PropOp55
 70
     1
102
RTVSPost2010Prop56
140
1.0
102
RTVSPost2010PropOp56
 70
     1
102
RTVSPost2010Prop57
140
1.0
102
RTVSPost2010PropOp57
 70
     1
  0
XRECORD
  5
2167
102
{ACAD_REACTORS
330
2166
102
}
330
2166
100
AcDbXrecord
280
     1
102
RTVSPost2010Prop28
280
     0
102
RTVSPost2010PropOp28
 70
     1
102
RTVSPost2010Prop29
280
     1
102
RTVSPost2010PropOp29
 70
     1
102
RTVSPost2010Prop30
280
     1
102
RTVSPost2010PropOp30
 70
     1
102
RTVSPost2010Prop31
280
     0
102
RTVSPost2010PropOp31
 70
     1
102
RTVSPost2010Prop32
280
     0
102
RTVSPost2010PropOp32
 70
     1
102
RTVSPost2010Prop33
280
     0
102
RTVSPost2010PropOp33
 70
     1
102
RTVSPost2010Prop34
280
     0
102
RTVSPost2010PropOp34
 70
     1
102
RTVSPost2010Prop35
280
     0
102
RTVSPost2010PropOp35
 70
     1
102
RTVSPost2010Prop36
280
     0
102
RTVSPost2010PropOp36
 70
     1
102
RTVSPost2010Prop37
 90
       50
102
RTVSPost2010PropOp37
 70
     1
102
RTVSPost2010Prop38
140
0.0
102
RTVSPost2010PropOp38
 70
     1
102
RTVSPost2010Prop39
140
1.0
102
RTVSPost2010PropOp39
 70
     1
102
RTVSPost2010Prop40
 90
        0
102
RTVSPost2010PropOp40
 70
     1
102
RTVSPost2010Prop41ColorIndex
 90
       18
102
RTVSPost2010Prop41ColorRGB
 90
        0
102
RTVSPost2010PropOp41
 70
     1
102
RTVSPost2010Prop42
 90
       50
102
RTVSPost2010PropOp42
 70
     1
102
RTVSPost2010Prop43
 90
        3
102
RTVSPost2010PropOp43
 70
     1
102
RTVSPost2010Prop44ColorIndex
 90
        5
102
RTVSPost2010Prop44ColorRGB
 90
      255
102
RTVSPost2010PropOp44
 70
     1
102
RTVSPost2010Prop45
280
     0
102
RTVSPost2010PropOp45
 70
     1
102
RTVSPost2010Prop46
 90
       50
102
RTVSPost2010PropOp46
 70
     1
102
RTVSPost2010Prop47
 90
       50
102
RTVSPost2010PropOp47
 70
     1
102
RTVSPost2010Prop48
 90
       50
102
RTVSPost2010PropOp48
 70
     1
102
RTVSPost2010Prop49
280
     0
102
RTVSPost2010PropOp49
 70
     1
102
RTVSPost2010Prop50
 90
       50
102
RTVSPost2010PropOp50
 70
     1
102
RTVSPost2010Prop51ColorIndex
 90
      256
102
RTVSPost2010Prop51ColorRGB
 90
-16777216
102
RTVSPost2010PropOp51
 70
     0
102
RTVSPost2010Prop52
140
1.0
102
RTVSPost2010PropOp52
 70
     0
102
RTVSPost2010Prop53
 90
        2
102
RTVSPost2010PropOp53
 70
     1
102
RTVSPost2010Prop54
  1
strokes_ogs.tif
102
RTVSPost2010PropOp54
 70
     1
102
RTVSPost2010Prop55
280
     0
102
RTVSPost2010PropOp55
 70
     1
102
RTVSPost2010Prop56
140
1.0
102
RTVSPost2010PropOp56
 70
     1
102
RTVSPost2010Prop57
140
1.0
102
RTVSPost2010PropOp57
 70
     1
  0
XRECORD
  5
2165
102
{ACAD_REACTORS
330
2164
102
}
330
2164
100
AcDbXrecord
280
     1
102
RTVSPost2010Prop28
280
     0
102
RTVSPost2010PropOp28
 70
     1
102
RTVSPost2010Prop29
280
     1
102
RTVSPost2010PropOp29
 70
     1
102
RTVSPost2010Prop30
280
     1
102
RTVSPost2010PropOp30
 70
     1
102
RTVSPost2010Prop31
280
     0
102
RTVSPost2010PropOp31
 70
     1
102
RTVSPost2010Prop32
280
     0
102
RTVSPost2010PropOp32
 70
     1
102
RTVSPost2010Prop33
280
     0
102
RTVSPost2010PropOp33
 70
     1
102
RTVSPost2010Prop34
280
     0
102
RTVSPost2010PropOp34
 70
     1
102
RTVSPost2010Prop35
280
     0
102
RTVSPost2010PropOp35
 70
     1
102
RTVSPost2010Prop36
280
     0
102
RTVSPost2010PropOp36
 70
     1
102
RTVSPost2010Prop37
 90
       50
102
RTVSPost2010PropOp37
 70
     1
102
RTVSPost2010Prop38
140
0.0
102
RTVSPost2010PropOp38
 70
     1
102
RTVSPost2010Prop39
140
1.0
102
RTVSPost2010PropOp39
 70
     1
102
RTVSPost2010Prop40
 90
        0
102
RTVSPost2010PropOp40
 70
     1
102
RTVSPost2010Prop41ColorIndex
 90
       18
102
RTVSPost2010Prop41ColorRGB
 90
        0
102
RTVSPost2010PropOp41
 70
     1
102
RTVSPost2010Prop42
 90
       50
102
RTVSPost2010PropOp42
 70
     1
102
RTVSPost2010Prop43
 90
        3
102
RTVSPost2010PropOp43
 70
     1
102
RTVSPost2010Prop44ColorIndex
 90
        5
102
RTVSPost2010Prop44ColorRGB
 90
      255
102
RTVSPost2010PropOp44
 70
     1
102
RTVSPost2010Prop45
280
     0
102
RTVSPost2010PropOp45
 70
     1
102
RTVSPost2010Prop46
 90
       50
102
RTVSPost2010PropOp46
 70
     1
102
RTVSPost2010Prop47
 90
       50
102
RTVSPost2010PropOp47
 70
     1
102
RTVSPost2010Prop48
 90
       50
102
RTVSPost2010PropOp48
 70
     1
102
RTVSPost2010Prop49
280
     0
102
RTVSPost2010PropOp49
 70
     1
102
RTVSPost2010Prop50
 90
       50
102
RTVSPost2010PropOp50
 70
     1
102
RTVSPost2010Prop51ColorIndex
 90
      256
102
RTVSPost2010Prop51ColorRGB
 90
-16777216
102
RTVSPost2010PropOp51
 70
     0
102
RTVSPost2010Prop52
140
1.0
102
RTVSPost2010PropOp52
 70
     0
102
RTVSPost2010Prop53
 90
        2
102
RTVSPost2010PropOp53
 70
     1
102
RTVSPost2010Prop54
  1
strokes_ogs.tif
102
RTVSPost2010PropOp54
 70
     1
102
RTVSPost2010Prop55
280
     0
102
RTVSPost2010PropOp55
 70
     1
102
RTVSPost2010Prop56
140
1.0
102
RTVSPost2010PropOp56
 70
     1
102
RTVSPost2010Prop57
140
1.0
102
RTVSPost2010PropOp57
 70
     1
  0
XRECORD
  5
215F
102
{ACAD_REACTORS
330
215E
102
}
330
215E
100
AcDbXrecord
280
     1
102
RTVSPost2010Prop28
280
     0
102
RTVSPost2010PropOp28
 70
     1
102
RTVSPost2010Prop29
280
     1
102
RTVSPost2010PropOp29
 70
     1
102
RTVSPost2010Prop30
280
     1
102
RTVSPost2010PropOp30
 70
     1
102
RTVSPost2010Prop31
280
     0
102
RTVSPost2010PropOp31
 70
     1
102
RTVSPost2010Prop32
280
     0
102
RTVSPost2010PropOp32
 70
     1
102
RTVSPost2010Prop33
280
     0
102
RTVSPost2010PropOp33
 70
     1
102
RTVSPost2010Prop34
280
     0
102
RTVSPost2010PropOp34
 70
     1
102
RTVSPost2010Prop35
280
     0
102
RTVSPost2010PropOp35
 70
     1
102
RTVSPost2010Prop36
280
     0
102
RTVSPost2010PropOp36
 70
     1
102
RTVSPost2010Prop37
 90
       50
102
RTVSPost2010PropOp37
 70
     1
102
RTVSPost2010Prop38
140
0.0
102
RTVSPost2010PropOp38
 70
     1
102
RTVSPost2010Prop39
140
1.0
102
RTVSPost2010PropOp39
 70
     1
102
RTVSPost2010Prop40
 90
        0
102
RTVSPost2010PropOp40
 70
     1
102
RTVSPost2010Prop41ColorIndex
 90
       18
102
RTVSPost2010Prop41ColorRGB
 90
        0
102
RTVSPost2010PropOp41
 70
     1
102
RTVSPost2010Prop42
 90
       50
102
RTVSPost2010PropOp42
 70
     1
102
RTVSPost2010Prop43
 90
        3
102
RTVSPost2010PropOp43
 70
     1
102
RTVSPost2010Prop44ColorIndex
 90
        5
102
RTVSPost2010Prop44ColorRGB
 90
      255
102
RTVSPost2010PropOp44
 70
     1
102
RTVSPost2010Prop45
280
     0
102
RTVSPost2010PropOp45
 70
     1
102
RTVSPost2010Prop46
 90
       50
102
RTVSPost2010PropOp46
 70
     1
102
RTVSPost2010Prop47
 90
       50
102
RTVSPost2010PropOp47
 70
     1
102
RTVSPost2010Prop48
 90
       50
102
RTVSPost2010PropOp48
 70
     1
102
RTVSPost2010Prop49
280
     0
102
RTVSPost2010PropOp49
 70
     1
102
RTVSPost2010Prop50
 90
       50
102
RTVSPost2010PropOp50
 70
     1
102
RTVSPost2010Prop51ColorIndex
 90
      256
102
RTVSPost2010Prop51ColorRGB
 90
-16777216
102
RTVSPost2010PropOp51
 70
     0
102
RTVSPost2010Prop52
140
1.0
102
RTVSPost2010PropOp52
 70
     0
102
RTVSPost2010Prop53
 90
        2
102
RTVSPost2010PropOp53
 70
     1
102
RTVSPost2010Prop54
  1
strokes_ogs.tif
102
RTVSPost2010PropOp54
 70
     1
102
RTVSPost2010Prop55
280
     0
102
RTVSPost2010PropOp55
 70
     1
102
RTVSPost2010Prop56
140
1.0
102
RTVSPost2010PropOp56
 70
     1
102
RTVSPost2010Prop57
140
1.0
102
RTVSPost2010PropOp57
 70
     1
  0
XRECORD
  5
2161
102
{ACAD_REACTORS
330
2160
102
}
330
2160
100
AcDbXrecord
280
     1
102
RTVSPost2010Prop28
280
     0
102
RTVSPost2010PropOp28
 70
     1
102
RTVSPost2010Prop29
280
     1
102
RTVSPost2010PropOp29
 70
     1
102
RTVSPost2010Prop30
280
     1
102
RTVSPost2010PropOp30
 70
     1
102
RTVSPost2010Prop31
280
     0
102
RTVSPost2010PropOp31
 70
     1
102
RTVSPost2010Prop32
280
     0
102
RTVSPost2010PropOp32
 70
     1
102
RTVSPost2010Prop33
280
     0
102
RTVSPost2010PropOp33
 70
     1
102
RTVSPost2010Prop34
280
     0
102
RTVSPost2010PropOp34
 70
     1
102
RTVSPost2010Prop35
280
     0
102
RTVSPost2010PropOp35
 70
     1
102
RTVSPost2010Prop36
280
     0
102
RTVSPost2010PropOp36
 70
     1
102
RTVSPost2010Prop37
 90
       50
102
RTVSPost2010PropOp37
 70
     1
102
RTVSPost2010Prop38
140
0.0
102
RTVSPost2010PropOp38
 70
     1
102
RTVSPost2010Prop39
140
1.0
102
RTVSPost2010PropOp39
 70
     1
102
RTVSPost2010Prop40
 90
        0
102
RTVSPost2010PropOp40
 70
     1
102
RTVSPost2010Prop41ColorIndex
 90
       18
102
RTVSPost2010Prop41ColorRGB
 90
        0
102
RTVSPost2010PropOp41
 70
     1
102
RTVSPost2010Prop42
 90
       50
102
RTVSPost2010PropOp42
 70
     1
102
RTVSPost2010Prop43
 90
        3
102
RTVSPost2010PropOp43
 70
     1
102
RTVSPost2010Prop44ColorIndex
 90
        5
102
RTVSPost2010Prop44ColorRGB
 90
      255
102
RTVSPost2010PropOp44
 70
     1
102
RTVSPost2010Prop45
280
     0
102
RTVSPost2010PropOp45
 70
     1
102
RTVSPost2010Prop46
 90
       50
102
RTVSPost2010PropOp46
 70
     1
102
RTVSPost2010Prop47
 90
       50
102
RTVSPost2010PropOp47
 70
     1
102
RTVSPost2010Prop48
 90
       50
102
RTVSPost2010PropOp48
 70
     1
102
RTVSPost2010Prop49
280
     0
102
RTVSPost2010PropOp49
 70
     1
102
RTVSPost2010Prop50
 90
       50
102
RTVSPost2010PropOp50
 70
     1
102
RTVSPost2010Prop51ColorIndex
 90
      256
102
RTVSPost2010Prop51ColorRGB
 90
-16777216
102
RTVSPost2010PropOp51
 70
     0
102
RTVSPost2010Prop52
140
1.0
102
RTVSPost2010PropOp52
 70
     0
102
RTVSPost2010Prop53
 90
        2
102
RTVSPost2010PropOp53
 70
     1
102
RTVSPost2010Prop54
  1
strokes_ogs.tif
102
RTVSPost2010PropOp54
 70
     1
102
RTVSPost2010Prop55
280
     0
102
RTVSPost2010PropOp55
 70
     1
102
RTVSPost2010Prop56
140
1.0
102
RTVSPost2010PropOp56
 70
     1
102
RTVSPost2010Prop57
140
1.0
102
RTVSPost2010PropOp57
 70
     1
  0
XRECORD
  5
2157
102
{ACAD_REACTORS
330
2156
102
}
330
2156
100
AcDbXrecord
280
     1
102
RTVSPost2010Prop28
280
     0
102
RTVSPost2010PropOp28
 70
     1
102
RTVSPost2010Prop29
280
     1
102
RTVSPost2010PropOp29
 70
     1
102
RTVSPost2010Prop30
280
     1
102
RTVSPost2010PropOp30
 70
     1
102
RTVSPost2010Prop31
280
     0
102
RTVSPost2010PropOp31
 70
     1
102
RTVSPost2010Prop32
280
     0
102
RTVSPost2010PropOp32
 70
     1
102
RTVSPost2010Prop33
280
     0
102
RTVSPost2010PropOp33
 70
     1
102
RTVSPost2010Prop34
280
     0
102
RTVSPost2010PropOp34
 70
     1
102
RTVSPost2010Prop35
280
     0
102
RTVSPost2010PropOp35
 70
     1
102
RTVSPost2010Prop36
280
     0
102
RTVSPost2010PropOp36
 70
     1
102
RTVSPost2010Prop37
 90
       50
102
RTVSPost2010PropOp37
 70
     1
102
RTVSPost2010Prop38
140
0.0
102
RTVSPost2010PropOp38
 70
     1
102
RTVSPost2010Prop39
140
1.0
102
RTVSPost2010PropOp39
 70
     1
102
RTVSPost2010Prop40
 90
        0
102
RTVSPost2010PropOp40
 70
     1
102
RTVSPost2010Prop41ColorIndex
 90
       18
102
RTVSPost2010Prop41ColorRGB
 90
        0
102
RTVSPost2010PropOp41
 70
     1
102
RTVSPost2010Prop42
 90
       50
102
RTVSPost2010PropOp42
 70
     1
102
RTVSPost2010Prop43
 90
        3
102
RTVSPost2010PropOp43
 70
     1
102
RTVSPost2010Prop44ColorIndex
 90
        5
102
RTVSPost2010Prop44ColorRGB
 90
      255
102
RTVSPost2010PropOp44
 70
     1
102
RTVSPost2010Prop45
280
     0
102
RTVSPost2010PropOp45
 70
     1
102
RTVSPost2010Prop46
 90
       50
102
RTVSPost2010PropOp46
 70
     1
102
RTVSPost2010Prop47
 90
       50
102
RTVSPost2010PropOp47
 70
     1
102
RTVSPost2010Prop48
 90
       50
102
RTVSPost2010PropOp48
 70
     1
102
RTVSPost2010Prop49
280
     0
102
RTVSPost2010PropOp49
 70
     1
102
RTVSPost2010Prop50
 90
       50
102
RTVSPost2010PropOp50
 70
     1
102
RTVSPost2010Prop51ColorIndex
 90
      256
102
RTVSPost2010Prop51ColorRGB
 90
-16777216
102
RTVSPost2010PropOp51
 70
     0
102
RTVSPost2010Prop52
140
1.0
102
RTVSPost2010PropOp52
 70
     0
102
RTVSPost2010Prop53
 90
        2
102
RTVSPost2010PropOp53
 70
     1
102
RTVSPost2010Prop54
  1
strokes_ogs.tif
102
RTVSPost2010PropOp54
 70
     1
102
RTVSPost2010Prop55
280
     0
102
RTVSPost2010PropOp55
 70
     1
102
RTVSPost2010Prop56
140
1.0
102
RTVSPost2010PropOp56
 70
     1
102
RTVSPost2010Prop57
140
1.0
102
RTVSPost2010PropOp57
 70
     1
  0
XRECORD
  5
214B
102
{ACAD_REACTORS
330
214A
102
}
330
214A
100
AcDbXrecord
280
     1
102
RTVSPost2010Prop28
280
     0
102
RTVSPost2010PropOp28
 70
     1
102
RTVSPost2010Prop29
280
     1
102
RTVSPost2010PropOp29
 70
     1
102
RTVSPost2010Prop30
280
     1
102
RTVSPost2010PropOp30
 70
     1
102
RTVSPost2010Prop31
280
     0
102
RTVSPost2010PropOp31
 70
     1
102
RTVSPost2010Prop32
280
     0
102
RTVSPost2010PropOp32
 70
     1
102
RTVSPost2010Prop33
280
     0
102
RTVSPost2010PropOp33
 70
     1
102
RTVSPost2010Prop34
280
     0
102
RTVSPost2010PropOp34
 70
     1
102
RTVSPost2010Prop35
280
     0
102
RTVSPost2010PropOp35
 70
     1
102
RTVSPost2010Prop36
280
     0
102
RTVSPost2010PropOp36
 70
     1
102
RTVSPost2010Prop37
 90
       50
102
RTVSPost2010PropOp37
 70
     1
102
RTVSPost2010Prop38
140
0.0
102
RTVSPost2010PropOp38
 70
     1
102
RTVSPost2010Prop39
140
1.0
102
RTVSPost2010PropOp39
 70
     1
102
RTVSPost2010Prop40
 90
        0
102
RTVSPost2010PropOp40
 70
     1
102
RTVSPost2010Prop41ColorIndex
 90
       18
102
RTVSPost2010Prop41ColorRGB
 90
        0
102
RTVSPost2010PropOp41
 70
     1
102
RTVSPost2010Prop42
 90
       50
102
RTVSPost2010PropOp42
 70
     1
102
RTVSPost2010Prop43
 90
        3
102
RTVSPost2010PropOp43
 70
     1
102
RTVSPost2010Prop44ColorIndex
 90
        5
102
RTVSPost2010Prop44ColorRGB
 90
      255
102
RTVSPost2010PropOp44
 70
     1
102
RTVSPost2010Prop45
280
     0
102
RTVSPost2010PropOp45
 70
     1
102
RTVSPost2010Prop46
 90
       50
102
RTVSPost2010PropOp46
 70
     1
102
RTVSPost2010Prop47
 90
       50
102
RTVSPost2010PropOp47
 70
     1
102
RTVSPost2010Prop48
 90
       50
102
RTVSPost2010PropOp48
 70
     1
102
RTVSPost2010Prop49
280
     0
102
RTVSPost2010PropOp49
 70
     1
102
RTVSPost2010Prop50
 90
       50
102
RTVSPost2010PropOp50
 70
     1
102
RTVSPost2010Prop51ColorIndex
 90
      256
102
RTVSPost2010Prop51ColorRGB
 90
-16777216
102
RTVSPost2010PropOp51
 70
     0
102
RTVSPost2010Prop52
140
1.0
102
RTVSPost2010PropOp52
 70
     0
102
RTVSPost2010Prop53
 90
        2
102
RTVSPost2010PropOp53
 70
     1
102
RTVSPost2010Prop54
  1
strokes_ogs.tif
102
RTVSPost2010PropOp54
 70
     1
102
RTVSPost2010Prop55
280
     0
102
RTVSPost2010PropOp55
 70
     1
102
RTVSPost2010Prop56
140
1.0
102
RTVSPost2010PropOp56
 70
     1
102
RTVSPost2010Prop57
140
1.0
102
RTVSPost2010PropOp57
 70
     1
  0
XRECORD
  5
2163
102
{ACAD_REACTORS
330
2162
102
}
330
2162
100
AcDbXrecord
280
     1
102
RTVSPost2010Prop28
280
     0
102
RTVSPost2010PropOp28
 70
     1
102
RTVSPost2010Prop29
280
     1
102
RTVSPost2010PropOp29
 70
     1
102
RTVSPost2010Prop30
280
     1
102
RTVSPost2010PropOp30
 70
     1
102
RTVSPost2010Prop31
280
     0
102
RTVSPost2010PropOp31
 70
     1
102
RTVSPost2010Prop32
280
     0
102
RTVSPost2010PropOp32
 70
     1
102
RTVSPost2010Prop33
280
     0
102
RTVSPost2010PropOp33
 70
     1
102
RTVSPost2010Prop34
280
     0
102
RTVSPost2010PropOp34
 70
     1
102
RTVSPost2010Prop35
280
     0
102
RTVSPost2010PropOp35
 70
     1
102
RTVSPost2010Prop36
280
     0
102
RTVSPost2010PropOp36
 70
     1
102
RTVSPost2010Prop37
 90
       50
102
RTVSPost2010PropOp37
 70
     1
102
RTVSPost2010Prop38
140
0.0
102
RTVSPost2010PropOp38
 70
     1
102
RTVSPost2010Prop39
140
1.0
102
RTVSPost2010PropOp39
 70
     1
102
RTVSPost2010Prop40
 90
        0
102
RTVSPost2010PropOp40
 70
     1
102
RTVSPost2010Prop41ColorIndex
 90
       18
102
RTVSPost2010Prop41ColorRGB
 90
        0
102
RTVSPost2010PropOp41
 70
     1
102
RTVSPost2010Prop42
 90
       50
102
RTVSPost2010PropOp42
 70
     1
102
RTVSPost2010Prop43
 90
        3
102
RTVSPost2010PropOp43
 70
     1
102
RTVSPost2010Prop44ColorIndex
 90
        5
102
RTVSPost2010Prop44ColorRGB
 90
      255
102
RTVSPost2010PropOp44
 70
     1
102
RTVSPost2010Prop45
280
     0
102
RTVSPost2010PropOp45
 70
     1
102
RTVSPost2010Prop46
 90
       50
102
RTVSPost2010PropOp46
 70
     1
102
RTVSPost2010Prop47
 90
       50
102
RTVSPost2010PropOp47
 70
     1
102
RTVSPost2010Prop48
 90
       50
102
RTVSPost2010PropOp48
 70
     1
102
RTVSPost2010Prop49
280
     0
102
RTVSPost2010PropOp49
 70
     1
102
RTVSPost2010Prop50
 90
       50
102
RTVSPost2010PropOp50
 70
     1
102
RTVSPost2010Prop51ColorIndex
 90
      256
102
RTVSPost2010Prop51ColorRGB
 90
-16777216
102
RTVSPost2010PropOp51
 70
     0
102
RTVSPost2010Prop52
140
1.0
102
RTVSPost2010PropOp52
 70
     0
102
RTVSPost2010Prop53
 90
        2
102
RTVSPost2010PropOp53
 70
     1
102
RTVSPost2010Prop54
  1
strokes_ogs.tif
102
RTVSPost2010PropOp54
 70
     1
102
RTVSPost2010Prop55
280
     0
102
RTVSPost2010PropOp55
 70
     1
102
RTVSPost2010Prop56
140
1.0
102
RTVSPost2010PropOp56
 70
     1
102
RTVSPost2010Prop57
140
1.0
102
RTVSPost2010PropOp57
 70
     1
  0
ENDSEC
  0
EOF
