  0
SECTION
  2
HEADER
  9
$ACADVER
  1
AC1024
  9
$ACADMAINTVER
 70
   205
  9
$DWGCODEPAGE
  3
ANSI_1252
  9
$LASTSAVEDBY
  1
kaschu
  9
$INSBASE
 10
0.0
 20
0.0
 30
0.0
  9
$EXTMIN
 10
-1066.32718108924
 20
1036.433406677421
 30
0.0
  9
$EXTMAX
 10
277.7958398831646
 20
1667.565528852794
 30
0.000000000000001
  9
$LIMMIN
 10
0.0
 20
0.0
  9
$LIMMAX
 10
0.0
 20
0.0
  9
$ORTHOMODE
 70
     1
  9
$REGENMODE
 70
     1
  9
$FILLMODE
 70
     1
  9
$QTEXTMODE
 70
     0
  9
$MIRRTEXT
 70
     1
  9
$LTSCALE
 40
1.0
  9
$ATTMODE
 70
     1
  9
$TEXTSIZE
 40
0.0
  9
$TRACEWID
 40
0.05
  9
$TEXTSTYLE
  7
STANDARD
  9
$CLAYER
  8
0
  9
$CELTYPE
  6
CONTINUOUS
  9
$CECOLOR
 62
   256
  9
$CELTSCALE
 40
1.0
  9
$DISPSILH
 70
     0
  9
$DIMSCALE
 40
1.0
  9
$DIMASZ
 40
0.18
  9
$DIMEXO
 40
0.0625
  9
$DIMDLI
 40
0.38
  9
$DIMRND
 40
0.0
  9
$DIMDLE
 40
0.0
  9
$DIMEXE
 40
0.18
  9
$DIMTP
 40
0.0
  9
$DIMTM
 40
0.0
  9
$DIMTXT
 40
0.18
  9
$DIMCEN
 40
0.09
  9
$DIMTSZ
 40
0.0
  9
$DIMTOL
 70
     0
  9
$DIMLIM
 70
     0
  9
$DIMTIH
 70
     1
  9
$DIMTOH
 70
     1
  9
$DIMSE1
 70
     0
  9
$DIMSE2
 70
     0
  9
$DIMTAD
 70
     0
  9
$DIMZIN
 70
     0
  9
$DIMBLK
  1

  9
$DIMASO
 70
     1
  9
$DIMSHO
 70
     1
  9
$DIMPOST
  1

  9
$DIMAPOST
  1

  9
$DIMALT
 70
     0
  9
$DIMALTD
 70
     2
  9
$DIMALTF
 40
25.4
  9
$DIMLFAC
 40
1.0
  9
$DIMTOFL
 70
     0
  9
$DIMTVP
 40
0.0
  9
$DIMTIX
 70
     0
  9
$DIMSOXD
 70
     0
  9
$DIMSAH
 70
     0
  9
$DIMBLK1
  1

  9
$DIMBLK2
  1

  9
$DIMSTYLE
  2
STANDARD
  9
$DIMCLRD
 70
     0
  9
$DIMCLRE
 70
     0
  9
$DIMCLRT
 70
     0
  9
$DIMTFAC
 40
1.0
  9
$DIMGAP
 40
0.09
  9
$DIMJUST
 70
     0
  9
$DIMSD1
 70
     0
  9
$DIMSD2
 70
     0
  9
$DIMTOLJ
 70
     1
  9
$DIMTZIN
 70
     0
  9
$DIMALTZ
 70
     0
  9
$DIMALTTZ
 70
     0
  9
$DIMUPT
 70
     0
  9
$DIMDEC
 70
     4
  9
$DIMTDEC
 70
     4
  9
$DIMALTU
 70
     2
  9
$DIMALTTD
 70
     2
  9
$DIMTXSTY
  7
STANDARD
  9
$DIMAUNIT
 70
     0
  9
$DIMADEC
 70
     0
  9
$DIMALTRND
 40
0.0
  9
$DIMAZIN
 70
     0
  9
$DIMDSEP
 70
    46
  9
$DIMATFIT
 70
     3
  9
$DIMFRAC
 70
     0
  9
$DIMLDRBLK
  1

  9
$DIMLUNIT
 70
     2
  9
$DIMLWD
 70
    -2
  9
$DIMLWE
 70
    -2
  9
$DIMTMOVE
 70
     0
  9
$DIMFXL
 40
1.0
  9
$DIMFXLON
 70
     0
  9
$DIMJOGANG
 40
0.7853981633974483
  9
$DIMTFILL
 70
     0
  9
$DIMTFILLCLR
 70
     0
  9
$DIMARCSYM
 70
     0
  9
$DIMLTYPE
  6

  9
$DIMLTEX1
  6

  9
$DIMLTEX2
  6

  9
$DIMTXTDIRECTION
 70
     0
  9
$LUNITS
 70
     2
  9
$LUPREC
 70
     4
  9
$SKETCHINC
 40
0.1
  9
$FILLETRAD
 40
0.0
  9
$AUNITS
 70
     0
  9
$AUPREC
 70
     0
  9
$MENU
  1
acad
  9
$ELEVATION
 40
0.0
  9
$PELEVATION
 40
0.0
  9
$THICKNESS
 40
0.0
  9
$LIMCHECK
 70
     0
  9
$CHAMFERA
 40
0.0
  9
$CHAMFERB
 40
0.0
  9
$CHAMFERC
 40
0.0
  9
$CHAMFERD
 40
0.0
  9
$SKPOLY
 70
     0
  9
$TDCREATE
 40
2444972.041666667
  9
$TDUCREATE
 40
2444972.000000000
  9
$TDUPDATE
 40
2458424.592223982
  9
$TDUUPDATE
 40
2458424.550557315
  9
$TDINDWG
 40
0.1030133218
  9
$TDUSRTIMER
 40
0.1030132870
  9
$USRTIMER
 70
     1
  9
$ANGBASE
 50
0.0
  9
$ANGDIR
 70
     0
  9
$PDMODE
 70
     0
  9
$PDSIZE
 40
0.0
  9
$PLINEWID
 40
0.0
  9
$SPLFRAME
 70
     0
  9
$SPLINETYPE
 70
     6
  9
$SPLINESEGS
 70
     8
  9
$HANDSEED
  5
24C8
  9
$SURFTAB1
 70
     6
  9
$SURFTAB2
 70
     6
  9
$SURFTYPE
 70
     6
  9
$SURFU
 70
     6
  9
$SURFV
 70
     6
  9
$UCSBASE
  2

  9
$UCSNAME
  2

  9
$UCSORG
 10
0.0
 20
0.0
 30
0.0
  9
$UCSXDIR
 10
1.0
 20
0.0
 30
0.0
  9
$UCSYDIR
 10
0.0
 20
1.0
 30
0.0
  9
$UCSORTHOREF
  2

  9
$UCSORTHOVIEW
 70
     0
  9
$UCSORGTOP
 10
0.0
 20
0.0
 30
0.0
  9
$UCSORGBOTTOM
 10
0.0
 20
0.0
 30
0.0
  9
$UCSORGLEFT
 10
0.0
 20
0.0
 30
0.0
  9
$UCSORGRIGHT
 10
0.0
 20
0.0
 30
0.0
  9
$UCSORGFRONT
 10
0.0
 20
0.0
 30
0.0
  9
$UCSORGBACK
 10
0.0
 20
0.0
 30
0.0
  9
$PUCSBASE
  2

  9
$PUCSNAME
  2

  9
$PUCSORG
 10
0.0
 20
0.0
 30
0.0
  9
$PUCSXDIR
 10
1.0
 20
0.0
 30
0.0
  9
$PUCSYDIR
 10
0.0
 20
1.0
 30
0.0
  9
$PUCSORTHOREF
  2

  9
$PUCSORTHOVIEW
 70
     0
  9
$PUCSORGTOP
 10
0.0
 20
0.0
 30
0.0
  9
$PUCSORGBOTTOM
 10
0.0
 20
0.0
 30
0.0
  9
$PUCSORGLEFT
 10
0.0
 20
0.0
 30
0.0
  9
$PUCSORGRIGHT
 10
0.0
 20
0.0
 30
0.0
  9
$PUCSORGFRONT
 10
0.0
 20
0.0
 30
0.0
  9
$PUCSORGBACK
 10
0.0
 20
0.0
 30
0.0
  9
$USERI1
 70
     0
  9
$USERI2
 70
     0
  9
$USERI3
 70
     0
  9
$USERI4
 70
     0
  9
$USERI5
 70
     0
  9
$USERR1
 40
0.0
  9
$USERR2
 40
0.0
  9
$USERR3
 40
0.0
  9
$USERR4
 40
0.0
  9
$USERR5
 40
0.0
  9
$WORLDVIEW
 70
     1
  9
$SHADEDGE
 70
     3
  9
$SHADEDIF
 70
    70
  9
$TILEMODE
 70
     1
  9
$MAXACTVP
 70
    16
  9
$PINSBASE
 10
0.0
 20
0.0
 30
0.0
  9
$PLIMCHECK
 70
     0
  9
$PEXTMIN
 10
1.000000000000000E+20
 20
1.000000000000000E+20
 30
1.000000000000000E+20
  9
$PEXTMAX
 10
-1.000000000000000E+20
 20
-1.000000000000000E+20
 30
-1.000000000000000E+20
  9
$PLIMMIN
 10
0.0
 20
0.0
  9
$PLIMMAX
 10
12.0
 20
9.0
  9
$UNITMODE
 70
     0
  9
$VISRETAIN
 70
     0
  9
$PLINEGEN
 70
     1
  9
$PSLTSCALE
 70
     0
  9
$TREEDEPTH
 70
  3020
  9
$CMLSTYLE
  2
STANDARD
  9
$CMLJUST
 70
     0
  9
$CMLSCALE
 40
1.0
  9
$PROXYGRAPHICS
 70
     1
  9
$MEASUREMENT
 70
     0
  9
$CELWEIGHT
370
    -1
  9
$ENDCAPS
280
     0
  9
$JOINSTYLE
280
     0
  9
$LWDISPLAY
290
     0
  9
$INSUNITS
 70
     0
  9
$HYPERLINKBASE
  1

  9
$STYLESHEET
  1

  9
$XEDIT
290
     1
  9
$CEPSNTYPE
380
     0
  9
$PSTYLEMODE
290
     1
  9
$FINGERPRINTGUID
  2
{C42C7404-66E8-4EE7-B980-3F780FB4F119}
  9
$VERSIONGUID
  2
{6D76F372-DB46-44A0-A71C-E1269C061B9C}
  9
$EXTNAMES
290
     1
  9
$PSVPSCALE
 40
0.0
  9
$OLESTARTUP
290
     0
  9
$SORTENTS
280
   127
  9
$INDEXCTL
280
     0
  9
$HIDETEXT
280
     0
  9
$XCLIPFRAME
280
     2
  9
$HALOGAP
280
     0
  9
$OBSCOLOR
 70
   257
  9
$OBSLTYPE
280
     0
  9
$INTERSECTIONDISPLAY
280
     0
  9
$INTERSECTIONCOLOR
 70
   257
  9
$DIMASSOC
280
     1
  9
$PROJECTNAME
  1

  9
$CAMERADISPLAY
290
     0
  9
$LENSLENGTH
 40
50.0
  9
$CAMERAHEIGHT
 40
0.0
  9
$STEPSPERSEC
 40
2.0
  9
$STEPSIZE
 40
6.0
  9
$3DDWFPREC
 40
2.0
  9
$PSOLWIDTH
 40
0.25
  9
$PSOLHEIGHT
 40
4.0
  9
$LOFTANG1
 40
1.570796326794896
  9
$LOFTANG2
 40
1.570796326794896
  9
$LOFTMAG1
 40
0.0
  9
$LOFTMAG2
 40
0.0
  9
$LOFTPARAM
 70
     7
  9
$LOFTNORMALS
280
     1
  9
$LATITUDE
 40
37.795
  9
$LONGITUDE
 40
-122.394
  9
$NORTHDIRECTION
 40
0.0
  9
$TIMEZONE
 70
 -8000
  9
$LIGHTGLYPHDISPLAY
280
     1
  9
$TILEMODELIGHTSYNCH
280
     1
  9
$CMATERIAL
347
665
  9
$SOLIDHIST
280
     0
  9
$SHOWHIST
280
     1
  9
$DWFFRAME
280
     2
  9
$DGNFRAME
280
     0
  9
$REALWORLDSCALE
290
     1
  9
$INTERFERECOLOR
 62
     1
  9
$INTERFEREOBJVS
345
687
  9
$INTERFEREVPVS
346
684
  9
$CSHADOW
280
     0
  9
$SHADOWPLANELOCATION
 40
0.0
  0
ENDSEC
  0
SECTION
  2
CLASSES
  0
CLASS
  1
IMAGE
  2
AcDbRasterImage
  3
ISM
 90
     2175
 91
        0
280
     0
281
     1
  0
CLASS
  1
DICTIONARYVAR
  2
AcDbDictionaryVar
  3
ObjectDBX Classes
 90
        0
 91
        9
280
     0
281
     0
  0
CLASS
  1
RASTERVARIABLES
  2
AcDbRasterVariables
  3
ISM
 90
        0
 91
        0
280
     0
281
     0
  0
CLASS
  1
IMAGEDEF
  2
AcDbRasterImageDef
  3
ISM
 90
        0
 91
        0
280
     0
281
     0
  0
CLASS
  1
IMAGEDEF_REACTOR
  2
AcDbRasterImageDefReactor
  3
ISM
 90
        1
 91
        0
280
     0
281
     0
  0
CLASS
  1
IDBUFFER
  2
AcDbIdBuffer
  3
ObjectDBX Classes
 90
        0
 91
        0
280
     0
281
     0
  0
CLASS
  1
SPATIAL_FILTER
  2
AcDbSpatialFilter
  3
ObjectDBX Classes
 90
        0
 91
        0
280
     0
281
     0
  0
CLASS
  1
SORTENTSTABLE
  2
AcDbSortentsTable
  3
ObjectDBX Classes
 90
        0
 91
        1
280
     0
281
     0
  0
CLASS
  1
LAYER_INDEX
  2
AcDbLayerIndex
  3
ObjectDBX Classes
 90
        0
 91
        0
280
     0
281
     0
  0
CLASS
  1
SPATIAL_INDEX
  2
AcDbSpatialIndex
  3
ObjectDBX Classes
 90
        0
 91
        0
280
     0
281
     0
  0
CLASS
  1
OBJECT_PTR
  2
CAseDLPNTableRecord
  3
"ASE-LPNTableRecord"
 90
        0
 91
        0
280
     0
281
     0
  0
CLASS
  1
PLOTSETTINGS
  2
AcDbPlotSettings
  3
ObjectDBX Classes
 90
        0
 91
        0
280
     0
281
     0
  0
CLASS
  1
ACDBDICTIONARYWDFLT
  2
AcDbDictionaryWithDefault
  3
ObjectDBX Classes
 90
        0
 91
        1
280
     0
281
     0
  0
CLASS
  1
WIPEOUT
  2
AcDbWipeout
  3
WipeOut|Product Desc: Object Enabler for WipeOut entity | Company: Autodesk, Inc. | WEB Address: www.autodesk.com
 90
     2175
 91
        0
280
     0
281
     1
  0
CLASS
  1
WIPEOUTVARIABLES
  2
AcDbWipeoutVariables
  3
"WipeOut|Product Desc:     WipeOut Dbx Application|Company:          Autodesk, Inc.|WEB Address:      www.autodesk.com"
 90
        0
 91
        0
280
     0
281
     0
  0
CLASS
  1
RTEXT
  2
RText
  3
RText|AutoCAD Express Tool|expresstools@autodesk.com
 90
        0
 91
        0
280
     0
281
     1
  0
CLASS
  1
ARCALIGNEDTEXT
  2
AcDbArcAlignedText
  3
ATEXT|AutoCAD Express Tool|expresstools@autodesk.com
 90
        0
 91
        0
280
     0
281
     1
  0
CLASS
  1
MATERIAL
  2
AcDbMaterial
  3
ObjectDBX Classes
 90
     1153
 91
        3
280
     0
281
     0
  0
CLASS
  1
VISUALSTYLE
  2
AcDbVisualStyle
  3
ObjectDBX Classes
 90
     4095
 91
       24
280
     0
281
     0
  0
CLASS
  1
TABLESTYLE
  2
AcDbTableStyle
  3
ObjectDBX Classes
 90
     4095
 91
        1
280
     0
281
     0
  0
CLASS
  1
SCALE
  2
AcDbScale
  3
ObjectDBX Classes
 90
     1153
 91
       17
280
     0
281
     0
  0
CLASS
  1
MLEADERSTYLE
  2
AcDbMLeaderStyle
  3
ACDB_MLEADERSTYLE_CLASS
 90
     4095
 91
        1
280
     0
281
     0
  0
CLASS
  1
ACDBSECTIONVIEWSTYLE
  2
AcDbSectionViewStyle
  3
ObjectDBX Classes
 90
     1025
 91
        2
280
     0
281
     0
  0
CLASS
  1
ACDBDETAILVIEWSTYLE
  2
AcDbDetailViewStyle
  3
ObjectDBX Classes
 90
     1025
 91
        2
280
     0
281
     0
  0
CLASS
  1
CELLSTYLEMAP
  2
AcDbCellStyleMap
  3
ObjectDBX Classes
 90
     1152
 91
        1
280
     0
281
     0
  0
ENDSEC
  0
SECTION
  2
TABLES
  0
TABLE
  2
VPORT
  5
7
330
0
100
AcDbSymbolTable
 70
     1
  0
VPORT
  5
15
330
7
100
AcDbSymbolTableRecord
100
AcDbViewportTableRecord
  2
*ACTIVE
 70
     0
 10
0.0
 20
0.0
 11
1.0
 21
1.0
 12
-361.0125273801537
 22
1367.485261166604
 13
0.0
 23
0.0
 14
1.0
 24
1.0
 15
0.0
 25
0.0
 16
0.0
 26
0.0
 36
1.0
 17
0.0
 27
0.0
 37
0.0
 40
1384.97017640535
 41
2.288702928870292
 42
50.0
 43
0.0
 44
0.0
 50
0.0
 51
0.0
 71
     0
 72
   100
 73
     1
 74
     1
 75
     0
 76
     0
 77
     0
 78
     0
281
     0
 65
     1
110
0.0
120
0.0
130
0.0
111
1.0
121
0.0
131
0.0
112
0.0
122
1.0
132
0.0
 79
     0
146
0.0
348
683
 60
     3
 61
     5
292
     1
282
     1
141
0.0
142
0.0
 63
   250
421
  3355443
1001
ACAD_NAV_VCDISPLAY
1070
     3
  0
ENDTAB
  0
TABLE
  2
LTYPE
  5
4
330
0
100
AcDbSymbolTable
 70
     2
  0
LTYPE
  5
11
330
4
100
AcDbSymbolTableRecord
100
AcDbLinetypeTableRecord
  2
BYBLOCK
 70
     0
  3

 72
    65
 73
     0
 40
0.0
  0
LTYPE
  5
12
330
4
100
AcDbSymbolTableRecord
100
AcDbLinetypeTableRecord
  2
BYLAYER
 70
     0
  3

 72
    65
 73
     0
 40
0.0
  0
LTYPE
  5
13
330
4
100
AcDbSymbolTableRecord
100
AcDbLinetypeTableRecord
  2
CONTINUOUS
 70
     0
  3
Solid line
 72
    65
 73
     0
 40
0.0
  0
LTYPE
  5
1E
330
4
100
AcDbSymbolTableRecord
100
AcDbLinetypeTableRecord
  2
STANDARD
 70
     0
  3

 72
    65
 73
     0
 40
0.0
  0
ENDTAB
  0
TABLE
  2
LAYER
  5
2
102
{ACAD_XDICTIONARY
360
6CF
102
}
330
0
100
AcDbSymbolTable
 70
     4
  0
LAYER
  5
14
102
{ACAD_XDICTIONARY
360
6B8
102
}
330
2
100
AcDbSymbolTableRecord
100
AcDbLayerTableRecord
  2
0
 70
     0
 62
     7
  6
CONTINUOUS
370
    -3
390
663
347
675
  0
LAYER
  5
1D
102
{ACAD_XDICTIONARY
360
6BA
102
}
330
2
100
AcDbSymbolTableRecord
100
AcDbLayerTableRecord
  2
BEMA_UNG
 70
     0
 62
   171
  6
CONTINUOUS
370
    -3
390
663
347
675
  0
LAYER
  5
6CC
330
2
100
AcDbSymbolTableRecord
100
AcDbLayerTableRecord
  2
HEWI
 70
     0
 62
     7
  6
CONTINUOUS
370
     9
390
663
347
675
1001
AcAecLayerStandard
1000

1000

1001
AcCmTransparency
1071
        0
  0
LAYER
  5
929
330
2
100
AcDbSymbolTableRecord
100
AcDbLayerTableRecord
  2
Defpoints
 70
     0
 62
     7
  6
CONTINUOUS
290
     0
370
    -3
390
663
347
675
  0
ENDTAB
  0
TABLE
  2
STYLE
  5
3
330
0
100
AcDbSymbolTable
 70
     2
  0
STYLE
  5
17
330
3
100
AcDbSymbolTableRecord
100
AcDbTextStyleTableRecord
  2
STANDARD
 70
     0
 40
0.0
 41
1.0
 50
0.0
 71
     0
 42
0.0
  3
txt
  4

  0
STYLE
  5
A59
330
3
100
AcDbSymbolTableRecord
100
AcDbTextStyleTableRecord
  2
Arial
 70
     0
 40
0.0
 41
1.0
 50
0.0
 71
     0
 42
35.0
  3
arial.ttf
  4

1001
ACAD
1000
Arial
1071
       34
  0
ENDTAB
  0
TABLE
  2
VIEW
  5
5
330
0
100
AcDbSymbolTable
 70
     0
  0
ENDTAB
  0
TABLE
  2
UCS
  5
6
330
0
100
AcDbSymbolTable
 70
     0
  0
ENDTAB
  0
TABLE
  2
APPID
  5
8
330
0
100
AcDbSymbolTable
 70
     6
  0
APPID
  5
16
330
8
100
AcDbSymbolTableRecord
100
AcDbRegAppTableRecord
  2
ACAD
 70
     0
  0
APPID
  5
6BC
330
8
100
AcDbSymbolTableRecord
100
AcDbRegAppTableRecord
  2
ACAD_NAV_VCDISPLAY
 70
     0
  0
APPID
  5
6CD
330
8
100
AcDbSymbolTableRecord
100
AcDbRegAppTableRecord
  2
AcAecLayerStandard
 70
     0
  0
APPID
  5
6CE
330
8
100
AcDbSymbolTableRecord
100
AcDbRegAppTableRecord
  2
AcCmTransparency
 70
     0
  0
APPID
  5
1A57
330
8
100
AcDbSymbolTableRecord
100
AcDbRegAppTableRecord
  2
ACAD_PSEXT
 70
     0
  0
APPID
  5
1BF6
330
8
100
AcDbSymbolTableRecord
100
AcDbRegAppTableRecord
  2
ACAD_EXEMPT_FROM_CAD_STANDARDS
 70
     0
  0
ENDTAB
  0
TABLE
  2
DIMSTYLE
  5
9
330
0
100
AcDbSymbolTable
 70
     2
100
AcDbDimStyleTable
 71
     1
340
18
  0
DIMSTYLE
105
18
102
{ACAD_REACTORS
330
21C7
330
21DF
102
}
330
9
100
AcDbSymbolTableRecord
100
AcDbDimStyleTableRecord
  2
STANDARD
 70
     0
289
     0
340
17
  0
DIMSTYLE
105
A5A
330
9
100
AcDbSymbolTableRecord
100
AcDbDimStyleTableRecord
  2
ISO-25
 70
     0
 41
2.5
 42
0.625
 43
3.75
 44
1.25
 73
     0
 74
     0
 77
     1
 78
     8
140
2.5
141
2.5
143
0.03937007874016
147
0.625
171
     3
172
     1
271
     2
272
     2
274
     3
278
    44
283
     0
284
     8
340
17
  0
ENDTAB
  0
TABLE
  2
BLOCK_RECORD
  5
1
330
0
100
AcDbSymbolTable
 70
     9
  0
BLOCK_RECORD
  5
A
102
{ACAD_XDICTIONARY
360
1C0D
102
}
330
1
100
AcDbSymbolTableRecord
100
AcDbBlockTableRecord
  2
*MODEL_SPACE
340
6B3
 70
     0
280
     1
281
     0
  0
BLOCK_RECORD
  5
B
330
1
100
AcDbSymbolTableRecord
100
AcDbBlockTableRecord
  2
*PAPER_SPACE
340
6B4
 70
     0
280
     1
281
     0
  0
BLOCK_RECORD
  5
A54
330
1
100
AcDbSymbolTableRecord
100
AcDbBlockTableRecord
  2
_Dot
340
0
102
{BLKREFS
102
}
 70
     0
280
     1
281
     0
  0
BLOCK_RECORD
  5
21C8
330
1
100
AcDbSymbolTableRecord
100
AcDbBlockTableRecord
  2
*D5
340
0
 70
     0
280
     1
281
     0
  0
BLOCK_RECORD
  5
21E0
330
1
100
AcDbSymbolTableRecord
100
AcDbBlockTableRecord
  2
*D6
340
0
 70
     0
280
     1
281
     0
  0
ENDTAB
  0
ENDSEC
  0
SECTION
  2
BLOCKS
  0
BLOCK
  5
D
330
A
100
AcDbEntity
  8
0
100
AcDbBlockBegin
  2
*MODEL_SPACE
 70
     0
 10
0.0
 20
0.0
 30
0.0
  3
*MODEL_SPACE
  1

  0
ENDBLK
  5
E
330
A
100
AcDbEntity
  8
0
100
AcDbBlockEnd
  0
BLOCK
  5
F
330
B
100
AcDbEntity
 67
     1
  8
0
100
AcDbBlockBegin
  2
*PAPER_SPACE
 70
     0
 10
0.0
 20
0.0
 30
0.0
  3
*PAPER_SPACE
  1

  0
ENDBLK
  5
10
330
B
100
AcDbEntity
 67
     1
  8
0
100
AcDbBlockEnd
  0
BLOCK
  5
A55
330
A54
100
AcDbEntity
  8
0
100
AcDbBlockBegin
  2
_Dot
 70
     0
 10
0.0
 20
0.0
 30
0.0
  3
_Dot
  1

  0
LWPOLYLINE
  5
A56
330
A54
100
AcDbEntity
  8
0
  6
ByBlock
 62
     0
100
AcDbPolyline
 90
        2
 70
     1
 43
0.5
 10
-0.25
 20
0.0
 42
1.0
 10
0.25
 20
0.0
 42
1.0
  0
LINE
  5
A57
330
A54
100
AcDbEntity
  8
0
  6
ByBlock
 62
     0
370
    -2
100
AcDbLine
 10
-0.5
 20
0.0
 30
0.0
 11
-1.0
 21
0.0
 31
0.0
  0
ENDBLK
  5
A58
330
A54
100
AcDbEntity
  8
0
100
AcDbBlockEnd
  0
BLOCK
  5
21C9
330
21C8
100
AcDbEntity
  8
0
100
AcDbBlockBegin
  2
*D5
 70
     1
 10
0.0
 20
0.0
 30
0.0
  3
*D5
  1

  0
LINE
  5
245C
330
21C8
100
AcDbEntity
  8
0
  6
Continuous
 62
     0
440
 16777216
370
    -2
100
AcDbLine
 10
-696.5969695882871
 20
1405.278460909148
 30
0.0
 11
-696.5969695882871
 21
1443.896691850599
 31
0.0
  0
LINE
  5
245D
330
21C8
100
AcDbEntity
  8
0
  6
Continuous
 62
     0
440
 16777216
370
    -2
100
AcDbLine
 10
-62.6739349203185
 20
1363.850525099155
 30
0.0
 11
-62.67393492031849
 21
1443.896691850599
 31
0.0
  0
LINE
  5
245E
330
21C8
100
AcDbEntity
  8
0
  6
Continuous
 62
     0
440
 16777216
370
    -2
100
AcDbLine
 10
-681.5969695882871
 20
1443.716691850599
 30
0.0
 11
-447.411714191547
 21
1443.716691850599
 31
0.0
  0
LINE
  5
245F
330
21C8
100
AcDbEntity
  8
0
  6
Continuous
 62
     0
440
 16777216
370
    -2
100
AcDbLine
 10
-77.67393492031849
 20
1443.716691850599
 30
0.0
 11
-311.8591903170586
 21
1443.716691850599
 31
0.0
  0
SOLID
  5
2460
330
21C8
100
AcDbEntity
  8
0
  6
Continuous
 62
     0
440
 16777216
100
AcDbTrace
 10
-681.5969695882871
 20
1446.216691850599
 30
0.0
 11
-681.5969695882871
 21
1441.216691850599
 31
0.0
 12
-696.5969695882871
 22
1443.716691850599
 32
0.0
 13
-696.5969695882871
 23
1443.716691850599
 33
0.0
  0
SOLID
  5
2461
330
21C8
100
AcDbEntity
  8
0
  6
Continuous
 62
     0
440
 16777216
100
AcDbTrace
 10
-77.67393492031849
 20
1446.216691850599
 30
0.0
 11
-77.67393492031849
 21
1441.216691850599
 31
0.0
 12
-62.67393492031849
 22
1443.716691850599
 32
0.0
 13
-62.67393492031849
 23
1443.716691850599
 33
0.0
  0
MTEXT
  5
2462
330
21C8
100
AcDbEntity
  8
0
  6
Continuous
 62
     0
440
 16777216
100
AcDbMText
 10
-379.6354522543028
 20
1443.716691850599
 30
0.0
 40
20.0
 41
0.0
 46
0.0
 71
     5
 72
     1
  1
\A1;564 - 664
  7
Arial
 73
     1
 44
1.0
  0
POINT
  5
2463
330
21C8
100
AcDbEntity
  8
Defpoints
  6
Continuous
 62
     0
440
 16777216
100
AcDbPoint
 10
-696.5969695882871
 20
1405.215960909148
 30
0.0
  0
POINT
  5
2464
330
21C8
100
AcDbEntity
  8
Defpoints
  6
Continuous
 62
     0
440
 16777216
100
AcDbPoint
 10
-62.6739349203185
 20
1363.788025099156
 30
0.0
  0
POINT
  5
2465
330
21C8
100
AcDbEntity
  8
Defpoints
  6
Continuous
 62
     0
440
 16777216
100
AcDbPoint
 10
-62.67393492031849
 20
1443.716691850599
 30
0.0
  0
ENDBLK
  5
21CA
330
21C8
100
AcDbEntity
  8
0
100
AcDbBlockEnd
  0
BLOCK
  5
21E1
330
21E0
100
AcDbEntity
  8
0
100
AcDbBlockBegin
  2
*D6
 70
     1
 10
0.0
 20
0.0
 30
0.0
  3
*D6
  1

  0
LINE
  5
22C2
330
21E0
100
AcDbEntity
  8
HEWI
  6
Continuous
 62
     0
440
 16777216
370
    -2
100
AcDbLine
 10
-326.5969695882873
 20
1443.779191850599
 30
0.0
 11
-326.5969695882873
 21
1443.896691850599
 31
0.0
  0
LINE
  5
22C3
330
21E0
100
AcDbEntity
  8
HEWI
  6
Continuous
 62
     0
440
 16777216
370
    -2
100
AcDbLine
 10
-336.5969695882873
 20
1443.779191850599
 30
0.0
 11
-336.5969695882873
 21
1443.896691850599
 31
0.0
  0
LINE
  5
22C4
330
21E0
100
AcDbEntity
  8
HEWI
  6
Continuous
 62
     0
440
 16777216
370
    -2
100
AcDbLine
 10
-326.7769695882873
 20
1443.716691850599
 30
0.0
 11
-331.0719695882873
 21
1443.716691850599
 31
0.0
  0
LINE
  5
22C5
330
21E0
100
AcDbEntity
  8
HEWI
  6
Continuous
 62
     0
440
 16777216
370
    -2
100
AcDbLine
 10
-336.4169695882873
 20
1443.716691850599
 30
0.0
 11
-332.1219695882872
 21
1443.716691850599
 31
0.0
  0
SOLID
  5
22C6
330
21E0
100
AcDbEntity
  8
HEWI
  6
Continuous
 62
     0
440
 16777216
100
AcDbTrace
 10
-326.7769695882873
 20
1443.746691850599
 30
0.0
 11
-326.7769695882873
 21
1443.686691850599
 31
0.0
 12
-326.5969695882873
 22
1443.716691850599
 32
0.0
 13
-326.5969695882873
 23
1443.716691850599
 33
0.0
  0
SOLID
  5
22C7
330
21E0
100
AcDbEntity
  8
HEWI
  6
Continuous
 62
     0
440
 16777216
100
AcDbTrace
 10
-336.4169695882873
 20
1443.746691850599
 30
0.0
 11
-336.4169695882873
 21
1443.686691850599
 31
0.0
 12
-336.5969695882873
 22
1443.716691850599
 32
0.0
 13
-336.5969695882873
 23
1443.716691850599
 33
0.0
  0
MTEXT
  5
22C8
330
21E0
100
AcDbEntity
  8
HEWI
  6
Continuous
 62
     0
440
 16777216
100
AcDbMText
 10
-331.5969695882873
 20
1443.716691850599
 30
0.0
 40
0.18
 41
0.0
 46
0.0
 71
     5
 72
     1
  1
\A1;10.0000
 73
     1
 44
1.0
  0
POINT
  5
22C9
330
21E0
100
AcDbEntity
  8
Defpoints
  6
Continuous
 62
     0
440
 16777216
100
AcDbPoint
 10
-326.5969695882873
 20
1443.716691850599
 30
0.0
  0
POINT
  5
22CA
330
21E0
100
AcDbEntity
  8
Defpoints
  6
Continuous
 62
     0
440
 16777216
100
AcDbPoint
 10
-336.5969695882873
 20
1443.716691850599
 30
0.0
  0
POINT
  5
22CB
330
21E0
100
AcDbEntity
  8
Defpoints
  6
Continuous
 62
     0
440
 16777216
100
AcDbPoint
 10
-336.5969695882873
 20
1443.716691850599
 30
0.0
  0
ENDBLK
  5
21E2
330
21E0
100
AcDbEntity
  8
0
100
AcDbBlockEnd
  0
ENDSEC
  0
SECTION
  2
ENTITIES
  0
LINE
  5
21
330
A
100
AcDbEntity
  8
HEWI
  6
STANDARD
 62
     7
100
AcDbLine
 10
-105.3969802694395
 20
1598.265602094981
 30
0.0
 11
-99.79698561001576
 21
1598.265602094981
 31
0.0
  0
LINE
  5
22
330
A
100
AcDbEntity
  8
HEWI
  6
STANDARD
 62
     7
100
AcDbLine
 10
-496.5969791250302
 20
1639.465553266856
 30
0.0
 11
-296.5969600515442
 21
1639.465553266856
 31
0.0
  0
LINE
  5
25
330
A
100
AcDbEntity
  8
HEWI
  6
STANDARD
 62
     7
100
AcDbLine
 10
-504.3469562368468
 20
1517.565605146739
 30
0.0
 11
-288.8469638662414
 21
1517.565605146739
 31
0.0
  0
LINE
  5
26
330
A
100
AcDbEntity
  8
HEWI
  6
STANDARD
 62
     7
100
AcDbLine
 10
-504.3469562368468
 20
1527.565605146739
 30
0.0
 11
-288.8469638662414
 21
1527.565605146739
 31
0.0
  0
LINE
  5
27
330
A
100
AcDbEntity
  8
HEWI
  6
STANDARD
 62
     7
100
AcDbLine
 10
-296.5969600515442
 20
1630.465538008067
 30
0.0
 11
-99.59700010586539
 21
1630.465538008067
 31
0.0
  0
LINE
  5
28
330
A
100
AcDbEntity
  8
HEWI
  6
STANDARD
 62
     7
100
AcDbLine
 10
-693.5969724493103
 20
1630.465538008067
 30
0.0
 11
-496.5969791250302
 21
1630.465538008067
 31
0.0
  0
LINE
  5
29
330
A
100
AcDbEntity
  8
HEWI
  6
STANDARD
 62
     7
100
AcDbLine
 10
-296.5969600515442
 20
1598.465568525645
 30
0.0
 11
-99.59700010586537
 21
1598.465568525645
 31
0.0
  0
LINE
  5
2A
330
A
100
AcDbEntity
  8
HEWI
  6
STANDARD
 62
     7
100
AcDbLine
 10
-697.5969638662412
 20
1598.465568525645
 30
0.0
 11
-496.5969791250302
 21
1598.465568525645
 31
0.0
  0
LINE
  5
35
330
A
100
AcDbEntity
  8
HEWI
  6
STANDARD
 62
     7
100
AcDbLine
 10
-296.5969600515442
 20
1527.565605146739
 30
0.0
 11
-296.5969600515442
 21
1639.465553266856
 31
0.0
  0
LINE
  5
36
330
A
100
AcDbEntity
  8
HEWI
  6
STANDARD
 62
     7
100
AcDbLine
 10
-496.5969791250302
 20
1527.565605146739
 30
0.0
 11
-496.5969791250302
 21
1639.465553266856
 31
0.0
  0
LINE
  5
148
330
A
100
AcDbEntity
  8
HEWI
  6
STANDARD
 62
     7
100
AcDbLine
 10
-518.9169635610652
 20
1526.811592085215
 30
0.0
 11
-516.2569751577451
 21
1527.008583052012
 31
0.0
  0
LINE
  5
14C
330
A
100
AcDbEntity
  8
HEWI
  6
STANDARD
 62
     7
100
AcDbLine
 10
-515.5369891958311
 20
1517.034599287364
 30
0.0
 11
-512.7499713735652
 21
1517.229606611583
 31
0.0
  0
LINE
  5
14D
330
A
100
AcDbEntity
  8
HEWI
  6
STANDARD
 62
     7
100
AcDbLine
 10
-516.2569751577451
 20
1527.008583052012
 30
0.0
 11
-513.420976622589
 21
1527.206565840098
 31
0.0
  0
LINE
  5
14E
330
A
100
AcDbEntity
  8
HEWI
  6
STANDARD
 62
     7
100
AcDbLine
 10
-513.420976622589
 20
1527.206565840098
 30
0.0
 11
-511.3469638662411
 21
1527.34259794459
 31
0.0
  0
LINE
  5
14F
330
A
100
AcDbEntity
  8
HEWI
  6
STANDARD
 62
     7
100
AcDbLine
 10
-512.7499713735652
 20
1517.229606611583
 30
0.0
 11
-510.7109775381164
 21
1517.362586958262
 31
0.0
  0
LINE
  5
153
330
A
100
AcDbEntity
  8
HEWI
  6
STANDARD
 62
     7
100
AcDbLine
 10
-510.7109775381164
 20
1517.362586958262
 30
0.0
 11
-508.8219775991515
 21
1517.465583784434
 31
0.0
  0
LINE
  5
154
330
A
100
AcDbEntity
  8
HEWI
  6
STANDARD
 62
     7
100
AcDbLine
 10
-511.3469638662411
 20
1527.34259794459
 30
0.0
 11
-509.2689838247373
 21
1527.455589277598
 31
0.0
  0
LINE
  5
157
330
A
100
AcDbEntity
  8
HEWI
  6
STANDARD
 62
     7
100
AcDbLine
 10
-509.2689838247373
 20
1527.455589277598
 30
0.0
 11
-504.3469562368468
 21
1527.565605146739
 31
0.0
  0
LINE
  5
158
330
A
100
AcDbEntity
  8
HEWI
  6
STANDARD
 62
     7
100
AcDbLine
 10
-508.8219775991515
 20
1517.465583784434
 30
0.0
 11
-504.3469562368468
 21
1517.565605146739
 31
0.0
  0
LINE
  5
15B
330
A
100
AcDbEntity
  8
HEWI
  6
STANDARD
 62
     7
100
AcDbLine
 10
-288.8469638662414
 20
1517.565605146739
 30
0.0
 11
-284.371961577423
 21
1517.465583784434
 31
0.0
  0
LINE
  5
15C
330
A
100
AcDbEntity
  8
HEWI
  6
STANDARD
 62
     7
100
AcDbLine
 10
-288.8469638662414
 20
1527.565605146739
 30
0.0
 11
-283.9249744253233
 21
1527.455589277598
 31
0.0
  0
LINE
  5
15F
330
A
100
AcDbEntity
  8
HEWI
  6
STANDARD
 62
     7
100
AcDbLine
 10
-283.9249744253233
 20
1527.455589277598
 30
0.0
 11
-281.8469562368468
 21
1527.34259794459
 31
0.0
  0
LINE
  5
160
330
A
100
AcDbEntity
  8
HEWI
  6
STANDARD
 62
     7
100
AcDbLine
 10
-284.371961577423
 20
1517.465583784434
 30
0.0
 11
-282.4829616384582
 21
1517.362586958262
 31
0.0
  0
LINE
  5
281
330
A
100
AcDbEntity
  8
HEWI
  6
STANDARD
 62
     7
100
AcDbLine
 10
-105.3969993429259
 20
1211.272725390059
 30
0.0
 11
-99.79700468350209
 21
1211.272725390059
 31
0.0
  0
LINE
  5
282
330
A
100
AcDbEntity
  8
HEWI
  6
STANDARD
 62
     7
100
AcDbLine
 10
-105.3969993429259
 20
1243.672704027754
 30
0.0
 11
-99.79700468350209
 21
1243.672704027754
 31
0.0
  0
LINE
  5
293
330
A
100
AcDbEntity
  8
HEWI
  6
STANDARD
 62
     7
100
AcDbLine
 10
-219.9656770880231
 20
1243.472775744063
 30
0.0
 11
-99.59700010586539
 21
1243.656382541748
 31
0.0
  0
LINE
  5
294
330
A
100
AcDbEntity
  8
HEWI
  6
STANDARD
 62
     7
100
AcDbLine
 10
-695.2656839544781
 20
1243.472775744063
 30
0.0
 11
-568.5656641180522
 21
1243.472775744063
 31
0.0
  0
LINE
  5
295
330
A
100
AcDbEntity
  8
HEWI
  6
STANDARD
 62
     7
100
AcDbLine
 10
-219.9656580145368
 20
1211.472729967696
 30
0.0
 11
-99.59700010586539
 21
1211.289053106828
 31
0.0
  0
LINE
  5
296
330
A
100
AcDbEntity
  8
HEWI
  6
STANDARD
 62
     7
100
AcDbLine
 10
-695.2656839544781
 20
1211.472729967696
 30
0.0
 11
-568.5656641180522
 21
1211.472729967696
 31
0.0
  0
LINE
  5
29F
330
A
100
AcDbEntity
  8
HEWI
  6
STANDARD
 62
     7
100
AcDbLine
 10
-99.59700010586537
 20
1211.472691820723
 30
0.0
 11
-99.59700010586537
 21
1243.47273759709
 31
0.0
  0
LINE
  5
2A9
330
A
100
AcDbEntity
  8
HEWI
  6
STANDARD
 62
     7
100
AcDbLine
 10
-105.5970039205626
 20
1211.472691820723
 30
0.0
 11
-105.5970039205626
 21
1243.47273759709
 31
0.0
  0
LINE
  5
2AA
330
A
100
AcDbEntity
  8
HEWI
  6
STANDARD
 62
     7
100
AcDbLine
 10
-105.5970039205626
 20
1243.47273759709
 30
0.0
 11
-105.3969993429259
 21
1243.672704027754
 31
0.0
  0
LINE
  5
2AB
330
A
100
AcDbEntity
  8
HEWI
  6
STANDARD
 62
     7
100
AcDbLine
 10
-99.79700468350209
 20
1211.272725390059
 30
0.0
 11
-99.59700010586537
 21
1211.472691820723
 31
0.0
  0
LINE
  5
454
330
A
100
AcDbEntity
  8
HEWI
  6
STANDARD
 62
     7
100
AcDbLine
 10
-105.5970039205626
 20
1211.472691820723
 30
0.0
 11
-105.3969993429259
 21
1211.272725390059
 31
0.0
  0
LINE
  5
455
330
A
100
AcDbEntity
  8
HEWI
  6
STANDARD
 62
     7
100
AcDbLine
 10
-99.79700468350209
 20
1243.672704027754
 30
0.0
 11
-99.59700010586537
 21
1243.47273759709
 31
0.0
  0
LINE
  5
487
330
A
100
AcDbEntity
  8
HEWI
  6
STANDARD
 62
     7
100
AcDbLine
 10
253.4848505032818
 20
1252.433429565604
 30
0.0
 11
157.5848489774029
 21
1252.433429565604
 31
0.0
  0
LINE
  5
488
330
A
100
AcDbEntity
  8
HEWI
  6
STANDARD
 62
     7
100
AcDbLine
 10
153.5848527921001
 20
1205.922389831718
 30
0.0
 11
149.5848375333111
 21
1205.922389831718
 31
0.0
  0
LINE
  5
489
330
A
100
AcDbEntity
  8
HEWI
  6
STANDARD
 62
     7
100
AcDbLine
 10
153.5848527921001
 20
1205.43342193621
 30
0.0
 11
149.5848375333111
 21
1205.43342193621
 31
0.0
  0
LINE
  5
48A
330
A
100
AcDbEntity
  8
HEWI
  6
STANDARD
 62
     7
100
AcDbLine
 10
253.4848505032818
 20
1248.433414306815
 30
0.0
 11
157.5848489774029
 21
1248.433414306815
 31
0.0
  0
LINE
  5
48B
330
A
100
AcDbEntity
  8
HEWI
  6
STANDARD
 62
     7
100
AcDbLine
 10
261.4848428738873
 20
1091.433406677421
 30
0.0
 11
257.4848657620709
 21
1091.433406677421
 31
0.0
  0
LINE
  5
48E
330
A
100
AcDbEntity
  8
HEWI
  6
STANDARD
 62
     7
100
AcDbLine
 10
277.7958398831646
 20
1091.433406677421
 30
0.0
 11
277.6858621609966
 21
1091.433406677421
 31
0.0
  0
LINE
  5
492
330
A
100
AcDbEntity
  8
HEWI
  6
STANDARD
 62
     7
100
AcDbLine
 10
277.7958398831646
 20
1311.433406677421
 30
0.0
 11
277.6858621609966
 21
1311.433406677421
 31
0.0
  0
LINE
  5
495
330
A
100
AcDbEntity
  8
HEWI
  6
STANDARD
 62
     7
100
AcDbLine
 10
267.0288568509381
 20
1366.433406677421
 30
0.0
 11
266.4848428738872
 21
1366.433406677421
 31
0.0
  0
LINE
  5
496
330
A
100
AcDbEntity
  8
HEWI
  6
STANDARD
 62
     7
100
AcDbLine
 10
267.0288568509381
 20
1036.433406677421
 30
0.0
 11
266.4848428738872
 21
1036.433406677421
 31
0.0
  0
LINE
  5
497
330
A
100
AcDbEntity
  8
HEWI
  6
STANDARD
 62
     7
100
AcDbLine
 10
191.5848642361919
 20
1206.433406677421
 30
0.0
 11
153.5848527921001
 21
1206.433406677421
 31
0.0
  0
LINE
  5
49C
330
A
100
AcDbEntity
  8
HEWI
  6
STANDARD
 62
     7
100
AcDbLine
 10
257.4848657620709
 20
1091.433406677421
 30
0.0
 11
257.4848657620709
 21
1244.433437194999
 31
0.0
  0
LINE
  5
49D
330
A
100
AcDbEntity
  8
HEWI
  6
STANDARD
 62
     7
100
AcDbLine
 10
261.4848428738873
 20
1041.433406677421
 30
0.0
 11
261.4848428738873
 21
1361.433406677421
 31
0.0
  0
LINE
  5
49E
330
A
100
AcDbEntity
  8
HEWI
  6
STANDARD
 62
     7
100
AcDbLine
 10
153.5848527921001
 20
1243.633418884452
 30
0.0
 11
153.5848527921001
 21
1244.433437194999
 31
0.0
  0
LINE
  5
49F
330
A
100
AcDbEntity
  8
HEWI
  6
STANDARD
 62
     7
100
AcDbLine
 10
153.5848527921001
 20
1205.43342193621
 30
0.0
 11
153.5848527921001
 21
1211.233440246757
 31
0.0
  0
LINE
  5
4A0
330
A
100
AcDbEntity
  8
HEWI
  6
STANDARD
 62
     7
100
AcDbLine
 10
277.7958398831646
 20
1091.433406677421
 30
0.0
 11
277.7958398831646
 21
1311.433406677421
 31
0.0
  0
LINE
  5
4A1
330
A
100
AcDbEntity
  8
HEWI
  6
STANDARD
 62
     7
100
AcDbLine
 10
195.5848413480083
 20
1210.43342193621
 30
0.0
 11
195.5848413480083
 21
1248.433414306815
 31
0.0
  0
LINE
  5
4A3
330
A
100
AcDbEntity
  8
HEWI
  6
STANDARD
 62
     7
100
AcDbLine
 10
271.9218545926373
 20
1364.256435241874
 30
0.0
 11
271.6638284695904
 21
1364.499431457694
 31
0.0
  0
LINE
  5
4A5
330
A
100
AcDbEntity
  8
HEWI
  6
STANDARD
 62
     7
100
AcDbLine
 10
272.1998315823833
 20
1038.935390319999
 30
0.0
 11
271.9278436673444
 21
1038.617397155936
 31
0.0
  0
LINE
  5
4A9
330
A
100
AcDbEntity
  8
HEWI
  6
STANDARD
 62
     7
100
AcDbLine
 10
194.9328332913676
 20
1208.244396057304
 30
0.0
 11
194.4128519070904
 21
1207.605434265311
 31
0.0
  0
LINE
  5
4AA
330
A
100
AcDbEntity
  8
HEWI
  6
STANDARD
 62
     7
100
AcDbLine
 10
263.7488657010357
 20
1037.248378601249
 30
0.0
 11
262.9488473904888
 21
1037.898403015311
 31
0.0
  0
LINE
  5
4AB
330
A
100
AcDbEntity
  8
HEWI
  6
STANDARD
 62
     7
100
AcDbLine
 10
154.7568422330181
 20
1247.262416687186
 30
0.0
 11
154.2368417752544
 21
1246.622424926932
 31
0.0
  0
LINE
  5
4AC
330
A
100
AcDbEntity
  8
HEWI
  6
STANDARD
 62
     7
100
AcDbLine
 10
256.3128381741802
 20
1247.262416687186
 30
0.0
 11
255.6738382352154
 21
1247.781406250175
 31
0.0
  0
LINE
  5
4AD
330
A
100
AcDbEntity
  8
HEWI
  6
STANDARD
 62
     7
100
AcDbLine
 10
271.6638284695904
 20
1364.499431457694
 30
0.0
 11
270.8658319485944
 21
1365.147434082206
 31
0.0
  0
LINE
  5
4AE
330
A
100
AcDbEntity
  8
HEWI
  6
STANDARD
 62
     7
100
AcDbLine
 10
272.8458505643169
 20
1039.731441345389
 30
0.0
 11
272.1998315823833
 21
1038.935390319999
 31
0.0
  0
LINE
  5
4AF
330
A
100
AcDbEntity
  8
HEWI
  6
STANDARD
 62
     7
100
AcDbLine
 10
262.9488473904888
 20
1364.969402160819
 30
0.0
 11
262.299852944688
 21
1364.169421997245
 31
0.0
  0
LINE
  5
4B1
330
A
100
AcDbEntity
  8
HEWI
  6
STANDARD
 62
     7
100
AcDbLine
 10
270.8658319485944
 20
1365.147434082206
 30
0.0
 11
270.6198602689068
 21
1365.331416931327
 31
0.0
  0
LINE
  5
4B3
330
A
100
AcDbEntity
  8
HEWI
  6
STANDARD
 62
     7
100
AcDbLine
 10
273.1298547757427
 20
1040.131450500663
 30
0.0
 11
272.8458505643169
 21
1039.731441345389
 31
0.0
  0
LINE
  5
4B6
330
A
100
AcDbEntity
  8
HEWI
  6
STANDARD
 62
     7
100
AcDbLine
 10
273.4258371365826
 20
1040.625453796561
 30
0.0
 11
273.1298547757427
 21
1040.131450500663
 31
0.0
  0
LINE
  5
4BD
330
A
100
AcDbEntity
  8
HEWI
  6
STANDARD
 62
     7
100
AcDbLine
 10
270.6198602689068
 20
1365.331416931327
 30
0.0
 11
270.3858285916607
 21
1365.466419067557
 31
0.0
  0
LINE
  5
4C3
330
A
100
AcDbEntity
  8
HEWI
  6
STANDARD
 62
     7
100
AcDbLine
 10
264.2418390286724
 20
1036.992412414725
 30
0.0
 11
263.7488657010357
 21
1037.248378601249
 31
0.0
  0
LINE
  5
4C4
330
A
100
AcDbEntity
  8
HEWI
  6
STANDARD
 62
     7
100
AcDbLine
 10
262.299852944688
 20
1364.169421997245
 30
0.0
 11
261.8358331692974
 21
1363.274417724784
 31
0.0
  0
LINE
  5
4C5
330
A
100
AcDbEntity
  8
HEWI
  6
STANDARD
 62
     7
100
AcDbLine
 10
255.6738382352154
 20
1247.781406250175
 30
0.0
 11
254.9568658841412
 21
1248.152423706229
 31
0.0
  0
LINE
  5
4C6
330
A
100
AcDbEntity
  8
HEWI
  6
STANDARD
 62
     7
100
AcDbLine
 10
154.2368417752544
 20
1246.622424926932
 30
0.0
 11
153.8658433926861
 21
1245.905452575858
 31
0.0
  0
LINE
  5
4C7
330
A
100
AcDbEntity
  8
HEWI
  6
STANDARD
 62
     7
100
AcDbLine
 10
195.3038507474224
 20
1208.96140655535
 30
0.0
 11
194.9328332913676
 21
1208.244396057304
 31
0.0
  0
LINE
  5
4C8
330
A
100
AcDbEntity
  8
HEWI
  6
STANDARD
 62
     7
100
AcDbLine
 10
270.3858285916607
 20
1365.466419067557
 30
0.0
 11
269.4918542874615
 21
1365.928417053397
 31
0.0
  0
LINE
  5
4C9
330
A
100
AcDbEntity
  8
HEWI
  6
STANDARD
 62
     7
100
AcDbLine
 10
264.6448617947857
 20
1036.784435119804
 30
0.0
 11
264.2418390286724
 21
1036.992412414725
 31
0.0
  0
LINE
  5
4CA
330
A
100
AcDbEntity
  8
HEWI
  6
STANDARD
 62
     7
100
AcDbLine
 10
273.8798624051373
 20
1041.513439026053
 30
0.0
 11
273.4258371365826
 21
1040.625453796561
 31
0.0
  0
LINE
  5
4CB
330
A
100
AcDbEntity
  8
HEWI
  6
STANDARD
 62
     7
100
AcDbLine
 10
274.1838556302349
 20
1042.117381897147
 30
0.0
 11
273.8798624051373
 21
1041.513439026053
 31
0.0
  0
LINE
  5
4D1
330
A
100
AcDbEntity
  8
HEWI
  6
STANDARD
 62
     7
100
AcDbLine
 10
150.4788499844829
 20
1248.107410278495
 30
0.0
 11
150.1468378079693
 21
1247.378421631034
 31
0.0
  0
LINE
  5
4D2
330
A
100
AcDbEntity
  8
HEWI
  6
STANDARD
 62
     7
100
AcDbLine
 10
257.1588617337505
 20
1251.539417114432
 30
0.0
 11
256.4298349393169
 21
1251.87141021746
 31
0.0
  0
LINE
  5
4DA
330
A
100
AcDbEntity
  8
HEWI
  6
STANDARD
 62
     7
100
AcDbLine
 10
274.4968515408794
 20
1042.862392273124
 30
0.0
 11
274.1838556302349
 21
1042.117381897147
 31
0.0
  0
LINE
  5
4DB
330
A
100
AcDbEntity
  8
HEWI
  6
STANDARD
 62
     7
100
AcDbLine
 10
269.4918542874615
 20
1365.928417053397
 30
0.0
 11
269.2708307278912
 21
1366.018405761893
 31
0.0
  0
LINE
  5
4E0
330
A
100
AcDbEntity
  8
HEWI
  6
STANDARD
 62
     7
100
AcDbLine
 10
274.8178583157819
 20
1043.778453674491
 30
0.0
 11
274.4968515408794
 21
1042.862392273124
 31
0.0
  0
LINE
  5
4E8
330
A
100
AcDbEntity
  8
HEWI
  6
STANDARD
 62
     7
100
AcDbLine
 10
256.4298349393169
 20
1251.87141021746
 30
0.0
 11
255.6858545316021
 21
1252.124400940116
 31
0.0
  0
LINE
  5
4E9
330
A
100
AcDbEntity
  8
HEWI
  6
STANDARD
 62
     7
100
AcDbLine
 10
150.1468378079693
 20
1247.378421631034
 30
0.0
 11
149.893847085313
 21
1246.634403076346
 31
0.0
  0
LINE
  5
4EE
330
A
100
AcDbEntity
  8
HEWI
  6
STANDARD
 62
     7
100
AcDbLine
 10
265.1618295682232
 20
1036.626430359061
 30
0.0
 11
264.6448617947857
 21
1036.784435119804
 31
0.0
  0
LINE
  5
4EF
330
A
100
AcDbEntity
  8
HEWI
  6
STANDARD
 62
     7
100
AcDbLine
 10
275.1448541653912
 20
1044.895397033866
 30
0.0
 11
274.8178583157819
 21
1043.778453674491
 31
0.0
  0
LINE
  5
4F1
330
A
100
AcDbEntity
  8
HEWI
  6
STANDARD
 62
     7
100
AcDbLine
 10
261.8358331692974
 20
1363.274417724784
 30
0.0
 11
261.5678506863873
 21
1362.343402710135
 31
0.0
  0
LINE
  5
4F2
330
A
100
AcDbEntity
  8
HEWI
  6
STANDARD
 62
     7
100
AcDbLine
 10
195.517855264024
 20
1209.705425110038
 30
0.0
 11
195.3038507474224
 21
1208.96140655535
 31
0.0
  0
LINE
  5
4F3
330
A
100
AcDbEntity
  8
HEWI
  6
STANDARD
 62
     7
100
AcDbLine
 10
153.8658433926861
 20
1245.905452575858
 30
0.0
 11
153.6518388760845
 21
1245.161434021171
 31
0.0
  0
LINE
  5
4F4
330
A
100
AcDbEntity
  8
HEWI
  6
STANDARD
 62
     7
100
AcDbLine
 10
254.9568658841412
 20
1248.152423706229
 30
0.0
 11
254.2128473294537
 21
1248.366428222831
 31
0.0
  0
LINE
  5
4F5
330
A
100
AcDbEntity
  8
HEWI
  6
STANDARD
 62
     7
100
AcDbLine
 10
269.2708307278912
 20
1366.018405761893
 30
0.0
 11
268.3418375027935
 21
1366.284404602225
 31
0.0
  0
LINE
  5
4F7
330
A
100
AcDbEntity
  8
HEWI
  6
STANDARD
 62
     7
100
AcDbLine
 10
275.3738504422466
 20
1045.75942596453
 30
0.0
 11
275.1448541653912
 21
1044.895397033866
 31
0.0
  0
LINE
  5
4F8
330
A
100
AcDbEntity
  8
HEWI
  6
STANDARD
 62
     7
100
AcDbLine
 10
265.5748468411724
 20
1036.51740631121
 30
0.0
 11
265.1618295682232
 21
1036.626430359061
 31
0.0
  0
LINE
  5
4FC
330
A
100
AcDbEntity
  8
HEWI
  6
STANDARD
 62
     7
100
AcDbLine
 10
275.6888299954693
 20
1047.068401184257
 30
0.0
 11
275.3738504422466
 21
1045.75942596453
 31
0.0
  0
LINE
  5
4FE
330
A
100
AcDbEntity
  8
HEWI
  6
STANDARD
 62
     7
100
AcDbLine
 10
255.6858545316021
 20
1252.124400940116
 30
0.0
 11
254.9408441556256
 21
1252.300411071952
 31
0.0
  0
LINE
  5
509
330
A
100
AcDbEntity
  8
HEWI
  6
STANDARD
 62
     7
100
AcDbLine
 10
275.8438592923444
 20
1047.817378845389
 30
0.0
 11
275.6888299954693
 21
1047.068401184257
 31
0.0
  0
LINE
  5
50C
330
A
100
AcDbEntity
  8
HEWI
  6
STANDARD
 62
     7
100
AcDbLine
 10
275.9968286526959
 20
1048.63540252703
 30
0.0
 11
275.8438592923444
 21
1047.817378845389
 31
0.0
  0
LINE
  5
50D
330
A
100
AcDbEntity
  8
HEWI
  6
STANDARD
 62
     7
100
AcDbLine
 10
276.1448389066021
 20
1049.517436828788
 30
0.0
 11
275.9968286526959
 21
1048.63540252703
 31
0.0
  0
LINE
  5
512
330
A
100
AcDbEntity
  8
HEWI
  6
STANDARD
 62
     7
100
AcDbLine
 10
276.2868600858013
 20
1050.461421814139
 30
0.0
 11
276.1448389066021
 21
1049.517436828788
 31
0.0
  0
LINE
  5
513
330
A
100
AcDbEntity
  8
HEWI
  6
STANDARD
 62
     7
100
AcDbLine
 10
268.3418375027935
 20
1366.284404602225
 30
0.0
 11
268.0008417142194
 21
1366.334415283378
 31
0.0
  0
LINE
  5
51E
330
A
100
AcDbEntity
  8
HEWI
  6
STANDARD
 62
     7
100
AcDbLine
 10
276.4208322537701
 20
1051.463390197929
 30
0.0
 11
276.2868600858013
 21
1050.461421814139
 31
0.0
  0
LINE
  5
520
330
A
100
AcDbEntity
  8
HEWI
  6
STANDARD
 62
     7
100
AcDbLine
 10
266.0888391507427
 20
1036.453395691093
 30
0.0
 11
265.5748468411724
 21
1036.51740631121
 31
0.0
  0
LINE
  5
521
330
A
100
AcDbEntity
  8
HEWI
  6
STANDARD
 62
     7
100
AcDbLine
 10
276.5478616727155
 20
1052.516399231132
 30
0.0
 11
276.4208322537701
 21
1051.463390197929
 31
0.0
  0
LINE
  5
525
330
A
100
AcDbEntity
  8
HEWI
  6
STANDARD
 62
     7
100
AcDbLine
 10
276.6668420804302
 20
1053.617397155936
 30
0.0
 11
276.5478616727155
 21
1052.516399231132
 31
0.0
  0
LINE
  5
527
330
A
100
AcDbEntity
  8
HEWI
  6
STANDARD
 62
     7
100
AcDbLine
 10
268.0008417142194
 20
1366.334415283378
 30
0.0
 11
267.0288568509381
 21
1366.433406677421
 31
0.0
  0
LINE
  5
528
330
A
100
AcDbEntity
  8
HEWI
  6
STANDARD
 62
     7
100
AcDbLine
 10
276.7778497708599
 20
1054.765392151054
 30
0.0
 11
276.6668420804302
 21
1053.617397155936
 31
0.0
  0
LINE
  5
52A
330
A
100
AcDbEntity
  8
HEWI
  6
STANDARD
 62
     7
100
AcDbLine
 10
195.5848413480083
 20
1210.43342193621
 30
0.0
 11
195.517855264024
 21
1209.705425110038
 31
0.0
  0
LINE
  5
52B
330
A
100
AcDbEntity
  8
HEWI
  6
STANDARD
 62
     7
100
AcDbLine
 10
153.6518388760845
 20
1245.161434021171
 30
0.0
 11
153.5848527921001
 21
1244.433437194999
 31
0.0
  0
LINE
  5
52C
330
A
100
AcDbEntity
  8
HEWI
  6
STANDARD
 62
     7
100
AcDbLine
 10
254.2128473294537
 20
1248.366428222831
 30
0.0
 11
253.4848505032818
 21
1248.433414306815
 31
0.0
  0
LINE
  5
52F
330
A
100
AcDbEntity
  8
HEWI
  6
STANDARD
 62
     7
100
AcDbLine
 10
254.9408441556256
 20
1252.300411071952
 30
0.0
 11
253.4848505032818
 21
1252.433429565604
 31
0.0
  0
LINE
  5
530
330
A
100
AcDbEntity
  8
HEWI
  6
STANDARD
 62
     7
100
AcDbLine
 10
261.5678506863873
 20
1362.343402710135
 30
0.0
 11
261.4848428738873
 21
1361.433406677421
 31
0.0
  0
LINE
  5
533
330
A
100
AcDbEntity
  8
HEWI
  6
STANDARD
 62
     7
100
AcDbLine
 10
276.9758325589458
 20
1057.176433410819
 30
0.0
 11
276.7778497708599
 21
1054.765392151054
 31
0.0
  0
LINE
  5
538
330
A
100
AcDbEntity
  8
HEWI
  6
STANDARD
 62
     7
100
AcDbLine
 10
277.1428400052349
 20
1059.681392517265
 30
0.0
 11
276.9758325589458
 21
1057.176433410819
 31
0.0
  0
LINE
  5
53E
330
A
100
AcDbEntity
  8
HEWI
  6
STANDARD
 62
     7
100
AcDbLine
 10
277.2808557523052
 20
1062.238384094413
 30
0.0
 11
277.1428400052349
 21
1059.681392517265
 31
0.0
  0
LINE
  5
540
330
A
100
AcDbEntity
  8
HEWI
  6
STANDARD
 62
     7
100
AcDbLine
 10
266.4848428738872
 20
1036.433406677421
 30
0.0
 11
266.0888391507427
 21
1036.453395691093
 31
0.0
  0
LINE
  5
54C
330
A
100
AcDbEntity
  8
HEWI
  6
STANDARD
 62
     7
100
AcDbLine
 10
277.3958307278912
 20
1064.841380920585
 30
0.0
 11
277.2808557523052
 21
1062.238384094413
 31
0.0
  0
LINE
  5
54D
330
A
100
AcDbEntity
  8
HEWI
  6
STANDARD
 62
     7
100
AcDbLine
 10
277.4898630154888
 20
1067.475429382499
 30
0.0
 11
277.3958307278912
 21
1064.841380920585
 31
0.0
  0
LINE
  5
562
330
A
100
AcDbEntity
  8
HEWI
  6
STANDARD
 62
     7
100
AcDbLine
 10
277.7888589871685
 20
1087.431407776054
 30
0.0
 11
277.7838617337506
 21
1086.098399963553
 31
0.0
  0
LINE
  5
568
330
A
100
AcDbEntity
  8
HEWI
  6
STANDARD
 62
     7
100
AcDbLine
 10
277.7888589871685
 20
1087.431407776054
 30
0.0
 11
277.7858453763287
 21
1091.433406677421
 31
0.0
  0
LINE
  5
586
330
A
100
AcDbEntity
  8
HEWI
  6
STANDARD
 62
     7
100
AcDbLine
 10
277.6788431180279
 20
1327.484432068046
 30
0.0
 11
277.6278406155865
 21
1330.157428589042
 31
0.0
  0
LINE
  5
58D
330
A
100
AcDbEntity
  8
HEWI
  6
STANDARD
 62
     7
100
AcDbLine
 10
277.6278406155865
 20
1330.157428589042
 30
0.0
 11
277.564859963731
 21
1332.826419677909
 31
0.0
  0
LINE
  5
596
330
A
100
AcDbEntity
  8
HEWI
  6
STANDARD
 62
     7
100
AcDbLine
 10
277.564859963731
 20
1332.826419677909
 30
0.0
 11
277.4878412259381
 21
1335.483432617362
 31
0.0
  0
LINE
  5
5A1
330
A
100
AcDbEntity
  8
HEWI
  6
STANDARD
 62
     7
100
AcDbLine
 10
277.4878412259381
 20
1335.483432617362
 30
0.0
 11
277.392855264024
 21
1338.117404785331
 31
0.0
  0
LINE
  5
5A9
330
A
100
AcDbEntity
  8
HEWI
  6
STANDARD
 62
     7
100
AcDbLine
 10
277.392855264024
 20
1338.117404785331
 30
0.0
 11
277.2768503201763
 21
1340.723415222343
 31
0.0
  0
LINE
  5
5BC
330
A
100
AcDbEntity
  8
HEWI
  6
STANDARD
 62
     7
100
AcDbLine
 10
266.4848428738872
 20
1366.433406677421
 30
0.0
 11
266.0888391507427
 21
1366.413417663749
 31
0.0
  0
LINE
  5
5BD
330
A
100
AcDbEntity
  8
HEWI
  6
STANDARD
 62
     7
100
AcDbLine
 10
277.2768503201763
 20
1340.723415222343
 30
0.0
 11
277.136850930528
 21
1343.294406738456
 31
0.0
  0
LINE
  5
5C4
330
A
100
AcDbEntity
  8
HEWI
  6
STANDARD
 62
     7
100
AcDbLine
 10
277.136850930528
 20
1343.294406738456
 30
0.0
 11
276.9678598416607
 21
1345.802417602714
 31
0.0
  0
LINE
  5
5CC
330
A
100
AcDbEntity
  8
HEWI
  6
STANDARD
 62
     7
100
AcDbLine
 10
276.9678598416607
 20
1345.802417602714
 30
0.0
 11
276.768847085313
 21
1348.197398986991
 31
0.0
  0
LINE
  5
5D0
330
A
100
AcDbEntity
  8
HEWI
  6
STANDARD
 62
     7
100
AcDbLine
 10
261.5678506863873
 20
1040.523448791678
 30
0.0
 11
261.4848428738873
 21
1041.433406677421
 31
0.0
  0
LINE
  5
5D1
330
A
100
AcDbEntity
  8
HEWI
  6
STANDARD
 62
     7
100
AcDbLine
 10
157.5848489774029
 20
1252.433429565604
 30
0.0
 11
156.1288553250591
 21
1252.300411071952
 31
0.0
  0
LINE
  5
5D4
330
A
100
AcDbEntity
  8
HEWI
  6
STANDARD
 62
     7
100
AcDbLine
 10
192.3128610623638
 20
1206.500392761405
 30
0.0
 11
191.5848642361919
 21
1206.433406677421
 31
0.0
  0
LINE
  5
5D5
330
A
100
AcDbEntity
  8
HEWI
  6
STANDARD
 62
     7
100
AcDbLine
 10
157.5848489774029
 20
1248.433414306815
 30
0.0
 11
156.856852151231
 21
1248.366428222831
 31
0.0
  0
LINE
  5
5D6
330
A
100
AcDbEntity
  8
HEWI
  6
STANDARD
 62
     7
100
AcDbLine
 10
261.4848428738873
 20
1244.433437194999
 30
0.0
 11
261.3508325589458
 21
1245.889430847342
 31
0.0
  0
LINE
  5
5D7
330
A
100
AcDbEntity
  8
HEWI
  6
STANDARD
 62
     7
100
AcDbLine
 10
257.4848657620709
 20
1244.433437194999
 30
0.0
 11
257.4178415311138
 21
1245.161434021171
 31
0.0
  0
LINE
  5
5D9
330
A
100
AcDbEntity
  8
HEWI
  6
STANDARD
 62
     7
100
AcDbLine
 10
276.768847085313
 20
1348.197398986991
 30
0.0
 11
276.6568475735943
 21
1349.344402160819
 31
0.0
  0
LINE
  5
5DB
330
A
100
AcDbEntity
  8
HEWI
  6
STANDARD
 62
     7
100
AcDbLine
 10
268.0008417142194
 20
1036.532436218436
 30
0.0
 11
267.0288568509381
 21
1036.433406677421
 31
0.0
  0
LINE
  5
5DD
330
A
100
AcDbEntity
  8
HEWI
  6
STANDARD
 62
     7
100
AcDbLine
 10
276.6568475735943
 20
1349.344402160819
 30
0.0
 11
276.5358453763287
 21
1350.453410949882
 31
0.0
  0
LINE
  5
5DF
330
A
100
AcDbEntity
  8
HEWI
  6
STANDARD
 62
     7
100
AcDbLine
 10
276.5358453763287
 20
1350.453410949882
 30
0.0
 11
276.4068323148052
 21
1351.512409057792
 31
0.0
  0
LINE
  5
5E0
330
A
100
AcDbEntity
  8
HEWI
  6
STANDARD
 62
     7
100
AcDbLine
 10
266.0888391507427
 20
1366.413417663749
 30
0.0
 11
265.5748468411724
 21
1366.350398864921
 31
0.0
  0
LINE
  5
5E1
330
A
100
AcDbEntity
  8
HEWI
  6
STANDARD
 62
     7
100
AcDbLine
 10
276.4068323148052
 20
1351.512409057792
 30
0.0
 11
276.2718301785747
 21
1352.512431945976
 31
0.0
  0
LINE
  5
5ED
330
A
100
AcDbEntity
  8
HEWI
  6
STANDARD
 62
     7
100
AcDbLine
 10
268.3438592923443
 20
1036.583400573905
 30
0.0
 11
268.0008417142194
 21
1036.532436218436
 31
0.0
  0
LINE
  5
5EE
330
A
100
AcDbEntity
  8
HEWI
  6
STANDARD
 62
     7
100
AcDbLine
 10
276.2718301785747
 20
1352.512431945976
 30
0.0
 11
276.1298471463482
 21
1353.445430603202
 31
0.0
  0
LINE
  5
5F0
330
A
100
AcDbEntity
  8
HEWI
  6
STANDARD
 62
     7
100
AcDbLine
 10
276.1298471463482
 20
1353.445430603202
 30
0.0
 11
275.982828713731
 21
1354.312434997733
 31
0.0
  0
LINE
  5
5F1
330
A
100
AcDbEntity
  8
HEWI
  6
STANDARD
 62
     7
100
AcDbLine
 10
275.982828713731
 20
1354.312434997733
 30
0.0
 11
275.8308511746685
 21
1355.115428772147
 31
0.0
  0
LINE
  5
5F4
330
A
100
AcDbEntity
  8
HEWI
  6
STANDARD
 62
     7
100
AcDbLine
 10
275.8308511746685
 20
1355.115428772147
 30
0.0
 11
275.6758600247662
 21
1355.857425537284
 31
0.0
  0
LINE
  5
5F7
330
A
100
AcDbEntity
  8
HEWI
  6
STANDARD
 62
     7
100
AcDbLine
 10
261.3508325589458
 20
1245.889430847342
 30
0.0
 11
261.1758523953716
 21
1246.634403076346
 31
0.0
  0
LINE
  5
600
330
A
100
AcDbEntity
  8
HEWI
  6
STANDARD
 62
     7
100
AcDbLine
 10
156.1288553250591
 20
1252.300411071952
 30
0.0
 11
155.3838449490825
 21
1252.124400940116
 31
0.0
  0
LINE
  5
601
330
A
100
AcDbEntity
  8
HEWI
  6
STANDARD
 62
     7
100
AcDbLine
 10
275.6758600247662
 20
1355.857425537284
 30
0.0
 11
275.3588586819927
 21
1357.161403503593
 31
0.0
  0
LINE
  5
604
330
A
100
AcDbEntity
  8
HEWI
  6
STANDARD
 62
     7
100
AcDbLine
 10
275.3588586819927
 20
1357.161403503593
 30
0.0
 11
275.1298624051373
 21
1358.027416076835
 31
0.0
  0
LINE
  5
605
330
A
100
AcDbEntity
  8
HEWI
  6
STANDARD
 62
     7
100
AcDbLine
 10
265.5748468411724
 20
1366.350398864921
 30
0.0
 11
265.1618295682232
 21
1366.240421142753
 31
0.0
  0
LINE
  5
607
330
A
100
AcDbEntity
  8
HEWI
  6
STANDARD
 62
     7
100
AcDbLine
 10
269.271860696153
 20
1036.84943756121
 30
0.0
 11
268.3438592923443
 21
1036.583400573905
 31
0.0
  0
LINE
  5
608
330
A
100
AcDbEntity
  8
HEWI
  6
STANDARD
 62
     7
100
AcDbLine
 10
257.4178415311138
 20
1245.161434021171
 30
0.0
 11
257.2038370145123
 21
1245.905452575858
 31
0.0
  0
LINE
  5
609
330
A
100
AcDbEntity
  8
HEWI
  6
STANDARD
 62
     7
100
AcDbLine
 10
156.856852151231
 20
1248.366428222831
 30
0.0
 11
156.1128526700298
 21
1248.152423706229
 31
0.0
  0
LINE
  5
60A
330
A
100
AcDbEntity
  8
HEWI
  6
STANDARD
 62
     7
100
AcDbLine
 10
193.0568414700785
 20
1206.714397278007
 30
0.0
 11
192.3128610623638
 21
1206.500392761405
 31
0.0
  0
LINE
  5
60B
330
A
100
AcDbEntity
  8
HEWI
  6
STANDARD
 62
     7
100
AcDbLine
 10
261.8358331692974
 20
1039.593425598319
 30
0.0
 11
261.5678506863873
 21
1040.523448791678
 31
0.0
  0
LINE
  5
60C
330
A
100
AcDbEntity
  8
HEWI
  6
STANDARD
 62
     7
100
AcDbLine
 10
275.1298624051373
 20
1358.027416076835
 30
0.0
 11
274.803858376817
 21
1359.130397644217
 31
0.0
  0
LINE
  5
60D
330
A
100
AcDbEntity
  8
HEWI
  6
STANDARD
 62
     7
100
AcDbLine
 10
265.1618295682232
 20
1366.240421142753
 30
0.0
 11
264.6448617947857
 21
1366.082416382011
 31
0.0
  0
LINE
  5
610
330
A
100
AcDbEntity
  8
HEWI
  6
STANDARD
 62
     7
100
AcDbLine
 10
261.1758523953716
 20
1246.634403076346
 30
0.0
 11
260.9228616727155
 21
1247.378421631034
 31
0.0
  0
LINE
  5
611
330
A
100
AcDbEntity
  8
HEWI
  6
STANDARD
 62
     7
100
AcDbLine
 10
155.3838449490825
 20
1252.124400940116
 30
0.0
 11
154.6398454678814
 21
1251.87141021746
 31
0.0
  0
LINE
  5
61A
330
A
100
AcDbEntity
  8
HEWI
  6
STANDARD
 62
     7
100
AcDbLine
 10
274.803858376817
 20
1359.130397644217
 30
0.0
 11
274.4848352444927
 21
1360.033412780936
 31
0.0
  0
LINE
  5
61F
330
A
100
AcDbEntity
  8
HEWI
  6
STANDARD
 62
     7
100
AcDbLine
 10
274.4848352444927
 20
1360.033412780936
 30
0.0
 11
274.1728311551373
 21
1360.771404113944
 31
0.0
  0
LINE
  5
627
330
A
100
AcDbEntity
  8
HEWI
  6
STANDARD
 62
     7
100
AcDbLine
 10
154.6398454678814
 20
1251.87141021746
 30
0.0
 11
153.910837746934
 21
1251.539417114432
 31
0.0
  0
LINE
  5
628
330
A
100
AcDbEntity
  8
HEWI
  6
STANDARD
 62
     7
100
AcDbLine
 10
260.9228616727155
 20
1247.378421631034
 30
0.0
 11
260.5908304227154
 21
1248.107410278495
 31
0.0
  0
LINE
  5
62E
330
A
100
AcDbEntity
  8
HEWI
  6
STANDARD
 62
     7
100
AcDbLine
 10
269.7288614285747
 20
1037.076412048514
 30
0.0
 11
269.271860696153
 21
1036.84943756121
 31
0.0
  0
LINE
  5
62F
330
A
100
AcDbEntity
  8
HEWI
  6
STANDARD
 62
     7
100
AcDbLine
 10
274.1728311551373
 20
1360.771404113944
 30
0.0
 11
273.8688379300396
 21
1361.372409668143
 31
0.0
  0
LINE
  5
630
330
A
100
AcDbEntity
  8
HEWI
  6
STANDARD
 62
     7
100
AcDbLine
 10
273.8688379300396
 20
1361.372409668143
 30
0.0
 11
273.4158426297466
 21
1362.260433044608
 31
0.0
  0
LINE
  5
631
330
A
100
AcDbEntity
  8
HEWI
  6
STANDARD
 62
     7
100
AcDbLine
 10
270.6228357327741
 20
1037.537380066092
 30
0.0
 11
269.7288614285747
 21
1037.076412048514
 31
0.0
  0
LINE
  5
632
330
A
100
AcDbEntity
  8
HEWI
  6
STANDARD
 62
     7
100
AcDbLine
 10
264.6448617947857
 20
1366.082416382011
 30
0.0
 11
264.2418390286724
 21
1365.874400940116
 31
0.0
  0
LINE
  5
633
330
A
100
AcDbEntity
  8
HEWI
  6
STANDARD
 62
     7
100
AcDbLine
 10
257.2038370145123
 20
1245.905452575858
 30
0.0
 11
256.8328577054302
 21
1246.622424926932
 31
0.0
  0
LINE
  5
634
330
A
100
AcDbEntity
  8
HEWI
  6
STANDARD
 62
     7
100
AcDbLine
 10
193.7738519681255
 20
1207.085414734061
 30
0.0
 11
193.0568414700785
 21
1206.714397278007
 31
0.0
  0
LINE
  5
635
330
A
100
AcDbEntity
  8
HEWI
  6
STANDARD
 62
     7
100
AcDbLine
 10
156.1128526700298
 20
1248.152423706229
 30
0.0
 11
155.3958421719829
 21
1247.781406250175
 31
0.0
  0
LINE
  5
636
330
A
100
AcDbEntity
  8
HEWI
  6
STANDARD
 62
     7
100
AcDbLine
 10
262.299852944688
 20
1038.697429504569
 30
0.0
 11
261.8358331692974
 21
1039.593425598319
 31
0.0
  0
LINE
  5
637
330
A
100
AcDbEntity
  8
HEWI
  6
STANDARD
 62
     7
100
AcDbLine
 10
264.2418390286724
 20
1365.874400940116
 30
0.0
 11
263.7488657010357
 21
1365.618434753592
 31
0.0
  0
LINE
  5
640
330
A
100
AcDbEntity
  8
HEWI
  6
STANDARD
 62
     7
100
AcDbLine
 10
273.4158426297466
 20
1362.260433044608
 30
0.0
 11
273.1208520901958
 21
1362.750430908378
 31
0.0
  0
LINE
  5
643
330
A
100
AcDbEntity
  8
HEWI
  6
STANDARD
 62
     7
100
AcDbLine
 10
273.1208520901958
 20
1362.750430908378
 30
0.0
 11
272.8378397000591
 21
1363.14540466326
 31
0.0
  0
LINE
  5
646
330
A
100
AcDbEntity
  8
HEWI
  6
STANDARD
 62
     7
100
AcDbLine
 10
263.7488657010357
 20
1365.618434753592
 30
0.0
 11
262.9488473904888
 21
1364.969402160819
 31
0.0
  0
LINE
  5
647
330
A
100
AcDbEntity
  8
HEWI
  6
STANDARD
 62
     7
100
AcDbLine
 10
272.8378397000591
 20
1363.14540466326
 30
0.0
 11
272.1918588650982
 21
1363.941417541679
 31
0.0
  0
LINE
  5
648
330
A
100
AcDbEntity
  8
HEWI
  6
STANDARD
 62
     7
100
AcDbLine
 10
271.4208322537701
 20
1038.185420837577
 30
0.0
 11
270.6228357327741
 21
1037.537380066092
 31
0.0
  0
LINE
  5
649
330
A
100
AcDbEntity
  8
HEWI
  6
STANDARD
 62
     7
100
AcDbLine
 10
155.3958421719829
 20
1247.781406250175
 30
0.0
 11
154.7568422330181
 21
1247.262416687186
 31
0.0
  0
LINE
  5
64A
330
A
100
AcDbEntity
  8
HEWI
  6
STANDARD
 62
     7
100
AcDbLine
 10
262.9488473904888
 20
1037.898403015311
 30
0.0
 11
262.299852944688
 21
1038.697429504569
 31
0.0
  0
LINE
  5
64B
330
A
100
AcDbEntity
  8
HEWI
  6
STANDARD
 62
     7
100
AcDbLine
 10
256.8328577054302
 20
1246.622424926932
 30
0.0
 11
256.3128381741802
 21
1247.262416687186
 31
0.0
  0
LINE
  5
64C
330
A
100
AcDbEntity
  8
HEWI
  6
STANDARD
 62
     7
100
AcDbLine
 10
194.4128519070904
 20
1207.605434265311
 30
0.0
 11
193.7738519681255
 21
1207.085414734061
 31
0.0
  0
LINE
  5
64E
330
A
100
AcDbEntity
  8
HEWI
  6
STANDARD
 62
     7
100
AcDbLine
 10
271.9278436673444
 20
1038.617397155936
 30
0.0
 11
271.4208322537701
 21
1038.185420837577
 31
0.0
  0
LINE
  5
650
330
A
100
AcDbEntity
  8
HEWI
  6
STANDARD
 62
     7
100
AcDbLine
 10
272.1918588650982
 20
1363.941417541679
 30
0.0
 11
271.9218545926373
 21
1364.256435241874
 31
0.0
  0
ARC
  5
658
330
A
100
AcDbEntity
  8
HEWI
  6
STANDARD
 62
     7
100
AcDbCircle
 10
157.5757838880687
 20
1244.442503578848
 30
0.0
 40
7.987365770326673
100
AcDbArc
 50
117.312467674078
 51
152.6878507499089
  0
ARC
  5
659
330
A
100
AcDbEntity
  8
HEWI
  6
STANDARD
 62
     7
100
AcDbCircle
 10
253.4940226175965
 20
1244.44265004402
 30
0.0
 40
7.987186525866746
100
AcDbArc
 50
27.31163076326709
 51
62.6877323869855
  0
ARC
  5
65B
330
A
100
AcDbEntity
  8
HEWI
  6
STANDARD
 62
     7
100
AcDbCircle
 10
-273.7247918963673
 20
1084.667437069709
 30
0.0
 40
551.4826932170343
100
AcDbArc
 50
358.2135629815638
 51
359.3182260007107
  0
ARC
  5
65C
330
A
100
AcDbEntity
  8
HEWI
  6
STANDARD
 62
     7
100
AcDbCircle
 10
-379.6839906822271
 20
1087.045278115524
 30
0.0
 40
657.4685342575052
100
AcDbArc
 50
358.5255117647589
 51
359.9174832896965
  0
ARC
  5
65D
330
A
100
AcDbEntity
  8
HEWI
  6
STANDARD
 62
     7
100
AcDbCircle
 10
-580.3222567931295
 20
1313.738800076784
 30
0.0
 40
858.1111989990544
100
AcDbArc
 50
359.8460695176143
 51
0.9178302126065668
  0
LINE
  5
82E
330
A
100
AcDbEntity
  8
HEWI
100
AcDbLine
 10
-288.8469695882872
 20
1366.472729967696
 30
0.0
 11
-504.3469695882873
 21
1366.472729967696
 31
0.0
  0
LINE
  5
82F
330
A
100
AcDbEntity
  8
HEWI
100
AcDbLine
 10
-504.3469695882873
 20
1036.472729967696
 30
0.0
 11
-288.8469695882872
 21
1036.472729967696
 31
0.0
  0
LINE
  5
830
330
A
100
AcDbEntity
  8
HEWI
100
AcDbLine
 10
-570.8969695882972
 20
1311.599729967695
 30
0.0
 11
-570.8969695882972
 21
1091.345729967695
 31
0.0
  0
LINE
  5
831
330
A
100
AcDbEntity
  8
HEWI
100
AcDbLine
 10
-504.3469695882873
 20
1036.472729967696
 30
0.0
 11
-511.0287895882923
 21
1036.472729967696
 31
0.0
  0
LINE
  5
832
330
A
100
AcDbEntity
  8
HEWI
100
AcDbLine
 10
-515.8953595882834
 20
1036.472729967696
 30
0.0
 11
-511.0287895882923
 21
1036.472729967696
 31
0.0
  0
LINE
  5
833
330
A
100
AcDbEntity
  8
HEWI
100
AcDbLine
 10
-288.8469695882872
 20
1036.472729967696
 30
0.0
 11
-282.1651495882893
 21
1036.472729967696
 31
0.0
  0
LINE
  5
834
330
A
100
AcDbEntity
  8
HEWI
100
AcDbLine
 10
-504.3469695882873
 20
1366.472729967696
 30
0.0
 11
-511.0287895882923
 21
1366.472729967696
 31
0.0
  0
LINE
  5
835
330
A
100
AcDbEntity
  8
HEWI
100
AcDbLine
 10
-282.1651495882893
 20
1036.472729967696
 30
0.0
 11
-277.2983495882932
 21
1036.472729967696
 31
0.0
  0
LINE
  5
836
330
A
100
AcDbEntity
  8
HEWI
100
AcDbLine
 10
-222.2969695882916
 20
1091.345729967695
 30
0.0
 11
-222.2969695882916
 21
1311.599729967695
 31
0.0
  0
LINE
  5
837
330
A
100
AcDbEntity
  8
HEWI
100
AcDbLine
 10
-277.2985795882837
 20
1366.472729967696
 30
0.0
 11
-282.1651495882893
 21
1366.472729967696
 31
0.0
  0
LINE
  5
838
330
A
100
AcDbEntity
  8
HEWI
100
AcDbLine
 10
-511.0287895882923
 20
1366.472729967696
 30
0.0
 11
-515.8955895882885
 21
1366.472729967696
 31
0.0
  0
LINE
  5
839
330
A
100
AcDbEntity
  8
HEWI
100
AcDbLine
 10
-282.1651495882893
 20
1366.472729967696
 30
0.0
 11
-288.8469695882872
 21
1366.472729967696
 31
0.0
  0
LINE
  5
83A
330
A
100
AcDbEntity
  8
HEWI
100
AcDbLine
 10
-288.8469695882872
 20
1041.472729967696
 30
0.0
 11
-288.8469695882872
 21
1361.472729967696
 31
0.0
  0
LINE
  5
83B
330
A
100
AcDbEntity
  8
HEWI
100
AcDbLine
 10
-504.3469695882873
 20
1361.472729967696
 30
0.0
 11
-504.3469695882873
 21
1041.472729967696
 31
0.0
  0
LINE
  5
83C
330
A
100
AcDbEntity
  8
HEWI
100
AcDbLine
 10
-288.8469695882872
 20
1361.472729967696
 30
0.0
 11
-288.8469695882872
 21
1366.472729967696
 31
0.0
  0
LINE
  5
83D
330
A
100
AcDbEntity
  8
HEWI
100
AcDbLine
 10
-504.3469695882873
 20
1361.472729967696
 30
0.0
 11
-504.3469695882873
 21
1366.472729967696
 31
0.0
  0
LINE
  5
83E
330
A
100
AcDbEntity
  8
HEWI
100
AcDbLine
 10
-288.8469695882872
 20
1036.472729967696
 30
0.0
 11
-288.8469695882872
 21
1041.472729967696
 31
0.0
  0
LINE
  5
83F
330
A
100
AcDbEntity
  8
HEWI
100
AcDbLine
 10
-504.3469695882873
 20
1036.472729967696
 30
0.0
 11
-504.3469695882873
 21
1041.472729967696
 31
0.0
  0
SPLINE
  5
8E3
330
A
100
AcDbEntity
  8
HEWI
100
AcDbSpline
210
0.0
220
0.0
230
1.0
 70
     8
 71
     3
 72
    20
 73
    16
 74
     0
 42
0.000000001
 43
0.0000000001
 40
0.0
 40
0.0
 40
0.0
 40
0.0
 40
0.2500000000000034
 40
0.2500000000000034
 40
0.3750000000000051
 40
0.3750000000000051
 40
0.4375000000000053
 40
0.4375000000000053
 40
0.5000000000000055
 40
0.5000000000000055
 40
0.625000000000004
 40
0.625000000000004
 40
0.7500000000000027
 40
0.7500000000000027
 40
1.0
 40
1.0
 40
1.0
 40
1.0
 10
-570.8969664218152
 20
1311.472732527154
 30
0.0
 10
-570.8969664218152
 20
1319.236029677626
 30
0.0
 10
-570.5921682430837
 20
1327.009546074197
 30
0.0
 10
-568.4960293709576
 20
1338.462019936072
 30
0.0
 10
-567.5156895710519
 20
1342.215477745269
 30
0.0
 10
-565.2159222827962
 20
1347.580924996586
 30
0.0
 10
-564.3208777388847
 20
1349.291076831812
 30
0.0
 10
-562.2076343145659
 20
1352.514573058197
 30
0.0
 10
-560.9692225131498
 20
1354.043932494098
 30
0.0
 10
-556.8542338080864
 20
1358.109909964916
 30
0.0
 10
-553.5124318127186
 20
1360.173766121891
 30
0.0
 10
-546.428999035887
 20
1363.151607081014
 30
0.0
 10
-542.6894778245973
 20
1364.11693533418
 30
0.0
 10
-531.3037983137168
 20
1366.172831282644
 30
0.0
 10
-523.5928433439607
 20
1366.472731534995
 30
0.0
 10
-515.8969664218151
 20
1366.472732527154
 30
0.0
  0
SPLINE
  5
8E4
330
A
100
AcDbEntity
  8
HEWI
100
AcDbSpline
210
0.0
220
0.0
230
1.0
 70
     8
 71
     3
 72
    20
 73
    16
 74
     0
 42
0.000000001
 43
0.0000000001
 40
0.0
 40
0.0
 40
0.0
 40
0.0
 40
0.2499999999999969
 40
0.2499999999999969
 40
0.3749999999999955
 40
0.3749999999999955
 40
0.4999999999999944
 40
0.4999999999999944
 40
0.5624999999999945
 40
0.5624999999999945
 40
0.6249999999999946
 40
0.6249999999999946
 40
0.7499999999999965
 40
0.7499999999999965
 40
1.0
 40
1.0
 40
1.0
 40
1.0
 10
-277.2969664218166
 20
1366.472732527154
 30
0.0
 10
-269.6010895245403
 20
1366.472732527154
 30
0.0
 10
-261.890134529915
 20
1366.172831282644
 30
0.0
 10
-250.5044550190345
 20
1364.116935334179
 30
0.0
 10
-246.764933807745
 20
1363.151607081014
 30
0.0
 10
-239.6815010309206
 20
1360.173766121891
 30
0.0
 10
-236.3396990355454
 20
1358.109909964916
 30
0.0
 10
-232.2247103304821
 20
1354.043932494098
 30
0.0
 10
-230.986298529066
 20
1352.514573058197
 30
0.0
 10
-228.873055104747
 20
1349.291076831812
 30
0.0
 10
-227.9780105608356
 20
1347.580924996586
 30
0.0
 10
-225.6782432725799
 20
1342.215477745269
 30
0.0
 10
-224.6979034726814
 20
1338.462019936072
 30
0.0
 10
-222.601764600548
 20
1327.009546074197
 30
0.0
 10
-222.2969664218167
 20
1319.236029677626
 30
0.0
 10
-222.2969664218167
 20
1311.472732527154
 30
0.0
  0
SPLINE
  5
8E5
330
A
100
AcDbEntity
  8
HEWI
100
AcDbSpline
210
0.0
220
0.0
230
1.0
 70
     8
 71
     3
 72
    20
 73
    16
 74
     0
 42
0.000000001
 43
0.0000000001
 40
0.0
 40
0.0
 40
0.0
 40
0.0
 40
0.2499999999999983
 40
0.2499999999999983
 40
0.3749999999999979
 40
0.3749999999999979
 40
0.4374999999999984
 40
0.4374999999999984
 40
0.4999999999999984
 40
0.4999999999999984
 40
0.6249999999999988
 40
0.6249999999999988
 40
0.7499999999999992
 40
0.7499999999999992
 40
1.0
 40
1.0
 40
1.0
 40
1.0
 10
-515.8969664218151
 20
1036.472732527154
 30
0.0
 10
-523.5938867821372
 20
1036.472733511639
 30
0.0
 10
-531.3815635007982
 20
1036.777457155415
 30
0.0
 10
-542.7807496312873
 20
1038.849699142992
 30
0.0
 10
-546.5100214615654
 20
1039.814834028812
 30
0.0
 10
-551.8689127676903
 20
1042.087625878881
 30
0.0
 10
-553.5786920323864
 20
1042.972339607946
 30
0.0
 10
-556.8053991314211
 20
1045.06257713118
 30
0.0
 10
-558.3390525167471
 20
1046.287911759198
 30
0.0
 10
-562.4361106301717
 20
1050.382309174632
 30
0.0
 10
-564.5222177533419
 20
1053.714793402408
 30
0.0
 10
-567.5401205670842
 20
1060.819315804849
 30
0.0
 10
-568.5169909005257
 20
1064.572930890032
 30
0.0
 10
-570.5972767743792
 20
1076.014766235948
 30
0.0
 10
-570.8969664218152
 20
1083.731454104409
 30
0.0
 10
-570.8969664218152
 20
1091.472732527154
 30
0.0
  0
SPLINE
  5
8E6
330
A
100
AcDbEntity
  8
HEWI
100
AcDbSpline
210
0.0
220
0.0
230
1.0
 70
     8
 71
     3
 72
    20
 73
    16
 74
     0
 42
0.000000001
 43
0.0000000001
 40
0.0
 40
0.0
 40
0.0
 40
0.0
 40
0.2500000000000008
 40
0.2500000000000008
 40
0.3750000000000012
 40
0.3750000000000012
 40
0.5000000000000017
 40
0.5000000000000017
 40
0.5625000000000019
 40
0.5625000000000019
 40
0.6250000000000023
 40
0.6250000000000023
 40
0.7500000000000017
 40
0.7500000000000017
 40
1.0
 40
1.0
 40
1.0
 40
1.0
 10
-222.2969664218167
 20
1091.472732527154
 30
0.0
 10
-222.2969664218167
 20
1083.731454104409
 30
0.0
 10
-222.5966560692527
 20
1076.014766235948
 30
0.0
 10
-224.6769419431061
 20
1064.572930890032
 30
0.0
 10
-225.6538122765473
 20
1060.819315804849
 30
0.0
 10
-228.6717150902974
 20
1053.714793402408
 30
0.0
 10
-230.7578222134602
 20
1050.382309174632
 30
0.0
 10
-234.8548803268845
 20
1046.287911759198
 30
0.0
 10
-236.3885337122178
 20
1045.06257713118
 30
0.0
 10
-239.6152408112525
 20
1042.972339607946
 30
0.0
 10
-241.325020075949
 20
1042.087625878881
 30
0.0
 10
-246.683911382081
 20
1039.814834028812
 30
0.0
 10
-250.4131832123517
 20
1038.849699142992
 30
0.0
 10
-261.8123693428338
 20
1036.777457155415
 30
0.0
 10
-269.6000460861965
 20
1036.472732527154
 30
0.0
 10
-277.2969664218166
 20
1036.472732527154
 30
0.0
  0
ARC
  5
8FD
330
A
100
AcDbEntity
  8
HEWI
100
AcDbCircle
 10
-504.346960051544
 20
1417.565605146739
 30
0.0
 40
100.0
100
AcDbArc
 50
90.0
 51
93.6485600000052
  0
ARC
  5
8FE
330
A
100
AcDbEntity
  8
HEWI
100
AcDbCircle
 10
319.5069600515477
 20
936.7421351467386
 30
0.0
 40
591.7999999999997
210
0.0
220
0.0
230
-1.0
100
AcDbArc
 50
93.6485600000052
 51
94.12499200002612
  0
ARC
  5
8FF
330
A
100
AcDbEntity
  8
HEWI
100
AcDbCircle
 10
473.6869600515476
 20
936.7421351467386
 30
0.0
 40
591.7999999999997
210
0.0
220
0.0
230
-1.0
100
AcDbArc
 50
85.87500799997389
 51
86.35143999999485
  0
ARC
  5
900
330
A
100
AcDbEntity
  8
HEWI
100
AcDbCircle
 10
504.346960051544
 20
1417.565605146739
 30
0.0
 40
110.0
210
0.0
220
0.0
230
-1.0
100
AcDbArc
 50
86.35143999999485
 51
90.0
  0
ARC
  5
901
330
A
100
AcDbEntity
  8
HEWI
100
AcDbCircle
 10
-319.5069600515477
 20
936.7421351467386
 30
0.0
 40
581.7999999999996
100
AcDbArc
 50
85.87500799997389
 51
86.35143999999485
  0
ARC
  5
902
330
A
100
AcDbEntity
  8
HEWI
100
AcDbCircle
 10
-473.6869600515476
 20
936.7421351467386
 30
0.0
 40
581.7999999999996
100
AcDbArc
 50
93.6485600000052
 51
94.12499200002612
  0
SPLINE
  5
903
330
A
100
AcDbEntity
  8
HEWI
100
AcDbSpline
210
-0.0000000000000001
220
0.0000000000000003
230
1.0
 70
     8
 71
     3
 72
    10
 73
     6
 74
     0
 42
0.000000001
 43
0.0000000001
 40
0.0
 40
0.0
 40
0.0
 40
0.0
 40
0.5
 40
0.5
 40
1.0
 40
1.0
 40
1.0
 40
1.0
 10
-570.896956885072
 20
1516.251892780673
 30
0.000000000000001
 10
-570.896956885072
 20
1517.429394360798
 30
0.000000000000001
 10
-570.4645530772451
 20
1518.6021214922
 30
0.000000000000001
 10
-568.9357409839272
 20
1520.393426454542
 30
0.0
 10
-567.8455316157617
 20
1521.004741030946
 30
0.0
 10
-566.6826589982361
 20
1521.189774126896
 30
0.0
  0
SPLINE
  5
904
330
A
100
AcDbEntity
  8
HEWI
100
AcDbSpline
210
0.0
220
0.0
230
1.0
 70
     8
 71
     3
 72
    18
 73
    14
 74
     0
 42
0.000000001
 43
0.0000000001
 40
0.0
 40
0.0
 40
0.0
 40
0.0
 40
0.2499999999999999
 40
0.2499999999999999
 40
0.3749999999999996
 40
0.3749999999999996
 40
0.4999999999999993
 40
0.4999999999999993
 40
0.6249999999999992
 40
0.6249999999999992
 40
0.7499999999999987
 40
0.7499999999999987
 40
1.0
 40
1.0
 40
1.0
 40
1.0
 10
-515.5372943083916
 20
1517.034985830723
 30
0.000000000000001
 10
-522.5746613848152
 20
1516.527455559042
 30
0.000000000000001
 10
-529.5793251342898
 20
1515.893026809071
 30
0.000000000000001
 10
-539.961219888783
 20
1514.765562492491
 30
0.000000000000001
 10
-543.3940279556686
 20
1514.36042298832
 30
0.000000000000001
 10
-549.8902973184288
 20
1513.539337903837
 30
0.000000000000001
 10
-552.9825667733661
 20
1513.118497022058
 30
0.000000000000001
 10
-557.9372883085945
 20
1512.415120379861
 30
0.000000000000001
 10
-559.7478859436145
 20
1512.143260243825
 30
0.000000000000001
 10
-562.3222192110463
 20
1511.752333789854
 30
0.000000000000001
 10
-563.1231241734187
 20
1511.627129462813
 30
0.000000000000001
 10
-564.85500859795
 20
1511.355914464149
 30
0.000000000000001
 10
-565.1113633408733
 20
1511.31399368055
 30
0.000000000000001
 10
-565.1112078898717
 20
1511.314019100905
 30
0.000000000000001
  0
SPLINE
  5
905
330
A
100
AcDbEntity
  8
HEWI
100
AcDbSpline
210
0.0
220
0.0
230
1.0
 70
     8
 71
     3
 72
    18
 73
    14
 74
     0
 42
0.000000001
 43
0.0000000001
 40
0.0
 40
0.0
 40
0.0
 40
0.0
 40
0.2500000000000013
 40
0.2500000000000013
 40
0.3750000000000009
 40
0.3750000000000009
 40
0.5000000000000007
 40
0.5000000000000007
 40
0.6250000000000006
 40
0.6250000000000006
 40
0.7500000000000001
 40
0.7500000000000001
 40
1.0
 40
1.0
 40
1.0
 40
1.0
 10
-228.0826096486985
 20
1511.314003364495
 30
0.000000000000001
 10
-228.0827083477547
 20
1511.314019504403
 30
0.000000000000001
 10
-228.3389051721957
 20
1511.355914464149
 30
0.000000000000001
 10
-230.0707895967339
 20
1511.627129462813
 30
0.000000000000001
 10
-230.871694559099
 20
1511.752333789854
 30
0.000000000000001
 10
-233.446027826531
 20
1512.143260243825
 30
0.000000000000001
 10
-235.2566254615509
 20
1512.415120379861
 30
0.000000000000001
 10
-240.2113469967866
 20
1513.118497022058
 30
0.000000000000001
 10
-243.3036164517239
 20
1513.539337903837
 30
0.000000000000001
 10
-249.7998858144843
 20
1514.36042298832
 30
0.000000000000001
 10
-253.2326938813625
 20
1514.765562492491
 30
0.000000000000001
 10
-263.6145886358558
 20
1515.893026809071
 30
0.000000000000001
 10
-270.6192523853301
 20
1516.527455559042
 30
0.000000000000001
 10
-277.6566194617613
 20
1517.034985830723
 30
0.000000000000001
  0
SPLINE
  5
906
330
A
100
AcDbEntity
  8
HEWI
100
AcDbSpline
210
0.0
220
0.0
230
1.0
 70
     8
 71
     3
 72
    10
 73
     6
 74
     0
 42
0.000000001
 43
0.0000000001
 40
0.0
 40
0.0
 40
0.0
 40
0.0
 40
0.5
 40
0.5
 40
1.0
 40
1.0
 40
1.0
 40
1.0
 10
-565.1112547719226
 20
1511.314011434449
 30
0.000000000000001
 10
-566.5338507813125
 20
1511.087651865965
 30
0.000000000000001
 10
-568.0471448553928
 20
1511.513569263591
 30
0.000000000000001
 10
-570.2385313001562
 20
1513.383836006739
 30
0.000000000000001
 10
-570.896956885072
 20
1514.811400482807
 30
0.000000000000001
 10
-570.896956885072
 20
1516.251892780673
 30
0.000000000000001
  0
SPLINE
  5
907
330
A
100
AcDbEntity
  8
HEWI
100
AcDbSpline
210
0.0
220
0.0
230
1.0
 70
     8
 71
     3
 72
    10
 73
     6
 74
     0
 42
0.000000001
 43
0.0000000001
 40
0.0
 40
0.0
 40
0.0
 40
0.0
 40
0.5
 40
0.5
 40
1.0
 40
1.0
 40
1.0
 40
1.0
 10
-222.2969568850735
 20
1516.251892780673
 30
0.000000000000001
 10
-222.2969568850735
 20
1514.811400482807
 30
0.000000000000001
 10
-222.9553824699892
 20
1513.383836006739
 30
0.000000000000001
 10
-225.1467689147525
 20
1511.513569263591
 30
0.000000000000001
 10
-226.660062988833
 20
1511.087651865965
 30
0.000000000000001
 10
-228.0826589982301
 20
1511.314011434449
 30
0.000000000000001
  0
SPLINE
  5
908
330
A
100
AcDbEntity
  8
HEWI
100
AcDbSpline
210
0.0
220
0.0
230
1.0
 70
     8
 71
     3
 72
    20
 73
    16
 74
     0
 42
0.000000001
 43
0.0000000001
 40
0.0
 40
0.0
 40
0.0
 40
0.0
 40
0.2499999999999973
 40
0.2499999999999973
 40
0.3749999999999971
 40
0.3749999999999971
 40
0.437499999999997
 40
0.437499999999997
 40
0.4999999999999969
 40
0.4999999999999969
 40
0.6249999999999979
 40
0.6249999999999979
 40
0.7499999999999992
 40
0.7499999999999992
 40
1.0
 40
1.0
 40
1.0
 40
1.0
 10
-566.6827083466182
 20
1521.18976604997
 30
0.0
 10
-566.6826096498392
 20
1521.189782203824
 30
0.0
 10
-566.4186184024861
 20
1521.232990060674
 30
0.0
 10
-564.617451371587
 20
1521.514960948713
 30
0.0
 10
-563.7839839497011
 20
1521.645215957907
 30
0.0
 10
-561.7696178761673
 20
1521.950772629324
 30
0.0
 10
-560.974719621676
 20
1522.070263985642
 30
0.0
 10
-559.0680526609778
 20
1522.351425048561
 30
0.0
 10
-557.9318555825216
 20
1522.516577641705
 30
0.0
 10
-554.1081368179716
 20
1523.058010407665
 30
0.0
 10
-550.953232139726
 20
1523.485838990124
 30
0.0
 10
-544.3696280664503
 20
1524.315289137763
 30
0.0
 10
-540.9001749399234
 20
1524.723402181014
 30
0.0
 10
-530.4213593824884
 20
1525.858274642647
 30
0.0
 10
-523.3550526097665
 20
1526.497146527008
 30
0.0
 10
-516.2566194617669
 20
1527.009080843492
 30
0.0
  0
SPLINE
  5
909
330
A
100
AcDbEntity
  8
HEWI
100
AcDbSpline
210
0.0
220
0.0
230
1.0
 70
     8
 71
     3
 72
    20
 73
    16
 74
     0
 42
0.000000001
 43
0.0000000001
 40
0.0
 40
0.0
 40
0.0
 40
0.0
 40
0.2501026463115671
 40
0.2501026463115671
 40
0.3751539694673513
 40
0.3751539694673513
 40
0.5002052926231359
 40
0.5002052926231359
 40
0.5627309542010269
 40
0.5627309542010269
 40
0.6252566157789185
 40
0.6252566157789185
 40
0.7503079389347013
 40
0.7503079389347013
 40
1.0
 40
1.0
 40
1.0
 40
1.0
 10
-276.9372943083858
 20
1527.009080843492
 30
0.0
 10
-269.8388611603791
 20
1526.497146527008
 30
0.0
 10
-262.7725543876572
 20
1525.858274642647
 30
0.0
 10
-252.293738830222
 20
1524.723402181014
 30
0.0
 10
-248.8242857036953
 20
1524.315289137763
 30
0.0
 10
-242.2406816304196
 20
1523.485838990124
 30
0.0
 10
-239.0857769521813
 20
1523.058010407665
 30
0.0
 10
-235.262058187624
 20
1522.516577641705
 30
0.0
 10
-234.1258611091675
 20
1522.351425048561
 30
0.0
 10
-232.2191941484766
 20
1522.070263985642
 30
0.0
 10
-231.424295893978
 20
1521.950772629324
 30
0.0
 10
-229.4099298204514
 20
1521.645215957907
 30
0.0
 10
-228.5764623985583
 20
1521.514960948713
 30
0.0
 10
-226.7772666452424
 20
1521.233298662198
 30
0.0
 10
-226.5120160196443
 20
1521.189898698442
 30
0.0
 10
-226.5113030272392
 20
1521.189782024882
 30
0.0
  0
SPLINE
  5
90A
330
A
100
AcDbEntity
  8
HEWI
100
AcDbSpline
210
-0.0000000000000003
220
-0.0000000000000001
230
1.0
 70
     8
 71
     3
 72
    10
 73
     6
 74
     0
 42
0.000000001
 43
0.0000000001
 40
0.0
 40
0.0
 40
0.0
 40
0.0
 40
0.5
 40
0.5
 40
1.0
 40
1.0
 40
1.0
 40
1.0
 10
-226.5112547719169
 20
1521.189774126896
 30
0.0
 10
-225.3483821543909
 20
1521.004741030946
 30
0.0
 10
-224.2581727862257
 20
1520.393426454542
 30
0.0
 10
-222.7293606929002
 20
1518.6021214922
 30
0.000000000000001
 10
-222.2969568850735
 20
1517.429394360798
 30
0.000000000000001
 10
-222.2969568850735
 20
1516.251892780673
 30
0.000000000000001
  0
LINE
  5
982
330
A
100
AcDbEntity
  8
HEWI
  6
STANDARD
 62
     7
100
AcDbLine
 10
-568.5656641180522
 20
1243.472775744063
 30
0.0
 11
-695.2656648809918
 21
1243.472775744063
 31
0.0
  0
LINE
  5
983
330
A
100
AcDbEntity
  8
HEWI
  6
STANDARD
 62
     7
100
AcDbLine
 10
-568.5656831915387
 20
1211.472729967696
 30
0.0
 11
-695.2656648809918
 21
1211.472729967696
 31
0.0
  0
LINE
  5
1BFD
330
A
100
AcDbEntity
  8
HEWI
  6
STANDARD
 62
     7
100
AcDbLine
 10
149.5848375333111
 20
1205.43342193621
 30
0.0
 11
149.5848375333111
 21
1211.233440246757
 31
0.0
  0
LINE
  5
1C0C
330
A
100
AcDbEntity
  8
HEWI
  6
STANDARD
 62
     7
100
AcDbLine
 10
150.0024815811841
 20
1247.016684105931
 30
0.0
 11
149.648749481398
 21
1245.529775300623
 31
0.0
  0
LINE
  5
1C0F
330
A
100
AcDbEntity
  8
HEWI
  6
STANDARD
 62
     7
100
AcDbLine
 10
149.648749481398
 20
1245.529775300623
 30
0.0
 11
149.5817633974136
 21
1244.801778474452
 31
0.0
  0
LINE
  5
1C10
330
A
100
AcDbEntity
  8
HEWI
  6
STANDARD
 62
     7
100
AcDbLine
 10
-1042.016191709357
 20
1252.433429565604
 30
0.0
 11
-946.1161901834783
 21
1252.433429565604
 31
0.0
  0
LINE
  5
1C11
330
A
100
AcDbEntity
  8
HEWI
  6
STANDARD
 62
     7
100
AcDbLine
 10
-942.1161939981756
 20
1205.922389831718
 30
0.0
 11
-938.1161787393866
 21
1205.922389831718
 31
0.0
  0
LINE
  5
1C12
330
A
100
AcDbEntity
  8
HEWI
  6
STANDARD
 62
     7
100
AcDbLine
 10
-942.1161939981756
 20
1205.43342193621
 30
0.0
 11
-938.1161787393866
 21
1205.43342193621
 31
0.0
  0
LINE
  5
1C13
330
A
100
AcDbEntity
  8
HEWI
  6
STANDARD
 62
     7
100
AcDbLine
 10
-1042.016191709357
 20
1248.433414306815
 30
0.0
 11
-946.1161901834783
 21
1248.433414306815
 31
0.0
  0
LINE
  5
1C14
330
A
100
AcDbEntity
  8
HEWI
  6
STANDARD
 62
     7
100
AcDbLine
 10
-1050.016184079963
 20
1091.433406677421
 30
0.0
 11
-1046.016206968146
 21
1091.433406677421
 31
0.0
  0
LINE
  5
1C15
330
A
100
AcDbEntity
  8
HEWI
  6
STANDARD
 62
     7
100
AcDbLine
 10
-1066.32718108924
 20
1091.433406677421
 30
0.0
 11
-1066.217203367072
 21
1091.433406677421
 31
0.0
  0
LINE
  5
1C16
330
A
100
AcDbEntity
  8
HEWI
  6
STANDARD
 62
     7
100
AcDbLine
 10
-1066.32718108924
 20
1311.433406677421
 30
0.0
 11
-1066.217203367072
 21
1311.433406677421
 31
0.0
  0
LINE
  5
1C17
330
A
100
AcDbEntity
  8
HEWI
  6
STANDARD
 62
     7
100
AcDbLine
 10
-1055.560198057013
 20
1366.433406677421
 30
0.0
 11
-1055.016184079963
 21
1366.433406677421
 31
0.0
  0
LINE
  5
1C18
330
A
100
AcDbEntity
  8
HEWI
  6
STANDARD
 62
     7
100
AcDbLine
 10
-1055.560198057013
 20
1036.433406677421
 30
0.0
 11
-1055.016184079963
 21
1036.433406677421
 31
0.0
  0
LINE
  5
1C19
330
A
100
AcDbEntity
  8
HEWI
  6
STANDARD
 62
     7
100
AcDbLine
 10
-980.1162054422674
 20
1206.433406677421
 30
0.0
 11
-942.1161939981756
 21
1206.433406677421
 31
0.0
  0
LINE
  5
1C1A
330
A
100
AcDbEntity
  8
HEWI
  6
STANDARD
 62
     7
100
AcDbLine
 10
-1046.016206968146
 20
1091.433406677421
 30
0.0
 11
-1046.016206968146
 21
1244.433437194999
 31
0.0
  0
LINE
  5
1C1B
330
A
100
AcDbEntity
  8
HEWI
  6
STANDARD
 62
     7
100
AcDbLine
 10
-1050.016184079963
 20
1041.433406677421
 30
0.0
 11
-1050.016184079963
 21
1361.433406677421
 31
0.0
  0
LINE
  5
1C1C
330
A
100
AcDbEntity
  8
HEWI
  6
STANDARD
 62
     7
100
AcDbLine
 10
-942.1161939981756
 20
1243.633418884452
 30
0.0
 11
-942.1161939981756
 21
1244.433437194999
 31
0.0
  0
LINE
  5
1C1D
330
A
100
AcDbEntity
  8
HEWI
  6
STANDARD
 62
     7
100
AcDbLine
 10
-942.1161939981756
 20
1205.43342193621
 30
0.0
 11
-942.1161939981756
 21
1243.633418884452
 31
0.0
  0
LINE
  5
1C1E
330
A
100
AcDbEntity
  8
HEWI
  6
STANDARD
 62
     7
100
AcDbLine
 10
-1066.32718108924
 20
1091.433406677421
 30
0.0
 11
-1066.32718108924
 21
1311.433406677421
 31
0.0
  0
LINE
  5
1C1F
330
A
100
AcDbEntity
  8
HEWI
  6
STANDARD
 62
     7
100
AcDbLine
 10
-984.1161825540835
 20
1210.43342193621
 30
0.0
 11
-984.1161825540835
 21
1248.433414306815
 31
0.0
  0
LINE
  5
1C20
330
A
100
AcDbEntity
  8
HEWI
  6
STANDARD
 62
     7
100
AcDbLine
 10
-1060.453195798713
 20
1364.256435241874
 30
0.0
 11
-1060.195169675666
 21
1364.499431457694
 31
0.0
  0
LINE
  5
1C21
330
A
100
AcDbEntity
  8
HEWI
  6
STANDARD
 62
     7
100
AcDbLine
 10
-1060.731172788458
 20
1038.935390319999
 30
0.0
 11
-1060.45918487342
 21
1038.617397155936
 31
0.0
  0
LINE
  5
1C22
330
A
100
AcDbEntity
  8
HEWI
  6
STANDARD
 62
     7
100
AcDbLine
 10
-983.4641744974431
 20
1208.244396057304
 30
0.0
 11
-982.9441931131658
 21
1207.605434265311
 31
0.0
  0
LINE
  5
1C23
330
A
100
AcDbEntity
  8
HEWI
  6
STANDARD
 62
     7
100
AcDbLine
 10
-1052.280206907111
 20
1037.248378601249
 30
0.0
 11
-1051.480188596564
 21
1037.898403015311
 31
0.0
  0
LINE
  5
1C24
330
A
100
AcDbEntity
  8
HEWI
  6
STANDARD
 62
     7
100
AcDbLine
 10
-943.2881834390936
 20
1247.262416687186
 30
0.0
 11
-942.7681829813298
 21
1246.622424926932
 31
0.0
  0
LINE
  5
1C25
330
A
100
AcDbEntity
  8
HEWI
  6
STANDARD
 62
     7
100
AcDbLine
 10
-1044.844179380255
 20
1247.262416687186
 30
0.0
 11
-1044.205179441291
 21
1247.781406250175
 31
0.0
  0
LINE
  5
1C26
330
A
100
AcDbEntity
  8
HEWI
  6
STANDARD
 62
     7
100
AcDbLine
 10
-1060.195169675666
 20
1364.499431457694
 30
0.0
 11
-1059.39717315467
 21
1365.147434082206
 31
0.0
  0
LINE
  5
1C27
330
A
100
AcDbEntity
  8
HEWI
  6
STANDARD
 62
     7
100
AcDbLine
 10
-1061.377191770392
 20
1039.731441345389
 30
0.0
 11
-1060.731172788458
 21
1038.935390319999
 31
0.0
  0
LINE
  5
1C28
330
A
100
AcDbEntity
  8
HEWI
  6
STANDARD
 62
     7
100
AcDbLine
 10
-1051.480188596564
 20
1364.969402160819
 30
0.0
 11
-1050.831194150763
 21
1364.169421997245
 31
0.0
  0
LINE
  5
1C29
330
A
100
AcDbEntity
  8
HEWI
  6
STANDARD
 62
     7
100
AcDbLine
 10
-1059.39717315467
 20
1365.147434082206
 30
0.0
 11
-1059.151201474982
 21
1365.331416931327
 31
0.0
  0
LINE
  5
1C2A
330
A
100
AcDbEntity
  8
HEWI
  6
STANDARD
 62
     7
100
AcDbLine
 10
-1061.661195981818
 20
1040.131450500663
 30
0.0
 11
-1061.377191770392
 21
1039.731441345389
 31
0.0
  0
LINE
  5
1C2B
330
A
100
AcDbEntity
  8
HEWI
  6
STANDARD
 62
     7
100
AcDbLine
 10
-1061.957178342658
 20
1040.625453796561
 30
0.0
 11
-1061.661195981818
 21
1040.131450500663
 31
0.0
  0
LINE
  5
1C2C
330
A
100
AcDbEntity
  8
HEWI
  6
STANDARD
 62
     7
100
AcDbLine
 10
-1059.151201474982
 20
1365.331416931327
 30
0.0
 11
-1058.917169797736
 21
1365.466419067557
 31
0.0
  0
LINE
  5
1C2D
330
A
100
AcDbEntity
  8
HEWI
  6
STANDARD
 62
     7
100
AcDbLine
 10
-1052.773180234748
 20
1036.992412414725
 30
0.0
 11
-1052.280206907111
 21
1037.248378601249
 31
0.0
  0
LINE
  5
1C2E
330
A
100
AcDbEntity
  8
HEWI
  6
STANDARD
 62
     7
100
AcDbLine
 10
-1050.831194150763
 20
1364.169421997245
 30
0.0
 11
-1050.367174375373
 21
1363.274417724784
 31
0.0
  0
LINE
  5
1C2F
330
A
100
AcDbEntity
  8
HEWI
  6
STANDARD
 62
     7
100
AcDbLine
 10
-1044.205179441291
 20
1247.781406250175
 30
0.0
 11
-1043.488207090216
 21
1248.152423706229
 31
0.0
  0
LINE
  5
1C30
330
A
100
AcDbEntity
  8
HEWI
  6
STANDARD
 62
     7
100
AcDbLine
 10
-942.7681829813298
 20
1246.622424926932
 30
0.0
 11
-942.3971845987615
 21
1245.905452575858
 31
0.0
  0
LINE
  5
1C31
330
A
100
AcDbEntity
  8
HEWI
  6
STANDARD
 62
     7
100
AcDbLine
 10
-983.8351919534979
 20
1208.96140655535
 30
0.0
 11
-983.4641744974431
 21
1208.244396057304
 31
0.0
  0
LINE
  5
1C32
330
A
100
AcDbEntity
  8
HEWI
  6
STANDARD
 62
     7
100
AcDbLine
 10
-1058.917169797736
 20
1365.466419067557
 30
0.0
 11
-1058.023195493537
 21
1365.928417053397
 31
0.0
  0
LINE
  5
1C33
330
A
100
AcDbEntity
  8
HEWI
  6
STANDARD
 62
     7
100
AcDbLine
 10
-1053.176203000861
 20
1036.784435119804
 30
0.0
 11
-1052.773180234748
 21
1036.992412414725
 31
0.0
  0
LINE
  5
1C34
330
A
100
AcDbEntity
  8
HEWI
  6
STANDARD
 62
     7
100
AcDbLine
 10
-1062.411203611213
 20
1041.513439026053
 30
0.0
 11
-1061.957178342658
 21
1040.625453796561
 31
0.0
  0
LINE
  5
1C35
330
A
100
AcDbEntity
  8
HEWI
  6
STANDARD
 62
     7
100
AcDbLine
 10
-1062.71519683631
 20
1042.117381897147
 30
0.0
 11
-1062.411203611213
 21
1041.513439026053
 31
0.0
  0
LINE
  5
1C36
330
A
100
AcDbEntity
  8
HEWI
  6
STANDARD
 62
     7
100
AcDbLine
 10
-939.0101911905583
 20
1248.107410278495
 30
0.0
 11
-938.6781790140448
 21
1247.378421631034
 31
0.0
  0
LINE
  5
1C37
330
A
100
AcDbEntity
  8
HEWI
  6
STANDARD
 62
     7
100
AcDbLine
 10
-1045.690202939826
 20
1251.539417114432
 30
0.0
 11
-1044.961176145392
 21
1251.87141021746
 31
0.0
  0
LINE
  5
1C38
330
A
100
AcDbEntity
  8
HEWI
  6
STANDARD
 62
     7
100
AcDbLine
 10
-1063.028192746955
 20
1042.862392273124
 30
0.0
 11
-1062.71519683631
 21
1042.117381897147
 31
0.0
  0
LINE
  5
1C39
330
A
100
AcDbEntity
  8
HEWI
  6
STANDARD
 62
     7
100
AcDbLine
 10
-1058.023195493537
 20
1365.928417053397
 30
0.0
 11
-1057.802171933967
 21
1366.018405761893
 31
0.0
  0
LINE
  5
1C3A
330
A
100
AcDbEntity
  8
HEWI
  6
STANDARD
 62
     7
100
AcDbLine
 10
-1063.349199521857
 20
1043.778453674491
 30
0.0
 11
-1063.028192746955
 21
1042.862392273124
 31
0.0
  0
LINE
  5
1C3B
330
A
100
AcDbEntity
  8
HEWI
  6
STANDARD
 62
     7
100
AcDbLine
 10
-1044.961176145392
 20
1251.87141021746
 30
0.0
 11
-1044.217195737678
 21
1252.124400940116
 31
0.0
  0
LINE
  5
1C3C
330
A
100
AcDbEntity
  8
HEWI
  6
STANDARD
 62
     7
100
AcDbLine
 10
-938.6781790140448
 20
1247.378421631034
 30
0.0
 11
-938.4251882913885
 21
1246.634403076346
 31
0.0
  0
LINE
  5
1C3D
330
A
100
AcDbEntity
  8
HEWI
  6
STANDARD
 62
     7
100
AcDbLine
 10
-1053.693170774299
 20
1036.626430359061
 30
0.0
 11
-1053.176203000861
 21
1036.784435119804
 31
0.0
  0
LINE
  5
1C3E
330
A
100
AcDbEntity
  8
HEWI
  6
STANDARD
 62
     7
100
AcDbLine
 10
-1063.676195371467
 20
1044.895397033866
 30
0.0
 11
-1063.349199521857
 21
1043.778453674491
 31
0.0
  0
LINE
  5
1C3F
330
A
100
AcDbEntity
  8
HEWI
  6
STANDARD
 62
     7
100
AcDbLine
 10
-1050.367174375373
 20
1363.274417724784
 30
0.0
 11
-1050.099191892463
 21
1362.343402710135
 31
0.0
  0
LINE
  5
1C40
330
A
100
AcDbEntity
  8
HEWI
  6
STANDARD
 62
     7
100
AcDbLine
 10
-984.0491964700992
 20
1209.705425110038
 30
0.0
 11
-983.8351919534979
 21
1208.96140655535
 31
0.0
  0
LINE
  5
1C41
330
A
100
AcDbEntity
  8
HEWI
  6
STANDARD
 62
     7
100
AcDbLine
 10
-942.3971845987615
 20
1245.905452575858
 30
0.0
 11
-942.18318008216
 21
1245.161434021171
 31
0.0
  0
LINE
  5
1C42
330
A
100
AcDbEntity
  8
HEWI
  6
STANDARD
 62
     7
100
AcDbLine
 10
-938.5338227872596
 20
1247.016684105931
 30
0.0
 11
-938.1800906874735
 21
1245.529775300623
 31
0.0
  0
LINE
  5
1C43
330
A
100
AcDbEntity
  8
HEWI
  6
STANDARD
 62
     7
100
AcDbLine
 10
-1043.488207090216
 20
1248.152423706229
 30
0.0
 11
-1042.744188535529
 21
1248.366428222831
 31
0.0
  0
LINE
  5
1C44
330
A
100
AcDbEntity
  8
HEWI
  6
STANDARD
 62
     7
100
AcDbLine
 10
-1057.802171933967
 20
1366.018405761893
 30
0.0
 11
-1056.873178708869
 21
1366.284404602225
 31
0.0
  0
LINE
  5
1C45
330
A
100
AcDbEntity
  8
HEWI
  6
STANDARD
 62
     7
100
AcDbLine
 10
-1063.905191648322
 20
1045.75942596453
 30
0.0
 11
-1063.676195371467
 21
1044.895397033866
 31
0.0
  0
LINE
  5
1C46
330
A
100
AcDbEntity
  8
HEWI
  6
STANDARD
 62
     7
100
AcDbLine
 10
-1054.106188047248
 20
1036.51740631121
 30
0.0
 11
-1053.693170774299
 21
1036.626430359061
 31
0.0
  0
LINE
  5
1C47
330
A
100
AcDbEntity
  8
HEWI
  6
STANDARD
 62
     7
100
AcDbLine
 10
-1064.220171201545
 20
1047.068401184257
 30
0.0
 11
-1063.905191648322
 21
1045.75942596453
 31
0.0
  0
LINE
  5
1C48
330
A
100
AcDbEntity
  8
HEWI
  6
STANDARD
 62
     7
100
AcDbLine
 10
-1044.217195737678
 20
1252.124400940116
 30
0.0
 11
-1043.472185361701
 21
1252.300411071952
 31
0.0
  0
LINE
  5
1C49
330
A
100
AcDbEntity
  8
HEWI
  6
STANDARD
 62
     7
100
AcDbLine
 10
-1064.37520049842
 20
1047.817378845389
 30
0.0
 11
-1064.220171201545
 21
1047.068401184257
 31
0.0
  0
LINE
  5
1C4A
330
A
100
AcDbEntity
  8
HEWI
  6
STANDARD
 62
     7
100
AcDbLine
 10
-1064.528169858771
 20
1048.63540252703
 30
0.0
 11
-1064.37520049842
 21
1047.817378845389
 31
0.0
  0
LINE
  5
1C4B
330
A
100
AcDbEntity
  8
HEWI
  6
STANDARD
 62
     7
100
AcDbLine
 10
-1064.676180112678
 20
1049.517436828788
 30
0.0
 11
-1064.528169858771
 21
1048.63540252703
 31
0.0
  0
LINE
  5
1C4C
330
A
100
AcDbEntity
  8
HEWI
  6
STANDARD
 62
     7
100
AcDbLine
 10
-1064.818201291877
 20
1050.461421814139
 30
0.0
 11
-1064.676180112678
 21
1049.517436828788
 31
0.0
  0
LINE
  5
1C4D
330
A
100
AcDbEntity
  8
HEWI
  6
STANDARD
 62
     7
100
AcDbLine
 10
-1056.873178708869
 20
1366.284404602225
 30
0.0
 11
-1056.532182920295
 21
1366.334415283378
 31
0.0
  0
LINE
  5
1C4E
330
A
100
AcDbEntity
  8
HEWI
  6
STANDARD
 62
     7
100
AcDbLine
 10
-1064.952173459845
 20
1051.463390197929
 30
0.0
 11
-1064.818201291877
 21
1050.461421814139
 31
0.0
  0
LINE
  5
1C4F
330
A
100
AcDbEntity
  8
HEWI
  6
STANDARD
 62
     7
100
AcDbLine
 10
-1054.620180356818
 20
1036.453395691093
 30
0.0
 11
-1054.106188047248
 21
1036.51740631121
 31
0.0
  0
LINE
  5
1C50
330
A
100
AcDbEntity
  8
HEWI
  6
STANDARD
 62
     7
100
AcDbLine
 10
-1065.079202878791
 20
1052.516399231132
 30
0.0
 11
-1064.952173459845
 21
1051.463390197929
 31
0.0
  0
LINE
  5
1C51
330
A
100
AcDbEntity
  8
HEWI
  6
STANDARD
 62
     7
100
AcDbLine
 10
-1065.198183286505
 20
1053.617397155936
 30
0.0
 11
-1065.079202878791
 21
1052.516399231132
 31
0.0
  0
LINE
  5
1C52
330
A
100
AcDbEntity
  8
HEWI
  6
STANDARD
 62
     7
100
AcDbLine
 10
-1056.532182920295
 20
1366.334415283378
 30
0.0
 11
-1055.560198057013
 21
1366.433406677421
 31
0.0
  0
LINE
  5
1C53
330
A
100
AcDbEntity
  8
HEWI
  6
STANDARD
 62
     7
100
AcDbLine
 10
-1065.309190976935
 20
1054.765392151054
 30
0.0
 11
-1065.198183286505
 21
1053.617397155936
 31
0.0
  0
LINE
  5
1C54
330
A
100
AcDbEntity
  8
HEWI
  6
STANDARD
 62
     7
100
AcDbLine
 10
-984.1161825540835
 20
1210.43342193621
 30
0.0
 11
-984.0491964700992
 21
1209.705425110038
 31
0.0
  0
LINE
  5
1C55
330
A
100
AcDbEntity
  8
HEWI
  6
STANDARD
 62
     7
100
AcDbLine
 10
-942.18318008216
 20
1245.161434021171
 30
0.0
 11
-942.1161939981756
 21
1244.433437194999
 31
0.0
  0
LINE
  5
1C56
330
A
100
AcDbEntity
  8
HEWI
  6
STANDARD
 62
     7
100
AcDbLine
 10
-938.1800906874735
 20
1245.529775300623
 30
0.0
 11
-938.1131046034893
 21
1244.801778474452
 31
0.0
  0
LINE
  5
1C57
330
A
100
AcDbEntity
  8
HEWI
  6
STANDARD
 62
     7
100
AcDbLine
 10
-1042.744188535529
 20
1248.366428222831
 30
0.0
 11
-1042.016191709357
 21
1248.433414306815
 31
0.0
  0
LINE
  5
1C58
330
A
100
AcDbEntity
  8
HEWI
  6
STANDARD
 62
     7
100
AcDbLine
 10
-1043.472185361701
 20
1252.300411071952
 30
0.0
 11
-1042.016191709357
 21
1252.433429565604
 31
0.0
  0
LINE
  5
1C59
330
A
100
AcDbEntity
  8
HEWI
  6
STANDARD
 62
     7
100
AcDbLine
 10
-1050.099191892463
 20
1362.343402710135
 30
0.0
 11
-1050.016184079963
 21
1361.433406677421
 31
0.0
  0
LINE
  5
1C5A
330
A
100
AcDbEntity
  8
HEWI
  6
STANDARD
 62
     7
100
AcDbLine
 10
-1065.507173765021
 20
1057.176433410819
 30
0.0
 11
-1065.309190976935
 21
1054.765392151054
 31
0.0
  0
LINE
  5
1C5B
330
A
100
AcDbEntity
  8
HEWI
  6
STANDARD
 62
     7
100
AcDbLine
 10
-1065.67418121131
 20
1059.681392517265
 30
0.0
 11
-1065.507173765021
 21
1057.176433410819
 31
0.0
  0
LINE
  5
1C5C
330
A
100
AcDbEntity
  8
HEWI
  6
STANDARD
 62
     7
100
AcDbLine
 10
-1065.81219695838
 20
1062.238384094413
 30
0.0
 11
-1065.67418121131
 21
1059.681392517265
 31
0.0
  0
LINE
  5
1C5D
330
A
100
AcDbEntity
  8
HEWI
  6
STANDARD
 62
     7
100
AcDbLine
 10
-1055.016184079963
 20
1036.433406677421
 30
0.0
 11
-1054.620180356818
 21
1036.453395691093
 31
0.0
  0
LINE
  5
1C5E
330
A
100
AcDbEntity
  8
HEWI
  6
STANDARD
 62
     7
100
AcDbLine
 10
-1065.927171933966
 20
1064.841380920585
 30
0.0
 11
-1065.81219695838
 21
1062.238384094413
 31
0.0
  0
LINE
  5
1C5F
330
A
100
AcDbEntity
  8
HEWI
  6
STANDARD
 62
     7
100
AcDbLine
 10
-1066.021204221564
 20
1067.475429382499
 30
0.0
 11
-1065.927171933966
 21
1064.841380920585
 31
0.0
  0
LINE
  5
1C60
330
A
100
AcDbEntity
  8
HEWI
  6
STANDARD
 62
     7
100
AcDbLine
 10
-1066.320200193244
 20
1087.431407776054
 30
0.0
 11
-1066.315202939826
 21
1086.098399963553
 31
0.0
  0
LINE
  5
1C61
330
A
100
AcDbEntity
  8
HEWI
  6
STANDARD
 62
     7
100
AcDbLine
 10
-1066.320200193244
 20
1087.431407776054
 30
0.0
 11
-1066.317186582404
 21
1091.433406677421
 31
0.0
  0
LINE
  5
1C62
330
A
100
AcDbEntity
  8
HEWI
  6
STANDARD
 62
     7
100
AcDbLine
 10
-1066.210184324103
 20
1327.484432068046
 30
0.0
 11
-1066.159181821662
 21
1330.157428589042
 31
0.0
  0
LINE
  5
1C63
330
A
100
AcDbEntity
  8
HEWI
  6
STANDARD
 62
     7
100
AcDbLine
 10
-1066.159181821662
 20
1330.157428589042
 30
0.0
 11
-1066.096201169806
 21
1332.826419677909
 31
0.0
  0
LINE
  5
1C64
330
A
100
AcDbEntity
  8
HEWI
  6
STANDARD
 62
     7
100
AcDbLine
 10
-1066.096201169806
 20
1332.826419677909
 30
0.0
 11
-1066.019182432013
 21
1335.483432617362
 31
0.0
  0
LINE
  5
1C65
330
A
100
AcDbEntity
  8
HEWI
  6
STANDARD
 62
     7
100
AcDbLine
 10
-1066.019182432013
 20
1335.483432617362
 30
0.0
 11
-1065.924196470099
 21
1338.117404785331
 31
0.0
  0
LINE
  5
1C66
330
A
100
AcDbEntity
  8
HEWI
  6
STANDARD
 62
     7
100
AcDbLine
 10
-1065.924196470099
 20
1338.117404785331
 30
0.0
 11
-1065.808191526252
 21
1340.723415222343
 31
0.0
  0
LINE
  5
1C67
330
A
100
AcDbEntity
  8
HEWI
  6
STANDARD
 62
     7
100
AcDbLine
 10
-1055.016184079963
 20
1366.433406677421
 30
0.0
 11
-1054.620180356818
 21
1366.413417663749
 31
0.0
  0
LINE
  5
1C68
330
A
100
AcDbEntity
  8
HEWI
  6
STANDARD
 62
     7
100
AcDbLine
 10
-1065.808191526252
 20
1340.723415222343
 30
0.0
 11
-1065.668192136603
 21
1343.294406738456
 31
0.0
  0
LINE
  5
1C69
330
A
100
AcDbEntity
  8
HEWI
  6
STANDARD
 62
     7
100
AcDbLine
 10
-1065.668192136603
 20
1343.294406738456
 30
0.0
 11
-1065.499201047736
 21
1345.802417602714
 31
0.0
  0
LINE
  5
1C6A
330
A
100
AcDbEntity
  8
HEWI
  6
STANDARD
 62
     7
100
AcDbLine
 10
-1065.499201047736
 20
1345.802417602714
 30
0.0
 11
-1065.300188291388
 21
1348.197398986991
 31
0.0
  0
LINE
  5
1C6B
330
A
100
AcDbEntity
  8
HEWI
  6
STANDARD
 62
     7
100
AcDbLine
 10
-1050.099191892463
 20
1040.523448791678
 30
0.0
 11
-1050.016184079963
 21
1041.433406677421
 31
0.0
  0
LINE
  5
1C6C
330
A
100
AcDbEntity
  8
HEWI
  6
STANDARD
 62
     7
100
AcDbLine
 10
-946.1161901834783
 20
1252.433429565604
 30
0.0
 11
-944.6601965311343
 21
1252.300411071952
 31
0.0
  0
LINE
  5
1C6D
330
A
100
AcDbEntity
  8
HEWI
  6
STANDARD
 62
     7
100
AcDbLine
 10
-980.8442022684392
 20
1206.500392761405
 30
0.0
 11
-980.1162054422674
 21
1206.433406677421
 31
0.0
  0
LINE
  5
1C6E
330
A
100
AcDbEntity
  8
HEWI
  6
STANDARD
 62
     7
100
AcDbLine
 10
-946.1161901834783
 20
1248.433414306815
 30
0.0
 11
-945.3881933573063
 21
1248.366428222831
 31
0.0
  0
LINE
  5
1C6F
330
A
100
AcDbEntity
  8
HEWI
  6
STANDARD
 62
     7
100
AcDbLine
 10
-1050.016184079963
 20
1244.433437194999
 30
0.0
 11
-1049.882173765021
 21
1245.889430847342
 31
0.0
  0
LINE
  5
1C70
330
A
100
AcDbEntity
  8
HEWI
  6
STANDARD
 62
     7
100
AcDbLine
 10
-1046.016206968146
 20
1244.433437194999
 30
0.0
 11
-1045.949182737189
 21
1245.161434021171
 31
0.0
  0
LINE
  5
1C71
330
A
100
AcDbEntity
  8
HEWI
  6
STANDARD
 62
     7
100
AcDbLine
 10
-1065.300188291388
 20
1348.197398986991
 30
0.0
 11
-1065.18818877967
 21
1349.344402160819
 31
0.0
  0
LINE
  5
1C72
330
A
100
AcDbEntity
  8
HEWI
  6
STANDARD
 62
     7
100
AcDbLine
 10
-1056.532182920295
 20
1036.532436218436
 30
0.0
 11
-1055.560198057013
 21
1036.433406677421
 31
0.0
  0
LINE
  5
1C73
330
A
100
AcDbEntity
  8
HEWI
  6
STANDARD
 62
     7
100
AcDbLine
 10
-1065.18818877967
 20
1349.344402160819
 30
0.0
 11
-1065.067186582404
 21
1350.453410949882
 31
0.0
  0
LINE
  5
1C74
330
A
100
AcDbEntity
  8
HEWI
  6
STANDARD
 62
     7
100
AcDbLine
 10
-1065.067186582404
 20
1350.453410949882
 30
0.0
 11
-1064.93817352088
 21
1351.512409057792
 31
0.0
  0
LINE
  5
1C75
330
A
100
AcDbEntity
  8
HEWI
  6
STANDARD
 62
     7
100
AcDbLine
 10
-1054.620180356818
 20
1366.413417663749
 30
0.0
 11
-1054.106188047248
 21
1366.350398864921
 31
0.0
  0
LINE
  5
1C76
330
A
100
AcDbEntity
  8
HEWI
  6
STANDARD
 62
     7
100
AcDbLine
 10
-1064.93817352088
 20
1351.512409057792
 30
0.0
 11
-1064.80317138465
 21
1352.512431945976
 31
0.0
  0
LINE
  5
1C77
330
A
100
AcDbEntity
  8
HEWI
  6
STANDARD
 62
     7
100
AcDbLine
 10
-1056.87520049842
 20
1036.583400573905
 30
0.0
 11
-1056.532182920295
 21
1036.532436218436
 31
0.0
  0
LINE
  5
1C78
330
A
100
AcDbEntity
  8
HEWI
  6
STANDARD
 62
     7
100
AcDbLine
 10
-1064.80317138465
 20
1352.512431945976
 30
0.0
 11
-1064.661188352424
 21
1353.445430603202
 31
0.0
  0
LINE
  5
1C79
330
A
100
AcDbEntity
  8
HEWI
  6
STANDARD
 62
     7
100
AcDbLine
 10
-1064.661188352424
 20
1353.445430603202
 30
0.0
 11
-1064.514169919806
 21
1354.312434997733
 31
0.0
  0
LINE
  5
1C7A
330
A
100
AcDbEntity
  8
HEWI
  6
STANDARD
 62
     7
100
AcDbLine
 10
-1064.514169919806
 20
1354.312434997733
 30
0.0
 11
-1064.362192380744
 21
1355.115428772147
 31
0.0
  0
LINE
  5
1C7B
330
A
100
AcDbEntity
  8
HEWI
  6
STANDARD
 62
     7
100
AcDbLine
 10
-1064.362192380744
 20
1355.115428772147
 30
0.0
 11
-1064.207201230842
 21
1355.857425537284
 31
0.0
  0
LINE
  5
1C7C
330
A
100
AcDbEntity
  8
HEWI
  6
STANDARD
 62
     7
100
AcDbLine
 10
-1049.882173765021
 20
1245.889430847342
 30
0.0
 11
-1049.707193601447
 21
1246.634403076346
 31
0.0
  0
LINE
  5
1C7D
330
A
100
AcDbEntity
  8
HEWI
  6
STANDARD
 62
     7
100
AcDbLine
 10
-944.6601965311343
 20
1252.300411071952
 30
0.0
 11
-943.9151861551579
 21
1252.124400940116
 31
0.0
  0
LINE
  5
1C7E
330
A
100
AcDbEntity
  8
HEWI
  6
STANDARD
 62
     7
100
AcDbLine
 10
-1064.207201230842
 20
1355.857425537284
 30
0.0
 11
-1063.890199888068
 21
1357.161403503593
 31
0.0
  0
LINE
  5
1C7F
330
A
100
AcDbEntity
  8
HEWI
  6
STANDARD
 62
     7
100
AcDbLine
 10
-1063.890199888068
 20
1357.161403503593
 30
0.0
 11
-1063.661203611212
 21
1358.027416076835
 31
0.0
  0
LINE
  5
1C80
330
A
100
AcDbEntity
  8
HEWI
  6
STANDARD
 62
     7
100
AcDbLine
 10
-1054.106188047248
 20
1366.350398864921
 30
0.0
 11
-1053.693170774299
 21
1366.240421142753
 31
0.0
  0
LINE
  5
1C81
330
A
100
AcDbEntity
  8
HEWI
  6
STANDARD
 62
     7
100
AcDbLine
 10
-1057.803201902228
 20
1036.84943756121
 30
0.0
 11
-1056.87520049842
 21
1036.583400573905
 31
0.0
  0
LINE
  5
1C82
330
A
100
AcDbEntity
  8
HEWI
  6
STANDARD
 62
     7
100
AcDbLine
 10
-1045.949182737189
 20
1245.161434021171
 30
0.0
 11
-1045.735178220588
 21
1245.905452575858
 31
0.0
  0
LINE
  5
1C83
330
A
100
AcDbEntity
  8
HEWI
  6
STANDARD
 62
     7
100
AcDbLine
 10
-945.3881933573063
 20
1248.366428222831
 30
0.0
 11
-944.6441938761052
 21
1248.152423706229
 31
0.0
  0
LINE
  5
1C84
330
A
100
AcDbEntity
  8
HEWI
  6
STANDARD
 62
     7
100
AcDbLine
 10
-981.588182676154
 20
1206.714397278007
 30
0.0
 11
-980.8442022684392
 21
1206.500392761405
 31
0.0
  0
LINE
  5
1C85
330
A
100
AcDbEntity
  8
HEWI
  6
STANDARD
 62
     7
100
AcDbLine
 10
-1050.367174375373
 20
1039.593425598319
 30
0.0
 11
-1050.099191892463
 21
1040.523448791678
 31
0.0
  0
LINE
  5
1C86
330
A
100
AcDbEntity
  8
HEWI
  6
STANDARD
 62
     7
100
AcDbLine
 10
-1063.661203611212
 20
1358.027416076835
 30
0.0
 11
-1063.335199582892
 21
1359.130397644217
 31
0.0
  0
LINE
  5
1C87
330
A
100
AcDbEntity
  8
HEWI
  6
STANDARD
 62
     7
100
AcDbLine
 10
-1053.693170774299
 20
1366.240421142753
 30
0.0
 11
-1053.176203000861
 21
1366.082416382011
 31
0.0
  0
LINE
  5
1C88
330
A
100
AcDbEntity
  8
HEWI
  6
STANDARD
 62
     7
100
AcDbLine
 10
-1049.707193601447
 20
1246.634403076346
 30
0.0
 11
-1049.454202878791
 21
1247.378421631034
 31
0.0
  0
LINE
  5
1C89
330
A
100
AcDbEntity
  8
HEWI
  6
STANDARD
 62
     7
100
AcDbLine
 10
-943.9151861551579
 20
1252.124400940116
 30
0.0
 11
-943.1711866739567
 21
1251.87141021746
 31
0.0
  0
LINE
  5
1C8A
330
A
100
AcDbEntity
  8
HEWI
  6
STANDARD
 62
     7
100
AcDbLine
 10
-1063.335199582892
 20
1359.130397644217
 30
0.0
 11
-1063.016176450568
 21
1360.033412780936
 31
0.0
  0
LINE
  5
1C8B
330
A
100
AcDbEntity
  8
HEWI
  6
STANDARD
 62
     7
100
AcDbLine
 10
-1063.016176450568
 20
1360.033412780936
 30
0.0
 11
-1062.704172361213
 21
1360.771404113944
 31
0.0
  0
LINE
  5
1C8C
330
A
100
AcDbEntity
  8
HEWI
  6
STANDARD
 62
     7
100
AcDbLine
 10
-943.1711866739567
 20
1251.87141021746
 30
0.0
 11
-942.4421789530097
 21
1251.539417114432
 31
0.0
  0
LINE
  5
1C8D
330
A
100
AcDbEntity
  8
HEWI
  6
STANDARD
 62
     7
100
AcDbLine
 10
-1049.454202878791
 20
1247.378421631034
 30
0.0
 11
-1049.122171628791
 21
1248.107410278495
 31
0.0
  0
LINE
  5
1C8E
330
A
100
AcDbEntity
  8
HEWI
  6
STANDARD
 62
     7
100
AcDbLine
 10
-1058.26020263465
 20
1037.076412048514
 30
0.0
 11
-1057.803201902228
 21
1036.84943756121
 31
0.0
  0
LINE
  5
1C8F
330
A
100
AcDbEntity
  8
HEWI
  6
STANDARD
 62
     7
100
AcDbLine
 10
-1062.704172361213
 20
1360.771404113944
 30
0.0
 11
-1062.400179136115
 21
1361.372409668143
 31
0.0
  0
LINE
  5
1C90
330
A
100
AcDbEntity
  8
HEWI
  6
STANDARD
 62
     7
100
AcDbLine
 10
-1062.400179136115
 20
1361.372409668143
 30
0.0
 11
-1061.947183835822
 21
1362.260433044608
 31
0.0
  0
LINE
  5
1C91
330
A
100
AcDbEntity
  8
HEWI
  6
STANDARD
 62
     7
100
AcDbLine
 10
-1059.154176938849
 20
1037.537380066092
 30
0.0
 11
-1058.26020263465
 21
1037.076412048514
 31
0.0
  0
LINE
  5
1C92
330
A
100
AcDbEntity
  8
HEWI
  6
STANDARD
 62
     7
100
AcDbLine
 10
-1053.176203000861
 20
1366.082416382011
 30
0.0
 11
-1052.773180234748
 21
1365.874400940116
 31
0.0
  0
LINE
  5
1C93
330
A
100
AcDbEntity
  8
HEWI
  6
STANDARD
 62
     7
100
AcDbLine
 10
-1045.735178220588
 20
1245.905452575858
 30
0.0
 11
-1045.364198911505
 21
1246.622424926932
 31
0.0
  0
LINE
  5
1C94
330
A
100
AcDbEntity
  8
HEWI
  6
STANDARD
 62
     7
100
AcDbLine
 10
-982.3051931742007
 20
1207.085414734061
 30
0.0
 11
-981.588182676154
 21
1206.714397278007
 31
0.0
  0
LINE
  5
1C95
330
A
100
AcDbEntity
  8
HEWI
  6
STANDARD
 62
     7
100
AcDbLine
 10
-944.6441938761052
 20
1248.152423706229
 30
0.0
 11
-943.9271833780583
 21
1247.781406250175
 31
0.0
  0
LINE
  5
1C96
330
A
100
AcDbEntity
  8
HEWI
  6
STANDARD
 62
     7
100
AcDbLine
 10
-1050.831194150763
 20
1038.697429504569
 30
0.0
 11
-1050.367174375373
 21
1039.593425598319
 31
0.0
  0
LINE
  5
1C97
330
A
100
AcDbEntity
  8
HEWI
  6
STANDARD
 62
     7
100
AcDbLine
 10
-1052.773180234748
 20
1365.874400940116
 30
0.0
 11
-1052.280206907111
 21
1365.618434753592
 31
0.0
  0
LINE
  5
1C98
330
A
100
AcDbEntity
  8
HEWI
  6
STANDARD
 62
     7
100
AcDbLine
 10
-1061.947183835822
 20
1362.260433044608
 30
0.0
 11
-1061.652193296271
 21
1362.750430908378
 31
0.0
  0
LINE
  5
1C99
330
A
100
AcDbEntity
  8
HEWI
  6
STANDARD
 62
     7
100
AcDbLine
 10
-1061.652193296271
 20
1362.750430908378
 30
0.0
 11
-1061.369180906134
 21
1363.14540466326
 31
0.0
  0
LINE
  5
1C9A
330
A
100
AcDbEntity
  8
HEWI
  6
STANDARD
 62
     7
100
AcDbLine
 10
-1052.280206907111
 20
1365.618434753592
 30
0.0
 11
-1051.480188596564
 21
1364.969402160819
 31
0.0
  0
LINE
  5
1C9B
330
A
100
AcDbEntity
  8
HEWI
  6
STANDARD
 62
     7
100
AcDbLine
 10
-1061.369180906134
 20
1363.14540466326
 30
0.0
 11
-1060.723200071174
 21
1363.941417541679
 31
0.0
  0
LINE
  5
1C9C
330
A
100
AcDbEntity
  8
HEWI
  6
STANDARD
 62
     7
100
AcDbLine
 10
-1059.952173459845
 20
1038.185420837577
 30
0.0
 11
-1059.154176938849
 21
1037.537380066092
 31
0.0
  0
LINE
  5
1C9D
330
A
100
AcDbEntity
  8
HEWI
  6
STANDARD
 62
     7
100
AcDbLine
 10
-943.9271833780583
 20
1247.781406250175
 30
0.0
 11
-943.2881834390936
 21
1247.262416687186
 31
0.0
  0
LINE
  5
1C9E
330
A
100
AcDbEntity
  8
HEWI
  6
STANDARD
 62
     7
100
AcDbLine
 10
-1051.480188596564
 20
1037.898403015311
 30
0.0
 11
-1050.831194150763
 21
1038.697429504569
 31
0.0
  0
LINE
  5
1C9F
330
A
100
AcDbEntity
  8
HEWI
  6
STANDARD
 62
     7
100
AcDbLine
 10
-1045.364198911505
 20
1246.622424926932
 30
0.0
 11
-1044.844179380255
 21
1247.262416687186
 31
0.0
  0
LINE
  5
1CA0
330
A
100
AcDbEntity
  8
HEWI
  6
STANDARD
 62
     7
100
AcDbLine
 10
-982.9441931131658
 20
1207.605434265311
 30
0.0
 11
-982.3051931742007
 21
1207.085414734061
 31
0.0
  0
LINE
  5
1CA1
330
A
100
AcDbEntity
  8
HEWI
  6
STANDARD
 62
     7
100
AcDbLine
 10
-1060.45918487342
 20
1038.617397155936
 30
0.0
 11
-1059.952173459845
 21
1038.185420837577
 31
0.0
  0
LINE
  5
1CA2
330
A
100
AcDbEntity
  8
HEWI
  6
STANDARD
 62
     7
100
AcDbLine
 10
-1060.723200071174
 20
1363.941417541679
 30
0.0
 11
-1060.453195798713
 21
1364.256435241874
 31
0.0
  0
ARC
  5
1CA3
330
A
100
AcDbEntity
  8
HEWI
  6
STANDARD
 62
     7
100
AcDbCircle
 10
-946.1071250941442
 20
1244.442503578848
 30
0.0
 40
7.987365770326673
100
AcDbArc
 50
27.31214925009153
 51
62.68753232592473
  0
ARC
  5
1CA4
330
A
100
AcDbEntity
  8
HEWI
  6
STANDARD
 62
     7
100
AcDbCircle
 10
-1042.025363823672
 20
1244.44265004402
 30
0.0
 40
7.987186525866746
100
AcDbArc
 50
117.3122676130173
 51
152.6883692367324
  0
ARC
  5
1CA5
330
A
100
AcDbEntity
  8
HEWI
  6
STANDARD
 62
     7
100
AcDbCircle
 10
-514.8065493097081
 20
1084.667437069709
 30
0.0
 40
551.4826932170343
100
AcDbArc
 50
180.6817739992893
 51
181.7864370184363
  0
ARC
  5
1CA6
330
A
100
AcDbEntity
  8
HEWI
  6
STANDARD
 62
     7
100
AcDbCircle
 10
-408.8473505238483
 20
1087.045278115524
 30
0.0
 40
657.4685342575052
100
AcDbArc
 50
180.0825167103035
 51
181.4744882352411
  0
ARC
  5
1CA7
330
A
100
AcDbEntity
  8
HEWI
  6
STANDARD
 62
     7
100
AcDbCircle
 10
-208.2090844129459
 20
1313.738800076784
 30
0.0
 40
858.1111989990544
100
AcDbArc
 50
179.0821697873935
 51
180.1539304823856
  0
CIRCLE
  5
1CA8
330
A
100
AcDbEntity
  8
HEWI
100
AcDbCircle
 10
-963.1142657211697
 20
1221.431461444094
 30
0.0
 40
1.149999999999999
  0
CIRCLE
  5
1CA9
330
A
100
AcDbEntity
  8
HEWI
100
AcDbCircle
 10
963.1142657211697
 20
1221.431461444094
 30
0.0
 40
1.45
210
0.0
220
0.0
230
-1.0
  0
CIRCLE
  5
1CAA
330
A
100
AcDbEntity
  8
HEWI
100
AcDbCircle
 10
-963.1142657211697
 20
1233.431461444094
 30
0.0
 40
1.149999999999999
  0
CIRCLE
  5
1CAB
330
A
100
AcDbEntity
  8
HEWI
100
AcDbCircle
 10
963.1142657211697
 20
1233.431461444094
 30
0.0
 40
1.45
210
0.0
220
0.0
230
-1.0
  0
ARC
  5
1CAC
330
A
100
AcDbEntity
  8
HEWI
100
AcDbCircle
 10
963.1142657211697
 20
1227.431461444094
 30
0.0
 40
4.891099999999998
210
0.0
220
0.0
230
-1.0
100
AcDbArc
 50
86.78250400000608
 51
93.22313999999272
  0
ARC
  5
1CAD
330
A
100
AcDbEntity
  8
HEWI
100
AcDbCircle
 10
963.1142657211697
 20
1227.431461444094
 30
0.0
 40
4.891099999999998
210
0.0
220
0.0
230
-1.0
100
AcDbArc
 50
266.776879000002
 51
273.2175149999881
  0
ARC
  5
1CAE
330
A
100
AcDbEntity
  8
HEWI
100
AcDbCircle
 10
-963.1142657211697
 20
1227.431461444094
 30
0.0
 40
5.5
100
AcDbArc
 50
78.55875999999785
 51
101.4468820000143
  0
ARC
  5
1CAF
330
A
100
AcDbEntity
  8
HEWI
100
AcDbCircle
 10
-963.1142657211697
 20
1227.431461444094
 30
0.0
 40
5.5
100
AcDbArc
 50
258.5531300000024
 51
281.4412520000195
  0
ARC
  5
1CB0
330
A
100
AcDbEntity
  8
HEWI
100
AcDbCircle
 10
-963.1142657211697
 20
1227.431461444094
 30
0.0
 40
5.099999999999996
100
AcDbArc
 50
82.58062099998554
 51
97.42499199998691
  0
ARC
  5
1CB1
330
A
100
AcDbEntity
  8
HEWI
100
AcDbCircle
 10
-963.1142657211697
 20
1227.431461444094
 30
0.0
 40
5.099999999999996
100
AcDbArc
 50
262.5749980000061
 51
277.4193680000003
  0
CIRCLE
  5
1CB2
330
A
100
AcDbEntity
  8
HEWI
100
AcDbCircle
 10
963.1142657211697
 20
1227.431461444094
 30
0.0
 40
21.0
210
0.0
220
0.0
230
-1.0
  0
CIRCLE
  5
1CB3
330
A
100
AcDbEntity
  8
HEWI
100
AcDbCircle
 10
-963.1142657211697
 20
1227.431461444094
 30
0.0
 40
20.8
  0
LINE
  5
1CB4
330
A
100
AcDbEntity
  8
HEWI
  6
STANDARD
 62
     7
100
AcDbLine
 10
-938.1161787393866
 20
1205.43342193621
 30
0.0
 11
-938.1161787393866
 21
1244.835187819251
 31
0.0
  0
LINE
  5
1CDA
330
A
100
AcDbEntity
  8
HEWI
  6
STANDARD
 62
     7
100
AcDbLine
 10
-96.59696958828725
 20
1211.472691820723
 30
0.0
 11
-96.59696958828725
 21
1243.47273759709
 31
0.0
  0
LINE
  5
1CDD
330
A
100
AcDbEntity
  8
HEWI
  6
STANDARD
 62
     7
100
AcDbLine
 10
-96.79697416592397
 20
1206.472729967696
 30
0.0
 11
-99.39699552822865
 21
1206.472729967696
 31
0.0
  0
LINE
  5
1CDE
330
A
100
AcDbEntity
  8
HEWI
  6
STANDARD
 62
     7
100
AcDbLine
 10
-96.79697416592397
 20
1248.472699450118
 30
0.0
 11
-99.39699552822865
 21
1248.472699450118
 31
0.0
  0
LINE
  5
1CDF
330
A
100
AcDbEntity
  8
HEWI
  6
STANDARD
 62
     7
100
AcDbLine
 10
-99.59700010586537
 20
1206.672772692305
 30
0.0
 11
-99.59700010586537
 21
1248.272656725508
 31
0.0
  0
LINE
  5
1CE0
330
A
100
AcDbEntity
  8
HEWI
  6
STANDARD
 62
     7
100
AcDbLine
 10
-96.59696958828725
 20
1206.672772692305
 30
0.0
 11
-96.59696958828725
 21
1248.272656725508
 31
0.0
  0
LINE
  5
1CE5
330
A
100
AcDbEntity
  8
HEWI
  6
STANDARD
 62
     7
100
AcDbLine
 10
-96.59696958828725
 20
1206.672772692305
 30
0.0
 11
-96.79697416592397
 21
1206.472729967696
 31
0.0
  0
LINE
  5
1CE6
330
A
100
AcDbEntity
  8
HEWI
  6
STANDARD
 62
     7
100
AcDbLine
 10
-99.39699552822865
 20
1248.472699450118
 30
0.0
 11
-99.59700010586537
 21
1248.272656725508
 31
0.0
  0
LINE
  5
1CE7
330
A
100
AcDbEntity
  8
HEWI
  6
STANDARD
 62
     7
100
AcDbLine
 10
-96.59696958828725
 20
1248.272656725508
 30
0.0
 11
-96.79697416592397
 21
1248.472699450118
 31
0.0
  0
LINE
  5
1CE8
330
A
100
AcDbEntity
  8
HEWI
  6
STANDARD
 62
     7
100
AcDbLine
 10
-99.39699552822865
 20
1206.472729967696
 30
0.0
 11
-99.59700010586537
 21
1206.672772692305
 31
0.0
  0
LINE
  5
1CE9
330
A
100
AcDbEntity
  8
HEWI
  6
Continuous
100
AcDbLine
 10
-496.5969791250302
 20
1630.465538008067
 30
0.0
 11
-296.5969600515442
 21
1630.465538008067
 31
0.0
  0
LINE
  5
1CEA
330
A
100
AcDbEntity
  8
HEWI
  6
Continuous
100
AcDbLine
 10
-496.5969791250302
 20
1534.518604361961
 30
0.0
 11
-296.5969600515442
 21
1534.518604361962
 31
0.0
  0
LINE
  5
1CEC
330
A
100
AcDbEntity
  8
HEWI
  6
STANDARD
 62
     7
100
AcDbLine
 10
-105.3969993429259
 20
1630.465538008067
 30
0.0
 11
-99.79700468350209
 21
1630.465538008067
 31
0.0
  0
LINE
  5
1CED
330
A
100
AcDbEntity
  8
HEWI
  6
STANDARD
 62
     7
100
AcDbLine
 10
-99.59700010586537
 20
1598.265525801036
 30
0.0
 11
-99.59700010586537
 21
1630.265571577403
 31
0.0
  0
LINE
  5
1CEE
330
A
100
AcDbEntity
  8
HEWI
  6
STANDARD
 62
     7
100
AcDbLine
 10
-105.5970039205626
 20
1598.265525801036
 30
0.0
 11
-105.5970039205626
 21
1630.265571577403
 31
0.0
  0
LINE
  5
1CEF
330
A
100
AcDbEntity
  8
HEWI
  6
STANDARD
 62
     7
100
AcDbLine
 10
-105.5970039205626
 20
1630.265571577403
 30
0.0
 11
-105.3969993429259
 21
1630.465538008067
 31
0.0
  0
LINE
  5
1CF2
330
A
100
AcDbEntity
  8
HEWI
  6
STANDARD
 62
     7
100
AcDbLine
 10
-99.79700468350209
 20
1630.465538008067
 30
0.0
 11
-99.59700010586537
 21
1630.265571577403
 31
0.0
  0
LINE
  5
1CF3
330
A
100
AcDbEntity
  8
HEWI
  6
STANDARD
 62
     7
100
AcDbLine
 10
-96.59696958828725
 20
1598.265525801036
 30
0.0
 11
-96.59696958828725
 21
1630.265571577403
 31
0.0
  0
LINE
  5
1CF5
330
A
100
AcDbEntity
  8
HEWI
  6
STANDARD
 62
     7
100
AcDbLine
 10
-96.79697416592409
 20
1630.465538008067
 30
0.0
 11
-96.59696958828725
 21
1630.265571577403
 31
0.0
  0
LINE
  5
1CF6
330
A
100
AcDbEntity
  8
HEWI
  6
STANDARD
 62
     7
100
AcDbLine
 10
-96.79697416592397
 20
1593.265563948009
 30
0.0
 11
-99.39699552822865
 21
1593.265563948009
 31
0.0
  0
LINE
  5
1CF7
330
A
100
AcDbEntity
  8
HEWI
  6
STANDARD
 62
     7
100
AcDbLine
 10
-96.79697416592397
 20
1635.26553343043
 30
0.0
 11
-99.39699552822865
 21
1635.26553343043
 31
0.0
  0
LINE
  5
1CF8
330
A
100
AcDbEntity
  8
HEWI
  6
STANDARD
 62
     7
100
AcDbLine
 10
-99.59700010586537
 20
1593.465606672618
 30
0.0
 11
-99.59700010586537
 21
1635.065490705821
 31
0.0
  0
LINE
  5
1CF9
330
A
100
AcDbEntity
  8
HEWI
  6
STANDARD
 62
     7
100
AcDbLine
 10
-96.59696958828725
 20
1593.465606672618
 30
0.0
 11
-96.59696958828725
 21
1635.065490705821
 31
0.0
  0
LINE
  5
1CFA
330
A
100
AcDbEntity
  8
HEWI
  6
STANDARD
 62
     7
100
AcDbLine
 10
-96.79697416592397
 20
1634.50854490504
 30
0.0
 11
-96.79697416592397
 21
1634.928619367931
 31
0.0
  0
LINE
  5
1CFB
330
A
100
AcDbEntity
  8
HEWI
  6
STANDARD
 62
     7
100
AcDbLine
 10
-96.79697416592397
 20
1593.602630598399
 30
0.0
 11
-96.79697416592397
 21
1594.022552473399
 31
0.0
  0
LINE
  5
1CFC
330
A
100
AcDbEntity
  8
HEWI
  6
STANDARD
 62
     7
100
AcDbLine
 10
-99.39699552822865
 20
1634.50854490504
 30
0.0
 11
-99.39699552822865
 21
1634.928619367931
 31
0.0
  0
LINE
  5
1CFD
330
A
100
AcDbEntity
  8
HEWI
  6
STANDARD
 62
     7
100
AcDbLine
 10
-99.39699552822865
 20
1593.602630598399
 30
0.0
 11
-99.39699552822865
 21
1594.022552473399
 31
0.0
  0
LINE
  5
1CFE
330
A
100
AcDbEntity
  8
HEWI
  6
STANDARD
 62
     7
100
AcDbLine
 10
-96.59696958828725
 20
1593.465606672618
 30
0.0
 11
-96.79697416592397
 21
1593.265563948009
 31
0.0
  0
LINE
  5
1CFF
330
A
100
AcDbEntity
  8
HEWI
  6
STANDARD
 62
     7
100
AcDbLine
 10
-99.39699552822865
 20
1635.26553343043
 30
0.0
 11
-99.59700010586537
 21
1635.065490705821
 31
0.0
  0
LINE
  5
1D00
330
A
100
AcDbEntity
  8
HEWI
  6
STANDARD
 62
     7
100
AcDbLine
 10
-96.59696958828725
 20
1635.065490705821
 30
0.0
 11
-96.79697416592397
 21
1635.26553343043
 31
0.0
  0
LINE
  5
1D01
330
A
100
AcDbEntity
  8
HEWI
  6
STANDARD
 62
     7
100
AcDbLine
 10
-99.39699552822865
 20
1593.265563948009
 30
0.0
 11
-99.59700010586537
 21
1593.465606672618
 31
0.0
  0
LINE
  5
1E97
330
A
100
AcDbEntity
  8
HEWI
  6
STANDARD
 62
     7
100
AcDbLine
 10
-693.5969724493103
 20
1630.465538008067
 30
0.0
 11
-597.0969714956359
 21
1630.465538008067
 31
0.0
  0
LINE
  5
1E98
330
A
100
AcDbEntity
  8
HEWI
  6
STANDARD
 62
     7
100
AcDbLine
 10
-699.5969762640076
 20
1598.465568525645
 30
0.0
 11
-597.0969714956359
 21
1598.465568525645
 31
0.0
  0
LINE
  5
1E99
330
A
100
AcDbEntity
  8
HEWI
  6
STANDARD
 62
     7
100
AcDbLine
 10
-696.5969695882871
 20
1243.472775744063
 30
0.0
 11
-616.9150847512282
 21
1243.472775744063
 31
0.0
  0
LINE
  5
1E9A
330
A
100
AcDbEntity
  8
HEWI
  6
STANDARD
 62
     7
100
AcDbLine
 10
-696.5969695882871
 20
1211.472729967696
 30
0.0
 11
-616.9150847512282
 21
1211.472729967696
 31
0.0
  0
LINE
  5
1FCB
330
A
100
AcDbEntity
  8
HEWI
  6
STANDARD
 62
     7
100
AcDbLine
 10
-663.1969632940366
 20
1667.565528852794
 30
0.0
 11
-729.9969758825376
 21
1667.565528852794
 31
0.0
  0
LINE
  5
1FCC
330
A
100
AcDbEntity
  8
HEWI
  6
STANDARD
 62
     7
100
AcDbLine
 10
-664.3969621496276
 20
1655.565559370371
 30
0.0
 11
-728.7969722585752
 21
1655.565559370371
 31
0.0
  0
LINE
  5
1FCD
330
A
100
AcDbEntity
  8
HEWI
  6
STANDARD
 62
     7
100
AcDbLine
 10
-693.7969770269467
 20
1598.265602094981
 30
0.0
 11
-699.3969716863706
 21
1598.265602094981
 31
0.0
  0
LINE
  5
1FCE
330
A
100
AcDbEntity
  8
HEWI
  6
STANDARD
 62
     7
100
AcDbLine
 10
-663.1969632940366
 20
1656.765586836192
 30
0.0
 11
-663.1969632940366
 21
1667.565528852794
 31
0.0
  0
LINE
  5
1FCF
330
A
100
AcDbEntity
  8
HEWI
  6
STANDARD
 62
     7
100
AcDbLine
 10
-729.9969758825376
 20
1656.765586836192
 30
0.0
 11
-729.9969758825376
 21
1667.565528852794
 31
0.0
  0
LINE
  5
1FD0
330
A
100
AcDbEntity
  8
HEWI
  6
STANDARD
 62
     7
100
AcDbLine
 10
-693.5969724493103
 20
1598.465568525645
 30
0.0
 11
-693.5969724493103
 21
1655.565559370371
 31
0.0
  0
LINE
  5
1FD2
330
A
100
AcDbEntity
  8
HEWI
  6
STANDARD
 62
     7
100
AcDbLine
 10
-699.5969762640076
 20
1598.465568525645
 30
0.0
 11
-699.5969762640076
 21
1655.565559370371
 31
0.0
  0
LINE
  5
1FD3
330
A
100
AcDbEntity
  8
HEWI
  6
STANDARD
 62
     7
100
AcDbLine
 10
-663.3929624395444
 20
1656.108543379161
 30
0.0
 11
-663.5479631261902
 21
1655.916587812754
 31
0.0
  0
LINE
  5
1FD4
330
A
100
AcDbEntity
  8
HEWI
  6
STANDARD
 62
     7
100
AcDbLine
 10
-729.4539728002622
 20
1655.761558515879
 30
0.0
 11
-729.6459712820127
 21
1655.916587812754
 31
0.0
  0
LINE
  5
1FD5
330
A
100
AcDbEntity
  8
HEWI
  6
STANDARD
 62
     7
100
AcDbLine
 10
-663.2809629278257
 20
1656.323539717051
 30
0.0
 11
-663.3929624395444
 21
1656.108543379161
 31
0.0
  0
LINE
  5
1FD6
330
A
100
AcDbEntity
  8
HEWI
  6
STANDARD
 62
     7
100
AcDbLine
 10
-729.238971694
 20
1655.649559004161
 30
0.0
 11
-729.4539728002622
 21
1655.761558515879
 31
0.0
  0
LINE
  5
1FD7
330
A
100
AcDbEntity
  8
HEWI
  6
STANDARD
 62
     7
100
AcDbLine
 10
-729.0149726705625
 20
1655.585548384044
 30
0.0
 11
-729.238971694
 21
1655.649559004161
 31
0.0
  0
LINE
  5
1FD8
330
A
100
AcDbEntity
  8
HEWI
  6
STANDARD
 62
     7
100
AcDbLine
 10
-663.2169618444517
 20
1656.547538740489
 30
0.0
 11
-663.2809629278257
 21
1656.323539717051
 31
0.0
  0
LINE
  5
1FD9
330
A
100
AcDbEntity
  8
HEWI
  6
STANDARD
 62
     7
100
AcDbLine
 10
-663.1969632940366
 20
1656.765586836192
 30
0.0
 11
-663.2169618444517
 21
1656.547538740489
 31
0.0
  0
LINE
  5
1FDA
330
A
100
AcDbEntity
  8
HEWI
  6
STANDARD
 62
     7
100
AcDbLine
 10
-728.7969722585752
 20
1655.565559370371
 30
0.0
 11
-729.0149726705625
 21
1655.585548384044
 31
0.0
  0
LINE
  5
1FDB
330
A
100
AcDbEntity
  8
HEWI
  6
STANDARD
 62
     7
100
AcDbLine
 10
-664.1789617376401
 20
1655.585548384044
 30
0.0
 11
-664.3969621496276
 21
1655.565559370371
 31
0.0
  0
LINE
  5
1FDC
330
A
100
AcDbEntity
  8
HEWI
  6
STANDARD
 62
     7
100
AcDbLine
 10
-729.976972563751
 20
1656.547538740489
 30
0.0
 11
-729.9969758825376
 21
1656.765586836192
 31
0.0
  0
LINE
  5
1FDD
330
A
100
AcDbEntity
  8
HEWI
  6
STANDARD
 62
     7
100
AcDbLine
 10
-729.9129714803772
 20
1656.323539717051
 30
0.0
 11
-729.976972563751
 21
1656.547538740489
 31
0.0
  0
LINE
  5
1FDE
330
A
100
AcDbEntity
  8
HEWI
  6
STANDARD
 62
     7
100
AcDbLine
 10
-663.9549627142026
 20
1655.649559004161
 30
0.0
 11
-664.1789617376401
 21
1655.585548384044
 31
0.0
  0
LINE
  5
1FDF
330
A
100
AcDbEntity
  8
HEWI
  6
STANDARD
 62
     7
100
AcDbLine
 10
-729.8009719686582
 20
1656.108543379161
 30
0.0
 11
-729.9129714803772
 21
1656.323539717051
 31
0.0
  0
LINE
  5
1FE0
330
A
100
AcDbEntity
  8
HEWI
  6
STANDARD
 62
     7
100
AcDbLine
 10
-663.7399663763122
 20
1655.761558515879
 30
0.0
 11
-663.9549627142026
 21
1655.649559004161
 31
0.0
  0
LINE
  5
1FE1
330
A
100
AcDbEntity
  8
HEWI
  6
STANDARD
 62
     7
100
AcDbLine
 10
-663.5479631261902
 20
1655.916587812754
 30
0.0
 11
-663.7399663763122
 21
1655.761558515879
 31
0.0
  0
LINE
  5
1FE2
330
A
100
AcDbEntity
  8
HEWI
  6
STANDARD
 62
     7
100
AcDbLine
 10
-729.6459712820127
 20
1655.916587812754
 30
0.0
 11
-729.8009719686582
 21
1656.108543379161
 31
0.0
  0
LINE
  5
1FE3
330
A
100
AcDbEntity
  8
HEWI
  6
STANDARD
 62
     7
100
AcDbLine
 10
-693.8150900918047
 20
1211.272763537032
 30
0.0
 11
-699.4150847512281
 21
1211.272763537032
 31
0.0
  0
LINE
  5
1FE4
330
A
100
AcDbEntity
  8
HEWI
  6
STANDARD
 62
     7
100
AcDbLine
 10
-693.8150900918047
 20
1243.672742174727
 30
0.0
 11
-699.4150847512281
 21
1243.672742174727
 31
0.0
  0
LINE
  5
1FE5
330
A
100
AcDbEntity
  8
HEWI
  6
STANDARD
 62
     7
100
AcDbLine
 10
-616.9150847512282
 20
1243.472775744063
 30
0.0
 11
-696.5969695882871
 21
1243.472775744063
 31
0.0
  0
LINE
  5
1FE6
330
A
100
AcDbEntity
  8
HEWI
  6
STANDARD
 62
     7
100
AcDbLine
 10
-616.9151038247147
 20
1211.472729967696
 30
0.0
 11
-696.5969695882871
 21
1211.472729967696
 31
0.0
  0
LINE
  5
1FE7
330
A
100
AcDbEntity
  8
HEWI
  6
STANDARD
 62
     7
100
AcDbLine
 10
-699.615089328865
 20
1211.472729967696
 30
0.0
 11
-699.615089328865
 21
1243.472775744063
 31
0.0
  0
LINE
  5
1FE8
330
A
100
AcDbEntity
  8
HEWI
  6
STANDARD
 62
     7
100
AcDbLine
 10
-693.6150855141677
 20
1211.472729967696
 30
0.0
 11
-693.6150855141677
 21
1243.472775744063
 31
0.0
  0
LINE
  5
1FE9
330
A
100
AcDbEntity
  8
HEWI
  6
STANDARD
 62
     7
100
AcDbLine
 10
-693.6150855141677
 20
1243.472775744063
 30
0.0
 11
-693.8150900918047
 21
1243.672742174727
 31
0.0
  0
LINE
  5
1FEA
330
A
100
AcDbEntity
  8
HEWI
  6
STANDARD
 62
     7
100
AcDbLine
 10
-699.4150847512281
 20
1211.272763537032
 30
0.0
 11
-699.615089328865
 21
1211.472729967696
 31
0.0
  0
LINE
  5
1FEB
330
A
100
AcDbEntity
  8
HEWI
  6
STANDARD
 62
     7
100
AcDbLine
 10
-693.6150855141677
 20
1211.472729967696
 30
0.0
 11
-693.8150900918047
 21
1211.272763537032
 31
0.0
  0
LINE
  5
1FEC
330
A
100
AcDbEntity
  8
HEWI
  6
STANDARD
 62
     7
100
AcDbLine
 10
-699.4150847512281
 20
1243.672742174727
 30
0.0
 11
-699.615089328865
 21
1243.472775744063
 31
0.0
  0
ARC
  5
1FED
330
A
100
AcDbEntity
  8
HEWI
  6
STANDARD
 62
     7
100
AcDbCircle
 10
-696.722725966187
 20
1227.374910049891
 30
0.0
 40
33.54510099401267
100
AcDbArc
 50
36.14480115686566
 51
47.94117753404052
  0
ARC
  5
1FEE
330
A
100
AcDbEntity
  8
HEWI
  6
Continuous
100
AcDbCircle
 10
-696.6226794907255
 20
1227.465069195237
 30
0.0
 40
33.3991444881336
100
AcDbArc
 50
28.63870992170413
 51
331.3913229829166
  0
ARC
  5
1FEF
330
A
100
AcDbEntity
  8
HEWI
  6
Continuous
100
AcDbCircle
 10
-696.5969695882871
 20
1227.457594595054
 30
0.0
 40
17.5004817846082
100
AcDbArc
 50
66.22391335259061
 51
294.0210886667188
  0
LINE
  5
2005
330
A
100
AcDbEntity
  8
HEWI
  6
STANDARD
 62
     7
100
AcDbLine
 10
-96.59696958828725
 20
1206.678557119468
 30
0.0
 11
-96.59696958828725
 21
1248.236555776694
 31
0.0
  0
LINE
  5
2021
330
A
100
AcDbEntity
  8
HEWI
  6
STANDARD
 62
     8
100
AcDbLine
 10
-34.86593626309194
 20
1214.534416314698
 30
0.0
 11
-32.78890989590444
 21
1216.611442681884
 31
0.0
  0
LINE
  5
2022
330
A
100
AcDbEntity
  8
HEWI
  6
STANDARD
 62
     8
100
AcDbLine
 10
-58.60491178799428
 20
1216.611442681884
 30
0.0
 11
-56.52792356777943
 21
1214.534416314698
 31
0.0
  0
LINE
  5
202A
330
A
100
AcDbEntity
  8
HEWI
  6
STANDARD
 62
     8
100
AcDbLine
 10
-33.67590330410756
 20
1239.463386651611
 30
0.0
 11
-33.28691862393178
 21
1239.061393853759
 31
0.0
  0
LINE
  5
202B
330
A
100
AcDbEntity
  8
HEWI
  6
STANDARD
 62
     8
100
AcDbLine
 10
-34.39592741299428
 20
1214.742393609619
 30
0.0
 11
-33.67590330410756
 21
1215.4214097229
 31
0.0
  0
LINE
  5
202C
330
A
100
AcDbEntity
  8
HEWI
  6
STANDARD
 62
     8
100
AcDbLine
 10
-58.41291807461537
 20
1216.159401055908
 30
0.0
 11
-57.71791837979115
 21
1215.4214097229
 31
0.0
  0
LINE
  5
202D
330
A
100
AcDbEntity
  8
HEWI
  6
STANDARD
 62
     8
100
AcDbLine
 10
-57.71791837979115
 20
1239.463386651611
 30
0.0
 11
-56.90493009854115
 21
1240.224418756103
 31
0.0
  0
LINE
  5
202E
330
A
100
AcDbEntity
  8
HEWI
  6
STANDARD
 62
     8
100
AcDbLine
 10
-33.28691862393178
 20
1239.061393853759
 30
0.0
 11
-32.73394010830678
 21
1238.440437432861
 31
0.0
  0
LINE
  5
2032
330
A
100
AcDbEntity
  8
HEWI
  6
STANDARD
 62
     8
100
AcDbLine
 10
-35.34792326260366
 20
1213.95542156372
 30
0.0
 11
-34.39592741299428
 21
1214.742393609619
 31
0.0
  0
LINE
  5
2033
330
A
100
AcDbEntity
  8
HEWI
  6
STANDARD
 62
     8
100
AcDbLine
 10
-59.18390653897084
 20
1217.093391534423
 30
0.0
 11
-58.41291807461537
 21
1216.159401055908
 31
0.0
  0
LINE
  5
2034
330
A
100
AcDbEntity
  8
HEWI
  6
STANDARD
 62
     8
100
AcDbLine
 10
-32.73394010830678
 20
1238.440437432861
 30
0.0
 11
-32.20991514492788
 21
1237.791404840087
 31
0.0
  0
LINE
  5
2037
330
A
100
AcDbEntity
  8
HEWI
  6
STANDARD
 62
     8
100
AcDbLine
 10
-56.03693388272084
 20
1240.918388482665
 30
0.0
 11
-55.70791624356069
 21
1241.182441827392
 31
0.0
  0
LINE
  5
2038
330
A
100
AcDbEntity
  8
HEWI
  6
STANDARD
 62
     8
100
AcDbLine
 10
-56.90493009854115
 20
1240.224418756103
 30
0.0
 11
-56.03693388272084
 21
1240.918388482665
 31
0.0
  0
LINE
  5
2041
330
A
100
AcDbEntity
  8
HEWI
  6
STANDARD
 62
     8
100
AcDbLine
 10
-59.82992552090443
 20
1217.994423028564
 30
0.0
 11
-59.18390653897084
 21
1217.093391534423
 31
0.0
  0
LINE
  5
2042
330
A
100
AcDbEntity
  8
HEWI
  6
STANDARD
 62
     8
100
AcDbLine
 10
-36.24891660977163
 20
1213.309440728759
 30
0.0
 11
-35.34792326260366
 21
1213.95542156372
 31
0.0
  0
LINE
  5
2044
330
A
100
AcDbEntity
  8
HEWI
  6
STANDARD
 62
     8
100
AcDbLine
 10
-32.20991514492788
 20
1237.791404840087
 30
0.0
 11
-31.49691007900989
 21
1236.789436456298
 31
0.0
  0
LINE
  5
2045
330
A
100
AcDbEntity
  8
HEWI
  6
STANDARD
 62
     8
100
AcDbLine
 10
-60.28993986416615
 20
1219.017448541259
 30
0.0
 11
-58.60491178799428
 21
1216.611442681884
 31
0.0
  0
LINE
  5
2046
330
A
100
AcDbEntity
  8
HEWI
  6
STANDARD
 62
     8
100
AcDbLine
 10
-32.78890989590444
 20
1238.273429986571
 30
0.0
 11
-31.10391996670522
 21
1235.867424127198
 31
0.0
  0
LINE
  5
2047
330
A
100
AcDbEntity
  8
HEWI
  6
STANDARD
 62
     8
100
AcDbLine
 10
-37.27190397549428
 20
1212.84946453247
 30
0.0
 11
-34.86593626309194
 21
1214.534416314698
 31
0.0
  0
LINE
  5
2048
330
A
100
AcDbEntity
  8
HEWI
  6
STANDARD
 62
     8
100
AcDbLine
 10
-56.52792356777943
 20
1240.350456353759
 30
0.0
 11
-54.12191770840444
 21
1242.035408135986
 31
0.0
  0
LINE
  5
204F
330
A
100
AcDbEntity
  8
HEWI
  6
STANDARD
 62
     8
100
AcDbLine
 10
-55.70791624356069
 20
1241.182441827392
 30
0.0
 11
-54.96790312100209
 21
1241.691398736571
 31
0.0
  0
LINE
  5
2054
330
A
100
AcDbEntity
  8
HEWI
  6
STANDARD
 62
     8
100
AcDbLine
 10
-37.19690702725209
 20
1212.720451470947
 30
0.0
 11
-36.24891660977163
 21
1213.309440728759
 31
0.0
  0
LINE
  5
2055
330
A
100
AcDbEntity
  8
HEWI
  6
STANDARD
 62
     8
100
AcDbLine
 10
-31.49691007900989
 20
1236.789436456298
 30
0.0
 11
-30.97490690518178
 21
1235.942421075439
 31
0.0
  0
LINE
  5
2056
330
A
100
AcDbEntity
  8
HEWI
  6
STANDARD
 62
     8
100
AcDbLine
 10
-54.96790312100209
 20
1241.691398736571
 30
0.0
 11
-54.19691465664662
 21
1242.164421197509
 31
0.0
  0
LINE
  5
2058
330
A
100
AcDbEntity
  8
HEWI
  6
STANDARD
 62
     8
100
AcDbLine
 10
-60.408920271881
 20
1218.94939434204
 30
0.0
 11
-59.82992552090443
 21
1217.994423028564
 31
0.0
  0
LINE
  5
2059
330
A
100
AcDbEntity
  8
HEWI
  6
STANDARD
 62
     8
100
AcDbLine
 10
-60.60892484951772
 20
1219.279441949462
 30
0.0
 11
-60.408920271881
 21
1218.94939434204
 31
0.0
  0
LINE
  5
205D
330
A
100
AcDbEntity
  8
HEWI
  6
STANDARD
 62
     8
100
AcDbLine
 10
-37.21792600918569
 20
1212.708397027587
 30
0.0
 11
-37.19690702725209
 21
1212.720451470947
 31
0.0
  0
LINE
  5
205E
330
A
100
AcDbEntity
  8
HEWI
  6
STANDARD
 62
     8
100
AcDbLine
 10
-30.97490690518178
 20
1235.942421075439
 30
0.0
 11
-30.56192777920522
 21
1235.18344890747
 31
0.0
  0
LINE
  5
2060
330
A
100
AcDbEntity
  8
HEWI
  6
STANDARD
 62
     8
100
AcDbLine
 10
-54.19691465664662
 20
1242.164421197509
 30
0.0
 11
-53.24793241787709
 21
1242.673454400634
 31
0.0
  0
LINE
  5
2061
330
A
100
AcDbEntity
  8
HEWI
  6
STANDARD
 62
     8
100
AcDbLine
 10
-38.18491361904897
 20
1212.192421075439
 30
0.0
 11
-37.21792600918569
 21
1212.708397027587
 31
0.0
  0
LINE
  5
2062
330
A
100
AcDbEntity
  8
HEWI
  6
STANDARD
 62
     8
100
AcDbLine
 10
-31.44991300869739
 20
1235.86345684204
 30
0.0
 11
-30.75193785000601
 21
1234.55242168579
 31
0.0
  0
LINE
  5
2063
330
A
100
AcDbEntity
  8
HEWI
  6
STANDARD
 62
     8
100
AcDbLine
 10
-61.02491758633412
 20
1220.090446588134
 30
0.0
 11
-60.60892484951772
 21
1219.279441949462
 31
0.0
  0
LINE
  5
2065
330
A
100
AcDbEntity
  8
HEWI
  6
STANDARD
 62
     8
100
AcDbLine
 10
-38.27192686367787
 20
1212.316398736573
 30
0.0
 11
-38.2159271078185
 21
1212.344398614501
 31
0.0
  0
LINE
  5
2066
330
A
100
AcDbEntity
  8
HEWI
  6
STANDARD
 62
     8
100
AcDbLine
 10
-38.36592100430287
 20
1212.270393487548
 30
0.0
 11
-38.27192686367787
 21
1212.316398736573
 31
0.0
  0
LINE
  5
2067
330
A
100
AcDbEntity
  8
HEWI
  6
STANDARD
 62
     8
100
AcDbLine
 10
-38.49390409756459
 20
1212.209434625244
 30
0.0
 11
-38.36592100430287
 21
1212.270393487548
 31
0.0
  0
LINE
  5
2068
330
A
100
AcDbEntity
  8
HEWI
  6
STANDARD
 62
     8
100
AcDbLine
 10
-38.2159271078185
 20
1212.344398614501
 30
0.0
 11
-38.19692991543569
 21
1212.353401300048
 31
0.0
  0
LINE
  5
206E
330
A
100
AcDbEntity
  8
HEWI
  6
STANDARD
 62
     8
100
AcDbLine
 10
-31.10391996670522
 20
1235.867424127198
 30
0.0
 11
-29.86292265225209
 21
1233.205452081298
 31
0.0
  0
LINE
  5
206F
330
A
100
AcDbEntity
  8
HEWI
  6
STANDARD
 62
     8
100
AcDbLine
 10
-61.53093717861928
 20
1221.679420587159
 30
0.0
 11
-60.28993986416615
 21
1219.017448541259
 31
0.0
  0
LINE
  5
2070
330
A
100
AcDbEntity
  8
HEWI
  6
STANDARD
 62
     8
100
AcDbLine
 10
-39.93391416836537
 20
1211.608467218017
 30
0.0
 11
-37.27190397549428
 21
1212.84946453247
 31
0.0
  0
LINE
  5
2071
330
A
100
AcDbEntity
  8
HEWI
  6
STANDARD
 62
     8
100
AcDbLine
 10
-54.12191770840444
 20
1242.035408135986
 30
0.0
 11
-51.45990751553334
 21
1243.276405450439
 31
0.0
  0
LINE
  5
2072
330
A
100
AcDbEntity
  8
HEWI
  6
STANDARD
 62
     8
100
AcDbLine
 10
-38.65690611172475
 20
1212.133445855712
 30
0.0
 11
-38.49390409756459
 21
1212.209434625244
 31
0.0
  0
LINE
  5
2073
330
A
100
AcDbEntity
  8
HEWI
  6
STANDARD
 62
     8
100
AcDbLine
 10
-38.65793607998647
 20
1212.133445855712
 30
0.0
 11
-38.49390409756459
 21
1212.209434625244
 31
0.0
  0
LINE
  5
2074
330
A
100
AcDbEntity
  8
HEWI
  6
STANDARD
 62
     8
100
AcDbLine
 10
-30.56192777920522
 20
1235.18344890747
 30
0.0
 11
-30.19590757656851
 21
1234.39243328247
 31
0.0
  0
LINE
  5
2075
330
A
100
AcDbEntity
  8
HEWI
  6
STANDARD
 62
     8
100
AcDbLine
 10
-30.19590757656851
 20
1234.39243328247
 30
0.0
 11
-29.99090574551381
 21
1233.948402520751
 31
0.0
  0
LINE
  5
2076
330
A
100
AcDbEntity
  8
HEWI
  6
STANDARD
 62
     8
100
AcDbLine
 10
-53.24793241787709
 20
1242.673454400634
 30
0.0
 11
-52.25790403652944
 21
1243.123436090087
 31
0.0
  0
LINE
  5
2077
330
A
100
AcDbEntity
  8
HEWI
  6
STANDARD
 62
     8
100
AcDbLine
 10
-38.8519134359435
 20
1212.045402642823
 30
0.0
 11
-38.65793607998647
 21
1212.133445855712
 31
0.0
  0
LINE
  5
2078
330
A
100
AcDbEntity
  8
HEWI
  6
STANDARD
 62
     8
100
AcDbLine
 10
-52.25790403652944
 20
1243.123436090087
 30
0.0
 11
-52.20293424893178
 21
1243.148384210205
 31
0.0
  0
LINE
  5
2079
330
A
100
AcDbEntity
  8
HEWI
  6
STANDARD
 62
     8
100
AcDbLine
 10
-38.8519134359435
 20
1212.045402642823
 30
0.0
 11
-38.65690611172475
 21
1212.133445855712
 31
0.0
  0
LINE
  5
207A
330
A
100
AcDbEntity
  8
HEWI
  6
STANDARD
 62
     8
100
AcDbLine
 10
-38.19692991543569
 20
1212.187004205321
 30
0.0
 11
-38.18491361904897
 21
1212.192421075439
 31
0.0
  0
LINE
  5
207B
330
A
100
AcDbEntity
  8
HEWI
  6
STANDARD
 62
     8
100
AcDbLine
 10
-61.4029159383849
 20
1220.936393853759
 30
0.0
 11
-61.02491758633412
 21
1220.090446588134
 31
0.0
  0
LINE
  5
207C
330
A
100
AcDbEntity
  8
HEWI
  6
STANDARD
 62
     8
100
AcDbLine
 10
-39.075912459381
 20
1211.94744121704
 30
0.0
 11
-38.8519134359435
 21
1212.045402642823
 31
0.0
  0
LINE
  5
207D
330
A
100
AcDbEntity
  8
HEWI
  6
STANDARD
 62
     8
100
AcDbLine
 10
-39.07492063809194
 20
1211.948433038329
 30
0.0
 11
-38.8519134359435
 21
1212.045402642823
 31
0.0
  0
LINE
  5
207F
330
A
100
AcDbEntity
  8
HEWI
  6
STANDARD
 62
     8
100
AcDbLine
 10
-39.32691953945912
 20
1211.843452569579
 30
0.0
 11
-39.07492063809194
 21
1211.948433038329
 31
0.0
  0
LINE
  5
2080
330
A
100
AcDbEntity
  8
HEWI
  6
STANDARD
 62
     8
100
AcDbLine
 10
-39.32691953945912
 20
1211.843452569579
 30
0.0
 11
-39.075912459381
 21
1211.94744121704
 31
0.0
  0
LINE
  5
2081
330
A
100
AcDbEntity
  8
HEWI
  6
STANDARD
 62
     8
100
AcDbLine
 10
-39.60192106533803
 20
1211.733436700439
 30
0.0
 11
-39.32691953945912
 21
1211.843452569579
 31
0.0
  0
LINE
  5
2083
330
A
100
AcDbEntity
  8
HEWI
  6
STANDARD
 62
     8
100
AcDbLine
 10
-61.7059173421935
 20
1221.722450372314
 30
0.0
 11
-61.4029159383849
 21
1220.936393853759
 31
0.0
  0
LINE
  5
2086
330
A
100
AcDbEntity
  8
HEWI
  6
STANDARD
 62
     8
100
AcDbLine
 10
-29.99090574551381
 20
1233.948402520751
 30
0.0
 11
-29.61191557217397
 21
1232.945442315673
 31
0.0
  0
LINE
  5
2087
330
A
100
AcDbEntity
  8
HEWI
  6
STANDARD
 62
     8
100
AcDbLine
 10
-52.20293424893178
 20
1243.148384210205
 30
0.0
 11
-51.17292784024037
 21
1243.536415216065
 31
0.0
  0
LINE
  5
2088
330
A
100
AcDbEntity
  8
HEWI
  6
STANDARD
 62
     8
100
AcDbLine
 10
-39.92895506192006
 20
1211.610756036376
 30
0.0
 11
-39.89790342617787
 21
1211.622429010009
 31
0.0
  0
LINE
  5
2089
330
A
100
AcDbEntity
  8
HEWI
  6
STANDARD
 62
     8
100
AcDbLine
 10
-39.98293302822866
 20
1211.590461846923
 30
0.0
 11
-39.93803404141225
 21
1211.607322808837
 31
0.0
  0
LINE
  5
208A
330
A
100
AcDbEntity
  8
HEWI
  6
STANDARD
 62
     8
100
AcDbLine
 10
-39.89790342617787
 20
1211.622429010009
 30
0.0
 11
-39.60192106533803
 21
1211.733436700439
 31
0.0
  0
LINE
  5
208B
330
A
100
AcDbEntity
  8
HEWI
  6
STANDARD
 62
     8
100
AcDbLine
 10
-51.50793455410756
 20
1243.152427789306
 30
0.0
 11
-50.79790495205678
 21
1243.396415826415
 31
0.0
  0
LINE
  5
208C
330
A
100
AcDbEntity
  8
HEWI
  6
STANDARD
 62
     8
100
AcDbLine
 10
-40.52893064785756
 20
1211.404457208251
 30
0.0
 11
-39.98293302822866
 21
1211.590461846923
 31
0.0
  0
LINE
  5
2091
330
A
100
AcDbEntity
  8
HEWI
  6
STANDARD
 62
     8
100
AcDbLine
 10
-62.117904646881
 20
1223.042411920165
 30
0.0
 11
-61.7059173421935
 21
1221.722450372314
 31
0.0
  0
LINE
  5
2092
330
A
100
AcDbEntity
  8
HEWI
  6
STANDARD
 62
     8
100
AcDbLine
 10
-40.85993192959584
 20
1211.301460382079
 30
0.0
 11
-40.52893064785756
 21
1211.404457208251
 31
0.0
  0
LINE
  5
2093
330
A
100
AcDbEntity
  8
HEWI
  6
STANDARD
 62
     8
100
AcDbLine
 10
-29.29693601895131
 20
1231.910438653564
 30
0.0
 11
-29.27591703701772
 21
1231.842384454346
 31
0.0
  0
LINE
  5
2094
330
A
100
AcDbEntity
  8
HEWI
  6
STANDARD
 62
     8
100
AcDbLine
 10
-29.61191557217397
 20
1232.945442315673
 30
0.0
 11
-29.29693601895131
 21
1231.910438653564
 31
0.0
  0
LINE
  5
2095
330
A
100
AcDbEntity
  8
HEWI
  6
STANDARD
 62
     8
100
AcDbLine
 10
-51.17292784024037
 20
1243.536415216065
 30
0.0
 11
-50.09691618252553
 21
1243.863411065673
 31
0.0
  0
LINE
  5
2098
330
A
100
AcDbEntity
  8
HEWI
  6
STANDARD
 62
     8
100
AcDbLine
 10
-61.86392210293568
 20
1223.062400933837
 30
0.0
 11
-61.65090940762318
 21
1222.341423150634
 31
0.0
  0
LINE
  5
2099
330
A
100
AcDbEntity
  8
HEWI
  6
STANDARD
 62
     8
100
AcDbLine
 10
-50.79790495205678
 20
1243.396415826415
 30
0.0
 11
-50.07692716885366
 21
1243.609428521728
 31
0.0
  0
LINE
  5
209A
330
A
100
AcDbEntity
  8
HEWI
  6
STANDARD
 62
     8
100
AcDbLine
 10
-41.31693266201772
 20
1211.275444146728
 30
0.0
 11
-40.59591673184193
 21
1211.48845684204
 31
0.0
  0
LINE
  5
209C
330
A
100
AcDbEntity
  8
HEWI
  6
STANDARD
 62
     8
100
AcDbLine
 10
-41.19692228604116
 20
1211.204414483642
 30
0.0
 11
-40.85993192959584
 21
1211.301460382079
 31
0.0
  0
LINE
  5
20A3
330
A
100
AcDbEntity
  8
HEWI
  6
STANDARD
 62
     8
100
AcDbLine
 10
-42.77090452481068
 20
1210.848426934814
 30
0.0
 11
-39.93391416836537
 21
1211.608467218017
 31
0.0
  0
LINE
  5
20A4
330
A
100
AcDbEntity
  8
HEWI
  6
STANDARD
 62
     8
100
AcDbLine
 10
-51.45990751553334
 20
1243.276405450439
 30
0.0
 11
-48.62291715908803
 21
1244.036445733642
 31
0.0
  0
LINE
  5
20A5
330
A
100
AcDbEntity
  8
HEWI
  6
STANDARD
 62
     8
100
AcDbLine
 10
-62.29093931484975
 20
1224.516410943603
 30
0.0
 11
-61.53093717861928
 21
1221.679420587159
 31
0.0
  0
LINE
  5
20A6
330
A
100
AcDbEntity
  8
HEWI
  6
STANDARD
 62
     8
100
AcDbLine
 10
-29.86292265225209
 20
1233.205452081298
 30
0.0
 11
-29.10292051602162
 21
1230.368385430908
 31
0.0
  0
LINE
  5
20A7
330
A
100
AcDbEntity
  8
HEWI
  6
STANDARD
 62
     8
100
AcDbLine
 10
-41.84492491055287
 20
1211.038398858642
 30
0.0
 11
-41.19692228604116
 21
1211.204414483642
 31
0.0
  0
LINE
  5
20A8
330
A
100
AcDbEntity
  8
HEWI
  6
STANDARD
 62
     8
100
AcDbLine
 10
-62.04393766690053
 20
1223.792457696532
 30
0.0
 11
-61.86392210293568
 21
1223.062400933837
 31
0.0
  0
LINE
  5
20A9
330
A
100
AcDbEntity
  8
HEWI
  6
STANDARD
 62
     8
100
AcDbLine
 10
-42.04691313076772
 20
1211.095466729736
 30
0.0
 11
-41.31693266201772
 21
1211.275444146728
 31
0.0
  0
LINE
  5
20AA
330
A
100
AcDbEntity
  8
HEWI
  6
STANDARD
 62
     8
100
AcDbLine
 10
-50.07692716885366
 20
1243.609428521728
 30
0.0
 11
-49.346908553131
 21
1243.78940593872
 31
0.0
  0
LINE
  5
20AB
330
A
100
AcDbEntity
  8
HEWI
  6
STANDARD
 62
     8
100
AcDbLine
 10
-29.27591703701772
 20
1231.842384454346
 30
0.0
 11
-29.02391813565053
 21
1230.762443658447
 31
0.0
  0
LINE
  5
20AC
330
A
100
AcDbEntity
  8
HEWI
  6
STANDARD
 62
     8
100
AcDbLine
 10
-62.3929061727599
 20
1224.240455743407
 30
0.0
 11
-62.117904646881
 21
1223.042411920165
 31
0.0
  0
LINE
  5
20AF
330
A
100
AcDbEntity
  8
HEWI
  6
STANDARD
 62
     8
100
AcDbLine
 10
-42.46729276943959
 20
1210.929756280517
 30
0.0
 11
-41.84492491055287
 21
1211.038398858642
 31
0.0
  0
LINE
  5
20B0
330
A
100
AcDbEntity
  8
HEWI
  6
STANDARD
 62
     8
100
AcDbLine
 10
-43.7579192953185
 20
1210.704460260009
 30
0.0
 11
-43.09610746670522
 21
1210.819969293212
 31
0.0
  0
LINE
  5
20B1
330
A
100
AcDbEntity
  8
HEWI
  6
STANDARD
 62
     8
100
AcDbLine
 10
-62.55190275479115
 20
1225.223426934815
 30
0.0
 11
-62.3929061727599
 21
1224.240455743407
 31
0.0
  0
LINE
  5
20B2
330
A
100
AcDbEntity
  8
HEWI
  6
STANDARD
 62
     8
100
AcDbLine
 10
-28.85191343594351
 20
1229.659385797118
 30
0.0
 11
-28.80590818692006
 21
1229.367408868407
 31
0.0
  0
LINE
  5
20B3
330
A
100
AcDbEntity
  8
HEWI
  6
STANDARD
 62
     8
100
AcDbLine
 10
-29.02391813565053
 20
1230.762443658447
 30
0.0
 11
-28.85191343594351
 21
1229.659385797118
 31
0.0
  0
LINE
  5
20B4
330
A
100
AcDbEntity
  8
HEWI
  6
STANDARD
 62
     8
100
AcDbLine
 10
-62.63693235684193
 20
1226.011390802001
 30
0.0
 11
-62.55190275479115
 21
1225.223426934815
 31
0.0
  0
LINE
  5
20BD
330
A
100
AcDbEntity
  8
HEWI
  6
STANDARD
 62
     8
100
AcDbLine
 10
-29.10292051602162
 20
1230.368385430908
 30
0.0
 11
-28.84691618252553
 21
1227.442436334228
 31
0.0
  0
LINE
  5
20BE
330
A
100
AcDbEntity
  8
HEWI
  6
STANDARD
 62
     8
100
AcDbLine
 10
-48.62291715908803
 20
1244.036445733642
 30
0.0
 11
-45.69692991543568
 21
1244.292411920165
 31
0.0
  0
LINE
  5
20BF
330
A
100
AcDbEntity
  8
HEWI
  6
STANDARD
 62
     8
100
AcDbLine
 10
-62.54690550137318
 20
1227.442436334228
 30
0.0
 11
-62.29093931484975
 21
1224.516410943603
 31
0.0
  0
LINE
  5
20C0
330
A
100
AcDbEntity
  8
HEWI
  6
STANDARD
 62
     8
100
AcDbLine
 10
-45.69692991543568
 20
1210.59246074829
 30
0.0
 11
-42.77090452481068
 21
1210.848426934814
 31
0.0
  0
LINE
  5
20C1
330
A
100
AcDbEntity
  8
HEWI
  6
STANDARD
 62
     8
100
AcDbLine
 10
-28.80590818692006
 20
1229.367408868407
 30
0.0
 11
-28.72393034268178
 21
1228.40740215454
 31
0.0
  0
LINE
  5
20C3
330
A
100
AcDbEntity
  8
HEWI
  6
STANDARD
 62
     8
100
AcDbLine
 10
-62.6849212484435
 20
1226.799430963134
 30
0.0
 11
-62.63693235684193
 21
1226.011390802001
 31
0.0
  0
LINE
  5
20C4
330
A
100
AcDbEntity
  8
HEWI
  6
STANDARD
 62
     8
100
AcDbLine
 10
-45.69692991543568
 20
1210.59246074829
 30
0.0
 11
-43.7579192953185
 21
1210.704460260009
 31
0.0
  0
LINE
  5
20C6
330
A
100
AcDbEntity
  8
HEWI
  6
STANDARD
 62
     8
100
AcDbLine
 10
-46.81593321133412
 20
1244.405403253173
 30
0.0
 11
-45.69692991543568
 21
1244.44240581665
 31
0.0
  0
LINE
  5
20C7
330
A
100
AcDbEntity
  8
HEWI
  6
STANDARD
 62
     8
100
AcDbLine
 10
-28.72393034268178
 20
1228.40740215454
 30
0.0
 11
-28.69692228604115
 21
1227.442436334228
 31
0.0
  0
LINE
  5
20C8
330
A
100
AcDbEntity
  8
HEWI
  6
STANDARD
 62
     8
100
AcDbLine
 10
-62.69693754483022
 20
1227.442436334228
 30
0.0
 11
-62.6849212484435
 21
1226.799430963134
 31
0.0
  0
LINE
  5
20C9
330
A
100
AcDbEntity
  8
HEWI
  6
STANDARD
 62
     8
100
AcDbLine
 10
-28.70893858242787
 20
1226.799430963134
 30
0.0
 11
-28.69692228604115
 21
1227.442436334228
 31
0.0
  0
LINE
  5
20CA
330
A
100
AcDbEntity
  8
HEWI
  6
STANDARD
 62
     8
100
AcDbLine
 10
-62.69693754483022
 20
1227.442436334228
 30
0.0
 11
-62.6739349203185
 21
1228.325386163329
 31
0.0
  0
LINE
  5
20CB
330
A
100
AcDbEntity
  8
HEWI
  6
STANDARD
 62
     8
100
AcDbLine
 10
-45.69692991543568
 20
1244.44240581665
 30
0.0
 11
-44.57991026211537
 21
1244.405403253173
 31
0.0
  0
LINE
  5
20CC
330
A
100
AcDbEntity
  8
HEWI
  6
STANDARD
 62
     8
100
AcDbLine
 10
-47.63594053555287
 20
1210.704460260009
 30
0.0
 11
-45.69692991543568
 21
1210.59246074829
 31
0.0
  0
LINE
  5
20CD
330
A
100
AcDbEntity
  8
HEWI
  6
STANDARD
 62
     8
100
AcDbLine
 10
-28.75791929531851
 20
1226.009407159423
 30
0.0
 11
-28.70893858242787
 21
1226.799430963134
 31
0.0
  0
LINE
  5
20CF
330
A
100
AcDbEntity
  8
HEWI
  6
STANDARD
 62
     8
100
AcDbLine
 10
-62.6739349203185
 20
1228.325386163329
 30
0.0
 11
-62.60492704678334
 21
1229.208412286376
 31
0.0
  0
LINE
  5
20D0
330
A
100
AcDbEntity
  8
HEWI
  6
STANDARD
 62
     8
100
AcDbLine
 10
-45.69692991543568
 20
1244.292411920165
 30
0.0
 11
-42.77090452481068
 21
1244.036445733642
 31
0.0
  0
LINE
  5
20D1
330
A
100
AcDbEntity
  8
HEWI
  6
STANDARD
 62
     8
100
AcDbLine
 10
-48.62291715908803
 20
1210.848426934814
 30
0.0
 11
-45.69692991543568
 21
1210.59246074829
 31
0.0
  0
LINE
  5
20D2
330
A
100
AcDbEntity
  8
HEWI
  6
STANDARD
 62
     8
100
AcDbLine
 10
-62.54690550137318
 20
1227.442436334228
 30
0.0
 11
-62.29093931484975
 21
1230.368385430908
 31
0.0
  0
LINE
  5
20D3
330
A
100
AcDbEntity
  8
HEWI
  6
STANDARD
 62
     8
100
AcDbLine
 10
-29.10292051602162
 20
1224.516410943603
 30
0.0
 11
-28.84691618252553
 21
1227.442436334228
 31
0.0
  0
LINE
  5
20DC
330
A
100
AcDbEntity
  8
HEWI
  6
STANDARD
 62
     8
100
AcDbLine
 10
-44.57991026211537
 20
1244.405403253173
 30
0.0
 11
-43.47792051602162
 21
1244.297447320557
 31
0.0
  0
LINE
  5
20DD
330
A
100
AcDbEntity
  8
HEWI
  6
STANDARD
 62
     8
100
AcDbLine
 10
-28.84191892910756
 20
1225.223426934815
 30
0.0
 11
-28.75791929531851
 21
1226.009407159423
 31
0.0
  0
LINE
  5
20DE
330
A
100
AcDbEntity
  8
HEWI
  6
STANDARD
 62
     8
100
AcDbLine
 10
-62.58592985440053
 20
1229.367408868407
 30
0.0
 11
-62.55190275479115
 21
1229.661445733642
 31
0.0
  0
LINE
  5
20DF
330
A
100
AcDbEntity
  8
HEWI
  6
STANDARD
 62
     8
100
AcDbLine
 10
-62.60492704678334
 20
1229.208412286376
 30
0.0
 11
-62.58592985440053
 21
1229.367408868407
 31
0.0
  0
LINE
  5
20E0
330
A
100
AcDbEntity
  8
HEWI
  6
STANDARD
 62
     8
100
AcDbLine
 10
-29.00091551113881
 20
1224.240455743407
 30
0.0
 11
-28.84191892910756
 21
1225.223426934815
 31
0.0
  0
LINE
  5
20E1
330
A
100
AcDbEntity
  8
HEWI
  6
STANDARD
 62
     8
100
AcDbLine
 10
-62.55190275479115
 20
1229.661445733642
 30
0.0
 11
-62.36891172695912
 21
1230.765419122314
 31
0.0
  0
LINE
  5
20E2
330
A
100
AcDbEntity
  8
HEWI
  6
STANDARD
 62
     8
100
AcDbLine
 10
-43.47792051602162
 20
1244.297447320557
 30
0.0
 11
-42.37493894863881
 21
1244.114418145751
 31
0.0
  0
LINE
  5
20E3
330
A
100
AcDbEntity
  8
HEWI
  6
STANDARD
 62
     8
100
AcDbLine
 10
-48.2977142171935
 20
1210.819969293212
 30
0.0
 11
-47.63594053555287
 21
1210.704460260009
 31
0.0
  0
LINE
  5
20E4
330
A
100
AcDbEntity
  8
HEWI
  6
STANDARD
 62
     8
100
AcDbLine
 10
-49.5489349203185
 20
1211.038398858642
 30
0.0
 11
-48.92652891445912
 21
1210.929756280517
 31
0.0
  0
LINE
  5
20E7
330
A
100
AcDbEntity
  8
HEWI
  6
STANDARD
 62
     8
100
AcDbLine
 10
-29.27591703701772
 20
1223.042411920165
 30
0.0
 11
-29.00091551113881
 21
1224.240455743407
 31
0.0
  0
LINE
  5
20E8
330
A
100
AcDbEntity
  8
HEWI
  6
STANDARD
 62
     8
100
AcDbLine
 10
-62.11492918301381
 20
1231.841392633056
 30
0.0
 11
-62.09890745449818
 21
1231.910438653564
 31
0.0
  0
LINE
  5
20E9
330
A
100
AcDbEntity
  8
HEWI
  6
STANDARD
 62
     8
100
AcDbLine
 10
-42.37493894863881
 20
1244.114418145751
 30
0.0
 11
-41.29690550137318
 21
1243.863411065673
 31
0.0
  0
LINE
  5
20EA
330
A
100
AcDbEntity
  8
HEWI
  6
STANDARD
 62
     8
100
AcDbLine
 10
-62.36891172695912
 20
1230.765419122314
 30
0.0
 11
-62.11492918301381
 21
1231.841392633056
 31
0.0
  0
LINE
  5
20EB
330
A
100
AcDbEntity
  8
HEWI
  6
STANDARD
 62
     8
100
AcDbLine
 10
-50.19693754483022
 20
1211.204414483642
 30
0.0
 11
-49.5489349203185
 21
1211.038398858642
 31
0.0
  0
LINE
  5
20EC
330
A
100
AcDbEntity
  8
HEWI
  6
STANDARD
 62
     8
100
AcDbLine
 10
-62.29093931484975
 20
1230.368385430908
 30
0.0
 11
-61.53093717861928
 21
1233.205452081298
 31
0.0
  0
LINE
  5
20ED
330
A
100
AcDbEntity
  8
HEWI
  6
STANDARD
 62
     8
100
AcDbLine
 10
-29.86292265225209
 20
1221.679420587159
 30
0.0
 11
-29.10292051602162
 21
1224.516410943603
 31
0.0
  0
LINE
  5
20EE
330
A
100
AcDbEntity
  8
HEWI
  6
STANDARD
 62
     8
100
AcDbLine
 10
-42.77090452481068
 20
1244.036445733642
 30
0.0
 11
-39.93391416836537
 21
1243.276405450439
 31
0.0
  0
LINE
  5
20EF
330
A
100
AcDbEntity
  8
HEWI
  6
STANDARD
 62
     8
100
AcDbLine
 10
-51.45990751553334
 20
1211.608467218017
 30
0.0
 11
-48.62291715908803
 21
1210.848426934814
 31
0.0
  0
LINE
  5
20F6
330
A
100
AcDbEntity
  8
HEWI
  6
STANDARD
 62
     8
100
AcDbLine
 10
-50.53491972256459
 20
1211.301460382079
 30
0.0
 11
-50.19693754483022
 21
1211.204414483642
 31
0.0
  0
LINE
  5
20F7
330
A
100
AcDbEntity
  8
HEWI
  6
STANDARD
 62
     8
100
AcDbLine
 10
-50.53392790127553
 20
1211.301460382079
 30
0.0
 11
-50.19693754483022
 21
1211.204414483642
 31
0.0
  0
LINE
  5
20FB
330
A
100
AcDbEntity
  8
HEWI
  6
STANDARD
 62
     8
100
AcDbLine
 10
-41.29690550137318
 20
1243.863411065673
 30
0.0
 11
-40.22390745449818
 21
1243.537407037353
 31
0.0
  0
LINE
  5
20FC
330
A
100
AcDbEntity
  8
HEWI
  6
STANDARD
 62
     8
100
AcDbLine
 10
-62.09890745449818
 20
1231.910438653564
 30
0.0
 11
-61.78293607998647
 21
1232.942390557861
 31
0.0
  0
LINE
  5
20FD
330
A
100
AcDbEntity
  8
HEWI
  6
STANDARD
 62
     8
100
AcDbLine
 10
-50.86492918301381
 20
1211.404457208251
 30
0.0
 11
-50.53392790127553
 21
1211.301460382079
 31
0.0
  0
LINE
  5
20FE
330
A
100
AcDbEntity
  8
HEWI
  6
STANDARD
 62
     8
100
AcDbLine
 10
-50.86492918301381
 20
1211.404457208251
 30
0.0
 11
-50.53491972256459
 21
1211.301460382079
 31
0.0
  0
LINE
  5
20FF
330
A
100
AcDbEntity
  8
HEWI
  6
STANDARD
 62
     8
100
AcDbLine
 10
-29.68790434170522
 20
1221.722450372314
 30
0.0
 11
-29.27591703701772
 21
1223.042411920165
 31
0.0
  0
LINE
  5
2104
330
A
100
AcDbEntity
  8
HEWI
  6
STANDARD
 62
     8
100
AcDbLine
 10
-51.41092680264272
 20
1211.590461846923
 30
0.0
 11
-50.86492918301381
 21
1211.404457208251
 31
0.0
  0
LINE
  5
2105
330
A
100
AcDbEntity
  8
HEWI
  6
STANDARD
 62
     8
100
AcDbLine
 10
-51.49893186856069
 20
1211.622429010009
 30
0.0
 11
-51.41092680264272
 21
1211.590461846923
 31
0.0
  0
LINE
  5
2106
330
A
100
AcDbEntity
  8
HEWI
  6
STANDARD
 62
     8
100
AcDbLine
 10
-51.79193876553334
 20
1211.733436700439
 30
0.0
 11
-51.49591825772084
 21
1211.622429010009
 31
0.0
  0
LINE
  5
2107
330
A
100
AcDbEntity
  8
HEWI
  6
STANDARD
 62
     8
100
AcDbLine
 10
-51.45578764248647
 20
1211.607322808837
 30
0.0
 11
-51.41092680264272
 21
1211.590461846923
 31
0.0
  0
LINE
  5
2108
330
A
100
AcDbEntity
  8
HEWI
  6
STANDARD
 62
     8
100
AcDbLine
 10
-51.49591825772084
 20
1211.622429010009
 30
0.0
 11
-51.46490476895131
 21
1211.610756036376
 31
0.0
  0
LINE
  5
2109
330
A
100
AcDbEntity
  8
HEWI
  6
STANDARD
 62
     8
100
AcDbLine
 10
-61.78293607998647
 20
1232.942390557861
 30
0.0
 11
-61.4029159383849
 21
1233.948402520751
 31
0.0
  0
LINE
  5
210A
330
A
100
AcDbEntity
  8
HEWI
  6
STANDARD
 62
     8
100
AcDbLine
 10
-51.79193876553334
 20
1211.733436700439
 30
0.0
 11
-51.49893186856069
 21
1211.622429010009
 31
0.0
  0
LINE
  5
210B
330
A
100
AcDbEntity
  8
HEWI
  6
STANDARD
 62
     8
100
AcDbLine
 10
-40.22390745449818
 20
1243.537407037353
 30
0.0
 11
-39.19191740322866
 21
1243.146400567626
 31
0.0
  0
LINE
  5
210E
330
A
100
AcDbEntity
  8
HEWI
  6
STANDARD
 62
     8
100
AcDbLine
 10
-39.19191740322866
 20
1243.146400567626
 30
0.0
 11
-39.13191221524037
 21
1243.123436090087
 31
0.0
  0
LINE
  5
210F
330
A
100
AcDbEntity
  8
HEWI
  6
STANDARD
 62
     8
100
AcDbLine
 10
-29.99090574551381
 20
1220.936393853759
 30
0.0
 11
-29.68790434170522
 21
1221.722450372314
 31
0.0
  0
LINE
  5
2111
330
A
100
AcDbEntity
  8
HEWI
  6
STANDARD
 62
     8
100
AcDbLine
 10
-52.06694029141225
 20
1211.843452569579
 30
0.0
 11
-51.79193876553334
 21
1211.733436700439
 31
0.0
  0
LINE
  5
2112
330
A
100
AcDbEntity
  8
HEWI
  6
STANDARD
 62
     8
100
AcDbLine
 10
-52.31893919277944
 20
1211.948433038329
 30
0.0
 11
-52.06694029141225
 21
1211.843452569579
 31
0.0
  0
LINE
  5
2114
330
A
100
AcDbEntity
  8
HEWI
  6
STANDARD
 62
     8
100
AcDbLine
 10
-61.4029159383849
 20
1233.948402520751
 30
0.0
 11
-61.20993040371693
 21
1234.395408746337
 31
0.0
  0
LINE
  5
2115
330
A
100
AcDbEntity
  8
HEWI
  6
STANDARD
 62
     8
100
AcDbLine
 10
-52.54190824795522
 20
1212.045402642823
 30
0.0
 11
-52.31893919277944
 21
1211.948433038329
 31
0.0
  0
LINE
  5
2116
330
A
100
AcDbEntity
  8
HEWI
  6
STANDARD
 62
     8
100
AcDbLine
 10
-30.36592863369739
 20
1220.095405694579
 30
0.0
 11
-29.99090574551381
 21
1220.936393853759
 31
0.0
  0
LINE
  5
2117
330
A
100
AcDbEntity
  8
HEWI
  6
STANDARD
 62
     8
100
AcDbLine
 10
-53.20791624356069
 20
1212.19142925415
 30
0.0
 11
-53.19692991543569
 21
1212.186470147704
 31
0.0
  0
LINE
  5
2118
330
A
100
AcDbEntity
  8
HEWI
  6
STANDARD
 62
     8
100
AcDbLine
 10
-52.73592375088491
 20
1212.133445855712
 30
0.0
 11
-52.54190824795522
 21
1212.045402642823
 31
0.0
  0
LINE
  5
2119
330
A
100
AcDbEntity
  8
HEWI
  6
STANDARD
 62
     8
100
AcDbLine
 10
-39.13191221524037
 20
1243.123436090087
 30
0.0
 11
-38.14691923428334
 21
1242.673454400634
 31
0.0
  0
LINE
  5
211A
330
A
100
AcDbEntity
  8
HEWI
  6
STANDARD
 62
     8
100
AcDbLine
 10
-52.89991758633412
 20
1212.209434625244
 30
0.0
 11
-52.73592375088491
 21
1212.133445855712
 31
0.0
  0
LINE
  5
211B
330
A
100
AcDbEntity
  8
HEWI
  6
STANDARD
 62
     8
100
AcDbLine
 10
-39.93391416836537
 20
1243.276405450439
 30
0.0
 11
-37.27190397549428
 21
1242.035408135986
 31
0.0
  0
LINE
  5
211C
330
A
100
AcDbEntity
  8
HEWI
  6
STANDARD
 62
     8
100
AcDbLine
 10
-54.12191770840444
 20
1212.84946453247
 30
0.0
 11
-51.45990751553334
 21
1211.608467218017
 31
0.0
  0
LINE
  5
211D
330
A
100
AcDbEntity
  8
HEWI
  6
STANDARD
 62
     8
100
AcDbLine
 10
-31.10391996670522
 20
1219.017448541259
 30
0.0
 11
-29.86292265225209
 21
1221.679420587159
 31
0.0
  0
LINE
  5
211E
330
A
100
AcDbEntity
  8
HEWI
  6
STANDARD
 62
     8
100
AcDbLine
 10
-61.53093717861928
 20
1233.205452081298
 30
0.0
 11
-60.28993986416615
 21
1235.867424127198
 31
0.0
  0
LINE
  5
2124
330
A
100
AcDbEntity
  8
HEWI
  6
STANDARD
 62
     8
100
AcDbLine
 10
-53.19692991543569
 20
1212.353401300048
 30
0.0
 11
-53.17793272305287
 21
1212.344398614501
 31
0.0
  0
LINE
  5
2125
330
A
100
AcDbEntity
  8
HEWI
  6
STANDARD
 62
     8
100
AcDbLine
 10
-53.0279388265685
 20
1212.270393487548
 30
0.0
 11
-52.89991758633412
 21
1212.209434625244
 31
0.0
  0
LINE
  5
2126
330
A
100
AcDbEntity
  8
HEWI
  6
STANDARD
 62
     8
100
AcDbLine
 10
-61.20993040371693
 20
1234.395408746337
 30
0.0
 11
-60.83193205166615
 21
1235.184440728759
 31
0.0
  0
LINE
  5
2127
330
A
100
AcDbEntity
  8
HEWI
  6
STANDARD
 62
     8
100
AcDbLine
 10
-53.1219329671935
 20
1212.316398736573
 30
0.0
 11
-53.0279388265685
 21
1212.270393487548
 31
0.0
  0
LINE
  5
2128
330
A
100
AcDbEntity
  8
HEWI
  6
STANDARD
 62
     8
100
AcDbLine
 10
-53.17793272305287
 20
1212.344398614501
 30
0.0
 11
-53.1219329671935
 21
1212.316398736573
 31
0.0
  0
LINE
  5
212A
330
A
100
AcDbEntity
  8
HEWI
  6
STANDARD
 62
     8
100
AcDbLine
 10
-30.97490690518178
 20
1218.942451593017
 30
0.0
 11
-30.79592130947864
 21
1219.28142559204
 31
0.0
  0
LINE
  5
212B
330
A
100
AcDbEntity
  8
HEWI
  6
STANDARD
 62
     8
100
AcDbLine
 10
-30.79592130947864
 20
1219.28142559204
 30
0.0
 11
-30.36592863369739
 21
1220.095405694579
 31
0.0
  0
LINE
  5
212C
330
A
100
AcDbEntity
  8
HEWI
  6
STANDARD
 62
     8
100
AcDbLine
 10
-54.17490385342397
 20
1212.708397027587
 30
0.0
 11
-53.20791624356069
 21
1212.19142925415
 31
0.0
  0
LINE
  5
212D
330
A
100
AcDbEntity
  8
HEWI
  6
STANDARD
 62
     8
100
AcDbLine
 10
-38.14691923428334
 20
1242.673454400634
 30
0.0
 11
-37.19690702725209
 21
1242.164421197509
 31
0.0
  0
LINE
  5
212F
330
A
100
AcDbEntity
  8
HEWI
  6
STANDARD
 62
     8
100
AcDbLine
 10
-60.83193205166615
 20
1235.184440728759
 30
0.0
 11
-60.41891477871693
 21
1235.942421075439
 31
0.0
  0
LINE
  5
2130
330
A
100
AcDbEntity
  8
HEWI
  6
STANDARD
 62
     8
100
AcDbLine
 10
-54.19691465664662
 20
1212.720451470947
 30
0.0
 11
-54.17490385342397
 21
1212.708397027587
 31
0.0
  0
LINE
  5
2138
330
A
100
AcDbEntity
  8
HEWI
  6
STANDARD
 62
     8
100
AcDbLine
 10
-37.19690702725209
 20
1242.164421197509
 30
0.0
 11
-36.42492674160756
 21
1241.691398736571
 31
0.0
  0
LINE
  5
2139
330
A
100
AcDbEntity
  8
HEWI
  6
STANDARD
 62
     8
100
AcDbLine
 10
-60.41891477871693
 20
1235.942421075439
 30
0.0
 11
-59.89691160488881
 21
1236.789436456298
 31
0.0
  0
LINE
  5
213A
330
A
100
AcDbEntity
  8
HEWI
  6
STANDARD
 62
     8
100
AcDbLine
 10
-55.14593504238881
 20
1213.310432550048
 30
0.0
 11
-54.19691465664662
 21
1212.720451470947
 31
0.0
  0
LINE
  5
213B
330
A
100
AcDbEntity
  8
HEWI
  6
STANDARD
 62
     8
100
AcDbLine
 10
-31.56591795254506
 20
1217.992439385986
 30
0.0
 11
-30.97490690518178
 21
1218.942451593017
 31
0.0
  0
LINE
  5
2148
330
A
100
AcDbEntity
  8
HEWI
  6
STANDARD
 62
     8
100
AcDbLine
 10
-56.52792356777943
 20
1214.534416314698
 30
0.0
 11
-54.12191770840444
 21
1212.84946453247
 31
0.0
  0
LINE
  5
2149
330
A
100
AcDbEntity
  8
HEWI
  6
STANDARD
 62
     8
100
AcDbLine
 10
-37.27190397549428
 20
1242.035408135986
 30
0.0
 11
-34.86593626309194
 21
1240.350456353759
 31
0.0
  0
LINE
  5
214A
330
A
100
AcDbEntity
  8
HEWI
  6
STANDARD
 62
     8
100
AcDbLine
 10
-32.78890989590444
 20
1216.611442681884
 30
0.0
 11
-31.10391996670522
 21
1219.017448541259
 31
0.0
  0
LINE
  5
214B
330
A
100
AcDbEntity
  8
HEWI
  6
STANDARD
 62
     8
100
AcDbLine
 10
-60.28993986416615
 20
1235.867424127198
 30
0.0
 11
-58.60491178799428
 21
1238.273429986571
 31
0.0
  0
LINE
  5
214C
330
A
100
AcDbEntity
  8
HEWI
  6
STANDARD
 62
     8
100
AcDbLine
 10
-36.42492674160756
 20
1241.691398736571
 30
0.0
 11
-35.70093534756459
 21
1241.17939006958
 31
0.0
  0
LINE
  5
214D
330
A
100
AcDbEntity
  8
HEWI
  6
STANDARD
 62
     8
100
AcDbLine
 10
-35.70093534756459
 20
1241.17939006958
 30
0.0
 11
-35.34792326260366
 21
1240.929451104736
 31
0.0
  0
LINE
  5
214F
330
A
100
AcDbEntity
  8
HEWI
  6
STANDARD
 62
     8
100
AcDbLine
 10
-59.89691160488881
 20
1236.789436456298
 30
0.0
 11
-59.18390653897084
 21
1237.791404840087
 31
0.0
  0
LINE
  5
2150
330
A
100
AcDbEntity
  8
HEWI
  6
STANDARD
 62
     8
100
AcDbLine
 10
-56.04593656826772
 20
1213.95542156372
 30
0.0
 11
-55.14593504238881
 21
1213.310432550048
 31
0.0
  0
LINE
  5
2152
330
A
100
AcDbEntity
  8
HEWI
  6
STANDARD
 62
     8
100
AcDbLine
 10
-32.32691191006459
 20
1216.94240581665
 30
0.0
 11
-32.21491239834584
 21
1217.097435113525
 31
0.0
  0
LINE
  5
2153
330
A
100
AcDbEntity
  8
HEWI
  6
STANDARD
 62
     8
100
AcDbLine
 10
-32.21491239834584
 20
1217.097435113525
 30
0.0
 11
-31.56591795254506
 21
1217.992439385986
 31
0.0
  0
LINE
  5
215E
330
A
100
AcDbEntity
  8
HEWI
  6
STANDARD
 62
     8
100
AcDbLine
 10
-59.18390653897084
 20
1237.791404840087
 30
0.0
 11
-58.65892790127553
 21
1238.44142925415
 31
0.0
  0
LINE
  5
215F
330
A
100
AcDbEntity
  8
HEWI
  6
STANDARD
 62
     8
100
AcDbLine
 10
-35.34792326260366
 20
1240.929451104736
 30
0.0
 11
-34.48992155361928
 21
1240.225410577392
 31
0.0
  0
LINE
  5
2160
330
A
100
AcDbEntity
  8
HEWI
  6
STANDARD
 62
     8
100
AcDbLine
 10
-56.99793241787709
 20
1214.742393609619
 30
0.0
 11
-56.04593656826772
 21
1213.95542156372
 31
0.0
  0
LINE
  5
2161
330
A
100
AcDbEntity
  8
HEWI
  6
STANDARD
 62
     8
100
AcDbLine
 10
-32.97891996670522
 20
1216.161384698486
 30
0.0
 11
-32.32691191006459
 21
1216.94240581665
 31
0.0
  0
LINE
  5
2163
330
A
100
AcDbEntity
  8
HEWI
  6
STANDARD
 62
     8
100
AcDbLine
 10
-58.65892790127553
 20
1238.44142925415
 30
0.0
 11
-58.09191129971303
 21
1239.057426568603
 31
0.0
  0
LINE
  5
2164
330
A
100
AcDbEntity
  8
HEWI
  6
STANDARD
 62
     8
100
AcDbLine
 10
-58.09191129971303
 20
1239.057426568603
 30
0.0
 11
-57.71791837979115
 21
1239.463386651611
 31
0.0
  0
LINE
  5
2165
330
A
100
AcDbEntity
  8
HEWI
  6
STANDARD
 62
     8
100
AcDbLine
 10
-34.48992155361928
 20
1240.225410577392
 30
0.0
 11
-33.67590330410756
 21
1239.463386651611
 31
0.0
  0
LINE
  5
2166
330
A
100
AcDbEntity
  8
HEWI
  6
STANDARD
 62
     8
100
AcDbLine
 10
-33.67590330410756
 20
1215.4214097229
 30
0.0
 11
-32.97891996670522
 21
1216.161384698486
 31
0.0
  0
LINE
  5
2167
330
A
100
AcDbEntity
  8
HEWI
  6
STANDARD
 62
     8
100
AcDbLine
 10
-57.71791837979115
 20
1215.4214097229
 30
0.0
 11
-56.99793241787709
 21
1214.742393609619
 31
0.0
  0
LINE
  5
216E
330
A
100
AcDbEntity
  8
HEWI
  6
STANDARD
 62
     8
100
AcDbLine
 10
-58.60491178799428
 20
1238.273429986571
 30
0.0
 11
-56.52792356777943
 21
1240.350456353759
 31
0.0
  0
LINE
  5
216F
330
A
100
AcDbEntity
  8
HEWI
  6
STANDARD
 62
     8
100
AcDbLine
 10
-34.86593626309194
 20
1240.350456353759
 30
0.0
 11
-32.78890989590444
 21
1238.273429986571
 31
0.0
  0
ARC
  5
2172
330
A
100
AcDbEntity
  8
HEWI
  6
STANDARD
 62
     8
100
AcDbCircle
 10
-45.69542944457224
 20
1227.442931603659
 30
0.0
 40
16.74835576013925
100
AcDbArc
 50
38.30103302899242
 51
51.1608972772581
  0
ARC
  5
2173
330
A
100
AcDbEntity
  8
HEWI
  6
STANDARD
 62
     8
100
AcDbCircle
 10
-45.69542950471417
 20
1227.440299629731
 30
0.0
 40
16.7472035540984
100
AcDbArc
 50
308.2997643625028
 51
321.160517975131
  0
ARC
  5
2174
330
A
100
AcDbEntity
  8
HEWI
  6
STANDARD
 62
     8
100
AcDbCircle
 10
-45.69431625528522
 20
1227.445454964179
 30
0.0
 40
16.7537323430268
100
AcDbArc
 50
218.3018241119576
 51
231.1576381283075
  0
ARC
  5
2175
330
A
100
AcDbEntity
  8
HEWI
  6
STANDARD
 62
     8
100
AcDbCircle
 10
-45.69810635772387
 20
1227.44409601975
 30
0.0
 40
16.74775505391164
100
AcDbArc
 50
128.2995203073647
 51
141.1599419328853
  0
ARC
  5
217B
330
A
100
AcDbEntity
  8
HEWI
  6
STANDARD
 62
     8
100
AcDbCircle
 10
-45.70119830220163
 20
1227.439106715692
 30
0.0
 40
16.55511324718378
100
AcDbArc
 50
35.72873053581965
 51
61.43757544521713
  0
ARC
  5
217C
330
A
100
AcDbEntity
  8
HEWI
  6
STANDARD
 62
     8
100
AcDbCircle
 10
-45.71010405194054
 20
1227.429775753536
 30
0.0
 40
16.5327313401557
100
AcDbArc
 50
205.4224661996671
 51
246.6117414259916
  0
ARC
  5
2183
330
A
100
AcDbEntity
  8
HEWI
  6
STANDARD
 62
     8
100
AcDbCircle
 10
-45.67425538650375
 20
1227.463530082564
 30
0.0
 40
16.78067836527355
100
AcDbArc
 50
213.1739170186817
 51
226.0102534663613
  0
ARC
  5
2184
330
A
100
AcDbEntity
  8
HEWI
  6
STANDARD
 62
     8
100
AcDbCircle
 10
-45.69594862575648
 20
1227.444091149748
 30
0.0
 40
16.74790568645557
100
AcDbArc
 50
30.58377236064427
 51
84.58999673303955
  0
ARC
  5
2185
330
A
100
AcDbEntity
  8
HEWI
  6
STANDARD
 62
     8
100
AcDbCircle
 10
-45.71802366377186
 20
1227.46511086316
 30
0.0
 40
16.78067836527355
100
AcDbArc
 50
303.1739170186825
 51
316.0102534663622
  0
ARC
  5
2186
330
A
100
AcDbEntity
  8
HEWI
  6
STANDARD
 62
     8
100
AcDbCircle
 10
-45.69822888145403
 20
1227.443172151855
 30
0.0
 40
16.74831747578485
100
AcDbArc
 50
120.5845054457731
 51
174.5894177147825
  0
ARC
  5
2187
330
A
100
AcDbEntity
  8
HEWI
  6
STANDARD
 62
     8
100
AcDbCircle
 10
-45.6972907841325
 20
1227.439848949718
 30
0.0
 40
16.5479210939018
100
AcDbArc
 50
251.7266314774899
 51
308.3057468708223
  0
ARC
  5
2188
330
A
100
AcDbEntity
  8
HEWI
  6
STANDARD
 62
     8
100
AcDbCircle
 10
-45.69653974615356
 20
1227.444930374734
 30
0.0
 40
16.5480125044983
100
AcDbArc
 50
71.72670373023287
 51
128.3056261460018
  0
ARC
  5
2189
330
A
100
AcDbEntity
  8
HEWI
  6
STANDARD
 62
     8
100
AcDbCircle
 10
-45.71176615409966
 20
1227.4303533021
 30
0.0
 40
16.73067838033655
100
AcDbArc
 50
210.5774606526133
 51
223.4494982136635
  0
ARC
  5
218A
330
A
100
AcDbEntity
  8
HEWI
  6
STANDARD
 62
     8
100
AcDbCircle
 10
-45.68782623461809
 20
1227.43151374664
 30
0.0
 40
16.73559626354858
100
AcDbArc
 50
300.5793599175289
 51
313.4475989487522
  0
ARC
  5
218F
330
A
100
AcDbEntity
  8
HEWI
  6
STANDARD
 62
     8
100
AcDbCircle
 10
-45.69617792132838
 20
1227.441858361529
 30
0.0
 40
16.75038872971103
100
AcDbArc
 50
107.7325155026108
 51
125.7303668828845
  0
ARC
  5
2190
330
A
100
AcDbEntity
  8
HEWI
  6
STANDARD
 62
     8
100
AcDbCircle
 10
-45.69842062307177
 20
1227.441084117034
 30
0.0
 40
16.7514888677943
100
AcDbArc
 50
17.73360463020997
 51
35.73002823808536
  0
ARC
  5
2193
330
A
100
AcDbEntity
  8
HEWI
  6
STANDARD
 62
     8
100
AcDbCircle
 10
-45.69787661415874
 20
1227.442271481413
 30
0.0
 40
16.74866887256897
100
AcDbArc
 50
197.7312409478218
 51
215.7308963792741
  0
ARC
  5
2194
330
A
100
AcDbEntity
  8
HEWI
  6
STANDARD
 62
     8
100
AcDbCircle
 10
-45.69877580830961
 20
1227.44554394434
 30
0.0
 40
16.75314297511627
100
AcDbArc
 50
287.7335681790886
 51
305.7281993164737
  0
ARC
  5
219A
330
A
100
AcDbEntity
  8
HEWI
  6
STANDARD
 62
     8
100
AcDbCircle
 10
-45.71922924991462
 20
1227.435276230435
 30
0.0
 40
16.77319215142041
100
AcDbArc
 50
7.457870410151932
 51
22.8641062422903
  0
ARC
  5
219B
330
A
100
AcDbEntity
  8
HEWI
  6
STANDARD
 62
     8
100
AcDbCircle
 10
-45.6648408012379
 20
1227.455628923753
 30
0.0
 40
16.78423924967695
100
AcDbArc
 50
195.1737613810975
 51
213.1337556823143
  0
ARC
  5
219C
330
A
100
AcDbEntity
  8
HEWI
  6
STANDARD
 62
     8
100
AcDbCircle
 10
-45.71168041174177
 20
1227.478077637304
 30
0.0
 40
16.78806539818245
100
AcDbArc
 50
285.1755941018378
 51
303.1315815913388
  0
ARC
  5
219E
330
A
100
AcDbEntity
  8
HEWI
  6
STANDARD
 62
     8
100
AcDbCircle
 10
-45.70741078562149
 20
1227.441514330896
 30
0.0
 40
16.56015514451233
100
AcDbArc
 50
344.3147725213232
 51
20.29104490346365
  0
ARC
  5
219F
330
A
100
AcDbEntity
  8
HEWI
  6
STANDARD
 62
     8
100
AcDbCircle
 10
-45.69648981050339
 20
1227.442911679545
 30
0.0
 40
16.55060933618395
100
AcDbArc
 50
164.3038864872084
 51
200.3018965915279
  0
ARC
  5
21A1
330
A
100
AcDbEntity
  8
HEWI
  6
STANDARD
 62
     8
100
AcDbCircle
 10
-45.71733278248278
 20
1227.553146146636
 30
0.0
 40
16.88802808166489
100
AcDbArc
 50
93.72984029068149
 51
105.0303493529232
  0
ARC
  5
21A3
330
A
100
AcDbEntity
  8
HEWI
  6
STANDARD
 62
     8
100
AcDbCircle
 10
-45.69187682567097
 20
1227.429046585685
 30
0.0
 40
16.76405160181976
100
AcDbArc
 50
92.31463557102129
 51
105.1635147574567
  0
ARC
  5
21A5
330
A
100
AcDbEntity
  8
HEWI
  6
STANDARD
 62
     8
100
AcDbCircle
 10
-45.69581636289488
 20
1227.422127166898
 30
0.0
 40
16.72991318027813
100
AcDbArc
 50
269.7256218652933
 51
285.173319273939
  0
ARC
  5
21A6
330
A
100
AcDbEntity
  8
HEWI
  6
STANDARD
 62
     8
100
AcDbCircle
 10
-45.71517119852432
 20
1227.441411880608
 30
0.0
 40
16.73194228548113
100
AcDbArc
 50
179.7260908773323
 51
195.1718864031761
  0
ARC
  5
21A7
330
A
100
AcDbEntity
  8
HEWI
  6
STANDARD
 62
     8
100
AcDbCircle
 10
-45.69883382519695
 20
1227.442580713481
 30
0.0
 40
16.75159628359535
100
AcDbArc
 50
346.8740496036509
 51
15.15650678307379
  0
ARC
  5
21AC
330
A
100
AcDbEntity
  8
HEWI
  6
STANDARD
 62
     8
100
AcDbCircle
 10
-45.69993426780047
 20
1227.492829920389
 30
0.0
 40
16.69976199198083
100
AcDbArc
 50
84.5606173598755
 51
97.45581061034011
  0
ARC
  5
21AD
330
A
100
AcDbEntity
  8
HEWI
  6
STANDARD
 62
     8
100
AcDbCircle
 10
-45.69853788836847
 20
1227.512886164102
 30
0.0
 40
16.81988409832352
100
AcDbArc
 50
267.1736085026771
 51
279.9788421834208
  0
ARC
  5
21AE
330
A
100
AcDbEntity
  8
HEWI
  6
STANDARD
 62
     8
100
AcDbCircle
 10
-45.62768213808975
 20
1227.443998877046
 30
0.0
 40
16.81868574853261
100
AcDbArc
 50
177.1732520015406
 51
189.9792713710621
  0
ARC
  5
21B0
330
A
100
AcDbEntity
  8
HEWI
  6
STANDARD
 62
     8
100
AcDbCircle
 10
-45.72278501256367
 20
1227.444637324276
 30
0.0
 40
16.72373262052676
100
AcDbArc
 50
169.4332984315512
 51
182.3104396142581
  0
ARC
  5
21B1
330
A
100
AcDbEntity
  8
HEWI
  6
STANDARD
 62
     8
100
AcDbCircle
 10
-45.6996249385429
 20
1227.409736247831
 30
0.0
 40
16.71691312986947
100
AcDbArc
 50
259.4306607647459
 51
272.3130772810587
  0
ARC
  5
21B2
330
A
100
AcDbEntity
  8
HEWI
  6
STANDARD
 62
     8
100
AcDbCircle
 10
-45.69666456049207
 20
1227.447684280239
 30
0.0
 40
16.74434537942889
100
AcDbArc
 50
79.43971817089731
 51
94.87599917708935
  0
ARC
  5
21B7
330
A
100
AcDbEntity
  8
HEWI
  6
STANDARD
 62
     8
100
AcDbCircle
 10
-45.69214807392607
 20
1227.470765544818
 30
0.0
 40
16.77837571484731
100
AcDbArc
 50
249.1756310427105
 51
264.580082345124
  0
ARC
  5
21B8
330
A
100
AcDbEntity
  8
HEWI
  6
STANDARD
 62
     8
100
AcDbCircle
 10
-45.72249834713965
 20
1227.446442942061
 30
0.0
 40
16.77551968794559
100
AcDbArc
 50
339.1747536906398
 51
354.5816856225868
  0
ARC
  5
21BB
330
A
100
AcDbEntity
  8
HEWI
  6
STANDARD
 62
     8
100
AcDbCircle
 10
-45.69197427596781
 20
1227.441798897715
 30
0.0
 40
16.74545283972865
100
AcDbArc
 50
321.1491080459465
 51
352.0142089413255
  0
ARC
  5
21BC
330
A
100
AcDbEntity
  8
HEWI
  6
STANDARD
 62
     8
100
AcDbCircle
 10
-45.69759087448845
 20
1227.436138462568
 30
0.0
 40
16.74407727963663
100
AcDbArc
 50
238.8622424060566
 51
262.0137617010597
  0
ARC
  5
21BE
330
A
100
AcDbEntity
  8
HEWI
  6
STANDARD
 62
     8
100
AcDbCircle
 10
-45.68771641907733
 20
1227.436924340444
 30
0.0
 40
16.53924145116509
100
AcDbArc
 50
313.4328365668516
 51
339.1656309958066
  0
ARC
  5
21BF
330
A
100
AcDbEntity
  8
HEWI
  6
STANDARD
 62
     8
100
AcDbCircle
 10
-45.70458495770298
 20
1227.446908938223
 30
0.0
 40
16.54106768442307
100
AcDbArc
 50
133.4342814598768
 51
159.1641861027734
  0
ARC
  5
21C2
330
A
100
AcDbEntity
  8
HEWI
  6
STANDARD
 62
     8
100
AcDbCircle
 10
-45.69753483108683
 20
1227.441241714994
 30
0.0
 40
16.74847446895902
100
AcDbArc
 50
226.014593950467
 51
254.3027532000956
  0
ARC
  5
21C5
330
A
100
AcDbEntity
  8
HEWI
  6
STANDARD
 62
     8
100
AcDbCircle
 10
-45.70520641164283
 20
1227.44911388193
 30
0.0
 40
16.76034663783926
100
AcDbArc
 50
316.0191665785577
 51
328.8665331648081
  0
DIMENSION
  5
21C7
330
A
100
AcDbEntity
  8
0
  6
Continuous
100
AcDbDimension
280
     0
  2
*D5
 10
-62.67393492031849
 20
1443.716691850599
 30
0.0
 11
-379.6354522543028
 21
1443.716691850599
 31
0.0
 70
    32
  1
564 - 664
 71
     5
 42
633.9230346679686
 73
     0
 74
     0
 75
     0
  3
STANDARD
100
AcDbAlignedDimension
 13
-696.5969695882871
 23
1405.215960909148
 33
0.0
 14
-62.6739349203185
 24
1363.788025099156
 34
0.0
100
AcDbRotatedDimension
1001
ACAD
1000
DSTYLE
1002
{
1070
   340
1005
A59
1070
   271
1070
     0
1070
    41
1040
15.0
1070
   140
1040
20.0
1070
   147
1040
10.0
1070
   289
1070
     3
1002
}
  0
DIMENSION
  5
21DF
330
A
100
AcDbEntity
  8
HEWI
  6
Continuous
100
AcDbDimension
280
     0
  2
*D6
 10
-336.5969695882873
 20
1443.716691850599
 30
0.0
 11
-331.5969695882873
 21
1443.716691850599
 31
0.0
 70
    32
 71
     5
 42
10.00000000000005
 73
     0
 74
     0
 75
     0
  3
STANDARD
100
AcDbAlignedDimension
 13
-326.5969695882873
 23
1443.716691850599
 33
0.0
 14
-336.5969695882873
 24
1443.716691850599
 34
0.0
100
AcDbRotatedDimension
1001
ACAD
1000
DSTYLE
1002
{
1070
   289
1070
     3
1002
}
  0
LINE
  5
2233
330
A
100
AcDbEntity
  8
HEWI
  6
STANDARD
 62
     7
100
AcDbLine
 10
132.2848421109478
 20
1194.033428039725
 30
0.0
 11
121.4848428738871
 21
1194.033428039725
 31
0.0
  0
LINE
  5
2234
330
A
100
AcDbEntity
  8
HEWI
  6
STANDARD
 62
     7
100
AcDbLine
 10
132.2848421109478
 20
1260.833431091483
 30
0.0
 11
121.4848428738871
 21
1260.833431091483
 31
0.0
  0
LINE
  5
2236
330
A
100
AcDbEntity
  8
HEWI
  6
STANDARD
 62
     7
100
AcDbLine
 10
174.5848375333111
 20
1211.233440246757
 30
0.0
 11
133.4848505032818
 21
1211.233440246757
 31
0.0
  0
LINE
  5
2237
330
A
100
AcDbEntity
  8
HEWI
  6
STANDARD
 62
     7
100
AcDbLine
 10
174.5848375333111
 20
1243.433452453788
 30
0.0
 11
133.4848505032818
 21
1243.433452453788
 31
0.0
  0
LINE
  5
2238
330
A
100
AcDbEntity
  8
HEWI
  6
STANDARD
 62
     7
100
AcDbLine
 10
133.4848505032818
 20
1195.2333792116
 30
0.0
 11
133.4848505032818
 21
1259.633403625663
 31
0.0
  0
LINE
  5
2239
330
A
100
AcDbEntity
  8
HEWI
  6
STANDARD
 62
     7
100
AcDbLine
 10
121.4848428738871
 20
1194.033428039725
 30
0.0
 11
121.4848428738871
 21
1260.833431091483
 31
0.0
  0
LINE
  5
223A
330
A
100
AcDbEntity
  8
HEWI
  6
STANDARD
 62
     7
100
AcDbLine
 10
133.1338411343853
 20
1260.4824026491
 30
0.0
 11
132.9418474210064
 21
1260.637431945975
 31
0.0
  0
LINE
  5
2241
330
A
100
AcDbEntity
  8
HEWI
  6
STANDARD
 62
     7
100
AcDbLine
 10
132.9418474210064
 20
1260.637431945975
 30
0.0
 11
132.7268510831156
 21
1260.749431457694
 31
0.0
  0
LINE
  5
224C
330
A
100
AcDbEntity
  8
HEWI
  6
STANDARD
 62
     7
100
AcDbLine
 10
132.7268510831156
 20
1260.749431457694
 30
0.0
 11
132.5028520596783
 21
1260.813403930839
 31
0.0
  0
LINE
  5
2251
330
A
100
AcDbEntity
  8
HEWI
  6
STANDARD
 62
     7
100
AcDbLine
 10
132.5028520596783
 20
1260.813403930839
 30
0.0
 11
132.2848421109478
 21
1260.833431091483
 31
0.0
  0
LINE
  5
2252
330
A
100
AcDbEntity
  8
HEWI
  6
STANDARD
 62
     7
100
AcDbLine
 10
133.4848505032818
 20
1195.2333792116
 30
0.0
 11
133.4648424161236
 21
1195.015407409843
 31
0.0
  0
LINE
  5
225A
330
A
100
AcDbEntity
  8
HEWI
  6
STANDARD
 62
     7
100
AcDbLine
 10
132.5028520596783
 20
1194.053417053397
 30
0.0
 11
132.2848421109478
 21
1194.033428039725
 31
0.0
  0
LINE
  5
225B
330
A
100
AcDbEntity
  8
HEWI
  6
STANDARD
 62
     7
100
AcDbLine
 10
133.4848505032818
 20
1259.633403625663
 30
0.0
 11
133.4648424161236
 21
1259.851413574393
 31
0.0
  0
LINE
  5
2262
330
A
100
AcDbEntity
  8
HEWI
  6
STANDARD
 62
     7
100
AcDbLine
 10
133.4648424161236
 20
1259.851413574393
 30
0.0
 11
133.4008508694927
 21
1260.075412597831
 31
0.0
  0
LINE
  5
226E
330
A
100
AcDbEntity
  8
HEWI
  6
STANDARD
 62
     7
100
AcDbLine
 10
133.4008508694927
 20
1260.075412597831
 30
0.0
 11
133.2888513577738
 21
1260.290408935722
 31
0.0
  0
LINE
  5
2275
330
A
100
AcDbEntity
  8
HEWI
  6
STANDARD
 62
     7
100
AcDbLine
 10
133.2888513577738
 20
1260.290408935722
 30
0.0
 11
133.1338411343853
 21
1260.4824026491
 31
0.0
  0
ARC
  5
227C
330
A
100
AcDbEntity
  8
HEWI
  6
STANDARD
 62
     7
100
AcDbCircle
 10
132.2907046209717
 20
1195.229692510118
 30
0.0
 40
1.193531594137399
100
AcDbArc
 50
303.0629234002796
 51
349.6571089689408
  0
ARC
  5
227D
330
A
100
AcDbEntity
  8
HEWI
  6
STANDARD
 62
     7
100
AcDbCircle
 10
132.2842788646285
 20
1195.234035824932
 30
0.0
 40
1.20068102562411
100
AcDbArc
 50
280.4886659005043
 51
326.7900192386033
  0
LINE
  5
227E
330
A
100
AcDbEntity
  8
HEWI
  6
STANDARD
 62
     7
100
AcDbLine
 10
165.8018404019634
 20
1206.176448669608
 30
0.0
 11
165.2514177335064
 21
1206.433406677421
 31
0.0
  0
LINE
  5
227F
330
A
100
AcDbEntity
  8
HEWI
  6
STANDARD
 62
     7
100
AcDbLine
 10
195.8418375027935
 20
1218.651424255546
 30
0.0
 11
195.5848413480082
 21
1218.10073455828
 31
0.0
  0
LINE
  5
2280
330
A
100
AcDbEntity
  8
HEWI
  6
STANDARD
 62
     7
100
AcDbLine
 10
166.1188417447369
 20
1206.048427429374
 30
0.0
 11
165.9753328336039
 21
1206.113735046561
 31
0.0
  0
LINE
  5
2281
330
A
100
AcDbEntity
  8
HEWI
  6
STANDARD
 62
     7
100
AcDbLine
 10
195.9698587430279
 20
1218.96743377703
 30
0.0
 11
195.9026437772076
 21
1218.81965240496
 31
0.0
  0
LINE
  5
2282
330
A
100
AcDbEntity
  8
HEWI
  6
STANDARD
 62
     7
100
AcDbLine
 10
196.5448480618754
 20
1220.596385803397
 30
0.0
 11
195.8418375027935
 21
1218.651424255546
 31
0.0
  0
LINE
  5
2283
330
A
100
AcDbEntity
  8
HEWI
  6
STANDARD
 62
     7
100
AcDbLine
 10
167.7478509915629
 20
1205.473399963554
 30
0.0
 11
165.8018404019634
 21
1206.176448669608
 31
0.0
  0
LINE
  5
2284
330
A
100
AcDbEntity
  8
HEWI
  6
STANDARD
 62
     7
100
AcDbLine
 10
196.1906152737896
 20
1219.616313781913
 30
0.0
 11
195.9698587430279
 21
1218.96743377703
 31
0.0
  0
LINE
  5
2285
330
A
100
AcDbEntity
  8
HEWI
  6
STANDARD
 62
     7
100
AcDbLine
 10
166.7591196072857
 20
1205.830608215507
 30
0.0
 11
166.1188417447369
 21
1206.048427429374
 31
0.0
  0
LINE
  5
2286
330
A
100
AcDbEntity
  8
HEWI
  6
STANDARD
 62
     7
100
AcDbLine
 10
196.6968637479107
 20
1221.104427185233
 30
0.0
 11
196.613474465684
 21
1220.859294738944
 31
0.0
  0
LINE
  5
2287
330
A
100
AcDbEntity
  8
HEWI
  6
STANDARD
 62
     7
100
AcDbLine
 10
168.2558542264263
 20
1205.321422424491
 30
0.0
 11
168.0107217801371
 21
1205.404811706717
 31
0.0
  0
LINE
  5
2288
330
A
100
AcDbEntity
  8
HEWI
  6
STANDARD
 62
     7
100
AcDbLine
 10
169.8168474210064
 20
1204.933391418632
 30
0.0
 11
167.7478509915629
 21
1205.473399963554
 31
0.0
  0
LINE
  5
2289
330
A
100
AcDbEntity
  8
HEWI
  6
STANDARD
 62
     7
100
AcDbLine
 10
197.0848566067974
 20
1222.665401306327
 30
0.0
 11
196.5448480618754
 21
1220.596385803397
 31
0.0
  0
LINE
  5
228A
330
A
100
AcDbEntity
  8
HEWI
  6
STANDARD
 62
     7
100
AcDbLine
 10
197.2008615506449
 20
1223.248439636405
 30
0.0
 11
197.1318536771099
 21
1222.954936828788
 31
0.0
  0
LINE
  5
228B
330
A
100
AcDbEntity
  8
HEWI
  6
STANDARD
 62
     7
100
AcDbLine
 10
169.004831887559
 20
1205.14533599871
 30
0.0
 11
168.2558542264263
 21
1205.321422424491
 31
0.0
  0
LINE
  5
228C
330
A
100
AcDbEntity
  8
HEWI
  6
STANDARD
 62
     7
100
AcDbLine
 10
196.8729120267193
 20
1221.853404846366
 30
0.0
 11
196.6968637479107
 21
1221.104427185233
 31
0.0
  0
LINE
  5
228D
330
A
100
AcDbEntity
  8
HEWI
  6
STANDARD
 62
     7
100
AcDbLine
 10
170.3998476041117
 20
1204.817424621757
 30
0.0
 11
170.106363869981
 21
1204.886394348319
 31
0.0
  0
LINE
  5
228E
330
A
100
AcDbEntity
  8
HEWI
  6
STANDARD
 62
     7
100
AcDbLine
 10
171.9908433926861
 20
1204.580379333671
 30
0.0
 11
169.8168474210064
 21
1204.933391418632
 31
0.0
  0
LINE
  5
228F
330
A
100
AcDbEntity
  8
HEWI
  6
STANDARD
 62
     7
100
AcDbLine
 10
197.4378305447857
 20
1224.839397278007
 30
0.0
 11
197.0848566067974
 21
1222.665401306327
 31
0.0
  0
LINE
  5
2290
330
A
100
AcDbEntity
  8
HEWI
  6
STANDARD
 62
     7
100
AcDbLine
 10
197.4918466580668
 20
1225.366435852225
 30
0.0
 11
197.4538522733013
 21
1225.089946594413
 31
0.0
  0
LINE
  5
2291
330
A
100
AcDbEntity
  8
HEWI
  6
STANDARD
 62
     7
100
AcDbLine
 10
172.517843819932
 20
1204.526439514335
 30
0.0
 11
172.2413545621197
 21
1204.5644338991
 31
0.0
  0
LINE
  5
2292
330
A
100
AcDbEntity
  8
HEWI
  6
STANDARD
 62
     7
100
AcDbLine
 10
197.3182016385357
 20
1224.102550354178
 30
0.0
 11
197.2008615506449
 21
1223.248439636405
 31
0.0
  0
LINE
  5
2293
330
A
100
AcDbEntity
  8
HEWI
  6
STANDARD
 62
     7
100
AcDbLine
 10
171.2539964688578
 20
1204.700084533866
 30
0.0
 11
170.3998476041117
 21
1204.817424621757
 31
0.0
  0
LINE
  5
2294
330
A
100
AcDbEntity
  8
HEWI
  6
STANDARD
 62
     7
100
AcDbLine
 10
197.5818353665629
 20
1227.09243377703
 30
0.0
 11
197.4378305447857
 21
1224.839397278007
 31
0.0
  0
LINE
  5
2295
330
A
100
AcDbEntity
  8
HEWI
  6
STANDARD
 62
     7
100
AcDbLine
 10
174.2438417447369
 20
1204.436412658866
 30
0.0
 11
171.9908433926861
 21
1204.580379333671
 31
0.0
  0
LINE
  5
2296
330
A
100
AcDbEntity
  8
HEWI
  6
STANDARD
 62
     7
100
AcDbLine
 10
197.5848489774029
 20
1227.433391418632
 30
0.0
 11
197.5764184964457
 21
1227.246394958671
 31
0.0
  0
LINE
  5
2297
330
A
100
AcDbEntity
  8
HEWI
  6
STANDARD
 62
     7
100
AcDbLine
 10
173.5915666592874
 20
1204.478069153007
 30
0.0
 11
172.517843819932
 21
1204.526439514335
 31
0.0
  0
LINE
  5
2298
330
A
100
AcDbEntity
  8
HEWI
  6
STANDARD
 62
     7
100
AcDbLine
 10
197.5401407254496
 20
1226.440120544608
 30
0.0
 11
197.4918466580668
 21
1225.366435852225
 31
0.0
  0
LINE
  5
2299
330
A
100
AcDbEntity
  8
HEWI
  6
STANDARD
 62
     7
100
AcDbLine
 10
174.5848375333111
 20
1204.433437194999
 30
0.0
 11
174.3978219998638
 21
1204.441829528983
 31
0.0
  0
LINE
  5
229A
330
A
100
AcDbEntity
  8
HEWI
  6
STANDARD
 62
     7
100
AcDbLine
 10
197.5818353665629
 20
1227.09243377703
 30
0.0
 11
197.5008493436138
 21
1229.395442810233
 31
0.0
  0
LINE
  5
229B
330
A
100
AcDbEntity
  8
HEWI
  6
STANDARD
 62
     7
100
AcDbLine
 10
176.54685077794
 20
1204.517436828788
 30
0.0
 11
174.2438417447369
 21
1204.436412658866
 31
0.0
  0
LINE
  5
229C
330
A
100
AcDbEntity
  8
HEWI
  6
STANDARD
 62
     7
100
AcDbLine
 10
197.4944787991801
 20
1229.441829528983
 30
0.0
 11
197.4918466580668
 21
1229.500423278983
 31
0.0
  0
LINE
  5
229D
330
A
100
AcDbEntity
  8
HEWI
  6
STANDARD
 62
     7
100
AcDbLine
 10
176.1114793790142
 20
1204.50210174578
 30
0.0
 11
174.5848375333111
 21
1204.433437194999
 31
0.0
  0
LINE
  5
229E
330
A
100
AcDbEntity
  8
HEWI
  6
STANDARD
 62
     7
100
AcDbLine
 10
197.5848489774029
 20
1227.433391418632
 30
0.0
 11
197.5161462796488
 21
1228.960033264335
 31
0.0
  0
LINE
  5
229F
330
A
100
AcDbEntity
  8
HEWI
  6
STANDARD
 62
     7
100
AcDbLine
 10
176.6518503201763
 20
1204.526439514335
 30
0.0
 11
176.5932565701763
 21
1204.523769226249
 31
0.0
  0
LINE
  5
22A0
330
A
100
AcDbEntity
  8
HEWI
  6
STANDARD
 62
     7
100
AcDbLine
 10
178.8658433926861
 20
1204.83542999285
 30
0.0
 11
176.54685077794
 21
1204.517436828788
 31
0.0
  0
LINE
  5
22A1
330
A
100
AcDbEntity
  8
HEWI
  6
STANDARD
 62
     7
100
AcDbLine
 10
197.5008493436138
 20
1229.395442810233
 30
0.0
 11
197.1828561795513
 21
1231.714397278007
 31
0.0
  0
LINE
  5
22A2
330
A
100
AcDbEntity
  8
HEWI
  6
STANDARD
 62
     7
100
AcDbLine
 10
197.4918466580668
 20
1229.500423278983
 30
0.0
 11
197.2008615506449
 21
1231.618419494803
 31
0.0
  0
LINE
  5
22A3
330
A
100
AcDbEntity
  8
HEWI
  6
STANDARD
 62
     7
100
AcDbLine
 10
178.7698465359965
 20
1204.817424621757
 30
0.0
 11
176.6518503201763
 21
1204.526439514335
 31
0.0
  0
LINE
  5
22A4
330
A
100
AcDbEntity
  8
HEWI
  6
STANDARD
 62
     7
100
AcDbLine
 10
178.8192087186138
 20
1204.829021301444
 30
0.0
 11
178.7698465359965
 21
1204.817424621757
 31
0.0
  0
LINE
  5
22A5
330
A
100
AcDbEntity
  8
HEWI
  6
STANDARD
 62
     7
100
AcDbLine
 10
197.0452981961529
 20
1232.280040588554
 30
0.0
 11
196.6968637479107
 21
1233.762431945975
 31
0.0
  0
LINE
  5
22A6
330
A
100
AcDbEntity
  8
HEWI
  6
STANDARD
 62
     7
100
AcDbLine
 10
180.9138399136822
 20
1205.321422424491
 30
0.0
 11
179.4314676297465
 21
1204.972911682304
 31
0.0
  0
LINE
  5
22A7
330
A
100
AcDbEntity
  8
HEWI
  6
STANDARD
 62
     7
100
AcDbLine
 10
197.2008615506449
 20
1231.618419494803
 30
0.0
 11
197.1892267239849
 21
1231.667781677421
 31
0.0
  0
LINE
  5
22A8
330
A
100
AcDbEntity
  8
HEWI
  6
STANDARD
 62
     7
100
AcDbLine
 10
197.1828561795513
 20
1231.714397278007
 30
0.0
 11
196.6238504422465
 21
1234.013439026053
 31
0.0
  0
LINE
  5
22A9
330
A
100
AcDbEntity
  8
HEWI
  6
STANDARD
 62
     7
100
AcDbLine
 10
181.1648469937603
 20
1205.394435730155
 30
0.0
 11
178.8658433926861
 21
1204.83542999285
 31
0.0
  0
LINE
  5
22AA
330
A
100
AcDbEntity
  8
HEWI
  6
STANDARD
 62
     7
100
AcDbLine
 10
196.3462930691996
 20
1234.792857971366
 30
0.0
 11
195.9698587430279
 21
1235.899425354179
 31
0.0
  0
LINE
  5
22AB
330
A
100
AcDbEntity
  8
HEWI
  6
STANDARD
 62
     7
100
AcDbLine
 10
181.0371881497662
 20
1205.363384094413
 30
0.0
 11
180.9138399136822
 21
1205.321422424491
 31
0.0
  0
LINE
  5
22AC
330
A
100
AcDbEntity
  8
HEWI
  6
STANDARD
 62
     7
100
AcDbLine
 10
183.0508523953715
 20
1206.048427429374
 30
0.0
 11
181.9443231595318
 21
1205.671993103202
 31
0.0
  0
LINE
  5
22AD
330
A
100
AcDbEntity
  8
HEWI
  6
STANDARD
 62
     7
100
AcDbLine
 10
196.6968637479107
 20
1233.762431945975
 30
0.0
 11
196.6549020779888
 21
1233.8857229616
 31
0.0
  0
LINE
  5
22AE
330
A
100
AcDbEntity
  8
HEWI
  6
STANDARD
 62
     7
100
AcDbLine
 10
183.4058481229107
 20
1206.192394104178
 30
0.0
 11
181.1648469937603
 21
1205.394435730155
 31
0.0
  0
LINE
  5
22AF
330
A
100
AcDbEntity
  8
HEWI
  6
STANDARD
 62
     7
100
AcDbLine
 10
196.6238504422465
 20
1234.013439026053
 30
0.0
 11
195.8258539212504
 21
1236.254421081717
 31
0.0
  0
LINE
  5
22B0
330
A
100
AcDbEntity
  8
HEWI
  6
STANDARD
 62
     7
100
AcDbLine
 10
195.9698587430279
 20
1235.899425354179
 30
0.0
 11
195.8887582791607
 21
1236.077724304374
 31
0.0
  0
LINE
  5
22B1
330
A
100
AcDbEntity
  8
HEWI
  6
STANDARD
 62
     7
100
AcDbLine
 10
183.2283121121685
 20
1206.12922271746
 30
0.0
 11
183.0508523953715
 21
1206.048427429374
 31
0.0
  0
LINE
  5
22B2
330
A
100
AcDbEntity
  8
HEWI
  6
STANDARD
 62
     7
100
AcDbLine
 10
195.8258539212504
 20
1236.254421081717
 30
0.0
 11
195.5848413480082
 21
1236.759715881522
 31
0.0
  0
LINE
  5
22B3
330
A
100
AcDbEntity
  8
HEWI
  6
STANDARD
 62
     7
100
AcDbLine
 10
183.9109140408793
 20
1206.433406677421
 30
0.0
 11
183.4058481229107
 21
1206.192394104178
 31
0.0
  0
ARC
  5
22B4
330
A
100
AcDbEntity
  8
HEWI
  6
STANDARD
 62
     7
100
AcDbCircle
 10
174.5848375333111
 20
1227.333446350272
 30
0.0
 40
16.10000610351551
100
AcDbArc
 50
270.0
 51
90.0
  0
LINE
  5
22B5
330
A
100
AcDbEntity
  8
HEWI
  6
STANDARD
 62
     7
100
AcDbLine
 10
153.5848527921001
 20
1243.433452453788
 30
0.0
 11
153.5848527921001
 21
1243.633418884452
 31
0.0
  0
LINE
  5
22B6
330
A
100
AcDbEntity
  8
HEWI
  6
STANDARD
 62
     7
100
AcDbLine
 10
149.5848375333111
 20
1243.433452453788
 30
0.0
 11
149.5848375333111
 21
1244.835187819251
 31
0.0
  0
ENDSEC
  0
SECTION
  2
OBJECTS
  0
DICTIONARY
  5
19
330
0
100
AcDbDictionary
281
     1
  3
ACAD_CIP_PREVIOUS_PRODUCT_INFO
350
6B7
  3
ACAD_COLOR
350
696
  3
ACAD_DETAILVIEWSTYLE
350
6AF
  3
ACAD_GROUP
350
1A
  3
ACAD_LAYOUT
350
6B1
  3
ACAD_MATERIAL
350
664
  3
ACAD_MLEADERSTYLE
350
6AB
  3
ACAD_MLINESTYLE
350
1B
  3
ACAD_PLOTSETTINGS
350
6B2
  3
ACAD_PLOTSTYLENAME
350
662
  3
ACAD_SCALELIST
350
699
  3
ACAD_SECTIONVIEWSTYLE
350
6AD
  3
ACAD_TABLESTYLE
350
697
  3
ACAD_VISUALSTYLE
350
67D
  3
ACDB_RECOMPOSE_DATA
350
2489
  3
AcDbVariableDictionary
350
9A8
  3
AcDsDecomposeData
350
248F
  0
DICTIONARY
  5
6CF
330
2
100
AcDbDictionary
280
     1
281
     1
  3
ACAD_LAYERSTATES
360
6D0
  0
DICTIONARY
  5
6B8
330
14
100
AcDbDictionary
280
     1
281
     1
  3
ADSK_XREC_LAYER_RECONCILED
360
6B9
  0
DICTIONARY
  5
6BA
330
1D
100
AcDbDictionary
280
     1
281
     1
  3
ADSK_XREC_LAYER_RECONCILED
360
6BB
  0
DICTIONARY
  5
1C0D
330
A
100
AcDbDictionary
280
     1
281
     1
  3
ACAD_SORTENTS
360
1C0E
  0
XRECORD
  5
6B7
102
{ACAD_REACTORS
330
19
102
}
330
19
100
AcDbXrecord
280
     1
300
ACDLT
300
2016
300
ACDLT_F_S
  0
DICTIONARY
  5
696
102
{ACAD_REACTORS
330
19
102
}
330
19
100
AcDbDictionary
281
     1
  0
DICTIONARY
  5
6AF
102
{ACAD_REACTORS
330
19
102
}
330
19
100
AcDbDictionary
281
     1
  3
Imperial24
350
6B0
  3
Metric50
350
6D2
  0
DICTIONARY
  5
1A
102
{ACAD_REACTORS
330
19
102
}
330
19
100
AcDbDictionary
281
     1
  0
DICTIONARY
  5
6B1
102
{ACAD_REACTORS
330
19
102
}
330
19
100
AcDbDictionary
281
     1
  3
Layout1
350
6B4
  3
Model
350
6B3
  0
DICTIONARY
  5
664
102
{ACAD_REACTORS
330
19
102
}
330
19
100
AcDbDictionary
281
     1
  3
ByBlock
350
66D
  3
ByLayer
350
665
  3
Global
350
675
  0
DICTIONARY
  5
6AB
102
{ACAD_REACTORS
330
19
102
}
330
19
100
AcDbDictionary
281
     1
  3
Standard
350
6AC
  0
DICTIONARY
  5
1B
102
{ACAD_REACTORS
330
19
102
}
330
19
100
AcDbDictionary
281
     1
  3
STANDARD
350
1C
  0
DICTIONARY
  5
6B2
102
{ACAD_REACTORS
330
19
102
}
330
19
100
AcDbDictionary
281
     1
  0
ACDBDICTIONARYWDFLT
  5
662
102
{ACAD_REACTORS
330
19
102
}
330
19
100
AcDbDictionary
281
     1
  3
Normal
350
663
100
AcDbDictionaryWithDefault
340
663
  0
DICTIONARY
  5
699
102
{ACAD_REACTORS
330
19
102
}
330
19
100
AcDbDictionary
281
     1
  3
A0
350
69A
  3
A1
350
69B
  3
A2
350
69C
  3
A3
350
69D
  3
A4
350
69E
  3
A5
350
69F
  3
A6
350
6A0
  3
A7
350
6A1
  3
A8
350
6A2
  3
A9
350
6A3
  3
B0
350
6A4
  3
B1
350
6A5
  3
B2
350
6A6
  3
B3
350
6A7
  3
B4
350
6A8
  3
B5
350
6A9
  3
B6
350
6AA
  0
DICTIONARY
  5
6AD
102
{ACAD_REACTORS
330
19
102
}
330
19
100
AcDbDictionary
281
     1
  3
Imperial24
350
6AE
  3
Metric50
350
6D1
  0
DICTIONARY
  5
697
102
{ACAD_REACTORS
330
19
102
}
330
19
100
AcDbDictionary
281
     1
  3
Standard
350
698
  0
DICTIONARY
  5
67D
102
{ACAD_REACTORS
330
19
102
}
330
19
100
AcDbDictionary
281
     1
  3
2dWireframe
350
683
  3
Basic
350
682
  3
Brighten
350
689
  3
ColorChange
350
68D
  3
Conceptual
350
686
  3
Dim
350
688
  3
EdgeColorOff
350
695
  3
Facepattern
350
68C
  3
Flat
350
67E
  3
FlatWithEdges
350
67F
  3
Gouraud
350
680
  3
GouraudWithEdges
350
681
  3
Hidden
350
685
  3
JitterOff
350
693
  3
Linepattern
350
68B
  3
OverhangOff
350
694
  3
Realistic
350
687
  3
Shaded
350
692
  3
Shaded with edges
350
691
  3
Shades of Gray
350
68E
  3
Sketchy
350
68F
  3
Thicken
350
68A
  3
Wireframe
350
684
  3
X-Ray
350
690
  0
XRECORD
  5
2489
102
{ACAD_REACTORS
330
19
102
}
330
19
100
AcDbXrecord
280
     1
 90
        1
330
698
330
21C7
330
21DF
  0
DICTIONARY
  5
9A8
102
{ACAD_REACTORS
330
19
102
}
330
19
100
AcDbDictionary
281
     1
  3
CANNOSCALE
350
9AE
  3
CMLEADERSTYLE
350
9AA
  3
CTABLESTYLE
350
9A9
  3
CVIEWDETAILSTYLE
350
9AB
  3
CVIEWSECTIONSTYLE
350
9AC
  3
LAYEREVAL
350
9B0
  3
LAYERNOTIFY
350
9B1
  3
LIGHTINGUNITS
350
9AF
  3
MSLTSCALE
350
9AD
  0
DICTIONARY
  5
248F
102
{ACAD_REACTORS
330
19
102
}
330
19
100
AcDbDictionary
281
     1
  3
AcDsRecords
350
2491
  3
AcDsSchemas
350
2490
1001
ACAD
1070
     2
  0
DICTIONARY
  5
6D0
102
{ACAD_REACTORS
330
6CF
102
}
330
6CF
100
AcDbDictionary
281
     1
  0
XRECORD
  5
6B9
102
{ACAD_REACTORS
330
6B8
102
}
330
6B8
100
AcDbXrecord
280
     1
290
     1
  0
XRECORD
  5
6BB
102
{ACAD_REACTORS
330
6BA
102
}
330
6BA
100
AcDbXrecord
280
     1
290
     1
  0
SORTENTSTABLE
  5
1C0E
102
{ACAD_REACTORS
330
1C0D
102
}
330
1C0D
100
AcDbSortentsTable
330
A
331
4B6
  5
4BD
331
14C
  5
14C
331
148
  5
148
331
836
  5
839
331
530
  5
53E
331
4AE
  5
4AF
331
2AB
  5
2AB
331
4E9
  5
4EE
331
832
  5
835
331
52C
  5
533
331
4AA
  5
4AB
331
82E
  5
831
331
528
  5
52B
331
1C17
  5
1C19
331
1C56
  5
1C58
331
5D6
  5
5DB
331
1C13
  5
1C15
331
1CEC
  5
1CEE
331
1C52
  5
1C54
331
65C
  5
82F
331
1C8D
  5
1C8F
331
1C4E
  5
1C50
331
1CE8
  5
1CEA
331
202E
  5
2030
331
658
  5
65C
331
1C89
  5
1C8B
331
1C4A
  5
1C4C
331
20A4
  5
20A6
331
211E
  5
2120
331
202A
  5
202C
331
1CE0
  5
1CE2
331
219C
  5
219E
331
211A
  5
211C
331
20DF
  5
20E1
331
2065
  5
2067
331
2022
  5
2024
331
21DF
  5
2234
331
2262
  5
227C
331
2116
  5
2118
331
209C
  5
209E
331
2061
  5
2063
331
2098
  5
209A
331
2112
  5
2114
331
229D
  5
22A0
331
2194
  5
2196
331
2299
  5
229C
331
225A
  5
226E
331
2190
  5
2192
331
29F
  5
29F
331
28
  5
28
331
1C0F
  5
530
331
520
  5
525
331
49E
  5
49E
331
293
  5
293
331
611
  5
627
331
1C85
  5
1C87
331
1E97
  5
1E99
331
1C46
  5
1C48
331
909
  5
913
331
650
  5
65B
331
60D
  5
61A
331
1C42
  5
1C44
331
1C81
  5
1C83
331
609
  5
60C
331
64C
  5
658
331
1C3E
  5
1C40
331
1C7D
  5
1C7F
331
205D
  5
205F
331
648
  5
64B
331
1C79
  5
1C7B
331
1CB4
  5
1CDB
331
1C3A
  5
1C3C
331
2059
  5
205B
331
2094
  5
2096
331
210E
  5
2110
331
20D3
  5
20D5
331
1CB0
  5
1CB2
331
1FEE
  5
1FF0
331
2055
  5
2057
331
2295
  5
2298
331
210A
  5
210C
331
20CF
  5
20D1
331
1FEA
  5
1FEC
331
20CB
  5
20CD
331
208C
  5
208E
331
21C7
  5
2233
331
2106
  5
2108
331
214D
  5
214F
331
2291
  5
2294
331
2252
  5
2262
331
2188
  5
218A
331
2088
  5
208A
331
228D
  5
2290
331
2184
  5
2186
331
2149
  5
214B
331
2289
  5
228C
331
496
  5
496
331
492
  5
492
331
4D1
  5
4D2
331
905
  5
908
331
48E
  5
48E
331
48A
  5
48A
331
901
  5
904
331
50C
  5
512
331
4C9
  5
4CA
331
605
  5
609
331
8FD
  5
900
331
601
  5
607
331
1C75
  5
1C77
331
1C36
  5
1C38
331
640
  5
647
331
1C71
  5
1C73
331
1CAC
  5
1CAE
331
1C32
  5
1C34
331
634
  5
637
331
5F1
  5
600
331
1C2E
  5
1C30
331
1C6D
  5
1C6F
331
1FE6
  5
1FE8
331
1CA8
  5
1CAA
331
20C7
  5
20C9
331
630
  5
633
331
1FE2
  5
1FE4
331
1CA4
  5
1CA6
331
1C2A
  5
1C2C
331
1C69
  5
1C6B
331
20FE
  5
2100
331
20C3
  5
20C5
331
21BF
  5
21C1
331
1CA0
  5
1CA2
331
1FDE
  5
1FE0
331
2045
  5
2047
331
20BF
  5
20C1
331
2139
  5
213B
331
2080
  5
2082
331
21BB
  5
21BD
331
2285
  5
2288
331
217C
  5
217E
331
1FDA
  5
1FDC
331
20F6
  5
20F8
331
207C
  5
207E
331
2041
  5
2043
331
2281
  5
2284
331
21B7
  5
21B9
331
2078
  5
207A
331
227D
  5
2280
331
2174
  5
2176
331
223A
  5
2251
331
22B4
  5
2239
331
22B0
  5
22B3
331
15F
  5
15F
331
4C5
  5
4C6
331
15B
  5
15B
331
4FC
  5
509
331
157
  5
157
331
8E5
  5
8FE
331
4F8
  5
4FE
331
4BD
  5
4C3
331
153
  5
153
331
4F4
  5
4F7
331
5ED
  5
5F1
331
83D
  5
8E3
331
1C26
  5
1C28
331
1CFF
  5
1D01
331
1C65
  5
1C67
331
839
  5
83C
331
596
  5
5BC
331
628
  5
630
331
1C22
  5
1C24
331
1C9C
  5
1C9E
331
1CFB
  5
1CFD
331
1C61
  5
1C63
331
5E1
  5
5F0
331
1CF7
  5
1CF9
331
1FD6
  5
1FD8
331
1C98
  5
1C9A
331
1C1E
  5
1C20
331
1C5D
  5
1C5F
331
1FD2
  5
1FD4
331
1C94
  5
1C96
331
1CF3
  5
1CF6
331
1C1A
  5
1C1C
331
1C59
  5
1C5B
331
2074
  5
2076
331
212D
  5
212F
331
20EE
  5
20F0
331
20B3
  5
20B5
331
1FCE
  5
1FD0
331
1C90
  5
1C92
331
2070
  5
2072
331
2236
  5
2238
331
2275
  5
227E
331
20EA
  5
20EC
331
20AF
  5
20B1
331
2125
  5
2127
331
20AB
  5
20AD
331
22AC
  5
22AF
331
21A7
  5
21A9
331
20E2
  5
20E4
331
2068
  5
206A
331
22A8
  5
22AB
331
2164
  5
2166
331
21A3
  5
21A5
331
22A4
  5
22A7
331
2160
  5
2162
331
22A0
  5
22A3
331
14F
  5
14F
331
533
  5
540
331
4B1
  5
4B3
331
835
  5
838
331
52F
  5
538
331
4AD
  5
4AE
331
2AA
  5
2AA
331
4E8
  5
4E9
331
831
  5
834
331
52B
  5
52F
331
4A9
  5
4AA
331
5DD
  5
5E1
331
5D9
  5
5DF
331
1C16
  5
1C18
331
1CEF
  5
1CF3
331
1C55
  5
1C57
331
5D5
  5
5D9
331
1C12
  5
1C14
331
1C51
  5
1C53
331
5D1
  5
5D6
331
65B
  5
82E
331
1C8C
  5
1C8E
331
1CE7
  5
1CE9
331
1C4D
  5
1C4F
331
20A7
  5
20A9
331
202D
  5
202F
331
1C88
  5
1C8A
331
1E9A
  5
1E9C
331
1C49
  5
1C4B
331
20A3
  5
20A5
331
211D
  5
211F
331
219F
  5
21A1
331
2119
  5
211B
331
20DE
  5
20E0
331
219B
  5
219D
331
2060
  5
2062
331
2115
  5
2117
331
2021
  5
2023
331
2111
  5
2113
331
229C
  5
229F
331
2193
  5
2195
331
2298
  5
229B
331
586
  5
5A1
331
527
  5
52A
331
4A5
  5
4A9
331
296
  5
296
331
27
  5
27
331
4E0
  5
4E8
331
4A1
  5
4A3
331
49D
  5
49D
331
610
  5
61F
331
1C84
  5
1C86
331
1CDF
  5
1CE1
331
1C45
  5
1C47
331
908
  5
90D
331
60C
  5
611
331
1C41
  5
1C43
331
1C80
  5
1C82
331
608
  5
60B
331
64B
  5
650
331
1C7C
  5
1C7E
331
1C3D
  5
1C3F
331
2005
  5
2007
331
1C78
  5
1C7A
331
1CB3
  5
1CDA
331
1C39
  5
1C3B
331
2058
  5
205A
331
2093
  5
2095
331
20D2
  5
20D4
331
218F
  5
2191
331
1FED
  5
1FEF
331
2054
  5
2056
331
2294
  5
2297
331
2109
  5
210B
331
2150
  5
2152
331
1FE9
  5
1FEB
331
20CA
  5
20CC
331
208B
  5
208D
331
2105
  5
2107
331
2290
  5
2293
331
2251
  5
225B
331
2187
  5
2189
331
214C
  5
214E
331
21C2
  5
21C4
331
228C
  5
228F
331
2183
  5
2185
331
2148
  5
214A
331
2288
  5
228B
331
495
  5
495
331
282
  5
282
331
513
  5
520
331
562
  5
58D
331
904
  5
907
331
900
  5
903
331
489
  5
489
331
4C8
  5
4C9
331
647
  5
64A
331
5BD
  5
5D0
331
604
  5
608
331
643
  5
648
331
600
  5
605
331
1C74
  5
1C76
331
1CAF
  5
1CB1
331
1C35
  5
1C37
331
637
  5
646
331
5F4
  5
601
331
1CAB
  5
1CAD
331
1C31
  5
1C33
331
1C70
  5
1C72
331
633
  5
636
331
5A9
  5
5C4
331
5F0
  5
5F7
331
1FE5
  5
1FE7
331
1CA7
  5
1CA9
331
1C2D
  5
1C2F
331
1C6C
  5
1C6E
331
20C6
  5
20C8
331
2087
  5
2089
331
1C29
  5
1C2B
331
1CA3
  5
1CA5
331
1C68
  5
1C6A
331
1FE1
  5
1FE3
331
2083
  5
2085
331
20FD
  5
20FF
331
2048
  5
204A
331
21BE
  5
21C0
331
1FDD
  5
1FDF
331
2044
  5
2046
331
20BE
  5
20C0
331
2138
  5
213A
331
207F
  5
2081
331
2284
  5
2287
331
217B
  5
217D
331
1FD9
  5
1FDB
331
2280
  5
2283
331
2241
  5
2252
331
207B
  5
207D
331
2130
  5
2132
331
227C
  5
227F
331
2173
  5
2175
331
21B2
  5
21B4
331
2239
  5
224C
331
22B3
  5
22B6
331
4C4
  5
4C5
331
455
  5
455
331
4F7
  5
4FC
331
53E
  5
54D
331
8E4
  5
8FD
331
4F3
  5
4F4
331
62F
  5
632
331
983
  5
124F
331
5A1
  5
5BD
331
1C25
  5
1C27
331
1C9F
  5
1CA1
331
1CFE
  5
1D00
331
1C64
  5
1C66
331
83C
  5
83F
331
627
  5
62F
331
1C21
  5
1C23
331
1C9B
  5
1C9D
331
1CFA
  5
1CFC
331
1C60
  5
1C62
331
838
  5
83B
331
5E0
  5
5EE
331
1CF6
  5
1CF8
331
1FD5
  5
1FD7
331
1C97
  5
1C99
331
1C1D
  5
1C1F
331
1C5C
  5
1C5E
331
2077
  5
2079
331
1C93
  5
1C95
331
1CF2
  5
1CF5
331
1C19
  5
1C1B
331
1C58
  5
1C5A
331
2038
  5
203A
331
2073
  5
2075
331
212C
  5
212E
331
20ED
  5
20EF
331
20B2
  5
20B4
331
21AE
  5
21B0
331
216F
  5
2171
331
1FCD
  5
1FCF
331
2034
  5
2036
331
2128
  5
212A
331
22AF
  5
22B2
331
20E9
  5
20EB
331
206F
  5
2071
331
2124
  5
2126
331
20AA
  5
20AC
331
21A6
  5
21A8
331
22AB
  5
22AE
331
2167
  5
2169
331
20E1
  5
20E3
331
22A7
  5
22AA
331
2163
  5
2165
331
22A3
  5
22A6
331
14E
  5
14E
331
36
  5
36
331
4EF
  5
4F1
331
58D
  5
5A9
331
4AC
  5
4AD
331
2A9
  5
2A9
331
834
  5
837
331
52A
  5
52C
331
830
  5
833
331
61F
  5
62E
331
1C15
  5
1C17
331
1CEE
  5
1CF2
331
1C54
  5
1C56
331
5D4
  5
5D7
331
1C11
  5
1C13
331
1C8F
  5
1C91
331
1CEA
  5
1CED
331
1C50
  5
1C52
331
5D0
  5
5D5
331
1C8B
  5
1C8D
331
1CE6
  5
1CE8
331
1C4C
  5
1C4E
331
20A6
  5
20A8
331
202C
  5
202E
331
1E99
  5
1E9B
331
1C48
  5
1C4A
331
2067
  5
2069
331
211C
  5
211E
331
219E
  5
21A0
331
20DD
  5
20DF
331
2063
  5
2065
331
2118
  5
211A
331
219A
  5
219C
331
215F
  5
2161
331
229F
  5
22A2
331
2114
  5
2116
331
209A
  5
209C
331
229B
  5
229E
331
2A
  5
2A
331
26
  5
26
331
4A0
  5
4A1
331
295
  5
295
331
22
  5
22
331
4DB
  5
4E0
331
51E
  5
521
331
49C
  5
49C
331
5CC
  5
5D4
331
1C87
  5
1C89
331
1C83
  5
1C85
331
1CDE
  5
1CE0
331
1C44
  5
1C46
331
60B
  5
610
331
64E
  5
659
331
5C4
  5
5D1
331
1C7F
  5
1C81
331
1CDA
  5
1CDC
331
1C40
  5
1C42
331
64A
  5
64E
331
1C7B
  5
1C7D
331
1C3C
  5
1C3E
331
1CB2
  5
1CB4
331
1C38
  5
1C3A
331
2092
  5
2094
331
20D1
  5
20D3
331
2297
  5
229A
331
2153
  5
2155
331
1FEC
  5
1FEE
331
20CD
  5
20CF
331
2108
  5
210A
331
214F
  5
2151
331
2293
  5
2296
331
218A
  5
218C
331
1FE8
  5
1FEA
331
20C9
  5
20CB
331
208A
  5
208C
331
21C5
  5
21C7
331
2104
  5
2106
331
228F
  5
2292
331
2186
  5
2188
331
214B
  5
214D
331
228B
  5
228E
331
224C
  5
225A
331
281
  5
281
331
512
  5
51E
331
907
  5
90A
331
54D
  5
586
331
4CB
  5
4D1
331
607
  5
60A
331
1BFD
  5
1C10
331
903
  5
906
331
488
  5
488
331
646
  5
649
331
5BC
  5
5CC
331
1C77
  5
1C79
331
8FF
  5
902
331
5F7
  5
604
331
1C73
  5
1C75
331
1CAE
  5
1CB0
331
1C34
  5
1C36
331
636
  5
643
331
1C6F
  5
1C71
331
1CAA
  5
1CAC
331
1C30
  5
1C32
331
204F
  5
2051
331
632
  5
635
331
1FE4
  5
1FE6
331
1CA6
  5
1CA8
331
1C2C
  5
1C2E
331
1C6B
  5
1C6D
331
2086
  5
2088
331
1D01
  5
1D03
331
1C28
  5
1C2A
331
1CA2
  5
1CA4
331
1FE0
  5
1FE2
331
2047
  5
2049
331
213B
  5
213D
331
2287
  5
228A
331
20FC
  5
20FE
331
20C1
  5
20C3
331
1FDC
  5
1FDE
331
2283
  5
2286
331
20BD
  5
20BF
331
1FD8
  5
1FDA
331
227F
  5
2282
331
207A
  5
207C
331
21B1
  5
21B3
331
22B6
  5
1C11
331
2172
  5
2174
331
2238
  5
2241
331
22B2
  5
22B5
331
4C7
  5
4C8
331
4FE
  5
50C
331
4C3
  5
4C4
331
454
  5
454
331
8E3
  5
8E6
331
4F2
  5
4F3
331
62E
  5
631
331
1C67
  5
1C69
331
982
  5
985
331
83F
  5
8E5
331
1C24
  5
1C26
331
1C9E
  5
1CA0
331
1CFD
  5
1CFF
331
1C63
  5
1C65
331
83B
  5
83E
331
1C20
  5
1C22
331
1C5F
  5
1C61
331
1C9A
  5
1C9C
331
1CF9
  5
1CFB
331
1FD4
  5
1FD6
331
1C96
  5
1C98
331
1CF5
  5
1CF7
331
1C1C
  5
1C1E
331
1C5B
  5
1C5D
331
2076
  5
2078
331
212F
  5
2131
331
1C18
  5
1C1A
331
1C92
  5
1C94
331
1FD0
  5
1FD2
331
2037
  5
2039
331
2072
  5
2074
331
212B
  5
212D
331
20EC
  5
20EE
331
20B1
  5
20B3
331
21AD
  5
21AF
331
216E
  5
2170
331
1FCC
  5
1FCE
331
2033
  5
2035
331
2127
  5
2129
331
22AE
  5
22B1
331
2234
  5
2237
331
20E8
  5
20EA
331
206E
  5
2070
331
20E4
  5
20E6
331
20A9
  5
20AB
331
22AA
  5
22AD
331
2166
  5
2168
331
21A5
  5
21A7
331
20E0
  5
20E2
331
22A6
  5
22A9
331
21A1
  5
21A3
331
22A2
  5
22A5
331
14D
  5
14D
331
4B3
  5
4B6
331
35
  5
35
331
4EE
  5
4EF
331
4AF
  5
4B1
331
837
  5
83A
331
4AB
  5
4AC
331
5DF
  5
5ED
331
833
  5
836
331
5DB
  5
5E0
331
1C57
  5
1C59
331
82F
  5
832
331
5D7
  5
5DD
331
1C14
  5
1C16
331
1CED
  5
1CEF
331
1C53
  5
1C55
331
61A
  5
628
331
65D
  5
830
331
1C10
  5
1C12
331
1C4F
  5
1C51
331
1C8E
  5
1C90
331
1CE9
  5
1CEC
331
659
  5
65D
331
1C8A
  5
1C8C
331
1CE5
  5
1CE7
331
1C4B
  5
1C4D
331
20A5
  5
20A7
331
202B
  5
202D
331
1E98
  5
1E9A
331
2066
  5
2068
331
211B
  5
211D
331
20DC
  5
20DE
331
2062
  5
2064
331
2117
  5
2119
331
215E
  5
2160
331
229E
  5
22A1
331
2099
  5
209B
331
229A
  5
229D
331
225B
  5
2275
331
525
  5
528
331
4A3
  5
4A5
331
29
  5
29
331
25
  5
25
331
521
  5
527
331
49F
  5
49F
331
294
  5
294
331
4DA
  5
4DB
331
21
  5
21
331
1C0C
  5
4F5
331
568
  5
596
331
1C86
  5
1C88
331
1C47
  5
1C49
331
1C82
  5
1C84
331
1CDD
  5
1CDF
331
1C43
  5
1C45
331
90A
  5
984
331
60A
  5
60D
331
1C3F
  5
1C41
331
1C7E
  5
1C80
331
205E
  5
2060
331
649
  5
64C
331
1C7A
  5
1C7C
331
1C3B
  5
1C3D
331
2095
  5
2097
331
210F
  5
2111
331
1CB1
  5
1CB3
331
2056
  5
2058
331
20D0
  5
20D2
331
2091
  5
2093
331
2296
  5
2299
331
210B
  5
210D
331
2152
  5
2154
331
1FEF
  5
1FF1
331
2107
  5
2109
331
20CC
  5
20CE
331
2292
  5
2295
331
2189
  5
218B
331
1FEB
  5
1FED
331
20C8
  5
20CA
331
2089
  5
208B
331
228E
  5
2291
331
2185
  5
2187
331
214A
  5
214C
331
228A
  5
228D
331
497
  5
497
331
4D2
  5
4DA
331
906
  5
909
331
48B
  5
48B
331
902
  5
905
331
50D
  5
513
331
54C
  5
568
331
4CA
  5
4CB
331
160
  5
160
331
1C76
  5
1C78
331
1C37
  5
1C39
331
8FE
  5
901
331
509
  5
50D
331
1C72
  5
1C74
331
1CAD
  5
1CAF
331
1C33
  5
1C35
331
635
  5
640
331
1CA9
  5
1CAB
331
1FE7
  5
1FE9
331
1C2F
  5
1C31
331
1C6E
  5
1C70
331
631
  5
634
331
20FF
  5
2101
331
20C4
  5
20C6
331
1FE3
  5
1FE5
331
1CA5
  5
1CA7
331
1C2B
  5
1C2D
331
1C6A
  5
1C6C
331
1D00
  5
1D02
331
2046
  5
2048
331
2081
  5
2083
331
213A
  5
213C
331
20FB
  5
20FD
331
20C0
  5
20C2
331
2286
  5
2289
331
21BC
  5
21BE
331
1FDF
  5
1FE1
331
1CA1
  5
1CA3
331
2042
  5
2044
331
20F7
  5
20F9
331
207D
  5
207F
331
2282
  5
2285
331
21B8
  5
21BA
331
1FDB
  5
1FDD
331
2079
  5
207B
331
2175
  5
2177
331
227E
  5
2281
331
21B0
  5
21B2
331
22B5
  5
4A0
331
22B1
  5
22B4
331
487
  5
487
331
4C6
  5
4C7
331
15C
  5
15C
331
158
  5
158
331
8E6
  5
8FF
331
540
  5
562
331
154
  5
154
331
4F5
  5
4F8
331
5EE
  5
5F4
331
83E
  5
8E4
331
4F1
  5
4F2
331
538
  5
54C
331
1C27
  5
1C29
331
1C66
  5
1C68
331
83A
  5
83D
331
1C23
  5
1C25
331
1C9D
  5
1C9F
331
1CFC
  5
1CFE
331
1C62
  5
1C64
331
1C1F
  5
1C21
331
1C5E
  5
1C60
331
1FD7
  5
1FD9
331
1C99
  5
1C9B
331
1CF8
  5
1CFA
331
20B4
  5
20B6
331
2075
  5
2077
331
20EF
  5
20F1
331
1FD3
  5
1FD5
331
1C95
  5
1C97
331
1C1B
  5
1C1D
331
1C5A
  5
1C5C
331
2071
  5
2073
331
212A
  5
212C
331
20EB
  5
20ED
331
20B0
  5
20B2
331
21AC
  5
21AE
331
1FCF
  5
1FD1
331
2237
  5
223A
331
1C91
  5
1C93
331
2032
  5
2034
331
2126
  5
2128
331
20E7
  5
20E9
331
20AC
  5
20AE
331
1FCB
  5
1FCD
331
22AD
  5
22B0
331
2233
  5
2236
331
20E3
  5
20E5
331
20A8
  5
20AA
331
2165
  5
2167
331
22A9
  5
22AC
331
226E
  5
227D
331
2161
  5
2163
331
22A5
  5
22A8
331
22A1
  5
22A4
  0
ACDBDETAILVIEWSTYLE
  5
6B0
102
{ACAD_XDICTIONARY
360
247B
102
}
102
{ACAD_REACTORS
330
6AF
102
}
330
6AF
100
AcDbModelDocViewStyle
 70
     0
  3
Imperial24
290
     0
100
AcDbDetailViewStyle
 70
     0
 71
     0
 90
        3
 71
     1
340
17
 62
   256
 40
0.24
340
0
 62
   256
 40
0.24
300

 40
0.36
280
     3
 71
     2
340
13
 90
       25
 62
   256
 71
     3
340
17
 62
   256
 40
0.24
 90
        1
 40
0.75
 90
        1
300
%<\AcVar ViewType \f "%tc1">% %<\AcVar ViewDetailId>%\PVARIA %<\AcVar ViewScale \f "%sn">%
 71
     4
340
13
 90
       25
 62
   256
340
13
 90
       25
 62
   256
280
     0
  0
ACDBDETAILVIEWSTYLE
  5
6D2
102
{ACAD_XDICTIONARY
360
247F
102
}
102
{ACAD_REACTORS
330
6AF
102
}
330
6AF
100
AcDbModelDocViewStyle
 70
     0
  3
Metric50
290
     0
100
AcDbDetailViewStyle
 70
     0
 71
     0
 90
        3
 71
     1
340
17
 62
   256
 40
5.0
340
0
 62
   256
 40
5.0
300

 40
0.0
280
     1
 71
     2
340
13
 90
       25
 62
   256
 71
     3
340
17
 62
   256
 40
5.0
 90
        0
 40
15.0
 90
        1
300
%<\AcVar ViewDetailId>% (%<\AcVar ViewScale \f "%sn">%)
 71
     4
340
13
 90
       25
 62
   256
340
13
 90
       25
 62
   256
280
     0
  0
LAYOUT
  5
6B4
102
{ACAD_REACTORS
330
6B1
102
}
330
6B1
100
AcDbPlotSettings
  1

  2
\\srvadruck01\MFSA15
  4

  6

 40
0.0
 41
0.0
 42
0.0
 43
0.0
 44
0.0
 45
0.0
 46
0.0
 47
0.0
 48
0.0
 49
0.0
140
0.0
141
0.0
142
1.0
143
1.0
 70
   688
 72
     0
 73
     0
 74
     5
  7

 75
    16
147
1.0
 76
     0
 77
     2
 78
   300
148
0.0
149
0.0
100
AcDbLayout
  1
Layout1
 70
     0
 71
     1
 10
0.0
 20
0.0
 11
12.0
 21
9.0
 12
0.0
 22
0.0
 32
0.0
 14
1.000000000000000E+20
 24
1.000000000000000E+20
 34
1.000000000000000E+20
 15
-1.000000000000000E+20
 25
-1.000000000000000E+20
 35
-1.000000000000000E+20
146
0.0
 13
0.0
 23
0.0
 33
0.0
 16
1.0
 26
0.0
 36
0.0
 17
0.0
 27
1.0
 37
0.0
 76
     0
330
B
  0
LAYOUT
  5
6B3
102
{ACAD_REACTORS
330
6B1
102
}
330
6B1
100
AcDbPlotSettings
  1

  2
\\srvadruck01\MFSA15
  4

  6

 40
0.0
 41
0.0
 42
0.0
 43
0.0
 44
0.0
 45
0.0
 46
0.0
 47
0.0
 48
0.0
 49
0.0
140
0.0
141
0.0
142
1.0
143
1.0
 70
  1712
 72
     0
 73
     0
 74
     0
  7

 75
     0
147
1.0
 76
     0
 77
     2
 78
   300
148
0.0
149
0.0
100
AcDbLayout
  1
Model
 70
     1
 71
     0
 10
0.0
 20
0.0
 11
12.0
 21
9.0
 12
0.0
 22
0.0
 32
0.0
 14
0.0
 24
0.0
 34
0.0
 15
0.0
 25
0.0
 35
0.0
146
0.0
 13
0.0
 23
0.0
 33
0.0
 16
1.0
 26
0.0
 36
0.0
 17
0.0
 27
1.0
 37
0.0
 76
     0
330
A
331
15
  0
MATERIAL
  5
66D
102
{ACAD_XDICTIONARY
360
66E
102
}
102
{ACAD_REACTORS
330
664
102
}
330
664
100
AcDbMaterial
  1
ByBlock
 72
     0
 43
0.0208333333333333
 43
0.0
 43
0.0
 43
0.0
 43
0.0
 43
0.0208333333333333
 43
0.0
 43
0.0
 43
0.0
 43
0.0
 43
1.0
 43
0.0
 43
0.0
 43
0.0
 43
0.0
 43
1.0
 77
     0
 47
0.0208333333333333
 47
0.0
 47
0.0
 47
0.0
 47
0.0
 47
0.0208333333333333
 47
0.0
 47
0.0
 47
0.0
 47
0.0
 47
1.0
 47
0.0
 47
0.0
 47
0.0
 47
0.0
 47
1.0
171
     0
 49
0.0208333333333333
 49
0.0
 49
0.0
 49
0.0
 49
0.0
 49
0.0208333333333333
 49
0.0
 49
0.0
 49
0.0
 49
0.0
 49
1.0
 49
0.0
 49
0.0
 49
0.0
 49
0.0
 49
1.0
175
     0
142
0.0208333333333333
142
0.0
142
0.0
142
0.0
142
0.0
142
0.0208333333333333
142
0.0
142
0.0
142
0.0
142
0.0
142
1.0
142
0.0
142
0.0
142
0.0
142
0.0
142
1.0
179
     0
144
0.0208333333333333
144
0.0
144
0.0
144
0.0
144
0.0
144
0.0208333333333333
144
0.0
144
0.0
144
0.0
144
0.0
144
1.0
144
0.0
144
0.0
144
0.0
144
0.0
144
1.0
147
0.0208333333333333
147
0.0
147
0.0
147
0.0
147
0.0
147
0.0208333333333333
147
0.0
147
0.0
147
0.0
147
0.0
147
1.0
147
0.0
147
0.0
147
0.0
147
0.0
147
1.0
  0
MATERIAL
  5
665
102
{ACAD_XDICTIONARY
360
666
102
}
102
{ACAD_REACTORS
330
664
102
}
330
664
100
AcDbMaterial
  1
ByLayer
 72
     0
 43
0.0208333333333333
 43
0.0
 43
0.0
 43
0.0
 43
0.0
 43
0.0208333333333333
 43
0.0
 43
0.0
 43
0.0
 43
0.0
 43
1.0
 43
0.0
 43
0.0
 43
0.0
 43
0.0
 43
1.0
 77
     0
 47
0.0208333333333333
 47
0.0
 47
0.0
 47
0.0
 47
0.0
 47
0.0208333333333333
 47
0.0
 47
0.0
 47
0.0
 47
0.0
 47
1.0
 47
0.0
 47
0.0
 47
0.0
 47
0.0
 47
1.0
171
     0
 49
0.0208333333333333
 49
0.0
 49
0.0
 49
0.0
 49
0.0
 49
0.0208333333333333
 49
0.0
 49
0.0
 49
0.0
 49
0.0
 49
1.0
 49
0.0
 49
0.0
 49
0.0
 49
0.0
 49
1.0
175
     0
142
0.0208333333333333
142
0.0
142
0.0
142
0.0
142
0.0
142
0.0208333333333333
142
0.0
142
0.0
142
0.0
142
0.0
142
1.0
142
0.0
142
0.0
142
0.0
142
0.0
142
1.0
179
     0
144
0.0208333333333333
144
0.0
144
0.0
144
0.0
144
0.0
144
0.0208333333333333
144
0.0
144
0.0
144
0.0
144
0.0
144
1.0
144
0.0
144
0.0
144
0.0
144
0.0
144
1.0
147
0.0208333333333333
147
0.0
147
0.0
147
0.0
147
0.0
147
0.0208333333333333
147
0.0
147
0.0
147
0.0
147
0.0
147
1.0
147
0.0
147
0.0
147
0.0
147
0.0
147
1.0
  0
MATERIAL
  5
675
102
{ACAD_XDICTIONARY
360
676
102
}
102
{ACAD_REACTORS
330
664
102
}
330
664
100
AcDbMaterial
  1
Global
 72
     0
 43
0.0208333333333333
 43
0.0
 43
0.0
 43
0.0
 43
0.0
 43
0.0208333333333333
 43
0.0
 43
0.0
 43
0.0
 43
0.0
 43
1.0
 43
0.0
 43
0.0
 43
0.0
 43
0.0
 43
1.0
 77
     0
 47
0.0208333333333333
 47
0.0
 47
0.0
 47
0.0
 47
0.0
 47
0.0208333333333333
 47
0.0
 47
0.0
 47
0.0
 47
0.0
 47
1.0
 47
0.0
 47
0.0
 47
0.0
 47
0.0
 47
1.0
171
     0
 49
0.0208333333333333
 49
0.0
 49
0.0
 49
0.0
 49
0.0
 49
0.0208333333333333
 49
0.0
 49
0.0
 49
0.0
 49
0.0
 49
1.0
 49
0.0
 49
0.0
 49
0.0
 49
0.0
 49
1.0
175
     0
142
0.0208333333333333
142
0.0
142
0.0
142
0.0
142
0.0
142
0.0208333333333333
142
0.0
142
0.0
142
0.0
142
0.0
142
1.0
142
0.0
142
0.0
142
0.0
142
0.0
142
1.0
179
     0
144
0.0208333333333333
144
0.0
144
0.0
144
0.0
144
0.0
144
0.0208333333333333
144
0.0
144
0.0
144
0.0
144
0.0
144
1.0
144
0.0
144
0.0
144
0.0
144
0.0
144
1.0
147
0.0208333333333333
147
0.0
147
0.0
147
0.0
147
0.0
147
0.0208333333333333
147
0.0
147
0.0
147
0.0
147
0.0
147
1.0
147
0.0
147
0.0
147
0.0
147
0.0
147
1.0
  0
MLEADERSTYLE
  5
6AC
102
{ACAD_XDICTIONARY
360
24C2
102
}
102
{ACAD_REACTORS
330
6AB
102
}
330
6AB
100
AcDbMLeaderStyle
179
     2
170
     2
171
     1
172
     0
 90
        2
 40
0.0
 41
0.0
173
     1
 91
-1056964608
340
11
 92
       -2
290
     1
 42
0.09
291
     1
 43
0.36
  3
Standard
 44
0.18
300

342
17
174
     1
178
     6
175
     1
176
     0
 93
-1056964608
 45
0.18
292
     0
297
     0
 46
0.18
 94
-1056964608
 47
1.0
 49
1.0
140
1.0
293
     1
141
0.0
294
     1
177
     0
142
1.0
295
     0
296
     0
143
0.125
271
     0
272
     9
273
     9
  0
MLINESTYLE
  5
1C
102
{ACAD_REACTORS
330
1B
102
}
330
1B
100
AcDbMlineStyle
  2
STANDARD
 70
     0
  3

 62
     0
 51
90.0
 52
90.0
 71
     2
 49
0.5
 62
   256
  6
BYLAYER
 49
-0.5
 62
   256
  6
BYLAYER
  0
ACDBPLACEHOLDER
  5
663
102
{ACAD_REACTORS
330
662
102
}
330
662
  0
SCALE
  5
69A
102
{ACAD_REACTORS
330
699
102
}
330
699
100
AcDbScale
 70
     0
300
1:1
140
1.0
141
1.0
290
     1
  0
SCALE
  5
69B
102
{ACAD_REACTORS
330
699
102
}
330
699
100
AcDbScale
 70
     0
300
1/128" = 1'-0"
140
0.0078125
141
12.0
290
     0
  0
SCALE
  5
69C
102
{ACAD_REACTORS
330
699
102
}
330
699
100
AcDbScale
 70
     0
300
1/64" = 1'-0"
140
0.015625
141
12.0
290
     0
  0
SCALE
  5
69D
102
{ACAD_REACTORS
330
699
102
}
330
699
100
AcDbScale
 70
     0
300
1/32" = 1'-0"
140
0.03125
141
12.0
290
     0
  0
SCALE
  5
69E
102
{ACAD_REACTORS
330
699
102
}
330
699
100
AcDbScale
 70
     0
300
1/16" = 1'-0"
140
0.0625
141
12.0
290
     0
  0
SCALE
  5
69F
102
{ACAD_REACTORS
330
699
102
}
330
699
100
AcDbScale
 70
     0
300
3/32" = 1'-0"
140
0.09375
141
12.0
290
     0
  0
SCALE
  5
6A0
102
{ACAD_REACTORS
330
699
102
}
330
699
100
AcDbScale
 70
     0
300
1/8" = 1'-0"
140
0.125
141
12.0
290
     0
  0
SCALE
  5
6A1
102
{ACAD_REACTORS
330
699
102
}
330
699
100
AcDbScale
 70
     0
300
3/16" = 1'-0"
140
0.1875
141
12.0
290
     0
  0
SCALE
  5
6A2
102
{ACAD_REACTORS
330
699
102
}
330
699
100
AcDbScale
 70
     0
300
1/4" = 1'-0"
140
0.25
141
12.0
290
     0
  0
SCALE
  5
6A3
102
{ACAD_REACTORS
330
699
102
}
330
699
100
AcDbScale
 70
     0
300
3/8" = 1'-0"
140
0.375
141
12.0
290
     0
  0
SCALE
  5
6A4
102
{ACAD_REACTORS
330
699
102
}
330
699
100
AcDbScale
 70
     0
300
1/2" = 1'-0"
140
0.5
141
12.0
290
     0
  0
SCALE
  5
6A5
102
{ACAD_REACTORS
330
699
102
}
330
699
100
AcDbScale
 70
     0
300
3/4" = 1'-0"
140
0.75
141
12.0
290
     0
  0
SCALE
  5
6A6
102
{ACAD_REACTORS
330
699
102
}
330
699
100
AcDbScale
 70
     0
300
1" = 1'-0"
140
1.0
141
12.0
290
     0
  0
SCALE
  5
6A7
102
{ACAD_REACTORS
330
699
102
}
330
699
100
AcDbScale
 70
     0
300
1-1/2" = 1'-0"
140
1.5
141
12.0
290
     0
  0
SCALE
  5
6A8
102
{ACAD_REACTORS
330
699
102
}
330
699
100
AcDbScale
 70
     0
300
3" = 1'-0"
140
3.0
141
12.0
290
     0
  0
SCALE
  5
6A9
102
{ACAD_REACTORS
330
699
102
}
330
699
100
AcDbScale
 70
     0
300
6" = 1'-0"
140
6.0
141
12.0
290
     0
  0
SCALE
  5
6AA
102
{ACAD_REACTORS
330
699
102
}
330
699
100
AcDbScale
 70
     0
300
1'-0" = 1'-0"
140
12.0
141
12.0
290
     0
  0
ACDBSECTIONVIEWSTYLE
  5
6AE
102
{ACAD_XDICTIONARY
360
2479
102
}
102
{ACAD_REACTORS
330
6AD
102
}
330
6AD
100
AcDbModelDocViewStyle
 70
     0
  3
Imperial24
290
     0
100
AcDbSectionViewStyle
 70
     0
 71
     0
 90
       78
 71
     1
340
17
 62
   256
 40
0.24
340
0
340
0
 62
   256
 40
0.24
300
I, O, Q, S, X, Z
 40
0.48
 90
        3
 40
0.18
 90
        1
 71
     2
340
13
 90
       25
 62
   256
340
13
 90
       50
 62
   256
 40
0.24
 40
0.0
 40
0.24
 71
     3
340
17
 62
   256
 40
0.24
 90
        1
 40
0.75
 90
        1
300
%<\AcVar ViewType \f "%tc1">% %<\AcVar ViewSectionStartId>%-%<\AcVar ViewSectionEndId>%\PVARIA %<\AcVar ViewScale \f "%sn">%
 71
     4
 62
   256
 62
   257
300
ANSI31
 40
1.0
 90
        0
290
     0
290
     0
 90
        6
 40
0.0
 40
1.570796326794896
 40
0.2617993877991494
 40
1.308996938995747
 40
-0.2617993877991494
 40
1.832595714594044
  0
ACDBSECTIONVIEWSTYLE
  5
6D1
102
{ACAD_XDICTIONARY
360
247D
102
}
102
{ACAD_REACTORS
330
6AD
102
}
330
6AD
100
AcDbModelDocViewStyle
 70
     0
  3
Metric50
290
     0
100
AcDbSectionViewStyle
 70
     0
 71
     0
 90
      102
 71
     1
340
17
 62
   256
 40
5.0
340
0
340
0
 62
   256
 40
5.0
300
I, O, Q, S, X, Z
 40
10.0
 90
        0
 40
2.5
 90
        0
 71
     2
340
13
 90
       25
 62
   256
340
13
 90
       50
 62
   256
 40
5.0
 40
2.5
 40
5.0
 71
     3
340
17
 62
   256
 40
5.0
 90
        0
 40
15.0
 90
        1
300
%<\AcVar ViewSectionStartId>%-%<\AcVar ViewSectionEndId>% (%<\AcVar ViewScale \f "%sn">%)
 71
     4
 62
   256
 62
   257
300
ANSI31
 40
1.0
 90
        0
290
     0
290
     0
 90
        6
 40
0.0
 40
1.570796326794896
 40
0.2617993877991494
 40
1.308996938995747
 40
-0.2617993877991494
 40
1.832595714594044
  0
TABLESTYLE
  5
698
102
{ACAD_XDICTIONARY
360
9FF
102
}
102
{ACAD_REACTORS
330
697
102
}
330
697
100
AcDbTableStyle
280
     0
  3
Standard
 70
     0
 71
     0
 40
0.06
 41
0.06
280
     0
281
     0
  7
STANDARD
140
0.18
170
     2
 62
     0
 63
     7
283
     0
 90
      512
 91
        0
  1

274
    -2
284
     1
 64
     0
275
    -2
285
     1
 65
     0
276
    -2
286
     1
 66
     0
277
    -2
287
     1
 67
     0
278
    -2
288
     1
 68
     0
279
    -2
289
     1
 69
     0
  7
STANDARD
140
0.25
170
     5
 62
     0
 63
     7
283
     0
 90
      512
 91
        0
  1

274
    -2
284
     1
 64
     0
275
    -2
285
     1
 65
     0
276
    -2
286
     1
 66
     0
277
    -2
287
     1
 67
     0
278
    -2
288
     1
 68
     0
279
    -2
289
     1
 69
     0
  7
STANDARD
140
0.18
170
     5
 62
     0
 63
     7
283
     0
 90
      512
 91
        0
  1

274
    -2
284
     1
 64
     0
275
    -2
285
     1
 65
     0
276
    -2
286
     1
 66
     0
277
    -2
287
     1
 67
     0
278
    -2
288
     1
 68
     0
279
    -2
289
     1
 69
     0
  0
VISUALSTYLE
  5
683
102
{ACAD_XDICTIONARY
360
249C
102
}
102
{ACAD_REACTORS
330
67D
102
}
330
67D
100
AcDbVisualStyle
  2
2dWireframe
 70
     4
177
     2
291
     0
 71
     0
176
     1
 72
     2
176
     1
 73
     0
176
     1
 90
        0
176
     1
 40
0.6
176
     1
 41
30.0
176
     1
 63
     7
421
 16777215
176
     1
 74
     1
176
     1
 91
        4
176
     1
 64
     7
176
     1
 65
   257
176
     1
 75
     1
176
     1
175
     1
176
     1
 42
1.0
176
     1
 92
        0
176
     1
 66
   257
176
     1
 43
1.0
176
     1
 76
     1
176
     1
 77
     6
176
     1
 78
     2
176
     1
 67
     7
176
     1
 79
     5
176
     1
170
     0
176
     1
171
     0
176
     1
290
     0
176
     1
 93
        1
176
     1
 44
0.0
176
     1
173
     0
176
     1
1001
ACAD
1000
AcDbSavedByObjectVersion
1070
     0
  0
VISUALSTYLE
  5
682
102
{ACAD_XDICTIONARY
360
249A
102
}
102
{ACAD_REACTORS
330
67D
102
}
330
67D
100
AcDbVisualStyle
  2
Basic
 70
     7
177
     2
291
     1
 71
     1
176
     1
 72
     0
176
     1
 73
     1
176
     1
 90
        0
176
     1
 40
0.6
176
     1
 41
30.0
176
     1
 63
     7
421
 16777215
176
     1
 74
     0
176
     1
 91
        4
176
     1
 64
     7
176
     1
 65
   257
176
     1
 75
     1
176
     1
175
     1
176
     1
 42
1.0
176
     1
 92
        8
176
     1
 66
     7
176
     1
 43
1.0
176
     1
 76
     1
176
     1
 77
     6
176
     1
 78
     2
176
     1
 67
     7
176
     1
 79
     5
176
     1
170
     0
176
     1
171
     0
176
     1
290
     0
176
     1
 93
        1
176
     1
 44
0.0
176
     1
173
     0
176
     1
1001
ACAD
1000
AcDbSavedByObjectVersion
1070
     0
  0
VISUALSTYLE
  5
689
102
{ACAD_XDICTIONARY
360
24A8
102
}
102
{ACAD_REACTORS
330
67D
102
}
330
67D
100
AcDbVisualStyle
  2
Brighten
 70
    12
177
     2
291
     1
 71
     2
176
     1
 72
     2
176
     1
 73
     0
176
     1
 90
        0
176
     1
 40
0.6
176
     1
 41
30.0
176
     1
 63
     7
421
 16777215
176
     1
 74
     1
176
     1
 91
        4
176
     1
 64
     7
176
     1
 65
   257
176
     1
 75
     1
176
     1
175
     1
176
     1
 42
1.0
176
     1
 92
        8
176
     1
 66
     7
176
     1
 43
1.0
176
     1
 76
     1
176
     1
 77
     6
176
     1
 78
     2
176
     1
 67
     7
176
     1
 79
     5
176
     1
170
     0
176
     1
171
     0
176
     1
290
     0
176
     1
 93
        1
176
     1
 44
50.0
176
     1
173
     0
176
     1
1001
ACAD
1000
AcDbSavedByObjectVersion
1070
     0
  0
VISUALSTYLE
  5
68D
102
{ACAD_XDICTIONARY
360
24B0
102
}
102
{ACAD_REACTORS
330
67D
102
}
330
67D
100
AcDbVisualStyle
  2
ColorChange
 70
    16
177
     2
291
     1
 71
     2
176
     1
 72
     2
176
     1
 73
     3
176
     1
 90
        0
176
     1
 40
0.6
176
     1
 41
30.0
176
     1
 63
     8
421
  8421504
176
     1
 74
     1
176
     1
 91
        4
176
     1
 64
     7
176
     1
 65
   257
176
     1
 75
     1
176
     1
175
     1
176
     1
 42
1.0
176
     1
 92
        8
176
     1
 66
     8
424
  8421504
176
     1
 43
1.0
176
     1
 76
     1
176
     1
 77
     6
176
     1
 78
     2
176
     1
 67
     7
176
     1
 79
     5
176
     1
170
     0
176
     1
171
     0
176
     1
290
     0
176
     1
 93
        1
176
     1
 44
0.0
176
     1
173
     0
176
     1
1001
ACAD
1000
AcDbSavedByObjectVersion
1070
     0
  0
VISUALSTYLE
  5
686
102
{ACAD_XDICTIONARY
360
24A2
102
}
102
{ACAD_REACTORS
330
67D
102
}
330
67D
100
AcDbVisualStyle
  2
Conceptual
 70
     9
177
     2
291
     0
 71
     3
176
     1
 72
     2
176
     1
 73
     0
176
     1
 90
        0
176
     1
 40
0.6
176
     1
 41
30.0
176
     1
 63
     7
421
 16777215
176
     1
 74
     2
176
     1
 91
        2
176
     1
 64
     7
176
     1
 65
   257
176
     1
 75
     1
176
     1
175
     1
176
     1
 42
179.0
176
     1
 92
        8
176
     1
 66
     7
176
     1
 43
1.0
176
     1
 76
     1
176
     1
 77
     6
176
     1
 78
     2
176
     1
 67
     7
176
     1
 79
     3
176
     1
170
     0
176
     1
171
     0
176
     1
290
     0
176
     1
 93
        1
176
     1
 44
0.0
176
     1
173
     0
176
     1
1001
ACAD
1000
AcDbSavedByObjectVersion
1070
     0
  0
VISUALSTYLE
  5
688
102
{ACAD_XDICTIONARY
360
24A6
102
}
102
{ACAD_REACTORS
330
67D
102
}
330
67D
100
AcDbVisualStyle
  2
Dim
 70
    11
177
     2
291
     1
 71
     2
176
     1
 72
     2
176
     1
 73
     0
176
     1
 90
        0
176
     1
 40
0.6
176
     1
 41
30.0
176
     1
 63
     7
421
 16777215
176
     1
 74
     1
176
     1
 91
        4
176
     1
 64
     7
176
     1
 65
   257
176
     1
 75
     1
176
     1
175
     1
176
     1
 42
1.0
176
     1
 92
        8
176
     1
 66
     7
176
     1
 43
1.0
176
     1
 76
     1
176
     1
 77
     6
176
     1
 78
     2
176
     1
 67
     7
176
     1
 79
     5
176
     1
170
     0
176
     1
171
     0
176
     1
290
     0
176
     1
 93
        1
176
     1
 44
-50.0
176
     1
173
     0
176
     1
1001
ACAD
1000
AcDbSavedByObjectVersion
1070
     0
  0
VISUALSTYLE
  5
695
102
{ACAD_XDICTIONARY
360
24C0
102
}
102
{ACAD_REACTORS
330
67D
102
}
330
67D
100
AcDbVisualStyle
  2
EdgeColorOff
 70
    22
177
     2
291
     1
 71
     2
176
     0
 72
     2
176
     0
 73
     0
176
     0
 90
        0
176
     0
 40
0.6
176
     0
 41
30.0
176
     0
 63
     7
421
 16777215
176
     0
 74
     1
176
     0
 91
        4
176
     0
 64
     7
176
     0
 65
   257
176
     0
 75
     1
176
     0
175
     1
176
     0
 42
1.0
176
     0
 92
        8
176
     2
 66
     7
176
     0
 43
1.0
176
     0
 76
     1
176
     0
 77
     6
176
     0
 78
     2
176
     0
 67
     7
176
     0
 79
     5
176
     0
170
     0
176
     0
171
     0
176
     0
290
     0
176
     0
 93
        1
176
     0
 44
0.0
176
     0
173
     0
176
     0
1001
ACAD
1000
AcDbSavedByObjectVersion
1070
     0
  0
VISUALSTYLE
  5
68C
102
{ACAD_XDICTIONARY
360
24AE
102
}
102
{ACAD_REACTORS
330
67D
102
}
330
67D
100
AcDbVisualStyle
  2
Facepattern
 70
    15
177
     2
291
     1
 71
     2
176
     1
 72
     2
176
     1
 73
     0
176
     1
 90
        0
176
     1
 40
0.6
176
     1
 41
30.0
176
     1
 63
     7
421
 16777215
176
     1
 74
     1
176
     1
 91
        4
176
     1
 64
     7
176
     1
 65
   257
176
     1
 75
     1
176
     1
175
     1
176
     1
 42
1.0
176
     1
 92
        8
176
     1
 66
     7
176
     1
 43
1.0
176
     1
 76
     1
176
     1
 77
     6
176
     1
 78
     2
176
     1
 67
     7
176
     1
 79
     5
176
     1
170
     0
176
     1
171
     0
176
     1
290
     0
176
     1
 93
        1
176
     1
 44
0.0
176
     1
173
     0
176
     1
1001
ACAD
1000
AcDbSavedByObjectVersion
1070
     0
  0
VISUALSTYLE
  5
67E
102
{ACAD_XDICTIONARY
360
2492
102
}
102
{ACAD_REACTORS
330
67D
102
}
330
67D
100
AcDbVisualStyle
  2
Flat
 70
     0
177
     2
291
     1
 71
     2
176
     1
 72
     1
176
     1
 73
     1
176
     1
 90
        2
176
     1
 40
0.6
176
     1
 41
30.0
176
     1
 63
     7
421
 16777215
176
     1
 74
     0
176
     1
 91
        0
176
     1
 64
     7
176
     1
 65
   257
176
     1
 75
     1
176
     1
175
     1
176
     1
 42
1.0
176
     1
 92
        8
176
     1
 66
     7
176
     1
 43
1.0
176
     1
 76
     1
176
     1
 77
     6
176
     1
 78
     2
176
     1
 67
     7
176
     1
 79
     5
176
     1
170
     0
176
     1
171
     0
176
     1
290
     0
176
     1
 93
       13
176
     1
 44
0.0
176
     1
173
     0
176
     1
1001
ACAD
1000
AcDbSavedByObjectVersion
1070
     0
  0
VISUALSTYLE
  5
67F
102
{ACAD_XDICTIONARY
360
2494
102
}
102
{ACAD_REACTORS
330
67D
102
}
330
67D
100
AcDbVisualStyle
  2
FlatWithEdges
 70
     1
177
     2
291
     1
 71
     2
176
     1
 72
     1
176
     1
 73
     1
176
     1
 90
        2
176
     1
 40
0.6
176
     1
 41
30.0
176
     1
 63
     7
421
 16777215
176
     1
 74
     1
176
     1
 91
        0
176
     1
 64
     7
176
     1
 65
   257
176
     1
 75
     1
176
     1
175
     1
176
     1
 42
1.0
176
     1
 92
        0
176
     1
 66
   257
176
     1
 43
1.0
176
     1
 76
     1
176
     1
 77
     6
176
     1
 78
     2
176
     1
 67
     7
176
     1
 79
     5
176
     1
170
     0
176
     1
171
     0
176
     1
290
     0
176
     1
 93
       13
176
     1
 44
0.0
176
     1
173
     0
176
     1
1001
ACAD
1000
AcDbSavedByObjectVersion
1070
     0
  0
VISUALSTYLE
  5
680
102
{ACAD_XDICTIONARY
360
2496
102
}
102
{ACAD_REACTORS
330
67D
102
}
330
67D
100
AcDbVisualStyle
  2
Gouraud
 70
     2
177
     2
291
     1
 71
     2
176
     1
 72
     2
176
     1
 73
     1
176
     1
 90
        2
176
     1
 40
0.6
176
     1
 41
30.0
176
     1
 63
     7
421
 16777215
176
     1
 74
     0
176
     1
 91
        0
176
     1
 64
     7
176
     1
 65
   257
176
     1
 75
     1
176
     1
175
     1
176
     1
 42
1.0
176
     1
 92
        0
176
     1
 66
     7
176
     1
 43
1.0
176
     1
 76
     1
176
     1
 77
     6
176
     1
 78
     2
176
     1
 67
     7
176
     1
 79
     5
176
     1
170
     0
176
     1
171
     0
176
     1
290
     0
176
     1
 93
       13
176
     1
 44
0.0
176
     1
173
     0
176
     1
1001
ACAD
1000
AcDbSavedByObjectVersion
1070
     0
  0
VISUALSTYLE
  5
681
102
{ACAD_XDICTIONARY
360
2498
102
}
102
{ACAD_REACTORS
330
67D
102
}
330
67D
100
AcDbVisualStyle
  2
GouraudWithEdges
 70
     3
177
     2
291
     1
 71
     2
176
     1
 72
     2
176
     1
 73
     1
176
     1
 90
        2
176
     1
 40
0.6
176
     1
 41
30.0
176
     1
 63
     7
421
 16777215
176
     1
 74
     1
176
     1
 91
        0
176
     1
 64
     7
176
     1
 65
   257
176
     1
 75
     1
176
     1
175
     1
176
     1
 42
1.0
176
     1
 92
        0
176
     1
 66
   257
176
     1
 43
1.0
176
     1
 76
     1
176
     1
 77
     6
176
     1
 78
     2
176
     1
 67
     7
176
     1
 79
     5
176
     1
170
     0
176
     1
171
     0
176
     1
290
     0
176
     1
 93
       13
176
     1
 44
0.0
176
     1
173
     0
176
     1
1001
ACAD
1000
AcDbSavedByObjectVersion
1070
     0
  0
VISUALSTYLE
  5
685
102
{ACAD_XDICTIONARY
360
24A0
102
}
102
{ACAD_REACTORS
330
67D
102
}
330
67D
100
AcDbVisualStyle
  2
Hidden
 70
     6
177
     2
291
     0
 71
     1
176
     1
 72
     2
176
     1
 73
     2
176
     1
 90
        0
176
     1
 40
0.6
176
     1
 41
30.0
176
     1
 63
     7
421
 16777215
176
     1
 74
     2
176
     1
 91
        2
176
     1
 64
     7
176
     1
 65
   257
176
     1
 75
     2
176
     1
175
     1
176
     1
 42
40.0
176
     1
 92
        0
176
     1
 66
   257
176
     1
 43
1.0
176
     1
 76
     1
176
     1
 77
     6
176
     1
 78
     2
176
     1
 67
     7
176
     1
 79
     3
176
     1
170
     0
176
     1
171
     0
176
     1
290
     0
176
     1
 93
        1
176
     1
 44
0.0
176
     1
173
     0
176
     1
1001
ACAD
1000
AcDbSavedByObjectVersion
1070
     0
  0
VISUALSTYLE
  5
693
102
{ACAD_XDICTIONARY
360
24BC
102
}
102
{ACAD_REACTORS
330
67D
102
}
330
67D
100
AcDbVisualStyle
  2
JitterOff
 70
    20
177
     2
291
     1
 71
     2
176
     0
 72
     2
176
     0
 73
     0
176
     0
 90
        0
176
     0
 40
0.6
176
     0
 41
30.0
176
     0
 63
     7
421
 16777215
176
     0
 74
     1
176
     0
 91
        4
176
     0
 64
     7
176
     0
 65
   257
176
     0
 75
     1
176
     0
175
     1
176
     0
 42
1.0
176
     0
 92
       10
176
     2
 66
     7
176
     0
 43
1.0
176
     0
 76
     1
176
     0
 77
     6
176
     0
 78
     2
176
     0
 67
     7
176
     0
 79
     5
176
     0
170
     0
176
     0
171
     0
176
     0
290
     0
176
     0
 93
        1
176
     0
 44
0.0
176
     0
173
     0
176
     0
1001
ACAD
1000
AcDbSavedByObjectVersion
1070
     0
  0
VISUALSTYLE
  5
68B
102
{ACAD_XDICTIONARY
360
24AC
102
}
102
{ACAD_REACTORS
330
67D
102
}
330
67D
100
AcDbVisualStyle
  2
Linepattern
 70
    14
177
     2
291
     1
 71
     2
176
     1
 72
     2
176
     1
 73
     0
176
     1
 90
        0
176
     1
 40
0.6
176
     1
 41
30.0
176
     1
 63
     7
421
 16777215
176
     1
 74
     1
176
     1
 91
        4
176
     1
 64
     7
176
     1
 65
   257
176
     1
 75
     7
176
     1
175
     7
176
     1
 42
1.0
176
     1
 92
        8
176
     1
 66
     7
176
     1
 43
1.0
176
     1
 76
     1
176
     1
 77
     6
176
     1
 78
     2
176
     1
 67
     7
176
     1
 79
     5
176
     1
170
     0
176
     1
171
     0
176
     1
290
     0
176
     1
 93
        1
176
     1
 44
0.0
176
     1
173
     0
176
     1
1001
ACAD
1000
AcDbSavedByObjectVersion
1070
     0
  0
VISUALSTYLE
  5
694
102
{ACAD_XDICTIONARY
360
24BE
102
}
102
{ACAD_REACTORS
330
67D
102
}
330
67D
100
AcDbVisualStyle
  2
OverhangOff
 70
    21
177
     2
291
     1
 71
     2
176
     0
 72
     2
176
     0
 73
     0
176
     0
 90
        0
176
     0
 40
0.6
176
     0
 41
30.0
176
     0
 63
     7
421
 16777215
176
     0
 74
     1
176
     0
 91
        4
176
     0
 64
     7
176
     0
 65
   257
176
     0
 75
     1
176
     0
175
     1
176
     0
 42
1.0
176
     0
 92
        9
176
     2
 66
     7
176
     0
 43
1.0
176
     0
 76
     1
176
     0
 77
     6
176
     0
 78
     2
176
     0
 67
     7
176
     0
 79
     5
176
     0
170
     0
176
     0
171
     0
176
     0
290
     0
176
     0
 93
        1
176
     0
 44
0.0
176
     0
173
     0
176
     0
1001
ACAD
1000
AcDbSavedByObjectVersion
1070
     0
  0
VISUALSTYLE
  5
687
102
{ACAD_XDICTIONARY
360
24A4
102
}
102
{ACAD_REACTORS
330
67D
102
}
330
67D
100
AcDbVisualStyle
  2
Realistic
 70
     8
177
     2
291
     0
 71
     2
176
     1
 72
     3
176
     1
 73
     0
176
     1
 90
        2
176
     1
 40
0.6
176
     1
 41
30.0
176
     1
 63
     7
421
 16777215
176
     1
 74
     0
176
     1
 91
        0
176
     1
 64
     7
176
     1
 65
   257
176
     1
 75
     1
176
     1
175
     1
176
     1
 42
1.0
176
     1
 92
        8
176
     1
 66
   257
176
     1
 43
1.0
176
     1
 76
     1
176
     1
 77
     6
176
     1
 78
     2
176
     1
 67
     7
176
     1
 79
     3
176
     1
170
     0
176
     1
171
     0
176
     1
290
     0
176
     1
 93
       13
176
     1
 44
0.0
176
     1
173
     0
176
     1
1001
ACAD
1000
AcDbSavedByObjectVersion
1070
     0
  0
VISUALSTYLE
  5
692
102
{ACAD_XDICTIONARY
360
24BA
102
}
102
{ACAD_REACTORS
330
67D
102
}
330
67D
100
AcDbVisualStyle
  2
Shaded
 70
    27
177
     2
291
     0
 71
     2
176
     1
 72
     2
176
     1
 73
     1
176
     1
 90
        2
176
     1
 40
0.6
176
     1
 41
30.0
176
     1
 63
     7
421
 16777215
176
     1
 74
     0
176
     1
 91
        4
176
     1
 64
     7
176
     1
 65
   257
176
     1
 75
     1
176
     1
175
     1
176
     1
 42
1.0
176
     1
 92
        8
176
     1
 66
   257
176
     1
 43
1.0
176
     1
 76
     1
176
     1
 77
     6
176
     1
 78
     2
176
     1
 67
     8
425
  7895160
176
     1
 79
     3
176
     1
170
     0
176
     1
171
     0
176
     1
290
     0
176
     1
 93
        5
176
     1
 44
0.0
176
     1
173
     0
176
     1
1001
ACAD
1000
AcDbSavedByObjectVersion
1070
     0
  0
VISUALSTYLE
  5
691
102
{ACAD_XDICTIONARY
360
24B8
102
}
102
{ACAD_REACTORS
330
67D
102
}
330
67D
100
AcDbVisualStyle
  2
Shaded with edges
 70
    26
177
     2
291
     0
 71
     2
176
     1
 72
     2
176
     1
 73
     1
176
     1
 90
        2
176
     1
 40
0.6
176
     1
 41
30.0
176
     1
 63
     7
421
 16777215
176
     1
 74
     1
176
     1
 91
       10
176
     1
 64
     7
176
     1
 65
   257
176
     1
 75
     2
176
     1
175
     1
176
     1
 42
1.0
176
     1
 92
        8
176
     1
 66
   257
176
     1
 43
1.0
176
     1
 76
     1
176
     1
 77
     6
176
     1
 78
     2
176
     1
 67
     7
176
     1
 79
     3
176
     1
170
     0
176
     1
171
     0
176
     1
290
     0
176
     1
 93
        5
176
     1
 44
0.0
176
     1
173
     0
176
     1
1001
ACAD
1000
AcDbSavedByObjectVersion
1070
     0
  0
VISUALSTYLE
  5
68E
102
{ACAD_XDICTIONARY
360
24B2
102
}
102
{ACAD_REACTORS
330
67D
102
}
330
67D
100
AcDbVisualStyle
  2
Shades of Gray
 70
    23
177
     2
291
     0
 71
     2
176
     1
 72
     2
176
     1
 73
     3
176
     1
 90
        0
176
     1
 40
0.6
176
     1
 41
30.0
176
     1
 63
     7
421
 16777215
176
     1
 74
     2
176
     1
 91
        2
176
     1
 64
     7
176
     1
 65
     7
176
     1
 75
     1
176
     1
175
     1
176
     1
 42
40.0
176
     1
 92
        8
176
     1
 66
     7
176
     1
 43
1.0
176
     1
 76
     1
176
     1
 77
     6
176
     1
 78
     2
176
     1
 67
     7
176
     1
 79
     3
176
     1
170
     0
176
     1
171
     0
176
     1
290
     0
176
     1
 93
        1
176
     1
 44
0.0
176
     1
173
     0
176
     1
1001
ACAD
1000
AcDbSavedByObjectVersion
1070
     0
  0
VISUALSTYLE
  5
68F
102
{ACAD_XDICTIONARY
360
24B4
102
}
102
{ACAD_REACTORS
330
67D
102
}
330
67D
100
AcDbVisualStyle
  2
Sketchy
 70
    24
177
     2
291
     0
 71
     1
176
     1
 72
     2
176
     1
 73
     2
176
     1
 90
        0
176
     1
 40
0.6
176
     1
 41
30.0
176
     1
 63
     7
421
 16777215
176
     1
 74
     2
176
     1
 91
        2
176
     1
 64
     7
176
     1
 65
     7
176
     1
 75
     1
176
     1
175
     1
176
     1
 42
40.0
176
     1
 92
       11
176
     1
 66
     7
176
     1
 43
1.0
176
     1
 76
     1
176
     1
 77
     6
176
     1
 78
     2
176
     1
 67
     7
176
     1
 79
     6
176
     1
170
     0
176
     1
171
     0
176
     1
290
     0
176
     1
 93
        1
176
     1
 44
0.0
176
     1
173
     0
176
     1
1001
ACAD
1000
AcDbSavedByObjectVersion
1070
     0
  0
VISUALSTYLE
  5
68A
102
{ACAD_XDICTIONARY
360
24AA
102
}
102
{ACAD_REACTORS
330
67D
102
}
330
67D
100
AcDbVisualStyle
  2
Thicken
 70
    13
177
     2
291
     1
 71
     2
176
     1
 72
     2
176
     1
 73
     0
176
     1
 90
        0
176
     1
 40
0.6
176
     1
 41
30.0
176
     1
 63
     7
421
 16777215
176
     1
 74
     1
176
     1
 91
        4
176
     1
 64
     7
176
     1
 65
   257
176
     1
 75
     1
176
     1
175
     1
176
     1
 42
1.0
176
     1
 92
       12
176
     1
 66
     7
176
     1
 43
1.0
176
     1
 76
     1
176
     1
 77
     6
176
     1
 78
     2
176
     1
 67
     7
176
     1
 79
     5
176
     1
170
     0
176
     1
171
     0
176
     1
290
     0
176
     1
 93
        1
176
     1
 44
0.0
176
     1
173
     0
176
     1
1001
ACAD
1000
AcDbSavedByObjectVersion
1070
     0
  0
VISUALSTYLE
  5
684
102
{ACAD_XDICTIONARY
360
249E
102
}
102
{ACAD_REACTORS
330
67D
102
}
330
67D
100
AcDbVisualStyle
  2
Wireframe
 70
     5
177
     2
291
     0
 71
     0
176
     1
 72
     2
176
     1
 73
     0
176
     1
 90
        0
176
     1
 40
0.6
176
     1
 41
30.0
176
     1
 63
     7
421
 16777215
176
     1
 74
     1
176
     1
 91
        4
176
     1
 64
     7
176
     1
 65
   257
176
     1
 75
     1
176
     1
175
     1
176
     1
 42
1.0
176
     1
 92
        0
176
     1
 66
   257
176
     1
 43
1.0
176
     1
 76
     1
176
     1
 77
     6
176
     1
 78
     2
176
     1
 67
     7
176
     1
 79
     3
176
     1
170
     0
176
     1
171
     0
176
     1
290
     0
176
     1
 93
        1
176
     1
 44
0.0
176
     1
173
     0
176
     1
1001
ACAD
1000
AcDbSavedByObjectVersion
1070
     0
  0
VISUALSTYLE
  5
690
102
{ACAD_XDICTIONARY
360
24B6
102
}
102
{ACAD_REACTORS
330
67D
102
}
330
67D
100
AcDbVisualStyle
  2
X-Ray
 70
    25
177
     2
291
     0
 71
     2
176
     1
 72
     2
176
     1
 73
     1
176
     1
 90
        1
176
     1
 40
0.5
176
     1
 41
30.0
176
     1
 63
     7
421
 16777215
176
     1
 74
     1
176
     1
 91
        0
176
     1
 64
     7
176
     1
 65
   257
176
     1
 75
     1
176
     1
175
     1
176
     1
 42
1.0
176
     1
 92
        8
176
     1
 66
     7
176
     1
 43
1.0
176
     1
 76
     1
176
     1
 77
     6
176
     1
 78
     2
176
     1
 67
     7
176
     1
 79
     3
176
     1
170
     0
176
     1
171
     0
176
     1
290
     0
176
     1
 93
       13
176
     1
 44
0.0
176
     1
173
     0
176
     1
1001
ACAD
1000
AcDbSavedByObjectVersion
1070
     0
  0
DICTIONARYVAR
  5
9AE
102
{ACAD_REACTORS
330
9A8
102
}
330
9A8
100
DictionaryVariables
280
     0
  1
1:1
  0
DICTIONARYVAR
  5
9AA
102
{ACAD_REACTORS
330
9A8
102
}
330
9A8
100
DictionaryVariables
280
     0
  1
STANDARD
  0
DICTIONARYVAR
  5
9A9
102
{ACAD_REACTORS
330
9A8
102
}
330
9A8
100
DictionaryVariables
280
     0
  1
STANDARD
  0
DICTIONARYVAR
  5
9AB
102
{ACAD_REACTORS
330
9A8
102
}
330
9A8
100
DictionaryVariables
280
     0
  1
Imperial24
  0
DICTIONARYVAR
  5
9AC
102
{ACAD_REACTORS
330
9A8
102
}
330
9A8
100
DictionaryVariables
280
     0
  1
Imperial24
  0
DICTIONARYVAR
  5
9B0
102
{ACAD_REACTORS
330
9A8
102
}
330
9A8
100
DictionaryVariables
280
     0
  1
1
  0
DICTIONARYVAR
  5
9B1
102
{ACAD_REACTORS
330
9A8
102
}
330
9A8
100
DictionaryVariables
280
     0
  1
15
  0
DICTIONARYVAR
  5
9AF
102
{ACAD_REACTORS
330
9A8
102
}
330
9A8
100
DictionaryVariables
280
     0
  1
0
  0
DICTIONARYVAR
  5
9AD
102
{ACAD_REACTORS
330
9A8
102
}
330
9A8
100
DictionaryVariables
280
     0
  1
0
  0
DICTIONARY
  5
2491
102
{ACAD_REACTORS
330
248F
102
}
330
248F
100
AcDbDictionary
281
     1
  0
DICTIONARY
  5
2490
102
{ACAD_REACTORS
330
248F
102
}
330
248F
100
AcDbDictionary
281
     1
  3
8796086783776
350
248A
  3
8796086783792
350
248B
  3
8796086783808
350
248C
  3
8796086783824
350
248D
  3
8796086783840
350
248E
  0
DICTIONARY
  5
247B
330
6B0
100
AcDbDictionary
280
     1
281
     1
  3
ACAD_XREC_ROUNDTRIP
360
24C5
  0
DICTIONARY
  5
247F
330
6D2
100
AcDbDictionary
280
     1
281
     1
  3
ACAD_XREC_ROUNDTRIP
360
24C7
  0
DICTIONARY
  5
66E
330
66D
100
AcDbDictionary
280
     1
281
     1
  3
BUMPTILE
360
670
  3
DIFFUSETILE
360
66F
  3
OPACITYTILE
360
673
  3
REFLECTIONTILE
360
672
  3
REFRACTIONTILE
360
674
  3
SPECULARTILE
360
671
  0
DICTIONARY
  5
666
330
665
100
AcDbDictionary
280
     1
281
     1
  3
BUMPTILE
360
668
  3
DIFFUSETILE
360
667
  3
OPACITYTILE
360
66B
  3
REFLECTIONTILE
360
66A
  3
REFRACTIONTILE
360
66C
  3
SPECULARTILE
360
669
  0
DICTIONARY
  5
676
330
675
100
AcDbDictionary
280
     1
281
     1
  3
BUMPTILE
360
678
  3
DIFFUSETILE
360
677
  3
OPACITYTILE
360
67B
  3
REFLECTIONTILE
360
67A
  3
REFRACTIONTILE
360
67C
  3
SPECULARTILE
360
679
  0
DICTIONARY
  5
24C2
330
6AC
100
AcDbDictionary
280
     1
281
     1
  3
ACAD_XREC_ROUNDTRIP
360
24C3
  0
DICTIONARY
  5
2479
330
6AE
100
AcDbDictionary
280
     1
281
     1
  3
ACAD_XREC_ROUNDTRIP
360
24C4
  0
DICTIONARY
  5
247D
330
6D1
100
AcDbDictionary
280
     1
281
     1
  3
ACAD_XREC_ROUNDTRIP
360
24C6
  0
DICTIONARY
  5
9FF
330
698
100
AcDbDictionary
280
     1
281
     1
  3
ACAD_ROUNDTRIP_2008_TABLESTYLE_CELLSTYLEMAP
360
2488
  0
DICTIONARY
  5
249C
330
683
100
AcDbDictionary
280
     1
281
     1
  3
ACAD_XREC_ROUNDTRIP
360
249D
  0
DICTIONARY
  5
249A
330
682
100
AcDbDictionary
280
     1
281
     1
  3
ACAD_XREC_ROUNDTRIP
360
249B
  0
DICTIONARY
  5
24A8
330
689
100
AcDbDictionary
280
     1
281
     1
  3
ACAD_XREC_ROUNDTRIP
360
24A9
  0
DICTIONARY
  5
24B0
330
68D
100
AcDbDictionary
280
     1
281
     1
  3
ACAD_XREC_ROUNDTRIP
360
24B1
  0
DICTIONARY
  5
24A2
330
686
100
AcDbDictionary
280
     1
281
     1
  3
ACAD_XREC_ROUNDTRIP
360
24A3
  0
DICTIONARY
  5
24A6
330
688
100
AcDbDictionary
280
     1
281
     1
  3
ACAD_XREC_ROUNDTRIP
360
24A7
  0
DICTIONARY
  5
24C0
330
695
100
AcDbDictionary
280
     1
281
     1
  3
ACAD_XREC_ROUNDTRIP
360
24C1
  0
DICTIONARY
  5
24AE
330
68C
100
AcDbDictionary
280
     1
281
     1
  3
ACAD_XREC_ROUNDTRIP
360
24AF
  0
DICTIONARY
  5
2492
330
67E
100
AcDbDictionary
280
     1
281
     1
  3
ACAD_XREC_ROUNDTRIP
360
2493
  0
DICTIONARY
  5
2494
330
67F
100
AcDbDictionary
280
     1
281
     1
  3
ACAD_XREC_ROUNDTRIP
360
2495
  0
DICTIONARY
  5
2496
330
680
100
AcDbDictionary
280
     1
281
     1
  3
ACAD_XREC_ROUNDTRIP
360
2497
  0
DICTIONARY
  5
2498
330
681
100
AcDbDictionary
280
     1
281
     1
  3
ACAD_XREC_ROUNDTRIP
360
2499
  0
DICTIONARY
  5
24A0
330
685
100
AcDbDictionary
280
     1
281
     1
  3
ACAD_XREC_ROUNDTRIP
360
24A1
  0
DICTIONARY
  5
24BC
330
693
100
AcDbDictionary
280
     1
281
     1
  3
ACAD_XREC_ROUNDTRIP
360
24BD
  0
DICTIONARY
  5
24AC
330
68B
100
AcDbDictionary
280
     1
281
     1
  3
ACAD_XREC_ROUNDTRIP
360
24AD
  0
DICTIONARY
  5
24BE
330
694
100
AcDbDictionary
280
     1
281
     1
  3
ACAD_XREC_ROUNDTRIP
360
24BF
  0
DICTIONARY
  5
24A4
330
687
100
AcDbDictionary
280
     1
281
     1
  3
ACAD_XREC_ROUNDTRIP
360
24A5
  0
DICTIONARY
  5
24BA
330
692
100
AcDbDictionary
280
     1
281
     1
  3
ACAD_XREC_ROUNDTRIP
360
24BB
  0
DICTIONARY
  5
24B8
330
691
100
AcDbDictionary
280
     1
281
     1
  3
ACAD_XREC_ROUNDTRIP
360
24B9
  0
DICTIONARY
  5
24B2
330
68E
100
AcDbDictionary
280
     1
281
     1
  3
ACAD_XREC_ROUNDTRIP
360
24B3
  0
DICTIONARY
  5
24B4
330
68F
100
AcDbDictionary
280
     1
281
     1
  3
ACAD_XREC_ROUNDTRIP
360
24B5
  0
DICTIONARY
  5
24AA
330
68A
100
AcDbDictionary
280
     1
281
     1
  3
ACAD_XREC_ROUNDTRIP
360
24AB
  0
DICTIONARY
  5
249E
330
684
100
AcDbDictionary
280
     1
281
     1
  3
ACAD_XREC_ROUNDTRIP
360
249F
  0
DICTIONARY
  5
24B6
330
690
100
AcDbDictionary
280
     1
281
     1
  3
ACAD_XREC_ROUNDTRIP
360
24B7
  0
XRECORD
  5
248A
102
{ACAD_REACTORS
330
2490
102
}
330
2490
100
AcDbXrecord
280
     1
  1
AcDb_Thumbnail_Schema
102
{ATTRRECORD
341
248B
  2
AcDbDs::TreatedAsObjectData
280
     1
291
     1
102
ATTRRECORD}
102
{ATTRRECORD
341
248C
  2
AcDbDs::Legacy
280
     1
291
     1
102
ATTRRECORD}
  2
AcDbDs::ID
280
    10
 91
        8
102
{ATTRRECORD
341
248D
  2
AcDs:Indexable
280
     1
291
     1
102
ATTRRECORD}
102
{ATTRRECORD
341
248E
  2
AcDbDs::HandleAttribute
280
     7
282
     1
102
ATTRRECORD}
  2
Thumbnail_Data
280
    15
 91
        0
  0
XRECORD
  5
248B
102
{ACAD_REACTORS
330
2490
102
}
330
2490
100
AcDbXrecord
280
     1
  1
AcDbDs::TreatedAsObjectDataSchema
  2
AcDbDs::TreatedAsObjectData
280
     1
 91
        0
  0
XRECORD
  5
248C
102
{ACAD_REACTORS
330
2490
102
}
330
2490
100
AcDbXrecord
280
     1
  1
AcDbDs::LegacySchema
  2
AcDbDs::Legacy
280
     1
 91
        0
  0
XRECORD
  5
248D
102
{ACAD_REACTORS
330
2490
102
}
330
2490
100
AcDbXrecord
280
     1
  1
AcDbDs::IndexedPropertySchema
  2
AcDs:Indexable
280
     1
 91
        0
  0
XRECORD
  5
248E
102
{ACAD_REACTORS
330
2490
102
}
330
2490
100
AcDbXrecord
280
     1
  1
AcDbDs::HandleAttributeSchema
  2
AcDbDs::HandleAttribute
280
     7
 91
        1
284
     1
  0
XRECORD
  5
24C5
102
{ACAD_REACTORS
330
247B
102
}
330
247B
100
AcDbXrecord
280
     1
102
DISPLAYNAME
  1
Imperial24
102
FLAGS
 90
        0
  0
XRECORD
  5
24C7
102
{ACAD_REACTORS
330
247F
102
}
330
247F
100
AcDbXrecord
280
     1
102
DISPLAYNAME
  1
Metric50
102
FLAGS
 90
        0
  0
XRECORD
  5
670
102
{ACAD_REACTORS
330
66E
102
}
330
66E
100
AcDbXrecord
280
     1
270
     1
271
     1
  0
XRECORD
  5
66F
102
{ACAD_REACTORS
330
66E
102
}
330
66E
100
AcDbXrecord
280
     1
270
     1
271
     1
  0
XRECORD
  5
673
102
{ACAD_REACTORS
330
66E
102
}
330
66E
100
AcDbXrecord
280
     1
270
     1
271
     1
  0
XRECORD
  5
672
102
{ACAD_REACTORS
330
66E
102
}
330
66E
100
AcDbXrecord
280
     1
270
     1
271
     1
  0
XRECORD
  5
674
102
{ACAD_REACTORS
330
66E
102
}
330
66E
100
AcDbXrecord
280
     1
270
     1
271
     1
  0
XRECORD
  5
671
102
{ACAD_REACTORS
330
66E
102
}
330
66E
100
AcDbXrecord
280
     1
270
     1
271
     1
  0
XRECORD
  5
668
102
{ACAD_REACTORS
330
666
102
}
330
666
100
AcDbXrecord
280
     1
270
     1
271
     1
  0
XRECORD
  5
667
102
{ACAD_REACTORS
330
666
102
}
330
666
100
AcDbXrecord
280
     1
270
     1
271
     1
  0
XRECORD
  5
66B
102
{ACAD_REACTORS
330
666
102
}
330
666
100
AcDbXrecord
280
     1
270
     1
271
     1
  0
XRECORD
  5
66A
102
{ACAD_REACTORS
330
666
102
}
330
666
100
AcDbXrecord
280
     1
270
     1
271
     1
  0
XRECORD
  5
66C
102
{ACAD_REACTORS
330
666
102
}
330
666
100
AcDbXrecord
280
     1
270
     1
271
     1
  0
XRECORD
  5
669
102
{ACAD_REACTORS
330
666
102
}
330
666
100
AcDbXrecord
280
     1
270
     1
271
     1
  0
XRECORD
  5
678
102
{ACAD_REACTORS
330
676
102
}
330
676
100
AcDbXrecord
280
     1
270
     1
271
     1
  0
XRECORD
  5
677
102
{ACAD_REACTORS
330
676
102
}
330
676
100
AcDbXrecord
280
     1
270
     1
271
     1
  0
XRECORD
  5
67B
102
{ACAD_REACTORS
330
676
102
}
330
676
100
AcDbXrecord
280
     1
270
     1
271
     1
  0
XRECORD
  5
67A
102
{ACAD_REACTORS
330
676
102
}
330
676
100
AcDbXrecord
280
     1
270
     1
271
     1
  0
XRECORD
  5
67C
102
{ACAD_REACTORS
330
676
102
}
330
676
100
AcDbXrecord
280
     1
270
     1
271
     1
  0
XRECORD
  5
679
102
{ACAD_REACTORS
330
676
102
}
330
676
100
AcDbXrecord
280
     1
270
     1
271
     1
  0
XRECORD
  5
24C3
102
{ACAD_REACTORS
330
24C2
102
}
330
24C2
100
AcDbXrecord
280
     1
102
ACAD_ROUNDTRIP_2012_MLEADER_STYLE
298
     1
  0
XRECORD
  5
24C4
102
{ACAD_REACTORS
330
2479
102
}
330
2479
100
AcDbXrecord
280
     1
102
DISPLAYNAME
  1
Imperial24
102
FLAGS
 90
        0
  0
XRECORD
  5
24C6
102
{ACAD_REACTORS
330
247D
102
}
330
247D
100
AcDbXrecord
280
     1
102
DISPLAYNAME
  1
Metric50
102
FLAGS
 90
        0
  0
CELLSTYLEMAP
  5
2488
102
{ACAD_REACTORS
330
9FF
102
}
330
9FF
100
AcDbCellStyleMap
 90
        3
300
CELLSTYLE
  1
TABLEFORMAT_BEGIN
 90
        5
170
     1
 91
        0
 92
    32768
 62
   257
 93
        1
300
CONTENTFORMAT
  1
CONTENTFORMAT_BEGIN
 90
        0
 91
        0
 92
      512
 93
        0
300

 40
0.0
140
1.0
 94
        5
 62
     0
340
17
144
0.25
309
CONTENTFORMAT_END
171
     1
301
MARGIN
  1
CELLMARGIN_BEGIN
 40
0.06
 40
0.06
 40
0.06
 40
0.06
 40
0.18
 40
0.18
309
CELLMARGIN_END
 94
        6
 95
        1
302
GRIDFORMAT
  1
GRIDFORMAT_BEGIN
 90
        0
 91
        1
 62
     0
 92
       -2
340
0
 93
        0
 40
0.045
309
GRIDFORMAT_END
 95
        2
302
GRIDFORMAT
  1
GRIDFORMAT_BEGIN
 90
        0
 91
        1
 62
     0
 92
       -2
340
0
 93
        0
 40
0.045
309
GRIDFORMAT_END
 95
        4
302
GRIDFORMAT
  1
GRIDFORMAT_BEGIN
 90
        0
 91
        1
 62
     0
 92
       -2
340
0
 93
        0
 40
0.045
309
GRIDFORMAT_END
 95
        8
302
GRIDFORMAT
  1
GRIDFORMAT_BEGIN
 90
        0
 91
        1
 62
     0
 92
       -2
340
0
 93
        0
 40
0.045
309
GRIDFORMAT_END
 95
       16
302
GRIDFORMAT
  1
GRIDFORMAT_BEGIN
 90
        0
 91
        1
 62
     0
 92
       -2
340
0
 93
        0
 40
0.045
309
GRIDFORMAT_END
 95
       32
302
GRIDFORMAT
  1
GRIDFORMAT_BEGIN
 90
        0
 91
        1
 62
     0
 92
       -2
340
0
 93
        0
 40
0.045
309
GRIDFORMAT_END
309
TABLEFORMAT_END
  1
CELLSTYLE_BEGIN
 90
        1
 91
        1
300
_TITLE
309
CELLSTYLE_END
300
CELLSTYLE
  1
TABLEFORMAT_BEGIN
 90
        5
170
     1
 91
        0
 92
        0
 62
   257
 93
        1
300
CONTENTFORMAT
  1
CONTENTFORMAT_BEGIN
 90
        0
 91
        0
 92
      512
 93
        0
300

 40
0.0
140
1.0
 94
        5
 62
     0
340
17
144
0.18
309
CONTENTFORMAT_END
171
     1
301
MARGIN
  1
CELLMARGIN_BEGIN
 40
0.06
 40
0.06
 40
0.06
 40
0.06
 40
0.18
 40
0.18
309
CELLMARGIN_END
 94
        6
 95
        1
302
GRIDFORMAT
  1
GRIDFORMAT_BEGIN
 90
        0
 91
        1
 62
     0
 92
       -2
340
0
 93
        0
 40
0.045
309
GRIDFORMAT_END
 95
        2
302
GRIDFORMAT
  1
GRIDFORMAT_BEGIN
 90
        0
 91
        1
 62
     0
 92
       -2
340
0
 93
        0
 40
0.045
309
GRIDFORMAT_END
 95
        4
302
GRIDFORMAT
  1
GRIDFORMAT_BEGIN
 90
        0
 91
        1
 62
     0
 92
       -2
340
0
 93
        0
 40
0.045
309
GRIDFORMAT_END
 95
        8
302
GRIDFORMAT
  1
GRIDFORMAT_BEGIN
 90
        0
 91
        1
 62
     0
 92
       -2
340
0
 93
        0
 40
0.045
309
GRIDFORMAT_END
 95
       16
302
GRIDFORMAT
  1
GRIDFORMAT_BEGIN
 90
        0
 91
        1
 62
     0
 92
       -2
340
0
 93
        0
 40
0.045
309
GRIDFORMAT_END
 95
       32
302
GRIDFORMAT
  1
GRIDFORMAT_BEGIN
 90
        0
 91
        1
 62
     0
 92
       -2
340
0
 93
        0
 40
0.045
309
GRIDFORMAT_END
309
TABLEFORMAT_END
  1
CELLSTYLE_BEGIN
 90
        2
 91
        1
300
_HEADER
309
CELLSTYLE_END
300
CELLSTYLE
  1
TABLEFORMAT_BEGIN
 90
        5
170
     1
 91
        0
 92
        0
 62
   257
 93
        1
300
CONTENTFORMAT
  1
CONTENTFORMAT_BEGIN
 90
        0
 91
        0
 92
      512
 93
        0
300

 40
0.0
140
1.0
 94
        2
 62
     0
340
17
144
0.18
309
CONTENTFORMAT_END
171
     1
301
MARGIN
  1
CELLMARGIN_BEGIN
 40
0.06
 40
0.06
 40
0.06
 40
0.06
 40
0.18
 40
0.18
309
CELLMARGIN_END
 94
        6
 95
        1
302
GRIDFORMAT
  1
GRIDFORMAT_BEGIN
 90
        0
 91
        1
 62
     0
 92
       -2
340
0
 93
        0
 40
0.045
309
GRIDFORMAT_END
 95
        2
302
GRIDFORMAT
  1
GRIDFORMAT_BEGIN
 90
        0
 91
        1
 62
     0
 92
       -2
340
0
 93
        0
 40
0.045
309
GRIDFORMAT_END
 95
        4
302
GRIDFORMAT
  1
GRIDFORMAT_BEGIN
 90
        0
 91
        1
 62
     0
 92
       -2
340
0
 93
        0
 40
0.045
309
GRIDFORMAT_END
 95
        8
302
GRIDFORMAT
  1
GRIDFORMAT_BEGIN
 90
        0
 91
        1
 62
     0
 92
       -2
340
0
 93
        0
 40
0.045
309
GRIDFORMAT_END
 95
       16
302
GRIDFORMAT
  1
GRIDFORMAT_BEGIN
 90
        0
 91
        1
 62
     0
 92
       -2
340
0
 93
        0
 40
0.045
309
GRIDFORMAT_END
 95
       32
302
GRIDFORMAT
  1
GRIDFORMAT_BEGIN
 90
        0
 91
        1
 62
     0
 92
       -2
340
0
 93
        0
 40
0.045
309
GRIDFORMAT_END
309
TABLEFORMAT_END
  1
CELLSTYLE_BEGIN
 90
        3
 91
        2
300
_DATA
309
CELLSTYLE_END
  0
XRECORD
  5
249D
102
{ACAD_REACTORS
330
249C
102
}
330
249C
100
AcDbXrecord
280
     1
102
RTVSPost2010Prop28
280
     1
102
RTVSPost2010PropOp28
 70
     1
102
RTVSPost2010Prop29
280
     1
102
RTVSPost2010PropOp29
 70
     1
102
RTVSPost2010Prop30
280
     0
102
RTVSPost2010PropOp30
 70
     1
102
RTVSPost2010Prop31
280
     0
102
RTVSPost2010PropOp31
 70
     1
102
RTVSPost2010Prop32
280
     0
102
RTVSPost2010PropOp32
 70
     1
102
RTVSPost2010Prop33
280
     0
102
RTVSPost2010PropOp33
 70
     1
102
RTVSPost2010Prop34
280
     0
102
RTVSPost2010PropOp34
 70
     1
102
RTVSPost2010Prop35
280
     0
102
RTVSPost2010PropOp35
 70
     1
102
RTVSPost2010Prop36
280
     0
102
RTVSPost2010PropOp36
 70
     1
102
RTVSPost2010Prop37
 90
       50
102
RTVSPost2010PropOp37
 70
     1
102
RTVSPost2010Prop38
140
0.0
102
RTVSPost2010PropOp38
 70
     1
102
RTVSPost2010Prop39
140
1.0
102
RTVSPost2010PropOp39
 70
     1
102
RTVSPost2010Prop40
 90
        0
102
RTVSPost2010PropOp40
 70
     1
102
RTVSPost2010Prop41ColorIndex
 90
       18
102
RTVSPost2010Prop41ColorRGB
 90
        0
102
RTVSPost2010PropOp41
 70
     1
102
RTVSPost2010Prop42
 90
       50
102
RTVSPost2010PropOp42
 70
     1
102
RTVSPost2010Prop43
 90
        3
102
RTVSPost2010PropOp43
 70
     1
102
RTVSPost2010Prop44ColorIndex
 90
        5
102
RTVSPost2010Prop44ColorRGB
 90
      255
102
RTVSPost2010PropOp44
 70
     1
102
RTVSPost2010Prop45
280
     0
102
RTVSPost2010PropOp45
 70
     1
102
RTVSPost2010Prop46
 90
       50
102
RTVSPost2010PropOp46
 70
     1
102
RTVSPost2010Prop47
 90
       50
102
RTVSPost2010PropOp47
 70
     1
102
RTVSPost2010Prop48
 90
       50
102
RTVSPost2010PropOp48
 70
     1
102
RTVSPost2010Prop49
280
     0
102
RTVSPost2010PropOp49
 70
     1
102
RTVSPost2010Prop50
 90
       50
102
RTVSPost2010PropOp50
 70
     1
102
RTVSPost2010Prop51ColorIndex
 90
      256
102
RTVSPost2010Prop51ColorRGB
 90
-16777216
102
RTVSPost2010PropOp51
 70
     0
102
RTVSPost2010Prop52
140
1.0
102
RTVSPost2010PropOp52
 70
     0
102
RTVSPost2010Prop53
 90
        2
102
RTVSPost2010PropOp53
 70
     1
102
RTVSPost2010Prop54
  1
strokes_ogs.tif
102
RTVSPost2010PropOp54
 70
     1
102
RTVSPost2010Prop55
280
     0
102
RTVSPost2010PropOp55
 70
     1
102
RTVSPost2010Prop56
140
1.0
102
RTVSPost2010PropOp56
 70
     1
102
RTVSPost2010Prop57
140
1.0
102
RTVSPost2010PropOp57
 70
     1
  0
XRECORD
  5
249B
102
{ACAD_REACTORS
330
249A
102
}
330
249A
100
AcDbXrecord
280
     1
102
RTVSPost2010Prop28
280
     0
102
RTVSPost2010PropOp28
 70
     1
102
RTVSPost2010Prop29
280
     1
102
RTVSPost2010PropOp29
 70
     1
102
RTVSPost2010Prop30
280
     1
102
RTVSPost2010PropOp30
 70
     1
102
RTVSPost2010Prop31
280
     0
102
RTVSPost2010PropOp31
 70
     1
102
RTVSPost2010Prop32
280
     0
102
RTVSPost2010PropOp32
 70
     1
102
RTVSPost2010Prop33
280
     0
102
RTVSPost2010PropOp33
 70
     1
102
RTVSPost2010Prop34
280
     0
102
RTVSPost2010PropOp34
 70
     1
102
RTVSPost2010Prop35
280
     0
102
RTVSPost2010PropOp35
 70
     1
102
RTVSPost2010Prop36
280
     0
102
RTVSPost2010PropOp36
 70
     1
102
RTVSPost2010Prop37
 90
       50
102
RTVSPost2010PropOp37
 70
     1
102
RTVSPost2010Prop38
140
0.0
102
RTVSPost2010PropOp38
 70
     1
102
RTVSPost2010Prop39
140
1.0
102
RTVSPost2010PropOp39
 70
     1
102
RTVSPost2010Prop40
 90
        0
102
RTVSPost2010PropOp40
 70
     1
102
RTVSPost2010Prop41ColorIndex
 90
       18
102
RTVSPost2010Prop41ColorRGB
 90
        0
102
RTVSPost2010PropOp41
 70
     1
102
RTVSPost2010Prop42
 90
       50
102
RTVSPost2010PropOp42
 70
     1
102
RTVSPost2010Prop43
 90
        3
102
RTVSPost2010PropOp43
 70
     1
102
RTVSPost2010Prop44ColorIndex
 90
        5
102
RTVSPost2010Prop44ColorRGB
 90
      255
102
RTVSPost2010PropOp44
 70
     1
102
RTVSPost2010Prop45
280
     0
102
RTVSPost2010PropOp45
 70
     1
102
RTVSPost2010Prop46
 90
       50
102
RTVSPost2010PropOp46
 70
     1
102
RTVSPost2010Prop47
 90
       50
102
RTVSPost2010PropOp47
 70
     1
102
RTVSPost2010Prop48
 90
       50
102
RTVSPost2010PropOp48
 70
     1
102
RTVSPost2010Prop49
280
     0
102
RTVSPost2010PropOp49
 70
     1
102
RTVSPost2010Prop50
 90
       50
102
RTVSPost2010PropOp50
 70
     1
102
RTVSPost2010Prop51ColorIndex
 90
      256
102
RTVSPost2010Prop51ColorRGB
 90
-16777216
102
RTVSPost2010PropOp51
 70
     0
102
RTVSPost2010Prop52
140
1.0
102
RTVSPost2010PropOp52
 70
     0
102
RTVSPost2010Prop53
 90
        2
102
RTVSPost2010PropOp53
 70
     1
102
RTVSPost2010Prop54
  1
strokes_ogs.tif
102
RTVSPost2010PropOp54
 70
     1
102
RTVSPost2010Prop55
280
     0
102
RTVSPost2010PropOp55
 70
     1
102
RTVSPost2010Prop56
140
1.0
102
RTVSPost2010PropOp56
 70
     1
102
RTVSPost2010Prop57
140
1.0
102
RTVSPost2010PropOp57
 70
     1
  0
XRECORD
  5
24A9
102
{ACAD_REACTORS
330
24A8
102
}
330
24A8
100
AcDbXrecord
280
     1
102
RTVSPost2010Prop28
280
     0
102
RTVSPost2010PropOp28
 70
     1
102
RTVSPost2010Prop29
280
     1
102
RTVSPost2010PropOp29
 70
     1
102
RTVSPost2010Prop30
280
     1
102
RTVSPost2010PropOp30
 70
     1
102
RTVSPost2010Prop31
280
     0
102
RTVSPost2010PropOp31
 70
     1
102
RTVSPost2010Prop32
280
     0
102
RTVSPost2010PropOp32
 70
     1
102
RTVSPost2010Prop33
280
     0
102
RTVSPost2010PropOp33
 70
     1
102
RTVSPost2010Prop34
280
     0
102
RTVSPost2010PropOp34
 70
     1
102
RTVSPost2010Prop35
280
     0
102
RTVSPost2010PropOp35
 70
     1
102
RTVSPost2010Prop36
280
     0
102
RTVSPost2010PropOp36
 70
     1
102
RTVSPost2010Prop37
 90
       50
102
RTVSPost2010PropOp37
 70
     1
102
RTVSPost2010Prop38
140
0.0
102
RTVSPost2010PropOp38
 70
     1
102
RTVSPost2010Prop39
140
1.0
102
RTVSPost2010PropOp39
 70
     1
102
RTVSPost2010Prop40
 90
        0
102
RTVSPost2010PropOp40
 70
     1
102
RTVSPost2010Prop41ColorIndex
 90
       18
102
RTVSPost2010Prop41ColorRGB
 90
        0
102
RTVSPost2010PropOp41
 70
     1
102
RTVSPost2010Prop42
 90
       50
102
RTVSPost2010PropOp42
 70
     1
102
RTVSPost2010Prop43
 90
        3
102
RTVSPost2010PropOp43
 70
     1
102
RTVSPost2010Prop44ColorIndex
 90
        5
102
RTVSPost2010Prop44ColorRGB
 90
      255
102
RTVSPost2010PropOp44
 70
     1
102
RTVSPost2010Prop45
280
     0
102
RTVSPost2010PropOp45
 70
     1
102
RTVSPost2010Prop46
 90
       50
102
RTVSPost2010PropOp46
 70
     1
102
RTVSPost2010Prop47
 90
       50
102
RTVSPost2010PropOp47
 70
     1
102
RTVSPost2010Prop48
 90
       50
102
RTVSPost2010PropOp48
 70
     1
102
RTVSPost2010Prop49
280
     0
102
RTVSPost2010PropOp49
 70
     1
102
RTVSPost2010Prop50
 90
       50
102
RTVSPost2010PropOp50
 70
     1
102
RTVSPost2010Prop51ColorIndex
 90
      256
102
RTVSPost2010Prop51ColorRGB
 90
-16777216
102
RTVSPost2010PropOp51
 70
     0
102
RTVSPost2010Prop52
140
1.0
102
RTVSPost2010PropOp52
 70
     0
102
RTVSPost2010Prop53
 90
        2
102
RTVSPost2010PropOp53
 70
     1
102
RTVSPost2010Prop54
  1
strokes_ogs.tif
102
RTVSPost2010PropOp54
 70
     1
102
RTVSPost2010Prop55
280
     0
102
RTVSPost2010PropOp55
 70
     1
102
RTVSPost2010Prop56
140
1.0
102
RTVSPost2010PropOp56
 70
     1
102
RTVSPost2010Prop57
140
1.0
102
RTVSPost2010PropOp57
 70
     1
  0
XRECORD
  5
24B1
102
{ACAD_REACTORS
330
24B0
102
}
330
24B0
100
AcDbXrecord
280
     1
102
RTVSPost2010Prop28
280
     0
102
RTVSPost2010PropOp28
 70
     1
102
RTVSPost2010Prop29
280
     1
102
RTVSPost2010PropOp29
 70
     1
102
RTVSPost2010Prop30
280
     1
102
RTVSPost2010PropOp30
 70
     1
102
RTVSPost2010Prop31
280
     0
102
RTVSPost2010PropOp31
 70
     1
102
RTVSPost2010Prop32
280
     0
102
RTVSPost2010PropOp32
 70
     1
102
RTVSPost2010Prop33
280
     0
102
RTVSPost2010PropOp33
 70
     1
102
RTVSPost2010Prop34
280
     0
102
RTVSPost2010PropOp34
 70
     1
102
RTVSPost2010Prop35
280
     0
102
RTVSPost2010PropOp35
 70
     1
102
RTVSPost2010Prop36
280
     0
102
RTVSPost2010PropOp36
 70
     1
102
RTVSPost2010Prop37
 90
       50
102
RTVSPost2010PropOp37
 70
     1
102
RTVSPost2010Prop38
140
0.0
102
RTVSPost2010PropOp38
 70
     1
102
RTVSPost2010Prop39
140
1.0
102
RTVSPost2010PropOp39
 70
     1
102
RTVSPost2010Prop40
 90
        0
102
RTVSPost2010PropOp40
 70
     1
102
RTVSPost2010Prop41ColorIndex
 90
       18
102
RTVSPost2010Prop41ColorRGB
 90
        0
102
RTVSPost2010PropOp41
 70
     1
102
RTVSPost2010Prop42
 90
       50
102
RTVSPost2010PropOp42
 70
     1
102
RTVSPost2010Prop43
 90
        3
102
RTVSPost2010PropOp43
 70
     1
102
RTVSPost2010Prop44ColorIndex
 90
        5
102
RTVSPost2010Prop44ColorRGB
 90
      255
102
RTVSPost2010PropOp44
 70
     1
102
RTVSPost2010Prop45
280
     0
102
RTVSPost2010PropOp45
 70
     1
102
RTVSPost2010Prop46
 90
       50
102
RTVSPost2010PropOp46
 70
     1
102
RTVSPost2010Prop47
 90
       50
102
RTVSPost2010PropOp47
 70
     1
102
RTVSPost2010Prop48
 90
       50
102
RTVSPost2010PropOp48
 70
     1
102
RTVSPost2010Prop49
280
     0
102
RTVSPost2010PropOp49
 70
     1
102
RTVSPost2010Prop50
 90
       50
102
RTVSPost2010PropOp50
 70
     1
102
RTVSPost2010Prop51ColorIndex
 90
      256
102
RTVSPost2010Prop51ColorRGB
 90
-16777216
102
RTVSPost2010PropOp51
 70
     0
102
RTVSPost2010Prop52
140
1.0
102
RTVSPost2010PropOp52
 70
     0
102
RTVSPost2010Prop53
 90
        2
102
RTVSPost2010PropOp53
 70
     1
102
RTVSPost2010Prop54
  1
strokes_ogs.tif
102
RTVSPost2010PropOp54
 70
     1
102
RTVSPost2010Prop55
280
     0
102
RTVSPost2010PropOp55
 70
     1
102
RTVSPost2010Prop56
140
1.0
102
RTVSPost2010PropOp56
 70
     1
102
RTVSPost2010Prop57
140
1.0
102
RTVSPost2010PropOp57
 70
     1
  0
XRECORD
  5
24A3
102
{ACAD_REACTORS
330
24A2
102
}
330
24A2
100
AcDbXrecord
280
     1
102
RTVSPost2010Prop28
280
     0
102
RTVSPost2010PropOp28
 70
     1
102
RTVSPost2010Prop29
280
     1
102
RTVSPost2010PropOp29
 70
     1
102
RTVSPost2010Prop30
280
     1
102
RTVSPost2010PropOp30
 70
     1
102
RTVSPost2010Prop31
280
     0
102
RTVSPost2010PropOp31
 70
     1
102
RTVSPost2010Prop32
280
     0
102
RTVSPost2010PropOp32
 70
     1
102
RTVSPost2010Prop33
280
     0
102
RTVSPost2010PropOp33
 70
     1
102
RTVSPost2010Prop34
280
     0
102
RTVSPost2010PropOp34
 70
     1
102
RTVSPost2010Prop35
280
     0
102
RTVSPost2010PropOp35
 70
     1
102
RTVSPost2010Prop36
280
     0
102
RTVSPost2010PropOp36
 70
     1
102
RTVSPost2010Prop37
 90
       50
102
RTVSPost2010PropOp37
 70
     1
102
RTVSPost2010Prop38
140
0.0
102
RTVSPost2010PropOp38
 70
     1
102
RTVSPost2010Prop39
140
1.0
102
RTVSPost2010PropOp39
 70
     1
102
RTVSPost2010Prop40
 90
        0
102
RTVSPost2010PropOp40
 70
     1
102
RTVSPost2010Prop41ColorIndex
 90
       18
102
RTVSPost2010Prop41ColorRGB
 90
        0
102
RTVSPost2010PropOp41
 70
     1
102
RTVSPost2010Prop42
 90
       50
102
RTVSPost2010PropOp42
 70
     1
102
RTVSPost2010Prop43
 90
        3
102
RTVSPost2010PropOp43
 70
     1
102
RTVSPost2010Prop44ColorIndex
 90
        5
102
RTVSPost2010Prop44ColorRGB
 90
      255
102
RTVSPost2010PropOp44
 70
     1
102
RTVSPost2010Prop45
280
     0
102
RTVSPost2010PropOp45
 70
     1
102
RTVSPost2010Prop46
 90
       50
102
RTVSPost2010PropOp46
 70
     1
102
RTVSPost2010Prop47
 90
       50
102
RTVSPost2010PropOp47
 70
     1
102
RTVSPost2010Prop48
 90
       50
102
RTVSPost2010PropOp48
 70
     1
102
RTVSPost2010Prop49
280
     0
102
RTVSPost2010PropOp49
 70
     1
102
RTVSPost2010Prop50
 90
       50
102
RTVSPost2010PropOp50
 70
     1
102
RTVSPost2010Prop51ColorIndex
 90
      256
102
RTVSPost2010Prop51ColorRGB
 90
-16777216
102
RTVSPost2010PropOp51
 70
     0
102
RTVSPost2010Prop52
140
1.0
102
RTVSPost2010PropOp52
 70
     0
102
RTVSPost2010Prop53
 90
        2
102
RTVSPost2010PropOp53
 70
     1
102
RTVSPost2010Prop54
  1
strokes_ogs.tif
102
RTVSPost2010PropOp54
 70
     1
102
RTVSPost2010Prop55
280
     0
102
RTVSPost2010PropOp55
 70
     1
102
RTVSPost2010Prop56
140
1.0
102
RTVSPost2010PropOp56
 70
     1
102
RTVSPost2010Prop57
140
1.0
102
RTVSPost2010PropOp57
 70
     1
  0
XRECORD
  5
24A7
102
{ACAD_REACTORS
330
24A6
102
}
330
24A6
100
AcDbXrecord
280
     1
102
RTVSPost2010Prop28
280
     0
102
RTVSPost2010PropOp28
 70
     1
102
RTVSPost2010Prop29
280
     1
102
RTVSPost2010PropOp29
 70
     1
102
RTVSPost2010Prop30
280
     1
102
RTVSPost2010PropOp30
 70
     1
102
RTVSPost2010Prop31
280
     0
102
RTVSPost2010PropOp31
 70
     1
102
RTVSPost2010Prop32
280
     0
102
RTVSPost2010PropOp32
 70
     1
102
RTVSPost2010Prop33
280
     0
102
RTVSPost2010PropOp33
 70
     1
102
RTVSPost2010Prop34
280
     0
102
RTVSPost2010PropOp34
 70
     1
102
RTVSPost2010Prop35
280
     0
102
RTVSPost2010PropOp35
 70
     1
102
RTVSPost2010Prop36
280
     0
102
RTVSPost2010PropOp36
 70
     1
102
RTVSPost2010Prop37
 90
       50
102
RTVSPost2010PropOp37
 70
     1
102
RTVSPost2010Prop38
140
0.0
102
RTVSPost2010PropOp38
 70
     1
102
RTVSPost2010Prop39
140
1.0
102
RTVSPost2010PropOp39
 70
     1
102
RTVSPost2010Prop40
 90
        0
102
RTVSPost2010PropOp40
 70
     1
102
RTVSPost2010Prop41ColorIndex
 90
       18
102
RTVSPost2010Prop41ColorRGB
 90
        0
102
RTVSPost2010PropOp41
 70
     1
102
RTVSPost2010Prop42
 90
       50
102
RTVSPost2010PropOp42
 70
     1
102
RTVSPost2010Prop43
 90
        3
102
RTVSPost2010PropOp43
 70
     1
102
RTVSPost2010Prop44ColorIndex
 90
        5
102
RTVSPost2010Prop44ColorRGB
 90
      255
102
RTVSPost2010PropOp44
 70
     1
102
RTVSPost2010Prop45
280
     0
102
RTVSPost2010PropOp45
 70
     1
102
RTVSPost2010Prop46
 90
       50
102
RTVSPost2010PropOp46
 70
     1
102
RTVSPost2010Prop47
 90
       50
102
RTVSPost2010PropOp47
 70
     1
102
RTVSPost2010Prop48
 90
       50
102
RTVSPost2010PropOp48
 70
     1
102
RTVSPost2010Prop49
280
     0
102
RTVSPost2010PropOp49
 70
     1
102
RTVSPost2010Prop50
 90
       50
102
RTVSPost2010PropOp50
 70
     1
102
RTVSPost2010Prop51ColorIndex
 90
      256
102
RTVSPost2010Prop51ColorRGB
 90
-16777216
102
RTVSPost2010PropOp51
 70
     0
102
RTVSPost2010Prop52
140
1.0
102
RTVSPost2010PropOp52
 70
     0
102
RTVSPost2010Prop53
 90
        2
102
RTVSPost2010PropOp53
 70
     1
102
RTVSPost2010Prop54
  1
strokes_ogs.tif
102
RTVSPost2010PropOp54
 70
     1
102
RTVSPost2010Prop55
280
     0
102
RTVSPost2010PropOp55
 70
     1
102
RTVSPost2010Prop56
140
1.0
102
RTVSPost2010PropOp56
 70
     1
102
RTVSPost2010Prop57
140
1.0
102
RTVSPost2010PropOp57
 70
     1
  0
XRECORD
  5
24C1
102
{ACAD_REACTORS
330
24C0
102
}
330
24C0
100
AcDbXrecord
280
     1
102
RTVSPost2010Prop28
280
     0
102
RTVSPost2010PropOp28
 70
     0
102
RTVSPost2010Prop29
280
     1
102
RTVSPost2010PropOp29
 70
     0
102
RTVSPost2010Prop30
280
     1
102
RTVSPost2010PropOp30
 70
     0
102
RTVSPost2010Prop31
280
     0
102
RTVSPost2010PropOp31
 70
     0
102
RTVSPost2010Prop32
280
     0
102
RTVSPost2010PropOp32
 70
     0
102
RTVSPost2010Prop33
280
     0
102
RTVSPost2010PropOp33
 70
     0
102
RTVSPost2010Prop34
280
     0
102
RTVSPost2010PropOp34
 70
     0
102
RTVSPost2010Prop35
280
     0
102
RTVSPost2010PropOp35
 70
     0
102
RTVSPost2010Prop36
280
     0
102
RTVSPost2010PropOp36
 70
     0
102
RTVSPost2010Prop37
 90
       50
102
RTVSPost2010PropOp37
 70
     0
102
RTVSPost2010Prop38
140
0.0
102
RTVSPost2010PropOp38
 70
     0
102
RTVSPost2010Prop39
140
1.0
102
RTVSPost2010PropOp39
 70
     0
102
RTVSPost2010Prop40
 90
        0
102
RTVSPost2010PropOp40
 70
     0
102
RTVSPost2010Prop41ColorIndex
 90
       18
102
RTVSPost2010Prop41ColorRGB
 90
        0
102
RTVSPost2010PropOp41
 70
     0
102
RTVSPost2010Prop42
 90
       50
102
RTVSPost2010PropOp42
 70
     0
102
RTVSPost2010Prop43
 90
        3
102
RTVSPost2010PropOp43
 70
     0
102
RTVSPost2010Prop44ColorIndex
 90
        5
102
RTVSPost2010Prop44ColorRGB
 90
      255
102
RTVSPost2010PropOp44
 70
     0
102
RTVSPost2010Prop45
280
     0
102
RTVSPost2010PropOp45
 70
     0
102
RTVSPost2010Prop46
 90
       50
102
RTVSPost2010PropOp46
 70
     0
102
RTVSPost2010Prop47
 90
       50
102
RTVSPost2010PropOp47
 70
     0
102
RTVSPost2010Prop48
 90
       50
102
RTVSPost2010PropOp48
 70
     0
102
RTVSPost2010Prop49
280
     0
102
RTVSPost2010PropOp49
 70
     0
102
RTVSPost2010Prop50
 90
       50
102
RTVSPost2010PropOp50
 70
     0
102
RTVSPost2010Prop51ColorIndex
 90
      256
102
RTVSPost2010Prop51ColorRGB
 90
-16777216
102
RTVSPost2010PropOp51
 70
     0
102
RTVSPost2010Prop52
140
1.0
102
RTVSPost2010PropOp52
 70
     0
102
RTVSPost2010Prop53
 90
        2
102
RTVSPost2010PropOp53
 70
     0
102
RTVSPost2010Prop54
  1
strokes_ogs.tif
102
RTVSPost2010PropOp54
 70
     0
102
RTVSPost2010Prop55
280
     0
102
RTVSPost2010PropOp55
 70
     0
102
RTVSPost2010Prop56
140
1.0
102
RTVSPost2010PropOp56
 70
     0
102
RTVSPost2010Prop57
140
1.0
102
RTVSPost2010PropOp57
 70
     0
  0
XRECORD
  5
24AF
102
{ACAD_REACTORS
330
24AE
102
}
330
24AE
100
AcDbXrecord
280
     1
102
RTVSPost2010Prop28
280
     0
102
RTVSPost2010PropOp28
 70
     1
102
RTVSPost2010Prop29
280
     1
102
RTVSPost2010PropOp29
 70
     1
102
RTVSPost2010Prop30
280
     1
102
RTVSPost2010PropOp30
 70
     1
102
RTVSPost2010Prop31
280
     0
102
RTVSPost2010PropOp31
 70
     1
102
RTVSPost2010Prop32
280
     0
102
RTVSPost2010PropOp32
 70
     1
102
RTVSPost2010Prop33
280
     0
102
RTVSPost2010PropOp33
 70
     1
102
RTVSPost2010Prop34
280
     0
102
RTVSPost2010PropOp34
 70
     1
102
RTVSPost2010Prop35
280
     0
102
RTVSPost2010PropOp35
 70
     1
102
RTVSPost2010Prop36
280
     0
102
RTVSPost2010PropOp36
 70
     1
102
RTVSPost2010Prop37
 90
       50
102
RTVSPost2010PropOp37
 70
     1
102
RTVSPost2010Prop38
140
0.0
102
RTVSPost2010PropOp38
 70
     1
102
RTVSPost2010Prop39
140
1.0
102
RTVSPost2010PropOp39
 70
     1
102
RTVSPost2010Prop40
 90
        0
102
RTVSPost2010PropOp40
 70
     1
102
RTVSPost2010Prop41ColorIndex
 90
       18
102
RTVSPost2010Prop41ColorRGB
 90
        0
102
RTVSPost2010PropOp41
 70
     1
102
RTVSPost2010Prop42
 90
       50
102
RTVSPost2010PropOp42
 70
     1
102
RTVSPost2010Prop43
 90
        3
102
RTVSPost2010PropOp43
 70
     1
102
RTVSPost2010Prop44ColorIndex
 90
        5
102
RTVSPost2010Prop44ColorRGB
 90
      255
102
RTVSPost2010PropOp44
 70
     1
102
RTVSPost2010Prop45
280
     0
102
RTVSPost2010PropOp45
 70
     1
102
RTVSPost2010Prop46
 90
       50
102
RTVSPost2010PropOp46
 70
     1
102
RTVSPost2010Prop47
 90
       50
102
RTVSPost2010PropOp47
 70
     1
102
RTVSPost2010Prop48
 90
       50
102
RTVSPost2010PropOp48
 70
     1
102
RTVSPost2010Prop49
280
     0
102
RTVSPost2010PropOp49
 70
     1
102
RTVSPost2010Prop50
 90
       50
102
RTVSPost2010PropOp50
 70
     1
102
RTVSPost2010Prop51ColorIndex
 90
      256
102
RTVSPost2010Prop51ColorRGB
 90
-16777216
102
RTVSPost2010PropOp51
 70
     0
102
RTVSPost2010Prop52
140
1.0
102
RTVSPost2010PropOp52
 70
     0
102
RTVSPost2010Prop53
 90
        2
102
RTVSPost2010PropOp53
 70
     1
102
RTVSPost2010Prop54
  1
strokes_ogs.tif
102
RTVSPost2010PropOp54
 70
     1
102
RTVSPost2010Prop55
280
     0
102
RTVSPost2010PropOp55
 70
     1
102
RTVSPost2010Prop56
140
1.0
102
RTVSPost2010PropOp56
 70
     1
102
RTVSPost2010Prop57
140
1.0
102
RTVSPost2010PropOp57
 70
     1
  0
XRECORD
  5
2493
102
{ACAD_REACTORS
330
2492
102
}
330
2492
100
AcDbXrecord
280
     1
102
RTVSPost2010Prop28
280
     0
102
RTVSPost2010PropOp28
 70
     1
102
RTVSPost2010Prop29
280
     1
102
RTVSPost2010PropOp29
 70
     1
102
RTVSPost2010Prop30
280
     1
102
RTVSPost2010PropOp30
 70
     1
102
RTVSPost2010Prop31
280
     0
102
RTVSPost2010PropOp31
 70
     1
102
RTVSPost2010Prop32
280
     0
102
RTVSPost2010PropOp32
 70
     1
102
RTVSPost2010Prop33
280
     0
102
RTVSPost2010PropOp33
 70
     1
102
RTVSPost2010Prop34
280
     0
102
RTVSPost2010PropOp34
 70
     1
102
RTVSPost2010Prop35
280
     0
102
RTVSPost2010PropOp35
 70
     1
102
RTVSPost2010Prop36
280
     0
102
RTVSPost2010PropOp36
 70
     1
102
RTVSPost2010Prop37
 90
       50
102
RTVSPost2010PropOp37
 70
     1
102
RTVSPost2010Prop38
140
0.0
102
RTVSPost2010PropOp38
 70
     1
102
RTVSPost2010Prop39
140
1.0
102
RTVSPost2010PropOp39
 70
     1
102
RTVSPost2010Prop40
 90
        0
102
RTVSPost2010PropOp40
 70
     1
102
RTVSPost2010Prop41ColorIndex
 90
       18
102
RTVSPost2010Prop41ColorRGB
 90
        0
102
RTVSPost2010PropOp41
 70
     1
102
RTVSPost2010Prop42
 90
       50
102
RTVSPost2010PropOp42
 70
     1
102
RTVSPost2010Prop43
 90
        3
102
RTVSPost2010PropOp43
 70
     1
102
RTVSPost2010Prop44ColorIndex
 90
        5
102
RTVSPost2010Prop44ColorRGB
 90
      255
102
RTVSPost2010PropOp44
 70
     1
102
RTVSPost2010Prop45
280
     0
102
RTVSPost2010PropOp45
 70
     1
102
RTVSPost2010Prop46
 90
       50
102
RTVSPost2010PropOp46
 70
     1
102
RTVSPost2010Prop47
 90
       50
102
RTVSPost2010PropOp47
 70
     1
102
RTVSPost2010Prop48
 90
       50
102
RTVSPost2010PropOp48
 70
     1
102
RTVSPost2010Prop49
280
     0
102
RTVSPost2010PropOp49
 70
     1
102
RTVSPost2010Prop50
 90
       50
102
RTVSPost2010PropOp50
 70
     1
102
RTVSPost2010Prop51ColorIndex
 90
      256
102
RTVSPost2010Prop51ColorRGB
 90
-16777216
102
RTVSPost2010PropOp51
 70
     0
102
RTVSPost2010Prop52
140
1.0
102
RTVSPost2010PropOp52
 70
     0
102
RTVSPost2010Prop53
 90
        2
102
RTVSPost2010PropOp53
 70
     1
102
RTVSPost2010Prop54
  1
strokes_ogs.tif
102
RTVSPost2010PropOp54
 70
     1
102
RTVSPost2010Prop55
280
     0
102
RTVSPost2010PropOp55
 70
     1
102
RTVSPost2010Prop56
140
1.0
102
RTVSPost2010PropOp56
 70
     1
102
RTVSPost2010Prop57
140
1.0
102
RTVSPost2010PropOp57
 70
     1
  0
XRECORD
  5
2495
102
{ACAD_REACTORS
330
2494
102
}
330
2494
100
AcDbXrecord
280
     1
102
RTVSPost2010Prop28
280
     0
102
RTVSPost2010PropOp28
 70
     1
102
RTVSPost2010Prop29
280
     1
102
RTVSPost2010PropOp29
 70
     1
102
RTVSPost2010Prop30
280
     1
102
RTVSPost2010PropOp30
 70
     1
102
RTVSPost2010Prop31
280
     0
102
RTVSPost2010PropOp31
 70
     1
102
RTVSPost2010Prop32
280
     0
102
RTVSPost2010PropOp32
 70
     1
102
RTVSPost2010Prop33
280
     0
102
RTVSPost2010PropOp33
 70
     1
102
RTVSPost2010Prop34
280
     0
102
RTVSPost2010PropOp34
 70
     1
102
RTVSPost2010Prop35
280
     0
102
RTVSPost2010PropOp35
 70
     1
102
RTVSPost2010Prop36
280
     0
102
RTVSPost2010PropOp36
 70
     1
102
RTVSPost2010Prop37
 90
       50
102
RTVSPost2010PropOp37
 70
     1
102
RTVSPost2010Prop38
140
0.0
102
RTVSPost2010PropOp38
 70
     1
102
RTVSPost2010Prop39
140
1.0
102
RTVSPost2010PropOp39
 70
     1
102
RTVSPost2010Prop40
 90
        0
102
RTVSPost2010PropOp40
 70
     1
102
RTVSPost2010Prop41ColorIndex
 90
       18
102
RTVSPost2010Prop41ColorRGB
 90
        0
102
RTVSPost2010PropOp41
 70
     1
102
RTVSPost2010Prop42
 90
       50
102
RTVSPost2010PropOp42
 70
     1
102
RTVSPost2010Prop43
 90
        3
102
RTVSPost2010PropOp43
 70
     1
102
RTVSPost2010Prop44ColorIndex
 90
        5
102
RTVSPost2010Prop44ColorRGB
 90
      255
102
RTVSPost2010PropOp44
 70
     1
102
RTVSPost2010Prop45
280
     0
102
RTVSPost2010PropOp45
 70
     1
102
RTVSPost2010Prop46
 90
       50
102
RTVSPost2010PropOp46
 70
     1
102
RTVSPost2010Prop47
 90
       50
102
RTVSPost2010PropOp47
 70
     1
102
RTVSPost2010Prop48
 90
       50
102
RTVSPost2010PropOp48
 70
     1
102
RTVSPost2010Prop49
280
     0
102
RTVSPost2010PropOp49
 70
     1
102
RTVSPost2010Prop50
 90
       50
102
RTVSPost2010PropOp50
 70
     1
102
RTVSPost2010Prop51ColorIndex
 90
      256
102
RTVSPost2010Prop51ColorRGB
 90
-16777216
102
RTVSPost2010PropOp51
 70
     0
102
RTVSPost2010Prop52
140
1.0
102
RTVSPost2010PropOp52
 70
     0
102
RTVSPost2010Prop53
 90
        2
102
RTVSPost2010PropOp53
 70
     1
102
RTVSPost2010Prop54
  1
strokes_ogs.tif
102
RTVSPost2010PropOp54
 70
     1
102
RTVSPost2010Prop55
280
     0
102
RTVSPost2010PropOp55
 70
     1
102
RTVSPost2010Prop56
140
1.0
102
RTVSPost2010PropOp56
 70
     1
102
RTVSPost2010Prop57
140
1.0
102
RTVSPost2010PropOp57
 70
     1
  0
XRECORD
  5
2497
102
{ACAD_REACTORS
330
2496
102
}
330
2496
100
AcDbXrecord
280
     1
102
RTVSPost2010Prop28
280
     0
102
RTVSPost2010PropOp28
 70
     1
102
RTVSPost2010Prop29
280
     1
102
RTVSPost2010PropOp29
 70
     1
102
RTVSPost2010Prop30
280
     1
102
RTVSPost2010PropOp30
 70
     1
102
RTVSPost2010Prop31
280
     0
102
RTVSPost2010PropOp31
 70
     1
102
RTVSPost2010Prop32
280
     0
102
RTVSPost2010PropOp32
 70
     1
102
RTVSPost2010Prop33
280
     0
102
RTVSPost2010PropOp33
 70
     1
102
RTVSPost2010Prop34
280
     0
102
RTVSPost2010PropOp34
 70
     1
102
RTVSPost2010Prop35
280
     0
102
RTVSPost2010PropOp35
 70
     1
102
RTVSPost2010Prop36
280
     0
102
RTVSPost2010PropOp36
 70
     1
102
RTVSPost2010Prop37
 90
       50
102
RTVSPost2010PropOp37
 70
     1
102
RTVSPost2010Prop38
140
0.0
102
RTVSPost2010PropOp38
 70
     1
102
RTVSPost2010Prop39
140
1.0
102
RTVSPost2010PropOp39
 70
     1
102
RTVSPost2010Prop40
 90
        0
102
RTVSPost2010PropOp40
 70
     1
102
RTVSPost2010Prop41ColorIndex
 90
       18
102
RTVSPost2010Prop41ColorRGB
 90
        0
102
RTVSPost2010PropOp41
 70
     1
102
RTVSPost2010Prop42
 90
       50
102
RTVSPost2010PropOp42
 70
     1
102
RTVSPost2010Prop43
 90
        3
102
RTVSPost2010PropOp43
 70
     1
102
RTVSPost2010Prop44ColorIndex
 90
        5
102
RTVSPost2010Prop44ColorRGB
 90
      255
102
RTVSPost2010PropOp44
 70
     1
102
RTVSPost2010Prop45
280
     0
102
RTVSPost2010PropOp45
 70
     1
102
RTVSPost2010Prop46
 90
       50
102
RTVSPost2010PropOp46
 70
     1
102
RTVSPost2010Prop47
 90
       50
102
RTVSPost2010PropOp47
 70
     1
102
RTVSPost2010Prop48
 90
       50
102
RTVSPost2010PropOp48
 70
     1
102
RTVSPost2010Prop49
280
     0
102
RTVSPost2010PropOp49
 70
     1
102
RTVSPost2010Prop50
 90
       50
102
RTVSPost2010PropOp50
 70
     1
102
RTVSPost2010Prop51ColorIndex
 90
      256
102
RTVSPost2010Prop51ColorRGB
 90
-16777216
102
RTVSPost2010PropOp51
 70
     0
102
RTVSPost2010Prop52
140
1.0
102
RTVSPost2010PropOp52
 70
     0
102
RTVSPost2010Prop53
 90
        2
102
RTVSPost2010PropOp53
 70
     1
102
RTVSPost2010Prop54
  1
strokes_ogs.tif
102
RTVSPost2010PropOp54
 70
     1
102
RTVSPost2010Prop55
280
     0
102
RTVSPost2010PropOp55
 70
     1
102
RTVSPost2010Prop56
140
1.0
102
RTVSPost2010PropOp56
 70
     1
102
RTVSPost2010Prop57
140
1.0
102
RTVSPost2010PropOp57
 70
     1
  0
XRECORD
  5
2499
102
{ACAD_REACTORS
330
2498
102
}
330
2498
100
AcDbXrecord
280
     1
102
RTVSPost2010Prop28
280
     0
102
RTVSPost2010PropOp28
 70
     1
102
RTVSPost2010Prop29
280
     1
102
RTVSPost2010PropOp29
 70
     1
102
RTVSPost2010Prop30
280
     1
102
RTVSPost2010PropOp30
 70
     1
102
RTVSPost2010Prop31
280
     0
102
RTVSPost2010PropOp31
 70
     1
102
RTVSPost2010Prop32
280
     0
102
RTVSPost2010PropOp32
 70
     1
102
RTVSPost2010Prop33
280
     0
102
RTVSPost2010PropOp33
 70
     1
102
RTVSPost2010Prop34
280
     0
102
RTVSPost2010PropOp34
 70
     1
102
RTVSPost2010Prop35
280
     0
102
RTVSPost2010PropOp35
 70
     1
102
RTVSPost2010Prop36
280
     0
102
RTVSPost2010PropOp36
 70
     1
102
RTVSPost2010Prop37
 90
       50
102
RTVSPost2010PropOp37
 70
     1
102
RTVSPost2010Prop38
140
0.0
102
RTVSPost2010PropOp38
 70
     1
102
RTVSPost2010Prop39
140
1.0
102
RTVSPost2010PropOp39
 70
     1
102
RTVSPost2010Prop40
 90
        0
102
RTVSPost2010PropOp40
 70
     1
102
RTVSPost2010Prop41ColorIndex
 90
       18
102
RTVSPost2010Prop41ColorRGB
 90
        0
102
RTVSPost2010PropOp41
 70
     1
102
RTVSPost2010Prop42
 90
       50
102
RTVSPost2010PropOp42
 70
     1
102
RTVSPost2010Prop43
 90
        3
102
RTVSPost2010PropOp43
 70
     1
102
RTVSPost2010Prop44ColorIndex
 90
        5
102
RTVSPost2010Prop44ColorRGB
 90
      255
102
RTVSPost2010PropOp44
 70
     1
102
RTVSPost2010Prop45
280
     0
102
RTVSPost2010PropOp45
 70
     1
102
RTVSPost2010Prop46
 90
       50
102
RTVSPost2010PropOp46
 70
     1
102
RTVSPost2010Prop47
 90
       50
102
RTVSPost2010PropOp47
 70
     1
102
RTVSPost2010Prop48
 90
       50
102
RTVSPost2010PropOp48
 70
     1
102
RTVSPost2010Prop49
280
     0
102
RTVSPost2010PropOp49
 70
     1
102
RTVSPost2010Prop50
 90
       50
102
RTVSPost2010PropOp50
 70
     1
102
RTVSPost2010Prop51ColorIndex
 90
      256
102
RTVSPost2010Prop51ColorRGB
 90
-16777216
102
RTVSPost2010PropOp51
 70
     0
102
RTVSPost2010Prop52
140
1.0
102
RTVSPost2010PropOp52
 70
     0
102
RTVSPost2010Prop53
 90
        2
102
RTVSPost2010PropOp53
 70
     1
102
RTVSPost2010Prop54
  1
strokes_ogs.tif
102
RTVSPost2010PropOp54
 70
     1
102
RTVSPost2010Prop55
280
     0
102
RTVSPost2010PropOp55
 70
     1
102
RTVSPost2010Prop56
140
1.0
102
RTVSPost2010PropOp56
 70
     1
102
RTVSPost2010Prop57
140
1.0
102
RTVSPost2010PropOp57
 70
     1
  0
XRECORD
  5
24A1
102
{ACAD_REACTORS
330
24A0
102
}
330
24A0
100
AcDbXrecord
280
     1
102
RTVSPost2010Prop28
280
     0
102
RTVSPost2010PropOp28
 70
     1
102
RTVSPost2010Prop29
280
     1
102
RTVSPost2010PropOp29
 70
     1
102
RTVSPost2010Prop30
280
     1
102
RTVSPost2010PropOp30
 70
     1
102
RTVSPost2010Prop31
280
     0
102
RTVSPost2010PropOp31
 70
     1
102
RTVSPost2010Prop32
280
     0
102
RTVSPost2010PropOp32
 70
     1
102
RTVSPost2010Prop33
280
     0
102
RTVSPost2010PropOp33
 70
     1
102
RTVSPost2010Prop34
280
     0
102
RTVSPost2010PropOp34
 70
     1
102
RTVSPost2010Prop35
280
     0
102
RTVSPost2010PropOp35
 70
     1
102
RTVSPost2010Prop36
280
     0
102
RTVSPost2010PropOp36
 70
     1
102
RTVSPost2010Prop37
 90
       50
102
RTVSPost2010PropOp37
 70
     1
102
RTVSPost2010Prop38
140
0.0
102
RTVSPost2010PropOp38
 70
     1
102
RTVSPost2010Prop39
140
1.0
102
RTVSPost2010PropOp39
 70
     1
102
RTVSPost2010Prop40
 90
        0
102
RTVSPost2010PropOp40
 70
     1
102
RTVSPost2010Prop41ColorIndex
 90
       18
102
RTVSPost2010Prop41ColorRGB
 90
        0
102
RTVSPost2010PropOp41
 70
     1
102
RTVSPost2010Prop42
 90
       50
102
RTVSPost2010PropOp42
 70
     1
102
RTVSPost2010Prop43
 90
        3
102
RTVSPost2010PropOp43
 70
     1
102
RTVSPost2010Prop44ColorIndex
 90
        5
102
RTVSPost2010Prop44ColorRGB
 90
      255
102
RTVSPost2010PropOp44
 70
     1
102
RTVSPost2010Prop45
280
     0
102
RTVSPost2010PropOp45
 70
     1
102
RTVSPost2010Prop46
 90
       50
102
RTVSPost2010PropOp46
 70
     1
102
RTVSPost2010Prop47
 90
       50
102
RTVSPost2010PropOp47
 70
     1
102
RTVSPost2010Prop48
 90
       50
102
RTVSPost2010PropOp48
 70
     1
102
RTVSPost2010Prop49
280
     0
102
RTVSPost2010PropOp49
 70
     1
102
RTVSPost2010Prop50
 90
       50
102
RTVSPost2010PropOp50
 70
     1
102
RTVSPost2010Prop51ColorIndex
 90
      256
102
RTVSPost2010Prop51ColorRGB
 90
-16777216
102
RTVSPost2010PropOp51
 70
     0
102
RTVSPost2010Prop52
140
1.0
102
RTVSPost2010PropOp52
 70
     0
102
RTVSPost2010Prop53
 90
        2
102
RTVSPost2010PropOp53
 70
     1
102
RTVSPost2010Prop54
  1
strokes_ogs.tif
102
RTVSPost2010PropOp54
 70
     1
102
RTVSPost2010Prop55
280
     0
102
RTVSPost2010PropOp55
 70
     1
102
RTVSPost2010Prop56
140
1.0
102
RTVSPost2010PropOp56
 70
     1
102
RTVSPost2010Prop57
140
1.0
102
RTVSPost2010PropOp57
 70
     1
  0
XRECORD
  5
24BD
102
{ACAD_REACTORS
330
24BC
102
}
330
24BC
100
AcDbXrecord
280
     1
102
RTVSPost2010Prop28
280
     0
102
RTVSPost2010PropOp28
 70
     0
102
RTVSPost2010Prop29
280
     1
102
RTVSPost2010PropOp29
 70
     0
102
RTVSPost2010Prop30
280
     1
102
RTVSPost2010PropOp30
 70
     0
102
RTVSPost2010Prop31
280
     0
102
RTVSPost2010PropOp31
 70
     0
102
RTVSPost2010Prop32
280
     0
102
RTVSPost2010PropOp32
 70
     0
102
RTVSPost2010Prop33
280
     0
102
RTVSPost2010PropOp33
 70
     0
102
RTVSPost2010Prop34
280
     0
102
RTVSPost2010PropOp34
 70
     0
102
RTVSPost2010Prop35
280
     0
102
RTVSPost2010PropOp35
 70
     0
102
RTVSPost2010Prop36
280
     0
102
RTVSPost2010PropOp36
 70
     0
102
RTVSPost2010Prop37
 90
       50
102
RTVSPost2010PropOp37
 70
     0
102
RTVSPost2010Prop38
140
0.0
102
RTVSPost2010PropOp38
 70
     0
102
RTVSPost2010Prop39
140
1.0
102
RTVSPost2010PropOp39
 70
     0
102
RTVSPost2010Prop40
 90
        0
102
RTVSPost2010PropOp40
 70
     0
102
RTVSPost2010Prop41ColorIndex
 90
       18
102
RTVSPost2010Prop41ColorRGB
 90
        0
102
RTVSPost2010PropOp41
 70
     0
102
RTVSPost2010Prop42
 90
       50
102
RTVSPost2010PropOp42
 70
     0
102
RTVSPost2010Prop43
 90
        3
102
RTVSPost2010PropOp43
 70
     0
102
RTVSPost2010Prop44ColorIndex
 90
        5
102
RTVSPost2010Prop44ColorRGB
 90
      255
102
RTVSPost2010PropOp44
 70
     0
102
RTVSPost2010Prop45
280
     0
102
RTVSPost2010PropOp45
 70
     0
102
RTVSPost2010Prop46
 90
       50
102
RTVSPost2010PropOp46
 70
     0
102
RTVSPost2010Prop47
 90
       50
102
RTVSPost2010PropOp47
 70
     0
102
RTVSPost2010Prop48
 90
       50
102
RTVSPost2010PropOp48
 70
     0
102
RTVSPost2010Prop49
280
     0
102
RTVSPost2010PropOp49
 70
     0
102
RTVSPost2010Prop50
 90
       50
102
RTVSPost2010PropOp50
 70
     0
102
RTVSPost2010Prop51ColorIndex
 90
      256
102
RTVSPost2010Prop51ColorRGB
 90
-16777216
102
RTVSPost2010PropOp51
 70
     0
102
RTVSPost2010Prop52
140
1.0
102
RTVSPost2010PropOp52
 70
     0
102
RTVSPost2010Prop53
 90
        2
102
RTVSPost2010PropOp53
 70
     0
102
RTVSPost2010Prop54
  1
strokes_ogs.tif
102
RTVSPost2010PropOp54
 70
     0
102
RTVSPost2010Prop55
280
     0
102
RTVSPost2010PropOp55
 70
     0
102
RTVSPost2010Prop56
140
1.0
102
RTVSPost2010PropOp56
 70
     0
102
RTVSPost2010Prop57
140
1.0
102
RTVSPost2010PropOp57
 70
     0
  0
XRECORD
  5
24AD
102
{ACAD_REACTORS
330
24AC
102
}
330
24AC
100
AcDbXrecord
280
     1
102
RTVSPost2010Prop28
280
     0
102
RTVSPost2010PropOp28
 70
     1
102
RTVSPost2010Prop29
280
     1
102
RTVSPost2010PropOp29
 70
     1
102
RTVSPost2010Prop30
280
     1
102
RTVSPost2010PropOp30
 70
     1
102
RTVSPost2010Prop31
280
     0
102
RTVSPost2010PropOp31
 70
     1
102
RTVSPost2010Prop32
280
     0
102
RTVSPost2010PropOp32
 70
     1
102
RTVSPost2010Prop33
280
     0
102
RTVSPost2010PropOp33
 70
     1
102
RTVSPost2010Prop34
280
     0
102
RTVSPost2010PropOp34
 70
     1
102
RTVSPost2010Prop35
280
     0
102
RTVSPost2010PropOp35
 70
     1
102
RTVSPost2010Prop36
280
     0
102
RTVSPost2010PropOp36
 70
     1
102
RTVSPost2010Prop37
 90
       50
102
RTVSPost2010PropOp37
 70
     1
102
RTVSPost2010Prop38
140
0.0
102
RTVSPost2010PropOp38
 70
     1
102
RTVSPost2010Prop39
140
1.0
102
RTVSPost2010PropOp39
 70
     1
102
RTVSPost2010Prop40
 90
        0
102
RTVSPost2010PropOp40
 70
     1
102
RTVSPost2010Prop41ColorIndex
 90
       18
102
RTVSPost2010Prop41ColorRGB
 90
        0
102
RTVSPost2010PropOp41
 70
     1
102
RTVSPost2010Prop42
 90
       50
102
RTVSPost2010PropOp42
 70
     1
102
RTVSPost2010Prop43
 90
        3
102
RTVSPost2010PropOp43
 70
     1
102
RTVSPost2010Prop44ColorIndex
 90
        5
102
RTVSPost2010Prop44ColorRGB
 90
      255
102
RTVSPost2010PropOp44
 70
     1
102
RTVSPost2010Prop45
280
     0
102
RTVSPost2010PropOp45
 70
     1
102
RTVSPost2010Prop46
 90
       50
102
RTVSPost2010PropOp46
 70
     1
102
RTVSPost2010Prop47
 90
       50
102
RTVSPost2010PropOp47
 70
     1
102
RTVSPost2010Prop48
 90
       50
102
RTVSPost2010PropOp48
 70
     1
102
RTVSPost2010Prop49
280
     0
102
RTVSPost2010PropOp49
 70
     1
102
RTVSPost2010Prop50
 90
       50
102
RTVSPost2010PropOp50
 70
     1
102
RTVSPost2010Prop51ColorIndex
 90
      256
102
RTVSPost2010Prop51ColorRGB
 90
-16777216
102
RTVSPost2010PropOp51
 70
     0
102
RTVSPost2010Prop52
140
1.0
102
RTVSPost2010PropOp52
 70
     0
102
RTVSPost2010Prop53
 90
        2
102
RTVSPost2010PropOp53
 70
     1
102
RTVSPost2010Prop54
  1
strokes_ogs.tif
102
RTVSPost2010PropOp54
 70
     1
102
RTVSPost2010Prop55
280
     0
102
RTVSPost2010PropOp55
 70
     1
102
RTVSPost2010Prop56
140
1.0
102
RTVSPost2010PropOp56
 70
     1
102
RTVSPost2010Prop57
140
1.0
102
RTVSPost2010PropOp57
 70
     1
  0
XRECORD
  5
24BF
102
{ACAD_REACTORS
330
24BE
102
}
330
24BE
100
AcDbXrecord
280
     1
102
RTVSPost2010Prop28
280
     0
102
RTVSPost2010PropOp28
 70
     0
102
RTVSPost2010Prop29
280
     1
102
RTVSPost2010PropOp29
 70
     0
102
RTVSPost2010Prop30
280
     1
102
RTVSPost2010PropOp30
 70
     0
102
RTVSPost2010Prop31
280
     0
102
RTVSPost2010PropOp31
 70
     0
102
RTVSPost2010Prop32
280
     0
102
RTVSPost2010PropOp32
 70
     0
102
RTVSPost2010Prop33
280
     0
102
RTVSPost2010PropOp33
 70
     0
102
RTVSPost2010Prop34
280
     0
102
RTVSPost2010PropOp34
 70
     0
102
RTVSPost2010Prop35
280
     0
102
RTVSPost2010PropOp35
 70
     0
102
RTVSPost2010Prop36
280
     0
102
RTVSPost2010PropOp36
 70
     0
102
RTVSPost2010Prop37
 90
       50
102
RTVSPost2010PropOp37
 70
     0
102
RTVSPost2010Prop38
140
0.0
102
RTVSPost2010PropOp38
 70
     0
102
RTVSPost2010Prop39
140
1.0
102
RTVSPost2010PropOp39
 70
     0
102
RTVSPost2010Prop40
 90
        0
102
RTVSPost2010PropOp40
 70
     0
102
RTVSPost2010Prop41ColorIndex
 90
       18
102
RTVSPost2010Prop41ColorRGB
 90
        0
102
RTVSPost2010PropOp41
 70
     0
102
RTVSPost2010Prop42
 90
       50
102
RTVSPost2010PropOp42
 70
     0
102
RTVSPost2010Prop43
 90
        3
102
RTVSPost2010PropOp43
 70
     0
102
RTVSPost2010Prop44ColorIndex
 90
        5
102
RTVSPost2010Prop44ColorRGB
 90
      255
102
RTVSPost2010PropOp44
 70
     0
102
RTVSPost2010Prop45
280
     0
102
RTVSPost2010PropOp45
 70
     0
102
RTVSPost2010Prop46
 90
       50
102
RTVSPost2010PropOp46
 70
     0
102
RTVSPost2010Prop47
 90
       50
102
RTVSPost2010PropOp47
 70
     0
102
RTVSPost2010Prop48
 90
       50
102
RTVSPost2010PropOp48
 70
     0
102
RTVSPost2010Prop49
280
     0
102
RTVSPost2010PropOp49
 70
     0
102
RTVSPost2010Prop50
 90
       50
102
RTVSPost2010PropOp50
 70
     0
102
RTVSPost2010Prop51ColorIndex
 90
      256
102
RTVSPost2010Prop51ColorRGB
 90
-16777216
102
RTVSPost2010PropOp51
 70
     0
102
RTVSPost2010Prop52
140
1.0
102
RTVSPost2010PropOp52
 70
     0
102
RTVSPost2010Prop53
 90
        2
102
RTVSPost2010PropOp53
 70
     0
102
RTVSPost2010Prop54
  1
strokes_ogs.tif
102
RTVSPost2010PropOp54
 70
     0
102
RTVSPost2010Prop55
280
     0
102
RTVSPost2010PropOp55
 70
     0
102
RTVSPost2010Prop56
140
1.0
102
RTVSPost2010PropOp56
 70
     0
102
RTVSPost2010Prop57
140
1.0
102
RTVSPost2010PropOp57
 70
     0
  0
XRECORD
  5
24A5
102
{ACAD_REACTORS
330
24A4
102
}
330
24A4
100
AcDbXrecord
280
     1
102
RTVSPost2010Prop28
280
     0
102
RTVSPost2010PropOp28
 70
     1
102
RTVSPost2010Prop29
280
     1
102
RTVSPost2010PropOp29
 70
     1
102
RTVSPost2010Prop30
280
     1
102
RTVSPost2010PropOp30
 70
     1
102
RTVSPost2010Prop31
280
     0
102
RTVSPost2010PropOp31
 70
     1
102
RTVSPost2010Prop32
280
     0
102
RTVSPost2010PropOp32
 70
     1
102
RTVSPost2010Prop33
280
     0
102
RTVSPost2010PropOp33
 70
     1
102
RTVSPost2010Prop34
280
     0
102
RTVSPost2010PropOp34
 70
     1
102
RTVSPost2010Prop35
280
     0
102
RTVSPost2010PropOp35
 70
     1
102
RTVSPost2010Prop36
280
     0
102
RTVSPost2010PropOp36
 70
     1
102
RTVSPost2010Prop37
 90
       50
102
RTVSPost2010PropOp37
 70
     1
102
RTVSPost2010Prop38
140
0.0
102
RTVSPost2010PropOp38
 70
     1
102
RTVSPost2010Prop39
140
1.0
102
RTVSPost2010PropOp39
 70
     1
102
RTVSPost2010Prop40
 90
        0
102
RTVSPost2010PropOp40
 70
     1
102
RTVSPost2010Prop41ColorIndex
 90
       18
102
RTVSPost2010Prop41ColorRGB
 90
        0
102
RTVSPost2010PropOp41
 70
     1
102
RTVSPost2010Prop42
 90
       50
102
RTVSPost2010PropOp42
 70
     1
102
RTVSPost2010Prop43
 90
        3
102
RTVSPost2010PropOp43
 70
     1
102
RTVSPost2010Prop44ColorIndex
 90
        5
102
RTVSPost2010Prop44ColorRGB
 90
      255
102
RTVSPost2010PropOp44
 70
     1
102
RTVSPost2010Prop45
280
     0
102
RTVSPost2010PropOp45
 70
     1
102
RTVSPost2010Prop46
 90
       50
102
RTVSPost2010PropOp46
 70
     1
102
RTVSPost2010Prop47
 90
       50
102
RTVSPost2010PropOp47
 70
     1
102
RTVSPost2010Prop48
 90
       50
102
RTVSPost2010PropOp48
 70
     1
102
RTVSPost2010Prop49
280
     0
102
RTVSPost2010PropOp49
 70
     1
102
RTVSPost2010Prop50
 90
       50
102
RTVSPost2010PropOp50
 70
     1
102
RTVSPost2010Prop51ColorIndex
 90
      256
102
RTVSPost2010Prop51ColorRGB
 90
-16777216
102
RTVSPost2010PropOp51
 70
     0
102
RTVSPost2010Prop52
140
1.0
102
RTVSPost2010PropOp52
 70
     0
102
RTVSPost2010Prop53
 90
        2
102
RTVSPost2010PropOp53
 70
     1
102
RTVSPost2010Prop54
  1
strokes_ogs.tif
102
RTVSPost2010PropOp54
 70
     1
102
RTVSPost2010Prop55
280
     0
102
RTVSPost2010PropOp55
 70
     1
102
RTVSPost2010Prop56
140
1.0
102
RTVSPost2010PropOp56
 70
     1
102
RTVSPost2010Prop57
140
1.0
102
RTVSPost2010PropOp57
 70
     1
  0
XRECORD
  5
24BB
102
{ACAD_REACTORS
330
24BA
102
}
330
24BA
100
AcDbXrecord
280
     1
102
RTVSPost2010Prop28
280
     0
102
RTVSPost2010PropOp28
 70
     1
102
RTVSPost2010Prop29
280
     1
102
RTVSPost2010PropOp29
 70
     1
102
RTVSPost2010Prop30
280
     1
102
RTVSPost2010PropOp30
 70
     1
102
RTVSPost2010Prop31
280
     0
102
RTVSPost2010PropOp31
 70
     1
102
RTVSPost2010Prop32
280
     0
102
RTVSPost2010PropOp32
 70
     1
102
RTVSPost2010Prop33
280
     0
102
RTVSPost2010PropOp33
 70
     1
102
RTVSPost2010Prop34
280
     0
102
RTVSPost2010PropOp34
 70
     1
102
RTVSPost2010Prop35
280
     0
102
RTVSPost2010PropOp35
 70
     1
102
RTVSPost2010Prop36
280
     0
102
RTVSPost2010PropOp36
 70
     1
102
RTVSPost2010Prop37
 90
       50
102
RTVSPost2010PropOp37
 70
     1
102
RTVSPost2010Prop38
140
0.0
102
RTVSPost2010PropOp38
 70
     1
102
RTVSPost2010Prop39
140
1.0
102
RTVSPost2010PropOp39
 70
     1
102
RTVSPost2010Prop40
 90
        0
102
RTVSPost2010PropOp40
 70
     1
102
RTVSPost2010Prop41ColorIndex
 90
       18
102
RTVSPost2010Prop41ColorRGB
 90
        0
102
RTVSPost2010PropOp41
 70
     1
102
RTVSPost2010Prop42
 90
       50
102
RTVSPost2010PropOp42
 70
     1
102
RTVSPost2010Prop43
 90
        3
102
RTVSPost2010PropOp43
 70
     1
102
RTVSPost2010Prop44ColorIndex
 90
        5
102
RTVSPost2010Prop44ColorRGB
 90
      255
102
RTVSPost2010PropOp44
 70
     1
102
RTVSPost2010Prop45
280
     0
102
RTVSPost2010PropOp45
 70
     1
102
RTVSPost2010Prop46
 90
       50
102
RTVSPost2010PropOp46
 70
     1
102
RTVSPost2010Prop47
 90
       50
102
RTVSPost2010PropOp47
 70
     1
102
RTVSPost2010Prop48
 90
       50
102
RTVSPost2010PropOp48
 70
     1
102
RTVSPost2010Prop49
280
     0
102
RTVSPost2010PropOp49
 70
     1
102
RTVSPost2010Prop50
 90
       50
102
RTVSPost2010PropOp50
 70
     1
102
RTVSPost2010Prop51ColorIndex
 90
      256
102
RTVSPost2010Prop51ColorRGB
 90
-16777216
102
RTVSPost2010PropOp51
 70
     0
102
RTVSPost2010Prop52
140
1.0
102
RTVSPost2010PropOp52
 70
     0
102
RTVSPost2010Prop53
 90
        2
102
RTVSPost2010PropOp53
 70
     1
102
RTVSPost2010Prop54
  1
strokes_ogs.tif
102
RTVSPost2010PropOp54
 70
     1
102
RTVSPost2010Prop55
280
     0
102
RTVSPost2010PropOp55
 70
     1
102
RTVSPost2010Prop56
140
1.0
102
RTVSPost2010PropOp56
 70
     1
102
RTVSPost2010Prop57
140
1.0
102
RTVSPost2010PropOp57
 70
     1
  0
XRECORD
  5
24B9
102
{ACAD_REACTORS
330
24B8
102
}
330
24B8
100
AcDbXrecord
280
     1
102
RTVSPost2010Prop28
280
     0
102
RTVSPost2010PropOp28
 70
     1
102
RTVSPost2010Prop29
280
     1
102
RTVSPost2010PropOp29
 70
     1
102
RTVSPost2010Prop30
280
     1
102
RTVSPost2010PropOp30
 70
     1
102
RTVSPost2010Prop31
280
     0
102
RTVSPost2010PropOp31
 70
     1
102
RTVSPost2010Prop32
280
     0
102
RTVSPost2010PropOp32
 70
     1
102
RTVSPost2010Prop33
280
     0
102
RTVSPost2010PropOp33
 70
     1
102
RTVSPost2010Prop34
280
     0
102
RTVSPost2010PropOp34
 70
     1
102
RTVSPost2010Prop35
280
     0
102
RTVSPost2010PropOp35
 70
     1
102
RTVSPost2010Prop36
280
     0
102
RTVSPost2010PropOp36
 70
     1
102
RTVSPost2010Prop37
 90
       50
102
RTVSPost2010PropOp37
 70
     1
102
RTVSPost2010Prop38
140
0.0
102
RTVSPost2010PropOp38
 70
     1
102
RTVSPost2010Prop39
140
1.0
102
RTVSPost2010PropOp39
 70
     1
102
RTVSPost2010Prop40
 90
        0
102
RTVSPost2010PropOp40
 70
     1
102
RTVSPost2010Prop41ColorIndex
 90
       18
102
RTVSPost2010Prop41ColorRGB
 90
        0
102
RTVSPost2010PropOp41
 70
     1
102
RTVSPost2010Prop42
 90
       50
102
RTVSPost2010PropOp42
 70
     1
102
RTVSPost2010Prop43
 90
        3
102
RTVSPost2010PropOp43
 70
     1
102
RTVSPost2010Prop44ColorIndex
 90
        5
102
RTVSPost2010Prop44ColorRGB
 90
      255
102
RTVSPost2010PropOp44
 70
     1
102
RTVSPost2010Prop45
280
     0
102
RTVSPost2010PropOp45
 70
     1
102
RTVSPost2010Prop46
 90
       50
102
RTVSPost2010PropOp46
 70
     1
102
RTVSPost2010Prop47
 90
       50
102
RTVSPost2010PropOp47
 70
     1
102
RTVSPost2010Prop48
 90
       50
102
RTVSPost2010PropOp48
 70
     1
102
RTVSPost2010Prop49
280
     0
102
RTVSPost2010PropOp49
 70
     1
102
RTVSPost2010Prop50
 90
       50
102
RTVSPost2010PropOp50
 70
     1
102
RTVSPost2010Prop51ColorIndex
 90
      256
102
RTVSPost2010Prop51ColorRGB
 90
-16777216
102
RTVSPost2010PropOp51
 70
     0
102
RTVSPost2010Prop52
140
1.0
102
RTVSPost2010PropOp52
 70
     0
102
RTVSPost2010Prop53
 90
        2
102
RTVSPost2010PropOp53
 70
     1
102
RTVSPost2010Prop54
  1
strokes_ogs.tif
102
RTVSPost2010PropOp54
 70
     1
102
RTVSPost2010Prop55
280
     0
102
RTVSPost2010PropOp55
 70
     1
102
RTVSPost2010Prop56
140
1.0
102
RTVSPost2010PropOp56
 70
     1
102
RTVSPost2010Prop57
140
1.0
102
RTVSPost2010PropOp57
 70
     1
  0
XRECORD
  5
24B3
102
{ACAD_REACTORS
330
24B2
102
}
330
24B2
100
AcDbXrecord
280
     1
102
RTVSPost2010Prop28
280
     0
102
RTVSPost2010PropOp28
 70
     1
102
RTVSPost2010Prop29
280
     1
102
RTVSPost2010PropOp29
 70
     1
102
RTVSPost2010Prop30
280
     1
102
RTVSPost2010PropOp30
 70
     1
102
RTVSPost2010Prop31
280
     0
102
RTVSPost2010PropOp31
 70
     1
102
RTVSPost2010Prop32
280
     0
102
RTVSPost2010PropOp32
 70
     1
102
RTVSPost2010Prop33
280
     0
102
RTVSPost2010PropOp33
 70
     1
102
RTVSPost2010Prop34
280
     0
102
RTVSPost2010PropOp34
 70
     1
102
RTVSPost2010Prop35
280
     0
102
RTVSPost2010PropOp35
 70
     1
102
RTVSPost2010Prop36
280
     0
102
RTVSPost2010PropOp36
 70
     1
102
RTVSPost2010Prop37
 90
       50
102
RTVSPost2010PropOp37
 70
     1
102
RTVSPost2010Prop38
140
0.0
102
RTVSPost2010PropOp38
 70
     1
102
RTVSPost2010Prop39
140
1.0
102
RTVSPost2010PropOp39
 70
     1
102
RTVSPost2010Prop40
 90
        0
102
RTVSPost2010PropOp40
 70
     1
102
RTVSPost2010Prop41ColorIndex
 90
       18
102
RTVSPost2010Prop41ColorRGB
 90
        0
102
RTVSPost2010PropOp41
 70
     1
102
RTVSPost2010Prop42
 90
       50
102
RTVSPost2010PropOp42
 70
     1
102
RTVSPost2010Prop43
 90
        3
102
RTVSPost2010PropOp43
 70
     1
102
RTVSPost2010Prop44ColorIndex
 90
        5
102
RTVSPost2010Prop44ColorRGB
 90
      255
102
RTVSPost2010PropOp44
 70
     1
102
RTVSPost2010Prop45
280
     0
102
RTVSPost2010PropOp45
 70
     1
102
RTVSPost2010Prop46
 90
       50
102
RTVSPost2010PropOp46
 70
     1
102
RTVSPost2010Prop47
 90
       50
102
RTVSPost2010PropOp47
 70
     1
102
RTVSPost2010Prop48
 90
       50
102
RTVSPost2010PropOp48
 70
     1
102
RTVSPost2010Prop49
280
     0
102
RTVSPost2010PropOp49
 70
     1
102
RTVSPost2010Prop50
 90
       50
102
RTVSPost2010PropOp50
 70
     1
102
RTVSPost2010Prop51ColorIndex
 90
      256
102
RTVSPost2010Prop51ColorRGB
 90
-16777216
102
RTVSPost2010PropOp51
 70
     0
102
RTVSPost2010Prop52
140
1.0
102
RTVSPost2010PropOp52
 70
     0
102
RTVSPost2010Prop53
 90
        2
102
RTVSPost2010PropOp53
 70
     1
102
RTVSPost2010Prop54
  1
strokes_ogs.tif
102
RTVSPost2010PropOp54
 70
     1
102
RTVSPost2010Prop55
280
     0
102
RTVSPost2010PropOp55
 70
     1
102
RTVSPost2010Prop56
140
1.0
102
RTVSPost2010PropOp56
 70
     1
102
RTVSPost2010Prop57
140
1.0
102
RTVSPost2010PropOp57
 70
     1
  0
XRECORD
  5
24B5
102
{ACAD_REACTORS
330
24B4
102
}
330
24B4
100
AcDbXrecord
280
     1
102
RTVSPost2010Prop28
280
     0
102
RTVSPost2010PropOp28
 70
     1
102
RTVSPost2010Prop29
280
     1
102
RTVSPost2010PropOp29
 70
     1
102
RTVSPost2010Prop30
280
     1
102
RTVSPost2010PropOp30
 70
     1
102
RTVSPost2010Prop31
280
     0
102
RTVSPost2010PropOp31
 70
     1
102
RTVSPost2010Prop32
280
     0
102
RTVSPost2010PropOp32
 70
     1
102
RTVSPost2010Prop33
280
     0
102
RTVSPost2010PropOp33
 70
     1
102
RTVSPost2010Prop34
280
     0
102
RTVSPost2010PropOp34
 70
     1
102
RTVSPost2010Prop35
280
     0
102
RTVSPost2010PropOp35
 70
     1
102
RTVSPost2010Prop36
280
     0
102
RTVSPost2010PropOp36
 70
     1
102
RTVSPost2010Prop37
 90
       50
102
RTVSPost2010PropOp37
 70
     1
102
RTVSPost2010Prop38
140
0.0
102
RTVSPost2010PropOp38
 70
     1
102
RTVSPost2010Prop39
140
1.0
102
RTVSPost2010PropOp39
 70
     1
102
RTVSPost2010Prop40
 90
        0
102
RTVSPost2010PropOp40
 70
     1
102
RTVSPost2010Prop41ColorIndex
 90
       18
102
RTVSPost2010Prop41ColorRGB
 90
        0
102
RTVSPost2010PropOp41
 70
     1
102
RTVSPost2010Prop42
 90
       50
102
RTVSPost2010PropOp42
 70
     1
102
RTVSPost2010Prop43
 90
        3
102
RTVSPost2010PropOp43
 70
     1
102
RTVSPost2010Prop44ColorIndex
 90
        5
102
RTVSPost2010Prop44ColorRGB
 90
      255
102
RTVSPost2010PropOp44
 70
     1
102
RTVSPost2010Prop45
280
     0
102
RTVSPost2010PropOp45
 70
     1
102
RTVSPost2010Prop46
 90
       50
102
RTVSPost2010PropOp46
 70
     1
102
RTVSPost2010Prop47
 90
       50
102
RTVSPost2010PropOp47
 70
     1
102
RTVSPost2010Prop48
 90
       50
102
RTVSPost2010PropOp48
 70
     1
102
RTVSPost2010Prop49
280
     0
102
RTVSPost2010PropOp49
 70
     1
102
RTVSPost2010Prop50
 90
       50
102
RTVSPost2010PropOp50
 70
     1
102
RTVSPost2010Prop51ColorIndex
 90
      256
102
RTVSPost2010Prop51ColorRGB
 90
-16777216
102
RTVSPost2010PropOp51
 70
     0
102
RTVSPost2010Prop52
140
1.0
102
RTVSPost2010PropOp52
 70
     0
102
RTVSPost2010Prop53
 90
        2
102
RTVSPost2010PropOp53
 70
     1
102
RTVSPost2010Prop54
  1
strokes_ogs.tif
102
RTVSPost2010PropOp54
 70
     1
102
RTVSPost2010Prop55
280
     0
102
RTVSPost2010PropOp55
 70
     1
102
RTVSPost2010Prop56
140
1.0
102
RTVSPost2010PropOp56
 70
     1
102
RTVSPost2010Prop57
140
1.0
102
RTVSPost2010PropOp57
 70
     1
  0
XRECORD
  5
24AB
102
{ACAD_REACTORS
330
24AA
102
}
330
24AA
100
AcDbXrecord
280
     1
102
RTVSPost2010Prop28
280
     0
102
RTVSPost2010PropOp28
 70
     1
102
RTVSPost2010Prop29
280
     1
102
RTVSPost2010PropOp29
 70
     1
102
RTVSPost2010Prop30
280
     1
102
RTVSPost2010PropOp30
 70
     1
102
RTVSPost2010Prop31
280
     0
102
RTVSPost2010PropOp31
 70
     1
102
RTVSPost2010Prop32
280
     0
102
RTVSPost2010PropOp32
 70
     1
102
RTVSPost2010Prop33
280
     0
102
RTVSPost2010PropOp33
 70
     1
102
RTVSPost2010Prop34
280
     0
102
RTVSPost2010PropOp34
 70
     1
102
RTVSPost2010Prop35
280
     0
102
RTVSPost2010PropOp35
 70
     1
102
RTVSPost2010Prop36
280
     0
102
RTVSPost2010PropOp36
 70
     1
102
RTVSPost2010Prop37
 90
       50
102
RTVSPost2010PropOp37
 70
     1
102
RTVSPost2010Prop38
140
0.0
102
RTVSPost2010PropOp38
 70
     1
102
RTVSPost2010Prop39
140
1.0
102
RTVSPost2010PropOp39
 70
     1
102
RTVSPost2010Prop40
 90
        0
102
RTVSPost2010PropOp40
 70
     1
102
RTVSPost2010Prop41ColorIndex
 90
       18
102
RTVSPost2010Prop41ColorRGB
 90
        0
102
RTVSPost2010PropOp41
 70
     1
102
RTVSPost2010Prop42
 90
       50
102
RTVSPost2010PropOp42
 70
     1
102
RTVSPost2010Prop43
 90
        3
102
RTVSPost2010PropOp43
 70
     1
102
RTVSPost2010Prop44ColorIndex
 90
        5
102
RTVSPost2010Prop44ColorRGB
 90
      255
102
RTVSPost2010PropOp44
 70
     1
102
RTVSPost2010Prop45
280
     0
102
RTVSPost2010PropOp45
 70
     1
102
RTVSPost2010Prop46
 90
       50
102
RTVSPost2010PropOp46
 70
     1
102
RTVSPost2010Prop47
 90
       50
102
RTVSPost2010PropOp47
 70
     1
102
RTVSPost2010Prop48
 90
       50
102
RTVSPost2010PropOp48
 70
     1
102
RTVSPost2010Prop49
280
     0
102
RTVSPost2010PropOp49
 70
     1
102
RTVSPost2010Prop50
 90
       50
102
RTVSPost2010PropOp50
 70
     1
102
RTVSPost2010Prop51ColorIndex
 90
      256
102
RTVSPost2010Prop51ColorRGB
 90
-16777216
102
RTVSPost2010PropOp51
 70
     0
102
RTVSPost2010Prop52
140
1.0
102
RTVSPost2010PropOp52
 70
     0
102
RTVSPost2010Prop53
 90
        2
102
RTVSPost2010PropOp53
 70
     1
102
RTVSPost2010Prop54
  1
strokes_ogs.tif
102
RTVSPost2010PropOp54
 70
     1
102
RTVSPost2010Prop55
280
     0
102
RTVSPost2010PropOp55
 70
     1
102
RTVSPost2010Prop56
140
1.0
102
RTVSPost2010PropOp56
 70
     1
102
RTVSPost2010Prop57
140
1.0
102
RTVSPost2010PropOp57
 70
     1
  0
XRECORD
  5
249F
102
{ACAD_REACTORS
330
249E
102
}
330
249E
100
AcDbXrecord
280
     1
102
RTVSPost2010Prop28
280
     0
102
RTVSPost2010PropOp28
 70
     1
102
RTVSPost2010Prop29
280
     1
102
RTVSPost2010PropOp29
 70
     1
102
RTVSPost2010Prop30
280
     1
102
RTVSPost2010PropOp30
 70
     1
102
RTVSPost2010Prop31
280
     0
102
RTVSPost2010PropOp31
 70
     1
102
RTVSPost2010Prop32
280
     0
102
RTVSPost2010PropOp32
 70
     1
102
RTVSPost2010Prop33
280
     0
102
RTVSPost2010PropOp33
 70
     1
102
RTVSPost2010Prop34
280
     0
102
RTVSPost2010PropOp34
 70
     1
102
RTVSPost2010Prop35
280
     0
102
RTVSPost2010PropOp35
 70
     1
102
RTVSPost2010Prop36
280
     0
102
RTVSPost2010PropOp36
 70
     1
102
RTVSPost2010Prop37
 90
       50
102
RTVSPost2010PropOp37
 70
     1
102
RTVSPost2010Prop38
140
0.0
102
RTVSPost2010PropOp38
 70
     1
102
RTVSPost2010Prop39
140
1.0
102
RTVSPost2010PropOp39
 70
     1
102
RTVSPost2010Prop40
 90
        0
102
RTVSPost2010PropOp40
 70
     1
102
RTVSPost2010Prop41ColorIndex
 90
       18
102
RTVSPost2010Prop41ColorRGB
 90
        0
102
RTVSPost2010PropOp41
 70
     1
102
RTVSPost2010Prop42
 90
       50
102
RTVSPost2010PropOp42
 70
     1
102
RTVSPost2010Prop43
 90
        3
102
RTVSPost2010PropOp43
 70
     1
102
RTVSPost2010Prop44ColorIndex
 90
        5
102
RTVSPost2010Prop44ColorRGB
 90
      255
102
RTVSPost2010PropOp44
 70
     1
102
RTVSPost2010Prop45
280
     0
102
RTVSPost2010PropOp45
 70
     1
102
RTVSPost2010Prop46
 90
       50
102
RTVSPost2010PropOp46
 70
     1
102
RTVSPost2010Prop47
 90
       50
102
RTVSPost2010PropOp47
 70
     1
102
RTVSPost2010Prop48
 90
       50
102
RTVSPost2010PropOp48
 70
     1
102
RTVSPost2010Prop49
280
     0
102
RTVSPost2010PropOp49
 70
     1
102
RTVSPost2010Prop50
 90
       50
102
RTVSPost2010PropOp50
 70
     1
102
RTVSPost2010Prop51ColorIndex
 90
      256
102
RTVSPost2010Prop51ColorRGB
 90
-16777216
102
RTVSPost2010PropOp51
 70
     0
102
RTVSPost2010Prop52
140
1.0
102
RTVSPost2010PropOp52
 70
     0
102
RTVSPost2010Prop53
 90
        2
102
RTVSPost2010PropOp53
 70
     1
102
RTVSPost2010Prop54
  1
strokes_ogs.tif
102
RTVSPost2010PropOp54
 70
     1
102
RTVSPost2010Prop55
280
     0
102
RTVSPost2010PropOp55
 70
     1
102
RTVSPost2010Prop56
140
1.0
102
RTVSPost2010PropOp56
 70
     1
102
RTVSPost2010Prop57
140
1.0
102
RTVSPost2010PropOp57
 70
     1
  0
XRECORD
  5
24B7
102
{ACAD_REACTORS
330
24B6
102
}
330
24B6
100
AcDbXrecord
280
     1
102
RTVSPost2010Prop28
280
     0
102
RTVSPost2010PropOp28
 70
     1
102
RTVSPost2010Prop29
280
     1
102
RTVSPost2010PropOp29
 70
     1
102
RTVSPost2010Prop30
280
     1
102
RTVSPost2010PropOp30
 70
     1
102
RTVSPost2010Prop31
280
     0
102
RTVSPost2010PropOp31
 70
     1
102
RTVSPost2010Prop32
280
     0
102
RTVSPost2010PropOp32
 70
     1
102
RTVSPost2010Prop33
280
     0
102
RTVSPost2010PropOp33
 70
     1
102
RTVSPost2010Prop34
280
     0
102
RTVSPost2010PropOp34
 70
     1
102
RTVSPost2010Prop35
280
     0
102
RTVSPost2010PropOp35
 70
     1
102
RTVSPost2010Prop36
280
     0
102
RTVSPost2010PropOp36
 70
     1
102
RTVSPost2010Prop37
 90
       50
102
RTVSPost2010PropOp37
 70
     1
102
RTVSPost2010Prop38
140
0.0
102
RTVSPost2010PropOp38
 70
     1
102
RTVSPost2010Prop39
140
1.0
102
RTVSPost2010PropOp39
 70
     1
102
RTVSPost2010Prop40
 90
        0
102
RTVSPost2010PropOp40
 70
     1
102
RTVSPost2010Prop41ColorIndex
 90
       18
102
RTVSPost2010Prop41ColorRGB
 90
        0
102
RTVSPost2010PropOp41
 70
     1
102
RTVSPost2010Prop42
 90
       50
102
RTVSPost2010PropOp42
 70
     1
102
RTVSPost2010Prop43
 90
        3
102
RTVSPost2010PropOp43
 70
     1
102
RTVSPost2010Prop44ColorIndex
 90
        5
102
RTVSPost2010Prop44ColorRGB
 90
      255
102
RTVSPost2010PropOp44
 70
     1
102
RTVSPost2010Prop45
280
     0
102
RTVSPost2010PropOp45
 70
     1
102
RTVSPost2010Prop46
 90
       50
102
RTVSPost2010PropOp46
 70
     1
102
RTVSPost2010Prop47
 90
       50
102
RTVSPost2010PropOp47
 70
     1
102
RTVSPost2010Prop48
 90
       50
102
RTVSPost2010PropOp48
 70
     1
102
RTVSPost2010Prop49
280
     0
102
RTVSPost2010PropOp49
 70
     1
102
RTVSPost2010Prop50
 90
       50
102
RTVSPost2010PropOp50
 70
     1
102
RTVSPost2010Prop51ColorIndex
 90
      256
102
RTVSPost2010Prop51ColorRGB
 90
-16777216
102
RTVSPost2010PropOp51
 70
     0
102
RTVSPost2010Prop52
140
1.0
102
RTVSPost2010PropOp52
 70
     0
102
RTVSPost2010Prop53
 90
        2
102
RTVSPost2010PropOp53
 70
     1
102
RTVSPost2010Prop54
  1
strokes_ogs.tif
102
RTVSPost2010PropOp54
 70
     1
102
RTVSPost2010Prop55
280
     0
102
RTVSPost2010PropOp55
 70
     1
102
RTVSPost2010Prop56
140
1.0
102
RTVSPost2010PropOp56
 70
     1
102
RTVSPost2010Prop57
140
1.0
102
RTVSPost2010PropOp57
 70
     1
  0
ENDSEC
  0
EOF
