  0
SECTION
  2
HEADER
  9
$ACADVER
  1
AC1015
  9
$ACADMAINTVER
 70
    20
  9
$DWGCODEPAGE
  3
ANSI_1252
  9
$INSBASE
 10
0.0
 20
0.0
 30
0.0
  9
$EXTMIN
 10
-9.529697059759882
 20
-5356.035826956098
 30
-0.0000000000000678
  9
$EXTMAX
 10
6618.417212376836
 20
3150.189495452387
 30
0.0000000000010503
  9
$LIMMIN
 10
0.0
 20
0.0
  9
$LIMMAX
 10
12.0
 20
9.0
  9
$ORTHOMODE
 70
     0
  9
$REGENMODE
 70
     1
  9
$FILLMODE
 70
     1
  9
$QTEXTMODE
 70
     0
  9
$MIRRTEXT
 70
     1
  9
$LTSCALE
 40
1.0
  9
$ATTMODE
 70
     1
  9
$TEXTSIZE
 40
0.2
  9
$TRACEWID
 40
0.05
  9
$TEXTSTYLE
  7
Standard
  9
$CLAYER
  8
0
  9
$CELTYPE
  6
ByLayer
  9
$CECOLOR
 62
   256
  9
$CELTSCALE
 40
1.0
  9
$DISPSILH
 70
     0
  9
$DIMSCALE
 40
1.0
  9
$DIMASZ
 40
0.18
  9
$DIMEXO
 40
0.0625
  9
$DIMDLI
 40
0.38
  9
$DIMRND
 40
0.0
  9
$DIMDLE
 40
0.0
  9
$DIMEXE
 40
0.18
  9
$DIMTP
 40
0.0
  9
$DIMTM
 40
0.0
  9
$DIMTXT
 40
0.18
  9
$DIMCEN
 40
0.09
  9
$DIMTSZ
 40
0.0
  9
$DIMTOL
 70
     0
  9
$DIMLIM
 70
     0
  9
$DIMTIH
 70
     1
  9
$DIMTOH
 70
     1
  9
$DIMSE1
 70
     0
  9
$DIMSE2
 70
     0
  9
$DIMTAD
 70
     0
  9
$DIMZIN
 70
     0
  9
$DIMBLK
  1

  9
$DIMASO
 70
     1
  9
$DIMSHO
 70
     1
  9
$DIMPOST
  1

  9
$DIMAPOST
  1

  9
$DIMALT
 70
     0
  9
$DIMALTD
 70
     2
  9
$DIMALTF
 40
25.4
  9
$DIMLFAC
 40
1.0
  9
$DIMTOFL
 70
     0
  9
$DIMTVP
 40
0.0
  9
$DIMTIX
 70
     0
  9
$DIMSOXD
 70
     0
  9
$DIMSAH
 70
     0
  9
$DIMBLK1
  1

  9
$DIMBLK2
  1

  9
$DIMSTYLE
  2
Standard
  9
$DIMCLRD
 70
     0
  9
$DIMCLRE
 70
     0
  9
$DIMCLRT
 70
     0
  9
$DIMTFAC
 40
1.0
  9
$DIMGAP
 40
0.09
  9
$DIMJUST
 70
     0
  9
$DIMSD1
 70
     0
  9
$DIMSD2
 70
     0
  9
$DIMTOLJ
 70
     1
  9
$DIMTZIN
 70
     0
  9
$DIMALTZ
 70
     0
  9
$DIMALTTZ
 70
     0
  9
$DIMUPT
 70
     0
  9
$DIMDEC
 70
     4
  9
$DIMTDEC
 70
     4
  9
$DIMALTU
 70
     2
  9
$DIMALTTD
 70
     2
  9
$DIMTXSTY
  7
Standard
  9
$DIMAUNIT
 70
     0
  9
$DIMADEC
 70
     0
  9
$DIMALTRND
 40
0.0
  9
$DIMAZIN
 70
     0
  9
$DIMDSEP
 70
    46
  9
$DIMATFIT
 70
     3
  9
$DIMFRAC
 70
     0
  9
$DIMLDRBLK
  1

  9
$DIMLUNIT
 70
     2
  9
$DIMLWD
 70
    -2
  9
$DIMLWE
 70
    -2
  9
$DIMTMOVE
 70
     2
  9
$LUNITS
 70
     2
  9
$LUPREC
 70
     4
  9
$SKETCHINC
 40
0.1
  9
$FILLETRAD
 40
0.5
  9
$AUNITS
 70
     0
  9
$AUPREC
 70
     0
  9
$MENU
  1
.
  9
$ELEVATION
 40
0.0
  9
$PELEVATION
 40
0.0
  9
$THICKNESS
 40
0.0
  9
$LIMCHECK
 70
     0
  9
$CHAMFERA
 40
0.5
  9
$CHAMFERB
 40
0.5
  9
$CHAMFERC
 40
1.0
  9
$CHAMFERD
 40
0.0
  9
$SKPOLY
 70
     0
  9
$TDCREATE
 40
2454858.689810058
  9
$TDUCREATE
 40
2454858.648143391
  9
$TDUPDATE
 40
2456342.478959665
  9
$TDUUPDATE
 40
2456342.437292998
  9
$TDINDWG
 40
0.0578875116
  9
$TDUSRTIMER
 40
0.0578855787
  9
$USRTIMER
 70
     1
  9
$ANGBASE
 50
0.0
  9
$ANGDIR
 70
     0
  9
$PDMODE
 70
     0
  9
$PDSIZE
 40
0.0
  9
$PLINEWID
 40
0.0
  9
$SPLFRAME
 70
     0
  9
$SPLINETYPE
 70
     6
  9
$SPLINESEGS
 70
     8
  9
$HANDSEED
  5
136D
  9
$SURFTAB1
 70
     6
  9
$SURFTAB2
 70
     6
  9
$SURFTYPE
 70
     6
  9
$SURFU
 70
     6
  9
$SURFV
 70
     6
  9
$UCSBASE
  2

  9
$UCSNAME
  2

  9
$UCSORG
 10
0.0
 20
0.0
 30
0.0
  9
$UCSXDIR
 10
1.0
 20
0.0
 30
0.0
  9
$UCSYDIR
 10
0.0
 20
1.0
 30
0.0
  9
$UCSORTHOREF
  2

  9
$UCSORTHOVIEW
 70
     0
  9
$UCSORGTOP
 10
0.0
 20
0.0
 30
0.0
  9
$UCSORGBOTTOM
 10
0.0
 20
0.0
 30
0.0
  9
$UCSORGLEFT
 10
0.0
 20
0.0
 30
0.0
  9
$UCSORGRIGHT
 10
0.0
 20
0.0
 30
0.0
  9
$UCSORGFRONT
 10
0.0
 20
0.0
 30
0.0
  9
$UCSORGBACK
 10
0.0
 20
0.0
 30
0.0
  9
$PUCSBASE
  2

  9
$PUCSNAME
  2

  9
$PUCSORG
 10
0.0
 20
0.0
 30
0.0
  9
$PUCSXDIR
 10
1.0
 20
0.0
 30
0.0
  9
$PUCSYDIR
 10
0.0
 20
1.0
 30
0.0
  9
$PUCSORTHOREF
  2

  9
$PUCSORTHOVIEW
 70
     0
  9
$PUCSORGTOP
 10
0.0
 20
0.0
 30
0.0
  9
$PUCSORGBOTTOM
 10
0.0
 20
0.0
 30
0.0
  9
$PUCSORGLEFT
 10
0.0
 20
0.0
 30
0.0
  9
$PUCSORGRIGHT
 10
0.0
 20
0.0
 30
0.0
  9
$PUCSORGFRONT
 10
0.0
 20
0.0
 30
0.0
  9
$PUCSORGBACK
 10
0.0
 20
0.0
 30
0.0
  9
$USERI1
 70
     0
  9
$USERI2
 70
     0
  9
$USERI3
 70
     0
  9
$USERI4
 70
     0
  9
$USERI5
 70
     0
  9
$USERR1
 40
0.0
  9
$USERR2
 40
0.0
  9
$USERR3
 40
0.0
  9
$USERR4
 40
0.0
  9
$USERR5
 40
0.0
  9
$WORLDVIEW
 70
     1
  9
$SHADEDGE
 70
     3
  9
$SHADEDIF
 70
    70
  9
$TILEMODE
 70
     1
  9
$MAXACTVP
 70
    64
  9
$PINSBASE
 10
0.0
 20
0.0
 30
0.0
  9
$PLIMCHECK
 70
     0
  9
$PEXTMIN
 10
1.000000000000000E+20
 20
1.000000000000000E+20
 30
1.000000000000000E+20
  9
$PEXTMAX
 10
-1.000000000000000E+20
 20
-1.000000000000000E+20
 30
-1.000000000000000E+20
  9
$PLIMMIN
 10
0.0
 20
0.0
  9
$PLIMMAX
 10
12.0
 20
9.0
  9
$UNITMODE
 70
     0
  9
$VISRETAIN
 70
     1
  9
$PLINEGEN
 70
     0
  9
$PSLTSCALE
 70
     1
  9
$TREEDEPTH
 70
  3020
  9
$CMLSTYLE
  2
Standard
  9
$CMLJUST
 70
     0
  9
$CMLSCALE
 40
1.0
  9
$PROXYGRAPHICS
 70
     1
  9
$MEASUREMENT
 70
     0
  9
$CELWEIGHT
370
    -1
  9
$ENDCAPS
280
     0
  9
$JOINSTYLE
280
     0
  9
$LWDISPLAY
290
     0
  9
$INSUNITS
 70
     4
  9
$HYPERLINKBASE
  1

  9
$STYLESHEET
  1

  9
$XEDIT
290
     1
  9
$CEPSNTYPE
380
     0
  9
$PSTYLEMODE
290
     1
  9
$FINGERPRINTGUID
  2
{68A450AC-9A86-47CA-88AF-AE6FF25BC459}
  9
$VERSIONGUID
  2
{136FA0AB-F6ED-4687-9859-58F1A3308E71}
  9
$EXTNAMES
290
     1
  9
$PSVPSCALE
 40
0.0
  9
$OLESTARTUP
290
     0
  0
ENDSEC
  0
SECTION
  2
CLASSES
  0
CLASS
  1
ACDBDICTIONARYWDFLT
  2
AcDbDictionaryWithDefault
  3
ObjectDBX Classes
 90
        0
280
     0
281
     0
  0
CLASS
  1
VISUALSTYLE
  2
AcDbVisualStyle
  3
ObjectDBX Classes
 90
     4095
280
     0
281
     0
  0
CLASS
  1
SCALE
  2
AcDbScale
  3
ObjectDBX Classes
 90
     1153
280
     0
281
     0
  0
CLASS
  1
DICTIONARYVAR
  2
AcDbDictionaryVar
  3
ObjectDBX Classes
 90
        0
280
     0
281
     0
  0
CLASS
  1
MATERIAL
  2
AcDbMaterial
  3
ObjectDBX Classes
 90
     1024
280
     0
281
     0
  0
CLASS
  1
TABLESTYLE
  2
AcDbTableStyle
  3
ObjectDBX Classes
 90
     4095
280
     0
281
     0
  0
CLASS
  1
SORTENTSTABLE
  2
AcDbSortentsTable
  3
ObjectDBX Classes
 90
        0
280
     0
281
     0
  0
CLASS
  1
ACDBPLACEHOLDER
  2
AcDbPlaceHolder
  3
ObjectDBX Classes
 90
        0
280
     0
281
     0
  0
CLASS
  1
LAYOUT
  2
AcDbLayout
  3
ObjectDBX Classes
 90
        0
280
     0
281
     0
  0
CLASS
  1
DIMASSOC
  2
AcDbDimAssoc
  3
"AcDbDimAssoc|Product Desc:     AcDim ARX App For Dimension|Company:          Autodesk, Inc.|WEB Address:      www.autodesk.com"
 90
        0
280
     0
281
     0
  0
ENDSEC
  0
SECTION
  2
TABLES
  0
TABLE
  2
VPORT
  5
8
330
0
100
AcDbSymbolTable
 70
     1
  0
VPORT
  5
29
330
8
100
AcDbSymbolTableRecord
100
AcDbViewportTableRecord
  2
*Active
 70
     0
 10
0.0
 20
0.0
 11
1.0
 21
1.0
 12
4431.411076584001
 22
-1513.606066120758
 13
0.0
 23
0.0
 14
0.5
 24
0.5
 15
0.5
 25
0.5
 16
0.0
 26
0.0
 36
1.0
 17
105.6003733370608
 27
148.4537880639787
 37
0.0
 40
1927.56436131719
 41
1.875766871165644
 42
50.0
 43
0.0
 44
0.0
 50
0.0
 51
0.0
 71
     0
 72
 10000
 73
     1
 74
     3
 75
     0
 76
     0
 77
     0
 78
     0
281
     0
 65
     1
110
0.0
120
0.0
130
0.0
111
1.0
121
0.0
131
0.0
112
0.0
122
1.0
132
0.0
 79
     0
146
0.0
  0
ENDTAB
  0
TABLE
  2
LTYPE
  5
5
330
0
100
AcDbSymbolTable
 70
     5
  0
LTYPE
  5
14
330
5
100
AcDbSymbolTableRecord
100
AcDbLinetypeTableRecord
  2
ByBlock
 70
     0
  3

 72
    65
 73
     0
 40
0.0
  0
LTYPE
  5
15
330
5
100
AcDbSymbolTableRecord
100
AcDbLinetypeTableRecord
  2
ByLayer
 70
     0
  3

 72
    65
 73
     0
 40
0.0
  0
LTYPE
  5
16
330
5
100
AcDbSymbolTableRecord
100
AcDbLinetypeTableRecord
  2
Continuous
 70
     0
  3
Solid line
 72
    65
 73
     0
 40
0.0
  0
LTYPE
  5
78A
330
5
100
AcDbSymbolTableRecord
100
AcDbLinetypeTableRecord
  2
VERDECKT
 70
     0
  3
__ __ __ __ __ __ __ __ __ __ __ __ __ __ __ __
 72
    65
 73
     2
 40
0.375
 49
0.25
 74
     0
 49
-0.125
 74
     0
  0
LTYPE
  5
93C
330
5
100
AcDbSymbolTableRecord
100
AcDbLinetypeTableRecord
  2
DOT
 70
     0
  3
...............................................
 72
    65
 73
     2
 40
0.25
 49
0.0
 74
     0
 49
-0.25
 74
     0
  0
LTYPE
  5
F99
330
5
100
AcDbSymbolTableRecord
100
AcDbLinetypeTableRecord
  2
STRICHPUNKT
 70
     0
  3
Strichpunkt __ . __ . __ . __ . __ . __ . __ . __
 72
    65
 73
     4
 40
1.0
 49
0.5
 74
     0
 49
-0.25
 74
     0
 49
0.0
 74
     0
 49
-0.25
 74
     0
  0
ENDTAB
  0
TABLE
  2
LAYER
  5
2
102
{ACAD_XDICTIONARY
360
89
102
}
330
0
100
AcDbSymbolTable
 70
     7
  0
LAYER
  5
10
330
2
100
AcDbSymbolTableRecord
100
AcDbLayerTableRecord
  2
0
 70
     0
 62
     7
  6
Continuous
370
    -3
390
F
  0
LAYER
  5
3C
330
2
100
AcDbSymbolTableRecord
100
AcDbLayerTableRecord
  2
EBENE_1
 70
     0
 62
     7
  6
Continuous
370
    -3
390
F
  0
LAYER
  5
8F
330
2
100
AcDbSymbolTableRecord
100
AcDbLayerTableRecord
  2
Hewi
 70
     0
 62
     7
  6
Continuous
370
    -3
390
F
1001
AcAecLayerStandard
1000

1000

  0
LAYER
  5
105
330
2
100
AcDbSymbolTableRecord
100
AcDbLayerTableRecord
  2
Defpoints
 70
     0
 62
     7
  6
Continuous
290
     0
370
    -3
390
F
  0
LAYER
  5
78B
330
2
100
AcDbSymbolTableRecord
100
AcDbLayerTableRecord
  2
VD
 70
     0
 62
     4
  6
VERDECKT
370
    -3
390
F
  0
LAYER
  5
93D
330
2
100
AcDbSymbolTableRecord
100
AcDbLayerTableRecord
  2
Bemass_rot
 70
     0
 62
     1
  6
DOT
370
    -3
390
F
  0
LAYER
  5
F96
330
2
100
AcDbSymbolTableRecord
100
AcDbLayerTableRecord
  2
Trennung
 70
     0
 62
     7
  6
STRICHPUNKT
370
    -3
390
F
1001
AcAecLayerStandard
1000

1000

  0
ENDTAB
  0
TABLE
  2
STYLE
  5
3
330
0
100
AcDbSymbolTable
 70
     4
  0
STYLE
  5
11
330
3
100
AcDbSymbolTableRecord
100
AcDbTextStyleTableRecord
  2
Standard
 70
     0
 40
0.0
 41
1.0
 50
0.0
 71
     0
 42
0.2
  3
txt
  4

  0
STYLE
  5
93E
330
3
100
AcDbSymbolTableRecord
100
AcDbTextStyleTableRecord
  2
ARIAL
 70
     0
 40
0.0
 41
1.0
 50
0.0
 71
     0
 42
0.0
  3
Arial
  4

  0
STYLE
  5
F98
330
3
100
AcDbSymbolTableRecord
100
AcDbTextStyleTableRecord
  2

 70
     1
 40
0.0
 41
1.0
 50
0.0
 71
     0
 42
0.2
  3
ltypeshp.shx
  4

  0
STYLE
  5
10B0
330
3
100
AcDbSymbolTableRecord
100
AcDbTextStyleTableRecord
  2
HEWI
 70
     0
 40
0.0
 41
1.0
 50
0.0
 71
     0
 42
40.0
  3
ARIAL.TTF
  4

1001
ACAD
1000
Arial
1071
       34
  0
ENDTAB
  0
TABLE
  2
VIEW
  5
6
330
0
100
AcDbSymbolTable
 70
     1
  0
ENDTAB
  0
TABLE
  2
UCS
  5
7
330
0
100
AcDbSymbolTable
 70
     0
  0
ENDTAB
  0
TABLE
  2
APPID
  5
9
330
0
100
AcDbSymbolTable
 70
     5
  0
APPID
  5
12
330
9
100
AcDbSymbolTableRecord
100
AcDbRegAppTableRecord
  2
ACAD
 70
     0
  0
APPID
  5
90
330
9
100
AcDbSymbolTableRecord
100
AcDbRegAppTableRecord
  2
AcAecLayerStandard
 70
     0
  0
APPID
  5
1B3
330
9
100
AcDbSymbolTableRecord
100
AcDbRegAppTableRecord
  2
ACAD_EXEMPT_FROM_CAD_STANDARDS
 70
     0
  0
APPID
  5
8F0
330
9
100
AcDbSymbolTableRecord
100
AcDbRegAppTableRecord
  2
DCO15
 70
     0
  0
APPID
  5
93F
330
9
100
AcDbSymbolTableRecord
100
AcDbRegAppTableRecord
  2
ACAD_PSEXT
 70
     0
  0
ENDTAB
  0
TABLE
  2
DIMSTYLE
  5
A
330
0
100
AcDbSymbolTable
 70
     3
100
AcDbDimStyleTable
 71
     2
340
CDB
340
27
  0
DIMSTYLE
105
27
330
A
100
AcDbSymbolTableRecord
100
AcDbDimStyleTableRecord
  2
Standard
 70
     0
340
11
  0
DIMSTYLE
105
CDB
102
{ACAD_REACTORS
330
F3B
330
FFC
330
1030
330
1016
330
11F8
330
1212
330
11DE
330
1276
330
12C2
330
1327
102
}
330
A
100
AcDbSymbolTableRecord
100
AcDbDimStyleTableRecord
  2
ISO-25
 70
     0
 41
2.5
 42
0.625
 43
3.75
 44
1.25
 73
     0
 74
     0
 77
     1
 78
     8
140
2.5
141
2.5
143
0.03937007874016
147
0.625
171
     3
172
     1
271
     2
272
     2
274
     3
278
    44
283
     0
284
     8
340
11
  0
ENDTAB
  0
TABLE
  2
BLOCK_RECORD
  5
1
330
0
100
AcDbSymbolTable
 70
    20
  0
BLOCK_RECORD
  5
1F
102
{ACAD_XDICTIONARY
360
A5
102
}
330
1
100
AcDbSymbolTableRecord
100
AcDbBlockTableRecord
  2
*Model_Space
340
22
  0
BLOCK_RECORD
  5
4F
330
1
100
AcDbSymbolTableRecord
100
AcDbBlockTableRecord
  2
*Paper_Space
340
50
  0
BLOCK_RECORD
  5
23
330
1
100
AcDbSymbolTableRecord
100
AcDbBlockTableRecord
  2
*Paper_Space0
340
0
  0
BLOCK_RECORD
  5
3B
330
1
100
AcDbSymbolTableRecord
100
AcDbBlockTableRecord
  2
BLOCK_3
340
0
102
{BLKREFS
331
49
102
}
  0
BLOCK_RECORD
  5
48
330
1
100
AcDbSymbolTableRecord
100
AcDbBlockTableRecord
  2
BLOCK_2
340
0
  0
BLOCK_RECORD
  5
1B
330
1
100
AcDbSymbolTableRecord
100
AcDbBlockTableRecord
  2
*Paper_Space3
340
0
  0
BLOCK_RECORD
  5
F3C
330
1
100
AcDbSymbolTableRecord
100
AcDbBlockTableRecord
  2
*D4
340
0
  0
BLOCK_RECORD
  5
F55
330
1
100
AcDbSymbolTableRecord
100
AcDbBlockTableRecord
  2
_Dot
340
0
102
{BLKREFS
331
10A9
331
10AA
331
10C9
331
10CA
331
11A1
331
11A2
331
11AA
331
11AB
331
11B3
331
11B4
331
126E
331
126F
331
12AC
331
12AD
331
12B3
331
12B4
331
12BC
331
12BD
331
1302
331
1303
331
1312
331
1313
331
134C
331
134D
331
135D
331
135E
102
}
  0
BLOCK_RECORD
  5
FFD
330
1
100
AcDbSymbolTableRecord
100
AcDbBlockTableRecord
  2
*D7
340
0
  0
BLOCK_RECORD
  5
1017
330
1
100
AcDbSymbolTableRecord
100
AcDbBlockTableRecord
  2
*D8
340
0
  0
BLOCK_RECORD
  5
1031
330
1
100
AcDbSymbolTableRecord
100
AcDbBlockTableRecord
  2
*D9
340
0
  0
BLOCK_RECORD
  5
10A4
330
1
100
AcDbSymbolTableRecord
100
AcDbBlockTableRecord
  2
*D10
340
0
  0
BLOCK_RECORD
  5
10BA
330
1
100
AcDbSymbolTableRecord
100
AcDbBlockTableRecord
  2
*D12
340
0
  0
BLOCK_RECORD
  5
11DF
330
1
100
AcDbSymbolTableRecord
100
AcDbBlockTableRecord
  2
*D13
340
0
  0
BLOCK_RECORD
  5
11F9
330
1
100
AcDbSymbolTableRecord
100
AcDbBlockTableRecord
  2
*D14
340
0
  0
BLOCK_RECORD
  5
1213
330
1
100
AcDbSymbolTableRecord
100
AcDbBlockTableRecord
  2
*D15
340
0
  0
BLOCK_RECORD
  5
1277
330
1
100
AcDbSymbolTableRecord
100
AcDbBlockTableRecord
  2
*D16
340
0
  0
BLOCK_RECORD
  5
12C3
330
1
100
AcDbSymbolTableRecord
100
AcDbBlockTableRecord
  2
*D17
340
0
  0
BLOCK_RECORD
  5
12D5
330
1
100
AcDbSymbolTableRecord
100
AcDbBlockTableRecord
  2
*D18
340
0
  0
BLOCK_RECORD
  5
1328
330
1
100
AcDbSymbolTableRecord
100
AcDbBlockTableRecord
  2
*D19
340
0
  0
ENDTAB
  0
ENDSEC
  0
SECTION
  2
BLOCKS
  0
BLOCK
  5
20
330
1F
100
AcDbEntity
  8
0
100
AcDbBlockBegin
  2
*Model_Space
 70
     0
 10
0.0
 20
0.0
 30
0.0
  3
*Model_Space
  1

  0
ENDBLK
  5
21
330
1F
100
AcDbEntity
  8
0
100
AcDbBlockEnd
  0
BLOCK
  5
51
330
4F
100
AcDbEntity
 67
     1
  8
0
100
AcDbBlockBegin
  2
*Paper_Space
 70
     0
 10
0.0
 20
0.0
 30
0.0
  3
*Paper_Space
  1

  0
ENDBLK
  5
52
330
4F
100
AcDbEntity
 67
     1
  8
0
100
AcDbBlockEnd
  0
BLOCK
  5
24
330
23
100
AcDbEntity
  8
0
100
AcDbBlockBegin
  2
*Paper_Space0
 70
     0
 10
0.0
 20
0.0
 30
0.0
  3
*Paper_Space0
  1

  0
ENDBLK
  5
25
330
23
100
AcDbEntity
  8
0
100
AcDbBlockEnd
  0
BLOCK
  5
46
330
3B
100
AcDbEntity
  8
0
100
AcDbBlockBegin
  2
BLOCK_3
 70
     0
 10
0.0
 20
0.0
 30
0.0
  3
BLOCK_3
  1

  0
SPLINE
  5
3D
330
3B
100
AcDbEntity
  8
EBENE_1
 62
   255
100
AcDbSpline
210
0.0
220
0.0
230
1.0
 70
    11
 71
     3
 72
    86
 73
    82
 74
     0
 42
0.0000000001
 43
0.0000000001
 40
0.0
 40
0.0
 40
0.0
 40
0.0
 40
1.0
 40
1.0
 40
1.0
 40
2.0
 40
2.0
 40
2.0
 40
3.0
 40
3.0
 40
3.0
 40
4.0
 40
4.0
 40
4.0
 40
5.0
 40
5.0
 40
5.0
 40
6.0
 40
6.0
 40
6.0
 40
7.0
 40
7.0
 40
7.0
 40
8.0
 40
8.0
 40
8.0
 40
9.0
 40
9.0
 40
9.0
 40
10.0
 40
10.0
 40
10.0
 40
11.0
 40
11.0
 40
11.0
 40
12.0
 40
12.0
 40
12.0
 40
13.0
 40
13.0
 40
13.0
 40
14.0
 40
14.0
 40
14.0
 40
15.0
 40
15.0
 40
15.0
 40
16.0
 40
16.0
 40
16.0
 40
17.0
 40
17.0
 40
17.0
 40
18.0
 40
18.0
 40
18.0
 40
19.0
 40
19.0
 40
19.0
 40
20.0
 40
20.0
 40
20.0
 40
21.0
 40
21.0
 40
21.0
 40
22.0
 40
22.0
 40
22.0
 40
23.0
 40
23.0
 40
23.0
 40
24.0
 40
24.0
 40
24.0
 40
25.0
 40
25.0
 40
25.0
 40
26.0
 40
26.0
 40
26.0
 40
27.0
 40
27.0
 40
27.0
 40
27.0
 10
50.21298884184322
 20
129.9842274274461
 30
0.0
 10
50.21298884184322
 20
124.2691547567635
 30
0.0
 10
50.21298884184322
 20
118.553737576305
 30
0.0
 10
50.21298884184322
 20
112.8386649056224
 30
0.0
 10
50.21298884184322
 20
112.6278249228351
 30
0.0
 10
50.21298884184322
 20
112.4169849400479
 30
0.0
 10
50.21850099825594
 20
112.205455937709
 30
0.0
 10
50.22056805691072
 20
112.063517910081
 30
0.0
 10
50.22608021332345
 20
111.9219243922288
 30
0.0
 10
50.23503746749415
 20
111.7799863646007
 30
0.0
 10
50.24054962390689
 20
111.6890357837906
 30
0.0
 10
50.2495068780776
 20
111.5991187323078
 30
0.0
 10
50.26397628866103
 20
111.509201680825
 30
0.0
 10
50.27500060148651
 20
111.4447783527511
 30
0.0
 10
50.29153707072473
 20
111.3793214953498
 30
0.0
 10
50.31496373547887
 20
111.3173097357065
 30
0.0
 10
50.33839040023301
 20
111.2511638587536
 30
0.0
 10
50.3735303973642
 20
111.1884630795587
 30
0.0
 10
50.41693862911453
 20
111.1319634763282
 30
0.0
 10
50.45896882176167
 20
111.0758083828734
 30
0.0
 10
50.5092672490279
 20
111.0258544653829
 30
0.0
 10
50.56576685225847
 20
110.9848578020632
 30
0.0
 10
50.68014409782279
 20
110.9049315340785
 30
0.0
 10
50.81863702769287
 20
110.8594562436734
 30
0.0
 10
50.95644093801134
 20
110.8604897730008
 30
0.0
 10
52.28349259437817
 20
110.8604897730008
 30
0.0
 10
53.61054425074502
 20
110.8604897730008
 30
0.0
 10
54.93690688756027
 20
110.8604897730008
 30
0.0
 10
54.93690688756027
 20
110.8604897730008
 30
0.0
 10
54.93897394621503
 20
110.8604897730008
 30
0.0
 10
54.93897394621503
 20
110.8604897730008
 30
0.0
 10
65.85097658478288
 20
110.8604897730008
 30
0.0
 10
76.76160118424757
 20
110.8604897730008
 30
0.0
 10
87.67222578371223
 20
110.8604897730008
 30
0.0
 10
97.16347010689668
 20
110.8604897730008
 30
0.0
 10
106.6554034496327
 20
110.8604897730008
 30
0.0
 10
116.1480258119204
 20
110.8604897730008
 30
0.0
 10
116.1480258119204
 20
111.519192464323
 30
0.0
 10
116.1480258119204
 20
112.1789286849727
 30
0.0
 10
116.1480258119204
 20
112.8386649056224
 30
0.0
 10
116.1480258119204
 20
118.553737576305
 30
0.0
 10
116.1480258119204
 20
124.2691547567635
 30
0.0
 10
116.1480258119204
 20
129.9842274274461
 30
0.0
 10
116.1480258119204
 20
130.6439636480958
 30
0.0
 10
116.1480258119204
 20
131.3030108491938
 30
0.0
 10
116.1480258119204
 20
131.9627470698435
 30
0.0
 10
106.6554034496327
 20
131.9627470698435
 30
0.0
 10
97.16347010689668
 20
131.9627470698435
 30
0.0
 10
87.67222578371223
 20
131.9627470698435
 30
0.0
 10
87.67015872505742
 20
131.9627470698435
 30
0.0
 10
87.67015872505742
 20
131.9627470698435
 30
0.0
 10
87.67015872505742
 20
131.9627470698435
 30
0.0
 10
76.75815608648959
 20
131.9627470698435
 30
0.0
 10
65.84753148702493
 20
131.9627470698435
 30
0.0
 10
54.93690688756027
 20
131.9627470698435
 30
0.0
 10
53.61054425074502
 20
131.9627470698435
 30
0.0
 10
52.28349259437817
 20
131.9627470698435
 30
0.0
 10
50.95644093801134
 20
131.9627470698435
 30
0.0
 10
50.88753898285211
 20
131.9627470698435
 30
0.0
 10
50.81863702769287
 20
131.951722757018
 30
0.0
 10
50.75318017029159
 20
131.9307076606945
 30
0.0
 10
50.68565625423555
 20
131.9100370741467
 30
0.0
 10
50.62226645548904
 20
131.877308645446
 30
0.0
 10
50.56438881315528
 20
131.8363119821263
 30
0.0
 10
50.50788920992472
 20
131.796348848134
 30
0.0
 10
50.45896882176167
 20
131.7470839501951
 30
0.0
 10
50.41693862911453
 20
131.6926514056193
 30
0.0
 10
50.3735303973642
 20
131.6354627828371
 30
0.0
 10
50.33839040023301
 20
131.5717284743149
 30
0.0
 10
50.31496373547887
 20
131.5045490680345
 30
0.0
 10
50.29153707072473
 20
131.4428818181671
 30
0.0
 10
50.27500060148651
 20
131.3791475096448
 30
0.0
 10
50.26397628866103
 20
131.3136906522435
 30
0.0
 10
50.2495068780776
 20
131.2248071300881
 30
0.0
 10
50.24054962390689
 20
131.1338565492779
 30
0.0
 10
50.23503746749415
 20
131.0439394977951
 30
0.0
 10
50.22608021332345
 20
130.9030349994945
 30
0.0
 10
50.22056805691072
 20
130.7610969718665
 30
0.0
 10
50.21850099825594
 20
130.6195034540142
 30
0.0
 10
50.21298884184322
 20
130.4076299418996
 30
0.0
 10
50.21298884184322
 20
130.1961009395608
 30
0.0
 10
50.21298884184322
 20
129.9842274274461
 30
0.0
  0
POLYLINE
  5
3E
330
3B
100
AcDbEntity
  8
EBENE_1
 62
   255
100
AcDb2dPolyline
 66
     1
 10
0.0
 20
0.0
 30
0.0
  0
VERTEX
  5
3F
330
3E
100
AcDbEntity
  8
EBENE_1
 62
   255
100
AcDbVertex
100
AcDb2dVertex
 10
55.28761783932077
 20
131.9627470698435
 30
0.0
  0
VERTEX
  5
40
330
3E
100
AcDbEntity
  8
EBENE_1
 62
   255
100
AcDbVertex
100
AcDb2dVertex
 10
55.28761783932077
 20
110.8604897730008
 30
0.0
  0
SEQEND
  5
41
330
3E
100
AcDbEntity
  8
EBENE_1
 62
   255
  0
POLYLINE
  5
42
330
3B
100
AcDbEntity
  8
EBENE_1
 62
   255
100
AcDb2dPolyline
 66
     1
 10
0.0
 20
0.0
 30
0.0
  0
VERTEX
  5
43
330
42
100
AcDbEntity
  8
EBENE_1
 62
   255
100
AcDbVertex
100
AcDb2dVertex
 10
87.32151483195172
 20
131.9627470698435
 30
0.0
  0
VERTEX
  5
44
330
42
100
AcDbEntity
  8
EBENE_1
 62
   255
100
AcDbVertex
100
AcDb2dVertex
 10
87.32151483195172
 20
110.8604897730008
 30
0.0
  0
SEQEND
  5
45
330
42
100
AcDbEntity
  8
EBENE_1
 62
   255
  0
ENDBLK
  5
47
330
3B
100
AcDbEntity
  8
0
100
AcDbBlockEnd
  0
BLOCK
  5
4C
330
48
100
AcDbEntity
  8
0
100
AcDbBlockBegin
  2
BLOCK_2
 70
     0
 10
0.0
 20
0.0
 30
0.0
  3
BLOCK_2
  1

  0
INSERT
  5
49
330
48
100
AcDbEntity
  8
EBENE_1
100
AcDbBlockReference
  2
BLOCK_3
 10
0.0
 20
0.0
 30
0.0
  0
SPLINE
  5
4A
330
48
100
AcDbEntity
  8
EBENE_1
 62
   255
100
AcDbSpline
210
0.0
220
0.0
230
1.0
 70
    11
 71
     3
 72
    44
 73
    40
 74
     0
 42
0.0000000001
 43
0.0000000001
 40
0.0
 40
0.0
 40
0.0
 40
0.0
 40
1.0
 40
1.0
 40
1.0
 40
2.0
 40
2.0
 40
2.0
 40
3.0
 40
3.0
 40
3.0
 40
4.0
 40
4.0
 40
4.0
 40
5.0
 40
5.0
 40
5.0
 40
6.0
 40
6.0
 40
6.0
 40
7.0
 40
7.0
 40
7.0
 40
8.0
 40
8.0
 40
8.0
 40
9.0
 40
9.0
 40
9.0
 40
10.0
 40
10.0
 40
10.0
 40
11.0
 40
11.0
 40
11.0
 40
12.0
 40
12.0
 40
12.0
 40
13.0
 40
13.0
 40
13.0
 40
13.0
 10
140.4407881424114
 20
164.7642118429483
 30
0.0
 10
139.9743219059834
 20
164.7642118429483
 30
0.0
 10
139.780707411986
 20
164.9571373173941
 30
0.0
 10
139.780707411986
 20
165.4236035538222
 30
0.0
 10
139.780707411986
 20
171.5789597179723
 30
0.0
 10
139.780707411986
 20
177.733454607683
 30
0.0
 10
139.780707411986
 20
183.8884662620574
 30
0.0
 10
139.780707411986
 20
183.9208501809821
 30
0.0
 10
139.7817409413133
 20
183.9539231194585
 30
0.0
 10
139.7834634901923
 20
183.9866515481593
 30
0.0
 10
139.8217040753057
 20
184.7678274647771
 30
0.0
 10
140.1024795425796
 20
185.2220636041643
 30
0.0
 10
140.7825418400012
 20
185.6087758274955
 30
0.0
 10
141.0285218199197
 20
185.748302286693
 30
0.0
 10
141.2765688584929
 20
185.8278840449019
 30
0.0
 10
141.5576888355426
 20
185.856478356293
 30
0.0
 10
141.624523732047
 20
185.863196296921
 30
0.0
 10
141.692047648103
 20
185.8668136495669
 30
0.0
 10
141.7592270543834
 20
185.8668136495669
 30
0.0
 10
147.474299725066
 20
185.8668136495669
 30
0.0
 10
153.1897169055244
 20
185.8668136495669
 30
0.0
 10
158.9058231055345
 20
185.8668136495669
 30
0.0
 10
158.9699019238326
 20
185.8668136495669
 30
0.0
 10
159.0346697616822
 20
185.8637130615847
 30
0.0
 10
159.0994375995319
 20
185.8573396307325
 30
0.0
 10
159.3826246352364
 20
185.8296065937809
 30
0.0
 10
159.6327387324644
 20
185.7501970904598
 30
0.0
 10
159.8797522417102
 20
185.6098093568229
 30
0.0
 10
160.6049453197612
 20
185.1994982138496
 30
0.0
 10
160.8839982381561
 20
184.7209741352688
 30
0.0
 10
160.8839982381561
 20
183.8884662620574
 30
0.0
 10
160.8839982381561
 20
177.733454607683
 30
0.0
 10
160.8839982381561
 20
171.5789597179723
 30
0.0
 10
160.8839982381561
 20
165.4236035538222
 30
0.0
 10
160.8839982381561
 20
164.9571373173941
 30
0.0
 10
160.6903837441586
 20
164.7642118429483
 30
0.0
 10
160.2242620175064
 20
164.7642118429483
 30
0.0
 10
153.6293113794403
 20
164.7642118429483
 30
0.0
 10
147.0353942707017
 20
164.7642118429483
 30
0.0
 10
140.4407881424114
 20
164.7642118429483
 30
0.0
  0
SPLINE
  5
4B
330
48
100
AcDbEntity
  8
EBENE_1
 62
   255
100
AcDbSpline
210
0.0
220
0.0
230
1.0
 70
    11
 71
     3
 72
   251
 73
   247
 74
     0
 42
0.0000000001
 43
0.0000000001
 40
0.0
 40
0.0
 40
0.0
 40
0.0
 40
1.0
 40
1.0
 40
1.0
 40
2.0
 40
2.0
 40
2.0
 40
3.0
 40
3.0
 40
3.0
 40
4.0
 40
4.0
 40
4.0
 40
5.0
 40
5.0
 40
5.0
 40
6.0
 40
6.0
 40
6.0
 40
7.0
 40
7.0
 40
7.0
 40
8.0
 40
8.0
 40
8.0
 40
9.0
 40
9.0
 40
9.0
 40
10.0
 40
10.0
 40
10.0
 40
11.0
 40
11.0
 40
11.0
 40
12.0
 40
12.0
 40
12.0
 40
13.0
 40
13.0
 40
13.0
 40
14.0
 40
14.0
 40
14.0
 40
15.0
 40
15.0
 40
15.0
 40
16.0
 40
16.0
 40
16.0
 40
17.0
 40
17.0
 40
17.0
 40
18.0
 40
18.0
 40
18.0
 40
19.0
 40
19.0
 40
19.0
 40
20.0
 40
20.0
 40
20.0
 40
21.0
 40
21.0
 40
21.0
 40
22.0
 40
22.0
 40
22.0
 40
23.0
 40
23.0
 40
23.0
 40
24.0
 40
24.0
 40
24.0
 40
25.0
 40
25.0
 40
25.0
 40
26.0
 40
26.0
 40
26.0
 40
27.0
 40
27.0
 40
27.0
 40
28.0
 40
28.0
 40
28.0
 40
29.0
 40
29.0
 40
29.0
 40
30.0
 40
30.0
 40
30.0
 40
31.0
 40
31.0
 40
31.0
 40
32.0
 40
32.0
 40
32.0
 40
33.0
 40
33.0
 40
33.0
 40
34.0
 40
34.0
 40
34.0
 40
35.0
 40
35.0
 40
35.0
 40
36.0
 40
36.0
 40
36.0
 40
37.0
 40
37.0
 40
37.0
 40
38.0
 40
38.0
 40
38.0
 40
39.0
 40
39.0
 40
39.0
 40
40.0
 40
40.0
 40
40.0
 40
41.0
 40
41.0
 40
41.0
 40
42.0
 40
42.0
 40
42.0
 40
43.0
 40
43.0
 40
43.0
 40
44.0
 40
44.0
 40
44.0
 40
45.0
 40
45.0
 40
45.0
 40
46.0
 40
46.0
 40
46.0
 40
47.0
 40
47.0
 40
47.0
 40
48.0
 40
48.0
 40
48.0
 40
49.0
 40
49.0
 40
49.0
 40
50.0
 40
50.0
 40
50.0
 40
51.0
 40
51.0
 40
51.0
 40
52.0
 40
52.0
 40
52.0
 40
53.0
 40
53.0
 40
53.0
 40
54.0
 40
54.0
 40
54.0
 40
55.0
 40
55.0
 40
55.0
 40
56.0
 40
56.0
 40
56.0
 40
57.0
 40
57.0
 40
57.0
 40
58.0
 40
58.0
 40
58.0
 40
59.0
 40
59.0
 40
59.0
 40
60.0
 40
60.0
 40
60.0
 40
61.0
 40
61.0
 40
61.0
 40
62.0
 40
62.0
 40
62.0
 40
63.0
 40
63.0
 40
63.0
 40
64.0
 40
64.0
 40
64.0
 40
65.0
 40
65.0
 40
65.0
 40
66.0
 40
66.0
 40
66.0
 40
67.0
 40
67.0
 40
67.0
 40
68.0
 40
68.0
 40
68.0
 40
69.0
 40
69.0
 40
69.0
 40
70.0
 40
70.0
 40
70.0
 40
71.0
 40
71.0
 40
71.0
 40
72.0
 40
72.0
 40
72.0
 40
73.0
 40
73.0
 40
73.0
 40
74.0
 40
74.0
 40
74.0
 40
75.0
 40
75.0
 40
75.0
 40
76.0
 40
76.0
 40
76.0
 40
77.0
 40
77.0
 40
77.0
 40
78.0
 40
78.0
 40
78.0
 40
79.0
 40
79.0
 40
79.0
 40
80.0
 40
80.0
 40
80.0
 40
81.0
 40
81.0
 40
81.0
 40
82.0
 40
82.0
 40
82.0
 40
82.0
 10
87.11618700557719
 20
185.1903687047911
 30
0.0
 10
87.11618700557719
 20
185.182100470172
 30
0.0
 10
87.11618700557719
 20
185.1740044904408
 30
0.0
 10
87.11618700557719
 20
185.1657362558217
 30
0.0
 10
87.11274190781926
 20
185.1066528292726
 30
0.0
 10
87.10860779050968
 20
185.0467081282841
 30
0.0
 10
87.10516269275172
 20
184.987624701735
 30
0.0
 10
87.10516269275172
 20
184.9872801919592
 30
0.0
 10
87.10516269275172
 20
184.9867634272955
 30
0.0
 10
87.10516269275172
 20
184.9862466626319
 30
0.0
 10
87.10516269275172
 20
184.9848686235287
 30
0.0
 10
87.10516269275172
 20
184.9831460746497
 30
0.0
 10
87.10516269275172
 20
184.9822848002102
 30
0.0
 10
87.10516269275172
 20
184.9695379385057
 30
0.0
 10
87.10516269275172
 20
184.9576523512408
 30
0.0
 10
87.10309563409694
 20
184.9449054895363
 30
0.0
 10
87.10309563409694
 20
184.9440442150968
 30
0.0
 10
87.10309563409694
 20
184.9431829406573
 30
0.0
 10
87.10309563409694
 20
184.9418049015541
 30
0.0
 10
87.10171759499376
 20
184.928541275186
 30
0.0
 10
87.10171759499376
 20
184.914933139042
 30
0.0
 10
87.10171759499376
 20
184.9013250028981
 30
0.0
 10
87.10171759499376
 20
184.9004637284586
 30
0.0
 10
87.10171759499376
 20
184.8996024540191
 30
0.0
 10
87.10171759499376
 20
184.8990856893554
 30
0.0
 10
87.09965053633899
 20
184.8885781411936
 30
0.0
 10
87.09965053633899
 20
184.8785873576956
 30
0.0
 10
87.09758347768421
 20
184.867735299758
 30
0.0
 10
87.09758347768421
 20
184.8627399080089
 30
0.0
 10
87.09758347768421
 20
184.8577445162599
 30
0.0
 10
87.09758347768421
 20
184.8522323598471
 30
0.0
 10
87.09758347768421
 20
184.8427583410127
 30
0.0
 10
87.09620543858106
 20
184.8331120672904
 30
0.0
 10
87.09620543858106
 20
184.823638048456
 30
0.0
 10
87.09620543858106
 20
184.8167478529401
 30
0.0
 10
87.09413837992626
 20
184.8105466769758
 30
0.0
 10
87.09413837992626
 20
184.8031397167962
 30
0.0
 10
87.09276034082304
 20
184.7867755024459
 30
0.0
 10
87.09276034082304
 20
184.7704112880955
 30
0.0
 10
87.09069328216829
 20
184.7540470737452
 30
0.0
 10
87.08311406710077
 20
184.6605126696166
 30
0.0
 10
87.07622387158483
 20
184.5673227752637
 30
0.0
 10
87.06864465651735
 20
184.4743051357987
 30
0.0
 10
87.06864465651735
 20
184.4732716064713
 30
0.0
 10
87.06864465651735
 20
184.4724103320319
 30
0.0
 10
87.06864465651735
 20
184.4710322929287
 30
0.0
 10
87.06864465651735
 20
184.470515528265
 30
0.0
 10
87.06864465651735
 20
184.4696542538255
 30
0.0
 10
87.06864465651735
 20
184.4696542538255
 30
0.0
 10
87.06726661741415
 20
184.4515674905962
 30
0.0
 10
87.06519955875938
 20
184.4333084724789
 30
0.0
 10
87.0631325001046
 20
184.4152217092497
 30
0.0
 10
87.0631325001046
 20
184.4141881799223
 30
0.0
 10
87.0631325001046
 20
184.4124656310433
 30
0.0
 10
87.0631325001046
 20
184.4116043566038
 30
0.0
 10
87.06175446100143
 20
184.3914505347198
 30
0.0
 10
87.05762034369188
 20
184.372502497051
 30
0.0
 10
87.05762034369188
 20
184.3525209300548
 30
0.0
 10
87.05417524593391
 20
184.3297832848523
 30
0.0
 10
87.05279720683071
 20
184.3075624043134
 30
0.0
 10
87.05073014817594
 20
184.2851692688866
 30
0.0
 10
87.04866308952118
 20
184.2674270154331
 30
0.0
 10
87.04728505041797
 20
184.2496847619796
 30
0.0
 10
87.04521799176321
 20
184.2324592731898
 30
0.0
 10
87.03626073759251
 20
184.1506382014381
 30
0.0
 10
87.0273034834218
 20
184.0689893845745
 30
0.0
 10
87.01765720969952
 20
183.9866515481593
 30
0.0
 10
84.77352053016327
 20
165.4163688485305
 30
0.0
 10
57.83561214110923
 20
165.4163688485305
 30
0.0
 10
55.59147546157299
 20
183.9871683128229
 30
0.0
 10
55.58389624650547
 20
184.0476297784752
 30
0.0
 10
55.57700605098955
 20
184.1089525185669
 30
0.0
 10
55.57149389457681
 20
184.1697584939949
 30
0.0
 10
55.57149389457681
 20
184.1697584939949
 30
0.0
 10
55.57149389457681
 20
184.1707920233223
 30
0.0
 10
55.57149389457681
 20
184.1716532977618
 30
0.0
 10
55.56735977726726
 20
184.1916348647579
 30
0.0
 10
55.56598173816408
 20
184.2124777061937
 30
0.0
 10
55.5639146795093
 20
184.2324592731898
 30
0.0
 10
55.5639146795093
 20
184.237110155163
 30
0.0
 10
55.56253664040611
 20
184.2421055469121
 30
0.0
 10
55.56253664040611
 20
184.2471009386612
 30
0.0
 10
55.55702448399337
 20
184.2970548561516
 30
0.0
 10
55.55289036668382
 20
184.3478700480815
 30
0.0
 10
55.54737821027108
 20
184.397823965572
 30
0.0
 10
55.54737821027108
 20
184.4024748475452
 30
0.0
 10
55.54737821027108
 20
184.4069534746306
 30
0.0
 10
55.5460001711679
 20
184.4116043566038
 30
0.0
 10
55.5460001711679
 20
184.4241789634204
 30
0.0
 10
55.54393311251311
 20
184.4369258251249
 30
0.0
 10
55.54255507340993
 20
184.450189451493
 30
0.0
 10
55.54255507340993
 20
184.4565628823452
 30
0.0
 10
55.54255507340993
 20
184.4629363131975
 30
0.0
 10
55.54048801475516
 20
184.4696542538255
 30
0.0
 10
55.54048801475516
 20
184.4796450373236
 30
0.0
 10
55.53842095610039
 20
184.4904970952612
 30
0.0
 10
55.53842095610039
 20
184.5015214080865
 30
0.0
 10
55.53704291699719
 20
184.5106509171452
 30
0.0
 10
55.53704291699719
 20
184.5196081713159
 30
0.0
 10
55.53497585834242
 20
184.5292544450382
 30
0.0
 10
55.53497585834242
 20
184.529598954814
 30
0.0
 10
55.53497585834242
 20
184.529598954814
 30
0.0
 10
55.53497585834242
 20
184.5306324841414
 30
0.0
 10
55.53497585834242
 20
184.5495805218101
 30
0.0
 10
55.53290879968764
 20
184.5687008143669
 30
0.0
 10
55.53153076058446
 20
184.5869598324841
 30
0.0
 10
55.53153076058446
 20
184.5878211069236
 30
0.0
 10
55.53153076058446
 20
184.5883378715873
 30
0.0
 10
55.53153076058446
 20
184.5886823813631
 30
0.0
 10
55.52946370192969
 20
184.6072859092561
 30
0.0
 10
55.52739664327489
 20
184.626061692037
 30
0.0
 10
55.52601860417172
 20
184.6441484552662
 30
0.0
 10
55.52601860417172
 20
184.6505218861185
 30
0.0
 10
55.52601860417172
 20
184.6577565914102
 30
0.0
 10
55.52395154551692
 20
184.6646467869261
 30
0.0
 10
55.52395154551692
 20
184.685145118586
 30
0.0
 10
55.52257350641376
 20
184.7059879600217
 30
0.0
 10
55.52050644775898
 20
184.7259695270178
 30
0.0
 10
55.50741507627872
 20
184.9018417675618
 30
0.0
 10
55.49707978300485
 20
185.077197243442
 30
0.0
 10
55.48950056793731
 20
185.253069483986
 30
0.0
 10
55.47158605959592
 20
185.7033437609516
 30
0.0
 10
55.28210568290803
 20
185.8864507067871
 30
0.0
 10
54.83148689616664
 20
185.8864507067871
 30
0.0
 10
53.51201445486731
 20
185.8864507067871
 30
0.0
 10
52.19254201356799
 20
185.8864507067871
 30
0.0
 10
50.87100251361388
 20
185.8864507067871
 30
0.0
 10
50.49893195575402
 20
185.8864507067871
 30
0.0
 10
50.32392098964957
 20
185.7488190513567
 30
0.0
 10
50.2315923697362
 20
185.3876005514344
 30
0.0
 10
50.21712295915275
 20
185.3271390857822
 30
0.0
 10
50.21161080274001
 20
185.2675388945694
 30
0.0
 10
50.21298884184322
 20
185.2053548800382
 30
0.0
 10
50.21298884184322
 20
185.2044936055987
 30
0.0
 10
50.21298884184322
 20
185.2034600762713
 30
0.0
 10
50.21298884184322
 20
185.2020820371681
 30
0.0
 10
50.21298884184322
 20
185.2020820371681
 30
0.0
 10
50.21298884184322
 20
185.2012207627286
 30
0.0
 10
50.21298884184322
 20
185.2003594882892
 30
0.0
 10
50.21505590049798
 20
185.1557454723236
 30
0.0
 10
50.21712295915275
 20
185.1113037112459
 30
0.0
 10
50.21850099825594
 20
185.0663451855044
 30
0.0
 10
50.21850099825594
 20
185.0622110681949
 30
0.0
 10
50.21850099825594
 20
185.0575601862217
 30
0.0
 10
50.21850099825594
 20
185.0535983238
 30
0.0
 10
50.21850099825594
 20
185.0527370493605
 30
0.0
 10
50.21850099825594
 20
185.0513590102573
 30
0.0
 10
50.21850099825594
 20
185.0503254809299
 30
0.0
 10
50.21850099825594
 20
185.0286213650548
 30
0.0
 10
50.22056805691072
 20
185.0067449942917
 30
0.0
 10
50.22056805691072
 20
184.9853853881924
 30
0.0
 10
50.22056805691072
 20
184.9822848002102
 30
0.0
 10
50.2226351155655
 20
184.9795287220038
 30
0.0
 10
50.2226351155655
 20
184.9767726437974
 30
0.0
 10
50.2226351155655
 20
184.9654038211961
 30
0.0
 10
50.2226351155655
 20
184.9540349985949
 30
0.0
 10
50.2226351155655
 20
184.9421494113299
 30
0.0
 10
50.2226351155655
 20
184.9362927451414
 30
0.0
 10
50.22401315466868
 20
184.9309528436166
 30
0.0
 10
50.22401315466868
 20
184.9249239225401
 30
0.0
 10
50.22401315466868
 20
184.9221678443338
 30
0.0
 10
50.22401315466868
 20
184.9199285307911
 30
0.0
 10
50.22401315466868
 20
184.9176892172484
 30
0.0
 10
50.22814727197822
 20
184.8244993228955
 30
0.0
 10
50.23297040883938
 20
184.7314816834306
 30
0.0
 10
50.23848256525211
 20
184.6386362988535
 30
0.0
 10
50.24054962390689
 20
184.6110755167898
 30
0.0
 10
50.24261668256167
 20
184.5833424798382
 30
0.0
 10
50.24399472166485
 20
184.5550926782229
 30
0.0
 10
50.24399472166485
 20
184.5528533646803
 30
0.0
 10
50.24399472166485
 20
184.5506140511376
 30
0.0
 10
50.24399472166485
 20
184.5487192473706
 30
0.0
 10
50.24606178031964
 20
184.5118567013605
 30
0.0
 10
50.2495068780776
 20
184.4751664102382
 30
0.0
 10
50.25157393673237
 20
184.4383038642279
 30
0.0
 10
50.25157393673237
 20
184.4360645506854
 30
0.0
 10
50.25157393673237
 20
184.4341697469184
 30
0.0
 10
50.25157393673237
 20
184.4319304333758
 30
0.0
 10
50.25295197583556
 20
184.4138436701465
 30
0.0
 10
50.25501903449033
 20
184.396101416693
 30
0.0
 10
50.25501903449033
 20
184.3778423985758
 30
0.0
 10
50.25708609314511
 20
184.3756030850331
 30
0.0
 10
50.25708609314511
 20
184.3733637714905
 30
0.0
 10
50.25708609314511
 20
184.3714689677236
 30
0.0
 10
50.25708609314511
 20
184.3564827924764
 30
0.0
 10
50.25846413224829
 20
184.342013381893
 30
0.0
 10
50.25846413224829
 20
184.3270272066459
 30
0.0
 10
50.26397628866103
 20
184.2724224071822
 30
0.0
 10
50.2681104059706
 20
184.2171285881669
 30
0.0
 10
50.27293354283174
 20
184.1620070240395
 30
0.0
 10
50.27293354283174
 20
184.1516717307656
 30
0.0
 10
50.27500060148651
 20
184.1406474179402
 30
0.0
 10
50.27500060148651
 20
184.1303121246663
 30
0.0
 10
50.27706766014127
 20
184.1142924200917
 30
0.0
 10
50.27706766014127
 20
184.0989617350688
 30
0.0
 10
50.27844569924447
 20
184.083458795158
 30
0.0
 10
50.28051275789924
 20
184.0753628154268
 30
0.0
 10
50.28051275789924
 20
184.0670945808077
 30
0.0
 10
50.28051275789924
 20
184.0593431108522
 30
0.0
 10
50.28257981655404
 20
184.0407395829591
 30
0.0
 10
50.28395785565721
 20
184.02265281973
 30
0.0
 10
50.28602491431199
 20
184.0038770369491
 30
0.0
 10
50.28602491431199
 20
183.9985371354242
 30
0.0
 10
50.28809197296677
 20
183.9930249790115
 30
0.0
 10
50.28809197296677
 20
183.9880295872624
 30
0.0
 10
50.28947001206995
 20
183.9666699811631
 30
0.0
 10
50.29153707072473
 20
183.9453103750637
 30
0.0
 10
50.2936041293795
 20
183.924467533628
 30
0.0
 10
50.2936041293795
 20
183.9217114554216
 30
0.0
 10
50.2936041293795
 20
183.9186108674395
 30
0.0
 10
50.2936041293795
 20
183.9158547892331
 30
0.0
 10
50.29704922713746
 20
183.8917391049274
 30
0.0
 10
50.29842726624064
 20
183.8676234206216
 30
0.0
 10
50.30049432489543
 20
183.843507736316
 30
0.0
 10
51.00605034572597
 20
176.6034625430716
 30
0.0
 10
53.73594580913483
 20
172.1177730073175
 30
0.0
 10
59.84272609489771
 20
168.1674516631508
 30
0.0
 10
65.81997070496125
 20
164.3011907042783
 30
0.0
 10
71.75449610282604
 20
164.7831598806171
 30
0.0
 10
78.17409126501184
 20
164.7831598806171
 30
0.0
 10
90.83138042776312
 20
164.7831598806171
 30
0.0
 10
103.4900476296175
 20
164.7831598806171
 30
0.0
 10
116.1480258119204
 20
164.7831598806171
 30
0.0
 10
116.1480258119204
 20
165.0033016273509
 30
0.0
 10
116.1480258119204
 20
165.2230988643088
 30
0.0
 10
116.1480258119204
 20
165.4428961012668
 30
0.0
 10
116.1480258119204
 20
171.598080010529
 30
0.0
 10
116.1480258119204
 20
177.7530916649034
 30
0.0
 10
116.1480258119204
 20
183.907586554614
 30
0.0
 10
116.1480258119204
 20
184.5669782654879
 30
0.0
 10
116.1480258119204
 20
185.2267144861376
 30
0.0
 10
116.1480258119204
 20
185.8864507067871
 30
0.0
 10
106.6905434467639
 20
185.8864507067871
 30
0.0
 10
97.23443912071068
 20
185.8864507067871
 30
0.0
 10
87.77764577510588
 20
185.8864507067871
 30
0.0
 10
87.32702698836446
 20
185.8864507067871
 30
0.0
 10
87.13823563122819
 20
185.7033437609516
 30
0.0
 10
87.1196321033352
 20
185.253069483986
 30
0.0
 10
87.118254064232
 20
185.2458347786942
 30
0.0
 10
87.118254064232
 20
185.2384278185146
 30
0.0
 10
87.118254064232
 20
185.2317098778866
 30
0.0
 10
87.118254064232
 20
185.2275757605771
 30
0.0
 10
87.118254064232
 20
185.2239584079311
 30
0.0
 10
87.118254064232
 20
185.2198242906217
 30
0.0
 10
87.118254064232
 20
185.2103502717873
 30
0.0
 10
87.11618700557719
 20
185.2003594882892
 30
0.0
 10
87.11618700557719
 20
185.1903687047911
 30
0.0
  0
ENDBLK
  5
4D
330
48
100
AcDbEntity
  8
0
100
AcDbBlockEnd
  0
BLOCK
  5
1C
330
1B
100
AcDbEntity
  8
0
100
AcDbBlockBegin
  2
*Paper_Space3
 70
     0
 10
0.0
 20
0.0
 30
0.0
  3
*Paper_Space3
  1

  0
ENDBLK
  5
1D
330
1B
100
AcDbEntity
  8
0
100
AcDbBlockEnd
  0
BLOCK
  5
F47
330
F3C
100
AcDbEntity
  8
0
100
AcDbBlockBegin
  2
*D4
 70
     1
 10
0.0
 20
0.0
 30
0.0
  3
*D4
  1

  0
LINE
  5
135A
330
F3C
100
AcDbEntity
  8
0
 62
     0
370
    -2
100
AcDbLine
 10
3752.675366254536
 20
-633.9178174356288
 30
0.0
 11
3752.675366254536
 21
-571.0135747813651
 31
0.0
  0
LINE
  5
135B
330
F3C
100
AcDbEntity
  8
0
 62
     0
370
    -2
100
AcDbLine
 10
4602.63984625453
 20
-633.9178174356288
 30
0.0
 11
4602.63984625453
 21
-571.0135747813651
 31
0.0
  0
LINE
  5
135C
330
F3C
100
AcDbEntity
  8
0
 62
     0
370
    -2
100
AcDbLine
 10
3763.675366254535
 20
-572.2635747813651
 30
0.0
 11
4591.63984625453
 21
-572.2635747813651
 31
0.0
  0
INSERT
  5
135D
330
F3C
100
AcDbEntity
  8
0
 62
     0
370
    -2
100
AcDbBlockReference
  2
_Dot
 10
3752.675366254536
 20
-572.2635747813651
 30
0.0
 41
11.0
 42
11.0
 43
11.0
 50
180.0
  0
INSERT
  5
135E
330
F3C
100
AcDbEntity
  8
0
 62
     0
370
    -2
100
AcDbBlockReference
  2
_Dot
 10
4602.63984625453
 20
-572.2635747813651
 30
0.0
 41
11.0
 42
11.0
 43
11.0
  0
MTEXT
  5
135F
330
F3C
100
AcDbEntity
  8
0
 62
     0
100
AcDbMText
 10
4177.657606254533
 20
-551.0309690514879
 30
0.0
 40
22.0
 41
0.0
 71
     5
 72
     1
  1
850
  7
ARIAL
 73
     1
 44
1.0
1001
ACAD
1000
MTEXTBEGIN
1070
    73
1070
     1
1070
    44
1040
1.0
1070
    74
1070
     0
1000
MTEXTEND
  0
POINT
  5
1360
330
F3C
100
AcDbEntity
  8
Defpoints
 62
     0
100
AcDbPoint
 10
3752.675366254536
 20
-634.5428174356288
 30
0.0
  0
POINT
  5
1361
330
F3C
100
AcDbEntity
  8
Defpoints
 62
     0
100
AcDbPoint
 10
4602.63984625453
 20
-634.5428174356288
 30
0.0
  0
POINT
  5
1362
330
F3C
100
AcDbEntity
  8
Defpoints
 62
     0
100
AcDbPoint
 10
4602.63984625453
 20
-572.2635747813651
 30
0.0
  0
ENDBLK
  5
F48
330
F3C
100
AcDbEntity
  8
0
100
AcDbBlockEnd
  0
BLOCK
  5
F58
330
F55
100
AcDbEntity
  8
0
100
AcDbBlockBegin
  2
_Dot
 70
     0
 10
0.0
 20
0.0
 30
0.0
  3
_Dot
  1

  0
LWPOLYLINE
  5
F56
330
F55
100
AcDbEntity
  8
0
  6
ByBlock
 62
     0
100
AcDbPolyline
 90
        2
 70
     1
 43
0.5
 10
-0.25
 20
0.0
 42
1.0
 10
0.25
 20
0.0
 42
1.0
  0
LINE
  5
F57
330
F55
100
AcDbEntity
  8
0
  6
ByBlock
 62
     0
370
    -2
100
AcDbLine
 10
-0.5
 20
0.0
 30
0.0
 11
-1.0
 21
0.0
 31
0.0
  0
ENDBLK
  5
F59
330
F55
100
AcDbEntity
  8
0
100
AcDbBlockEnd
  0
BLOCK
  5
1008
330
FFD
100
AcDbEntity
  8
0
100
AcDbBlockBegin
  2
*D7
 70
     1
 10
0.0
 20
0.0
 30
0.0
  3
*D7
  1

  0
LINE
  5
119E
330
FFD
100
AcDbEntity
  8
0
 62
     0
370
    -2
100
AcDbLine
 10
3472.675211254533
 20
-563.6298811797346
 30
-0.000000000000006
 11
3472.675211254533
 21
-490.6447421431089
 31
-0.000000000000006
  0
LINE
  5
119F
330
FFD
100
AcDbEntity
  8
0
 62
     0
370
    -2
100
AcDbLine
 10
4177.65745125453
 20
-526.5123116614217
 30
-0.000000000000006
 11
4177.65745125453
 21
-490.6447421431089
 31
-0.000000000000006
  0
LINE
  5
11A0
330
FFD
100
AcDbEntity
  8
0
 62
     0
370
    -2
100
AcDbLine
 10
3483.675211254533
 20
-491.8947421431089
 30
-0.000000000000006
 11
4166.65745125453
 21
-491.8947421431089
 31
-0.000000000000006
  0
INSERT
  5
11A1
330
FFD
100
AcDbEntity
  8
0
 62
     0
370
    -2
100
AcDbBlockReference
  2
_Dot
 10
3472.675211254533
 20
-491.8947421431089
 30
-0.000000000000006
 41
11.0
 42
11.0
 43
11.0
 50
180.0
  0
INSERT
  5
11A2
330
FFD
100
AcDbEntity
  8
0
 62
     0
370
    -2
100
AcDbBlockReference
  2
_Dot
 10
4177.65745125453
 20
-491.8947421431089
 30
-0.000000000000006
 41
11.0
 42
11.0
 43
11.0
  0
MTEXT
  5
11A3
330
FFD
100
AcDbEntity
  8
0
 62
     0
100
AcDbMText
 10
3825.166331254532
 20
-470.6621364132317
 30
-0.000000000000006
 40
22.0
 41
0.0
 71
     5
 72
     1
  1
max. 1400
  7
ARIAL
 73
     1
 44
1.0
1001
ACAD
1000
MTEXTBEGIN
1070
    73
1070
     1
1070
    44
1040
1.0
1070
    74
1070
     0
1000
MTEXTEND
  0
POINT
  5
11A4
330
FFD
100
AcDbEntity
  8
Defpoints
 62
     0
100
AcDbPoint
 10
3472.675211254533
 20
-564.2548811797346
 30
0.0
  0
POINT
  5
11A5
330
FFD
100
AcDbEntity
  8
Defpoints
 62
     0
100
AcDbPoint
 10
4177.65745125453
 20
-527.1373116614218
 30
-0.000000000000012
  0
POINT
  5
11A6
330
FFD
100
AcDbEntity
  8
Defpoints
 62
     0
100
AcDbPoint
 10
4177.65745125453
 20
-491.8947421431089
 30
-0.000000000000006
  0
ENDBLK
  5
1009
330
FFD
100
AcDbEntity
  8
0
100
AcDbBlockEnd
  0
BLOCK
  5
1022
330
1017
100
AcDbEntity
  8
0
100
AcDbBlockBegin
  2
*D8
 70
     1
 10
0.0
 20
0.0
 30
0.0
  3
*D8
  1

  0
LINE
  5
11B0
330
1017
100
AcDbEntity
  8
0
 62
     0
370
    -2
100
AcDbLine
 10
4177.65745125453
 20
-526.5123116614217
 30
0.0
 11
4177.65745125453
 21
-490.6447421431089
 31
0.0
  0
LINE
  5
11B1
330
1017
100
AcDbEntity
  8
0
 62
     0
370
    -2
100
AcDbLine
 10
4882.63984625453
 20
-594.8563192730849
 30
0.0
 11
4882.63984625453
 21
-490.6447421431089
 31
0.0
  0
LINE
  5
11B2
330
1017
100
AcDbEntity
  8
0
 62
     0
370
    -2
100
AcDbLine
 10
4188.65745125453
 20
-491.8947421431089
 30
0.0
 11
4871.639846254531
 21
-491.8947421431089
 31
0.0
  0
INSERT
  5
11B3
330
1017
100
AcDbEntity
  8
0
 62
     0
370
    -2
100
AcDbBlockReference
  2
_Dot
 10
4177.65745125453
 20
-491.8947421431089
 30
0.0
 41
11.0
 42
11.0
 43
11.0
 50
180.0
  0
INSERT
  5
11B4
330
1017
100
AcDbEntity
  8
0
 62
     0
370
    -2
100
AcDbBlockReference
  2
_Dot
 10
4882.63984625453
 20
-491.8947421431089
 30
0.0
 41
11.0
 42
11.0
 43
11.0
  0
MTEXT
  5
11B5
330
1017
100
AcDbEntity
  8
0
 62
     0
100
AcDbMText
 10
4530.148648754529
 20
-470.6621364132317
 30
0.0
 40
22.0
 41
0.0
 71
     5
 72
     1
  1
max. 1400
  7
ARIAL
 73
     1
 44
1.0
1001
ACAD
1000
MTEXTBEGIN
1070
    73
1070
     1
1070
    44
1040
1.0
1070
    74
1070
     0
1000
MTEXTEND
  0
POINT
  5
11B6
330
1017
100
AcDbEntity
  8
Defpoints
 62
     0
100
AcDbPoint
 10
4177.65745125453
 20
-527.1373116614218
 30
-0.000000000000012
  0
POINT
  5
11B7
330
1017
100
AcDbEntity
  8
Defpoints
 62
     0
100
AcDbPoint
 10
4882.63984625453
 20
-595.4813192730848
 30
0.000000000000006
  0
POINT
  5
11B8
330
1017
100
AcDbEntity
  8
Defpoints
 62
     0
100
AcDbPoint
 10
4882.63984625453
 20
-491.8947421431089
 30
0.0
  0
ENDBLK
  5
1023
330
1017
100
AcDbEntity
  8
0
100
AcDbBlockEnd
  0
BLOCK
  5
103C
330
1031
100
AcDbEntity
  8
0
100
AcDbBlockBegin
  2
*D9
 70
     1
 10
0.0
 20
0.0
 30
0.0
  3
*D9
  1

  0
LINE
  5
11A7
330
1031
100
AcDbEntity
  8
0
 62
     0
370
    -2
100
AcDbLine
 10
3472.675366254535
 20
-634.5428174356288
 30
0.0
 11
3472.675366254535
 21
-441.439847598203
 31
0.0
  0
LINE
  5
11A8
330
1031
100
AcDbEntity
  8
0
 62
     0
370
    -2
100
AcDbLine
 10
4882.639691254529
 20
-634.5428174356288
 30
0.0
 11
4882.639691254529
 21
-441.439847598203
 31
0.0
  0
LINE
  5
11A9
330
1031
100
AcDbEntity
  8
0
 62
     0
370
    -2
100
AcDbLine
 10
3483.675366254535
 20
-442.6898475982029
 30
0.0
 11
4871.639691254529
 21
-442.6898475982029
 31
0.0
  0
INSERT
  5
11AA
330
1031
100
AcDbEntity
  8
0
 62
     0
370
    -2
100
AcDbBlockReference
  2
_Dot
 10
3472.675366254535
 20
-442.6898475982029
 30
0.0
 41
11.0
 42
11.0
 43
11.0
 50
180.0
  0
INSERT
  5
11AB
330
1031
100
AcDbEntity
  8
0
 62
     0
370
    -2
100
AcDbBlockReference
  2
_Dot
 10
4882.639691254529
 20
-442.6898475982029
 30
0.0
 41
11.0
 42
11.0
 43
11.0
  0
MTEXT
  5
11AC
330
1031
100
AcDbEntity
  8
0
 62
     0
100
AcDbMText
 10
4177.657528754532
 20
-421.4572418683257
 30
0.0
 40
22.0
 41
0.0
 71
     5
 72
     1
  1
max. 2800
  7
ARIAL
 73
     1
 44
1.0
1001
ACAD
1000
MTEXTBEGIN
1070
    73
1070
     1
1070
    44
1040
1.0
1070
    74
1070
     0
1000
MTEXTEND
  0
POINT
  5
11AD
330
1031
100
AcDbEntity
  8
Defpoints
 62
     0
100
AcDbPoint
 10
3472.675366254535
 20
-635.1678174356289
 30
0.000000000000006
  0
POINT
  5
11AE
330
1031
100
AcDbEntity
  8
Defpoints
 62
     0
100
AcDbPoint
 10
4882.639691254529
 20
-635.1678174356289
 30
0.000000000000006
  0
POINT
  5
11AF
330
1031
100
AcDbEntity
  8
Defpoints
 62
     0
100
AcDbPoint
 10
4882.639691254529
 20
-442.6898475982029
 30
0.0
  0
ENDBLK
  5
103D
330
1031
100
AcDbEntity
  8
0
100
AcDbBlockEnd
  0
BLOCK
  5
10A5
330
10A4
100
AcDbEntity
  8
0
100
AcDbBlockBegin
  2
*D10
 70
     1
 10
0.0
 20
0.0
 30
0.0
  3
*D10
  1

  0
LINE
  5
10A6
330
10A4
100
AcDbEntity
  8
0
 62
     0
370
    -2
100
AcDbLine
 10
71004.10656373275
 20
-55883.69966315211
 30
0.0
 11
71004.10656373275
 21
-56010.74737760815
 31
0.0
  0
LINE
  5
10A7
330
10A4
100
AcDbEntity
  8
0
 62
     0
370
    -2
100
AcDbLine
 10
71966.10656373276
 20
-55883.69966315211
 30
0.0
 11
71966.10656373276
 21
-56010.74737760815
 31
0.0
  0
LINE
  5
10A8
330
10A4
100
AcDbEntity
  8
0
 62
     0
370
    -2
100
AcDbLine
 10
71029.10656373276
 20
-56009.49737760815
 30
0.0
 11
71941.10656373275
 21
-56009.49737760815
 31
0.0
  0
INSERT
  5
10A9
330
10A4
100
AcDbEntity
  8
0
 62
     0
370
    -2
100
AcDbBlockReference
  2
_Dot
 10
71004.10656373275
 20
-56009.49737760815
 30
0.0
 41
25.0
 42
25.0
 43
25.0
 50
180.0
  0
INSERT
  5
10AA
330
10A4
100
AcDbEntity
  8
0
 62
     0
370
    -2
100
AcDbBlockReference
  2
_Dot
 10
71966.10656373276
 20
-56009.49737760815
 30
0.0
 41
25.0
 42
25.0
 43
25.0
  0
MTEXT
  5
10AB
330
10A4
100
AcDbEntity
  8
0
 62
     0
100
AcDbMText
 10
71485.10656373275
 20
-55966.41586328345
 30
0.0
 40
55.0
 41
0.0
 71
     5
 72
     1
  1
962
  7
ARIAL
 73
     1
 44
1.0
1001
ACAD
1000
MTEXTBEGIN
1070
    73
1070
     1
1070
    44
1040
1.0
1070
    74
1070
     0
1000
MTEXTEND
  0
POINT
  5
10AC
330
10A4
100
AcDbEntity
  8
Defpoints
 62
     0
100
AcDbPoint
 10
71004.10656373275
 20
-55883.07466315211
 30
0.0
  0
POINT
  5
10AD
330
10A4
100
AcDbEntity
  8
Defpoints
 62
     0
100
AcDbPoint
 10
71966.10656373276
 20
-55883.07466315211
 30
0.0
  0
POINT
  5
10AE
330
10A4
100
AcDbEntity
  8
Defpoints
 62
     0
100
AcDbPoint
 10
71966.10656373276
 20
-56009.49737760815
 30
0.0
  0
ENDBLK
  5
10AF
330
10A4
100
AcDbEntity
  8
0
100
AcDbBlockEnd
  0
BLOCK
  5
10C4
330
10BA
100
AcDbEntity
  8
0
100
AcDbBlockBegin
  2
*D12
 70
     1
 10
0.0
 20
0.0
 30
0.0
  3
*D12
  1

  0
LINE
  5
10C6
330
10BA
100
AcDbEntity
  8
0
 62
     0
370
    -2
100
AcDbLine
 10
3460.338459253418
 20
-121.2926313045059
 30
0.0
 11
3460.338459253418
 21
-248.3403457605486
 31
0.0
  0
LINE
  5
10C7
330
10BA
100
AcDbEntity
  8
0
 62
     0
370
    -2
100
AcDbLine
 10
4422.338459253417
 20
-121.2926313045059
 30
0.0
 11
4422.338459253417
 21
-248.3403457605486
 31
0.0
  0
LINE
  5
10C8
330
10BA
100
AcDbEntity
  8
0
 62
     0
370
    -2
100
AcDbLine
 10
3485.338459253418
 20
-247.0903457605487
 30
0.0
 11
4397.338459253417
 21
-247.0903457605487
 31
0.0
  0
INSERT
  5
10C9
330
10BA
100
AcDbEntity
  8
0
 62
     0
370
    -2
100
AcDbBlockReference
  2
_Dot
 10
3460.338459253418
 20
-247.0903457605487
 30
0.0
 41
25.0
 42
25.0
 43
25.0
 50
180.0
  0
INSERT
  5
10CA
330
10BA
100
AcDbEntity
  8
0
 62
     0
370
    -2
100
AcDbBlockReference
  2
_Dot
 10
4422.338459253417
 20
-247.0903457605487
 30
0.0
 41
25.0
 42
25.0
 43
25.0
  0
MTEXT
  5
10CB
330
10BA
100
AcDbEntity
  8
0
 62
     0
100
AcDbMText
 10
3941.338459253418
 20
-204.0088314358556
 30
0.0
 40
55.0
 41
0.0
 71
     5
 72
     1
  1
962
  7
ARIAL
 73
     1
 44
1.0
1001
ACAD
1000
MTEXTBEGIN
1070
    73
1070
     1
1070
    44
1040
1.0
1070
    74
1070
     0
1000
MTEXTEND
  0
POINT
  5
10CC
330
10BA
100
AcDbEntity
  8
Defpoints
 62
     0
100
AcDbPoint
 10
3460.338459253418
 20
-120.6676313045059
 30
0.0
  0
POINT
  5
10CD
330
10BA
100
AcDbEntity
  8
Defpoints
 62
     0
100
AcDbPoint
 10
4422.338459253417
 20
-120.6676313045059
 30
0.0
  0
POINT
  5
10CE
330
10BA
100
AcDbEntity
  8
Defpoints
 62
     0
100
AcDbPoint
 10
4422.338459253417
 20
-247.0903457605487
 30
0.0
  0
ENDBLK
  5
10C5
330
10BA
100
AcDbEntity
  8
0
100
AcDbBlockEnd
  0
BLOCK
  5
11EA
330
11DF
100
AcDbEntity
  8
0
100
AcDbBlockBegin
  2
*D13
 70
     1
 10
0.0
 20
0.0
 30
0.0
  3
*D13
  1

  0
LINE
  5
126B
330
11DF
100
AcDbEntity
  8
0
 62
     0
370
    -2
100
AcDbLine
 10
4037.657606254533
 20
-1381.017554467282
 30
0.0
 11
4037.657606254533
 21
-1348.618422616394
 31
0.0
  0
LINE
  5
126C
330
11DF
100
AcDbEntity
  8
0
 62
     0
370
    -2
100
AcDbLine
 10
4317.657606254533
 20
-1381.017554467282
 30
0.0
 11
4317.657606254533
 21
-1348.618422616394
 31
0.0
  0
LINE
  5
126D
330
11DF
100
AcDbEntity
  8
0
 62
     0
370
    -2
100
AcDbLine
 10
4048.657606254533
 20
-1349.868422616394
 30
0.0
 11
4306.657606254533
 21
-1349.868422616394
 31
0.0
  0
INSERT
  5
126E
330
11DF
100
AcDbEntity
  8
0
 62
     0
370
    -2
100
AcDbBlockReference
  2
_Dot
 10
4037.657606254533
 20
-1349.868422616394
 30
0.0
 41
11.0
 42
11.0
 43
11.0
 50
180.0
  0
INSERT
  5
126F
330
11DF
100
AcDbEntity
  8
0
 62
     0
370
    -2
100
AcDbBlockReference
  2
_Dot
 10
4317.657606254533
 20
-1349.868422616394
 30
0.0
 41
11.0
 42
11.0
 43
11.0
  0
MTEXT
  5
1270
330
11DF
100
AcDbEntity
  8
0
 62
     0
100
AcDbMText
 10
4177.657606254533
 20
-1328.635816886517
 30
0.0
 40
22.0
 41
0.0
 71
     5
 72
     1
  1
280
  7
ARIAL
 73
     1
 44
1.0
1001
ACAD
1000
MTEXTBEGIN
1070
    73
1070
     1
1070
    44
1040
1.0
1070
    74
1070
     0
1000
MTEXTEND
  0
POINT
  5
1271
330
11DF
100
AcDbEntity
  8
Defpoints
 62
     0
100
AcDbPoint
 10
4037.657606254533
 20
-1381.642554467281
 30
0.0
  0
POINT
  5
1272
330
11DF
100
AcDbEntity
  8
Defpoints
 62
     0
100
AcDbPoint
 10
4317.657606254533
 20
-1381.642554467281
 30
0.0
  0
POINT
  5
1273
330
11DF
100
AcDbEntity
  8
Defpoints
 62
     0
100
AcDbPoint
 10
4317.657606254533
 20
-1349.868422616394
 30
0.0
  0
ENDBLK
  5
11EB
330
11DF
100
AcDbEntity
  8
0
100
AcDbBlockEnd
  0
BLOCK
  5
1204
330
11F9
100
AcDbEntity
  8
0
100
AcDbBlockBegin
  2
*D14
 70
     1
 10
0.0
 20
0.0
 30
0.0
  3
*D14
  1

  0
LINE
  5
12B0
330
11F9
100
AcDbEntity
  8
0
 62
     0
370
    -2
100
AcDbLine
 10
4277.657606254533
 20
-1721.282274518421
 30
0.0
 11
4277.657606254533
 21
-1776.414504395281
 31
0.0
  0
LINE
  5
12B1
330
11F9
100
AcDbEntity
  8
0
 62
     0
370
    -2
100
AcDbLine
 10
4077.657606254533
 20
-1721.282274518421
 30
0.0
 11
4077.657606254533
 21
-1776.414504395281
 31
0.0
  0
LINE
  5
12B2
330
11F9
100
AcDbEntity
  8
0
 62
     0
370
    -2
100
AcDbLine
 10
4266.657606254533
 20
-1775.164504395281
 30
0.0
 11
4088.657606254533
 21
-1775.164504395281
 31
0.0
  0
INSERT
  5
12B3
330
11F9
100
AcDbEntity
  8
0
 62
     0
370
    -2
100
AcDbBlockReference
  2
_Dot
 10
4277.657606254533
 20
-1775.164504395281
 30
0.0
 41
11.0
 42
11.0
 43
11.0
  0
INSERT
  5
12B4
330
11F9
100
AcDbEntity
  8
0
 62
     0
370
    -2
100
AcDbBlockReference
  2
_Dot
 10
4077.657606254533
 20
-1775.164504395281
 30
0.0
 41
11.0
 42
11.0
 43
11.0
 50
180.0
  0
MTEXT
  5
12B5
330
11F9
100
AcDbEntity
  8
0
 62
     0
100
AcDbMText
 10
4177.657606254533
 20
-1753.924395254762
 30
0.0
 40
22.0
 41
0.0
 71
     5
 72
     1
  1
200 - 300 *
  7
ARIAL
 73
     1
 44
1.0
1001
ACAD
1000
MTEXTBEGIN
1070
    73
1070
     1
1070
    44
1040
1.0
1070
    74
1070
     0
1000
MTEXTEND
  0
POINT
  5
12B6
330
11F9
100
AcDbEntity
  8
Defpoints
 62
     0
100
AcDbPoint
 10
4277.657606254533
 20
-1720.657274518422
 30
0.0
  0
POINT
  5
12B7
330
11F9
100
AcDbEntity
  8
Defpoints
 62
     0
100
AcDbPoint
 10
4077.657606254533
 20
-1720.657274518422
 30
0.0
  0
POINT
  5
12B8
330
11F9
100
AcDbEntity
  8
Defpoints
 62
     0
100
AcDbPoint
 10
4077.657606254533
 20
-1775.164504395281
 30
0.0
  0
ENDBLK
  5
1205
330
11F9
100
AcDbEntity
  8
0
100
AcDbBlockEnd
  0
BLOCK
  5
121E
330
1213
100
AcDbEntity
  8
0
100
AcDbBlockBegin
  2
*D15
 70
     1
 10
0.0
 20
0.0
 30
0.0
  3
*D15
  1

  0
LINE
  5
12B9
330
1213
100
AcDbEntity
  8
0
 62
     0
370
    -2
100
AcDbLine
 10
4361.907844386814
 20
-1657.113903710803
 30
0.0
 11
4425.506052880975
 21
-1657.113903710803
 31
0.0
  0
LINE
  5
12BA
330
1213
100
AcDbEntity
  8
0
 62
     0
370
    -2
100
AcDbLine
 10
4361.907844386814
 20
-2207.113903710804
 30
0.0
 11
4425.506052880974
 21
-2207.113903710804
 31
0.0
  0
LINE
  5
12BB
330
1213
100
AcDbEntity
  8
0
 62
     0
370
    -2
100
AcDbLine
 10
4424.256052880975
 20
-1668.113903710803
 30
0.0
 11
4424.256052880974
 21
-2196.113903710804
 31
0.0
  0
INSERT
  5
12BC
330
1213
100
AcDbEntity
  8
0
 62
     0
370
    -2
100
AcDbBlockReference
  2
_Dot
 10
4424.256052880975
 20
-1657.113903710803
 30
0.0
 41
11.0
 42
11.0
 43
11.0
 50
90.0
  0
INSERT
  5
12BD
330
1213
100
AcDbEntity
  8
0
 62
     0
370
    -2
100
AcDbBlockReference
  2
_Dot
 10
4424.256052880974
 20
-2207.113903710804
 30
0.0
 41
11.0
 42
11.0
 43
11.0
 50
270.0
  0
MTEXT
  5
12BE
330
1213
100
AcDbEntity
  8
0
 62
     0
100
AcDbMText
 10
4403.015943740457
 20
-1932.113903710803
 30
0.0
 40
22.0
 41
0.0
 71
     5
 72
     1
  1
550 - 630 *
  7
ARIAL
 11
0.0000000000000001
 21
1.0
 31
0.0
 73
     1
 44
1.0
1001
ACAD
1000
MTEXTBEGIN
1070
    73
1070
     1
1070
    44
1040
1.0
1070
    74
1070
     0
1000
MTEXTEND
  0
POINT
  5
12BF
330
1213
100
AcDbEntity
  8
Defpoints
 62
     0
100
AcDbPoint
 10
4361.282844386813
 20
-1657.113903710803
 30
0.000000000000006
  0
POINT
  5
12C0
330
1213
100
AcDbEntity
  8
Defpoints
 62
     0
100
AcDbPoint
 10
4361.282844386813
 20
-2207.113903710804
 30
0.000000000000006
  0
POINT
  5
12C1
330
1213
100
AcDbEntity
  8
Defpoints
 62
     0
100
AcDbPoint
 10
4424.256052880974
 20
-2207.113903710804
 30
0.0
  0
ENDBLK
  5
121F
330
1213
100
AcDbEntity
  8
0
100
AcDbBlockEnd
  0
BLOCK
  5
127E
330
1277
100
AcDbEntity
  8
0
100
AcDbBlockBegin
  2
*D16
 70
     1
 10
0.0
 20
0.0
 30
0.0
  3
*D16
  1

  0
LINE
  5
12A8
330
1277
100
AcDbEntity
  8
0
 62
     0
370
    -2
100
AcDbLine
 10
4464.622649095956
 20
-1572.283236848185
 30
0.0
 11
4331.361048099612
 21
-1458.785051109347
 31
0.0
  0
LINE
  5
12A9
330
1277
100
AcDbEntity
  8
0
 62
     0
370
    -2
100
AcDbLine
 10
4303.954164409453
 20
-1435.44275631226
 30
0.0
 11
4297.86374581164
 21
-1430.255579690686
 31
0.0
  0
MTEXT
  5
12AA
330
1277
100
AcDbEntity
  8
0
 62
     0
100
AcDbMText
 10
4450.097107868401
 20
-1531.21387074899
 30
0.0
 40
22.0
 41
0.0
 71
     5
 72
     1
  1
\U+220520
  7
ARIAL
 11
0.7613023247266387
 21
-0.6483970776968507
 31
0.0
 73
     1
 44
1.0
1001
ACAD
1000
MTEXTBEGIN
1070
    73
1070
     1
1070
    44
1040
1.0
1070
    74
1070
     0
1000
MTEXTEND
  0
LINE
  5
12AB
330
1277
100
AcDbEntity
  8
0
 62
     0
370
    -2
100
AcDbLine
 10
4310.044583007266
 20
-1440.629932933835
 30
0.0
 11
4325.270629501798
 21
-1453.597874487772
 31
0.0
  0
INSERT
  5
12AC
330
1277
100
AcDbEntity
  8
0
 62
     0
370
    -2
100
AcDbBlockReference
  2
_Dot
 10
4310.044583007266
 20
-1440.629932933835
 30
0.0
 41
8.0
 42
8.0
 43
8.0
 50
319.5791428587077
  0
INSERT
  5
12AD
330
1277
100
AcDbEntity
  8
0
 62
     0
370
    -2
100
AcDbBlockReference
  2
_Dot
 10
4325.270629501798
 20
-1453.597874487772
 30
0.0
 41
8.0
 42
8.0
 43
8.0
 50
139.5791428587076
  0
POINT
  5
12AE
330
1277
100
AcDbEntity
  8
Defpoints
 62
     0
100
AcDbPoint
 10
4325.270629501798
 20
-1453.597874487772
 30
0.0000000000000056
  0
POINT
  5
12AF
330
1277
100
AcDbEntity
  8
Defpoints
 62
     0
100
AcDbPoint
 10
4310.044583007266
 20
-1440.629932933835
 30
0.0000000000000064
  0
ENDBLK
  5
127F
330
1277
100
AcDbEntity
  8
0
100
AcDbBlockEnd
  0
BLOCK
  5
12CA
330
12C3
100
AcDbEntity
  8
0
100
AcDbBlockBegin
  2
*D17
 70
     1
 10
0.0
 20
0.0
 30
0.0
  3
*D17
  1

  0
LINE
  5
12FE
330
12C3
100
AcDbEntity
  8
0
 62
     0
370
    -2
100
AcDbLine
 10
4284.638929768646
 20
-750.6397174120518
 30
0.0
 11
4202.658905410762
 21
-767.095433774592
 31
0.0
  0
LINE
  5
12FF
330
12C3
100
AcDbEntity
  8
0
 62
     0
370
    -2
100
AcDbLine
 10
4152.656307098303
 20
-777.1323736470155
 30
0.0
 11
4144.812762264975
 21
-778.7067955877879
 31
0.0
  0
MTEXT
  5
1300
330
12C3
100
AcDbEntity
  8
0
 62
     0
100
AcDbMText
 10
4243.270966239229
 20
-736.6597560394913
 30
0.0
 40
22.0
 41
0.0
 71
     5
 72
     1
  1
\U+220535
  7
ARIAL
 11
0.980443104165907
 21
0.1968027425965414
 31
0.0
 73
     1
 44
1.0
1001
ACAD
1000
MTEXTBEGIN
1070
    73
1070
     1
1070
    44
1040
1.0
1070
    74
1070
     0
1000
MTEXTEND
  0
LINE
  5
1301
330
12C3
100
AcDbEntity
  8
0
 62
     0
370
    -2
100
AcDbLine
 10
4160.499851931629
 20
-775.5579517062433
 30
0.0
 11
4194.815360577435
 21
-768.6698557153643
 31
0.0
  0
INSERT
  5
1302
330
12C3
100
AcDbEntity
  8
0
 62
     0
370
    -2
100
AcDbBlockReference
  2
_Dot
 10
4160.499851931629
 20
-775.5579517062433
 30
0.0
 41
8.0
 42
8.0
 43
8.0
 50
11.35005407615748
  0
INSERT
  5
1303
330
12C3
100
AcDbEntity
  8
0
 62
     0
370
    -2
100
AcDbBlockReference
  2
_Dot
 10
4194.815360577435
 20
-768.6698557153643
 30
0.0
 41
8.0
 42
8.0
 43
8.0
 50
191.3500540761574
  0
POINT
  5
1304
330
12C3
100
AcDbEntity
  8
Defpoints
 62
     0
100
AcDbPoint
 10
4194.815360577435
 20
-768.6698557153643
 30
0.0000000000000044
  0
POINT
  5
1305
330
12C3
100
AcDbEntity
  8
Defpoints
 62
     0
100
AcDbPoint
 10
4160.499851931629
 20
-775.5579517062433
 30
0.0000000000000076
  0
ENDBLK
  5
12CB
330
12C3
100
AcDbEntity
  8
0
100
AcDbBlockEnd
  0
BLOCK
  5
12DC
330
12D5
100
AcDbEntity
  8
0
100
AcDbBlockBegin
  2
*D18
 70
     1
 10
0.0
 20
0.0
 30
0.0
  3
*D18
  1

  0
LINE
  5
130E
330
12D5
100
AcDbEntity
  8
0
 62
     0
370
    -2
100
AcDbLine
 10
4333.451022217087
 20
-922.1945342985248
 30
0.0
 11
4209.504495161957
 21
-945.9978632609169
 31
0.0
  0
LINE
  5
130F
330
12D5
100
AcDbEntity
  8
0
 62
     0
370
    -2
100
AcDbLine
 10
4145.810717347109
 20
-958.2299441606904
 30
0.0
 11
4137.954283501741
 21
-959.7387341505012
 31
0.0
  0
MTEXT
  5
1310
330
12D5
100
AcDbEntity
  8
0
 62
     0
100
AcDbMText
 10
4270.984066066938
 20
-910.1789213869549
 30
0.0
 40
22.0
 41
0.0
 71
     5
 72
     1
  1
\U+220548,86
  7
ARIAL
 11
0.9820542306710276
 21
0.1885987487263266
 31
0.0
 73
     1
 44
1.0
1001
ACAD
1000
MTEXTBEGIN
1070
    73
1070
     1
1070
    44
1040
1.0
1070
    74
1070
     0
1000
MTEXTEND
  0
LINE
  5
1311
330
12D5
100
AcDbEntity
  8
0
 62
     0
370
    -2
100
AcDbLine
 10
4153.667151192478
 20
-956.7211541708799
 30
0.0
 11
4201.648061316589
 21
-947.5066532507275
 31
0.0
  0
INSERT
  5
1312
330
12D5
100
AcDbEntity
  8
0
 62
     0
370
    -2
100
AcDbBlockReference
  2
_Dot
 10
4153.667151192478
 20
-956.7211541708799
 30
0.0
 41
8.0
 42
8.0
 43
8.0
 50
10.87102006430253
  0
INSERT
  5
1313
330
12D5
100
AcDbEntity
  8
0
 62
     0
370
    -2
100
AcDbBlockReference
  2
_Dot
 10
4201.648061316589
 20
-947.5066532507275
 30
0.0
 41
8.0
 42
8.0
 43
8.0
 50
190.8710200643025
  0
POINT
  5
1314
330
12D5
100
AcDbEntity
  8
Defpoints
 62
     0
100
AcDbPoint
 10
4201.648061316589
 20
-947.5066532507275
 30
0.0000000000000045
  0
POINT
  5
1315
330
12D5
100
AcDbEntity
  8
Defpoints
 62
     0
100
AcDbPoint
 10
4153.667151192478
 20
-956.7211541708799
 30
0.0000000000000075
  0
ENDBLK
  5
12DD
330
12D5
100
AcDbEntity
  8
0
100
AcDbBlockEnd
  0
BLOCK
  5
1330
330
1328
100
AcDbEntity
  8
0
100
AcDbBlockBegin
  2
*D19
 70
     1
 10
0.0
 20
0.0
 30
0.0
  3
*D19
  1

  0
LINE
  5
1348
330
1328
100
AcDbEntity
  8
0
 62
     0
370
    -2
100
AcDbLine
 10
4300.801457045978
 20
-917.1392909534901
 30
0.0
 11
4207.478202922954
 21
-943.644428264268
 31
0.0
  0
LINE
  5
1349
330
1328
100
AcDbEntity
  8
0
 62
     0
370
    -2
100
AcDbLine
 10
4147.837009586114
 20
-960.5833791573401
 30
0.0
 11
4140.141371736199
 21
-962.769050240317
 31
0.0
  0
MTEXT
  5
134A
330
1328
100
AcDbEntity
  8
0
 62
     0
100
AcDbMText
 10
4258.549797906325
 20
-906.4273973797535
 30
0.0
 40
22.0
 41
0.0
 71
     5
 72
     1
  1
\U+220546
  7
ARIAL
 11
0.9619547312393256
 21
0.2732088853721212
 31
0.0
 73
     1
 44
1.0
1001
ACAD
1000
MTEXTBEGIN
1070
    73
1070
     1
1070
    44
1040
1.0
1070
    74
1070
     0
1000
MTEXTEND
  0
LINE
  5
134B
330
1328
100
AcDbEntity
  8
0
 62
     0
370
    -2
100
AcDbLine
 10
4155.532647436028
 20
-958.3977080743633
 30
0.0
 11
4199.782565073038
 21
-945.830099347245
 31
0.0
  0
INSERT
  5
134C
330
1328
100
AcDbEntity
  8
0
 62
     0
370
    -2
100
AcDbBlockReference
  2
_Dot
 10
4155.532647436028
 20
-958.3977080743633
 30
0.0
 41
8.0
 42
8.0
 43
8.0
 50
15.85530382202789
  0
INSERT
  5
134D
330
1328
100
AcDbEntity
  8
0
 62
     0
370
    -2
100
AcDbBlockReference
  2
_Dot
 10
4199.782565073038
 20
-945.830099347245
 30
0.0
 41
8.0
 42
8.0
 43
8.0
 50
195.8553038220278
  0
POINT
  5
134E
330
1328
100
AcDbEntity
  8
Defpoints
 62
     0
100
AcDbPoint
 10
4199.782565073038
 20
-945.830099347245
 30
0.0000000000000045
  0
POINT
  5
134F
330
1328
100
AcDbEntity
  8
Defpoints
 62
     0
100
AcDbPoint
 10
4155.532647436028
 20
-958.3977080743633
 30
0.0000000000000075
  0
ENDBLK
  5
1331
330
1328
100
AcDbEntity
  8
0
100
AcDbBlockEnd
  0
ENDSEC
  0
SECTION
  2
ENTITIES
  0
LINE
  5
BA4
330
1F
100
AcDbEntity
  8
Hewi
100
AcDbLine
 10
4267.657606254533
 20
-1107.113903710803
 30
0.000000000000006
 11
4087.657606254532
 21
-1107.113903710803
 31
0.000000000000006
  0
LINE
  5
BA5
330
1F
100
AcDbEntity
  8
Hewi
100
AcDbLine
 10
4267.657606254533
 20
-1407.113903710803
 30
0.000000000000006
 11
4087.657606254532
 21
-1407.113903710803
 31
0.000000000000006
  0
LINE
  5
BA6
330
1F
100
AcDbEntity
  8
Hewi
100
AcDbLine
 10
4267.657606254533
 20
-1107.113903710803
 30
0.000000000000006
 11
4087.657606254532
 21
-1107.113903710803
 31
0.000000000000006
  0
LINE
  5
BA7
330
1F
100
AcDbEntity
  8
Hewi
100
AcDbLine
 10
3756.129346254534
 20
-692.1139037108036
 30
0.000000000000006
 11
4599.18586125453
 21
-692.1139037108036
 31
0.000000000000006
  0
LINE
  5
BA8
330
1F
100
AcDbEntity
  8
Trennung
 48
20.0
370
     9
100
AcDbLine
 10
3752.675211254534
 20
-1022.097668710801
 30
0.000000000000006
 11
3752.675211254534
 21
-693.6139037108037
 31
0.000000000000006
  0
LINE
  5
BA9
330
1F
100
AcDbEntity
  8
Hewi
100
AcDbLine
 10
3753.562706038191
 20
-692.2392535514718
 30
0.0000000000000045
 11
4599.18586125453
 21
-692.1139037108036
 31
0.000000000000006
  0
LINE
  5
BAA
330
1F
100
AcDbEntity
  8
Trennung
 48
20.0
370
     9
100
AcDbLine
 10
4602.63999625453
 20
-693.6139037108037
 30
0.000000000000006
 11
4602.63999625453
 21
-1022.097668710801
 31
0.000000000000006
  0
LINE
  5
BAB
330
1F
100
AcDbEntity
  8
Hewi
100
AcDbLine
 10
3949.374896254533
 20
-1032.096143710801
 30
0.000000000000006
 11
3949.374896254533
 21
-1032.096298710803
 31
0.000000000000006
  0
LINE
  5
BAC
330
1F
100
AcDbEntity
  8
Hewi
100
AcDbLine
 10
3762.673841254536
 20
-1032.096143710801
 30
0.000000000000006
 11
3949.374896254533
 21
-1032.096143710801
 31
0.000000000000006
  0
LINE
  5
BAE
330
1F
100
AcDbEntity
  8
Hewi
100
AcDbLine
 10
3949.374896254533
 20
-1032.096298710803
 30
0.000000000000006
 11
3762.673841254536
 21
-1032.096298710803
 31
0.000000000000006
  0
LINE
  5
BAF
330
1F
100
AcDbEntity
  8
Hewi
100
AcDbLine
 10
4405.94031125453
 20
-1032.096143710801
 30
0.000000000000006
 11
4592.641366254535
 21
-1032.096143710801
 31
0.000000000000006
  0
LINE
  5
BB1
330
1F
100
AcDbEntity
  8
Hewi
100
AcDbLine
 10
4592.641366254535
 20
-1032.096298710803
 30
0.000000000000006
 11
4405.94031125453
 21
-1032.096298710803
 31
0.000000000000006
  0
LINE
  5
BB4
330
1F
100
AcDbEntity
  8
Hewi
100
AcDbLine
 10
3949.374896254533
 20
-1032.096143710801
 30
0.000000000000006
 11
3949.374896254533
 21
-1032.096298710803
 31
0.000000000000006
  0
LINE
  5
BB6
330
1F
100
AcDbEntity
  8
Hewi
100
AcDbLine
 10
3762.673841254536
 20
-1032.096143710801
 30
0.000000000000006
 11
3949.374896254533
 21
-1032.096143710801
 31
0.000000000000006
  0
LINE
  5
BB7
330
1F
100
AcDbEntity
  8
Hewi
100
AcDbLine
 10
3949.374896254533
 20
-1032.096298710803
 30
0.000000000000006
 11
3725.582968862783
 21
-1032.221648551471
 31
0.0000000000000045
  0
LINE
  5
BB8
330
1F
100
AcDbEntity
  8
Hewi
100
AcDbLine
 10
4405.94031125453
 20
-1032.096143710801
 30
0.000000000000006
 11
4592.641366254535
 21
-1032.096143710801
 31
0.000000000000006
  0
LINE
  5
BBA
330
1F
100
AcDbEntity
  8
Hewi
100
AcDbLine
 10
4592.641366254535
 20
-1032.096298710803
 30
0.000000000000006
 11
4405.94031125453
 21
-1032.096298710803
 31
0.000000000000006
  0
LINE
  5
BBD
330
1F
100
AcDbEntity
  8
Trennung
 48
20.0
370
     9
100
AcDbLine
 10
3752.675366254536
 20
-693.6139037108037
 30
0.000000000000006
 11
3752.675366254536
 21
-1022.097668710801
 31
0.000000000000006
  0
LINE
  5
BBE
330
1F
100
AcDbEntity
  8
Trennung
 48
20.0
370
     9
100
AcDbLine
 10
4602.63984625453
 20
-1022.097668710801
 30
0.000000000000006
 11
4602.63984625453
 21
-693.6139037108037
 31
0.000000000000006
  0
LINE
  5
BBF
330
1F
100
AcDbEntity
  8
Trennung
 48
20.0
370
     9
100
AcDbLine
 10
3752.675211254534
 20
-1022.097668710801
 30
0.000000000000006
 11
3752.675211254534
 21
-693.6139037108037
 31
0.000000000000006
  0
LINE
  5
BC0
330
1F
100
AcDbEntity
  8
Trennung
 48
20.0
370
     9
100
AcDbLine
 10
4602.63999625453
 20
-693.6139037108037
 30
0.000000000000006
 11
4602.63999625453
 21
-1022.097668710801
 31
0.000000000000006
  0
LINE
  5
BC1
330
1F
100
AcDbEntity
  8
Hewi
100
AcDbLine
 10
4553.157606254532
 20
-1004.918593710808
 30
0.000000000000006
 11
4426.449921254532
 21
-1004.918593710808
 31
0.000000000000006
  0
LINE
  5
BC2
330
1F
100
AcDbEntity
  8
Hewi
100
AcDbLine
 10
3928.865286254533
 20
-1004.918593710808
 30
0.000000000000006
 11
3802.157606254533
 21
-1004.918593710808
 31
0.000000000000006
  0
LINE
  5
BC3
330
1F
100
AcDbEntity
  8
Hewi
100
AcDbLine
 10
3802.157606254533
 20
-960.3092137107992
 30
0.000000000000006
 11
3924.881686254533
 21
-960.3092137107992
 31
0.000000000000006
  0
LINE
  5
BC4
330
1F
100
AcDbEntity
  8
Hewi
100
AcDbLine
 10
4430.433526254533
 20
-960.3092137107992
 30
0.000000000000006
 11
4553.157606254532
 21
-960.3092137107992
 31
0.000000000000006
  0
LINE
  5
BC9
330
1F
100
AcDbEntity
  8
Trennung
 48
20.0
370
     9
100
AcDbLine
 10
3752.675366254536
 20
-693.6139037108037
 30
0.000000000000006
 11
3752.675366254536
 21
-1022.097668710801
 31
0.000000000000006
  0
LINE
  5
BCA
330
1F
100
AcDbEntity
  8
Trennung
 48
20.0
370
     9
100
AcDbLine
 10
4602.63984625453
 20
-1022.097668710801
 30
0.000000000000006
 11
4602.63984625453
 21
-693.6139037108037
 31
0.000000000000006
  0
LINE
  5
BCB
330
1F
100
AcDbEntity
  8
Hewi
100
AcDbLine
 10
3928.865286254533
 20
-1004.918593710808
 30
0.000000000000006
 11
3802.157606254533
 21
-1004.918593710808
 31
0.000000000000006
  0
LINE
  5
BCC
330
1F
100
AcDbEntity
  8
Hewi
100
AcDbLine
 10
4553.157606254532
 20
-1004.918593710808
 30
0.000000000000006
 11
4426.449921254532
 21
-1004.918593710808
 31
0.000000000000006
  0
LINE
  5
BCD
330
1F
100
AcDbEntity
  8
Hewi
100
AcDbLine
 10
3802.157606254533
 20
-960.3092137107992
 30
0.000000000000006
 11
3924.881686254533
 21
-960.3092137107992
 31
0.000000000000006
  0
LINE
  5
BCE
330
1F
100
AcDbEntity
  8
Hewi
100
AcDbLine
 10
4430.433526254533
 20
-960.3092137107992
 30
0.000000000000006
 11
4553.157606254532
 21
-960.3092137107992
 31
0.000000000000006
  0
ARC
  5
BD3
330
1F
100
AcDbEntity
  8
Hewi
100
AcDbCircle
 10
-4087.657606254532
 20
-952.1139037108037
 30
-0.000000000000006
 40
155.0
210
0.0
220
0.0
230
-1.0
100
AcDbArc
 50
270.0
 51
327.0927450003228
  0
ARC
  5
BD4
330
1F
100
AcDbEntity
  8
Hewi
100
AcDbCircle
 10
4267.657606254533
 20
-952.1139037108037
 30
0.000000000000006
 40
154.9999999999999
100
AcDbArc
 50
270.0
 51
326.9445560001324
  0
ARC
  5
BD5
330
1F
100
AcDbEntity
  8
Hewi
100
AcDbCircle
 10
-4087.657606254532
 20
-952.1139037108037
 30
-0.000000000000006
 40
155.0
210
0.0
220
0.0
230
-1.0
100
AcDbArc
 50
270.0
 51
327.0927450003228
  0
ARC
  5
BD6
330
1F
100
AcDbEntity
  8
Hewi
100
AcDbCircle
 10
4267.657606254533
 20
-952.1139037108037
 30
0.000000000000006
 40
154.9999999999999
100
AcDbArc
 50
270.0
 51
326.9445560001324
  0
ARC
  5
BD7
330
1F
100
AcDbEntity
  8
Hewi
100
AcDbCircle
 10
-3802.157606254533
 20
-982.6139037108037
 30
-0.000000000000006
 40
22.30468900084021
210
0.0
220
0.0
230
-1.0
100
AcDbArc
 50
270.0
 51
90.0
  0
ARC
  5
BD8
330
1F
100
AcDbEntity
  8
Hewi
100
AcDbCircle
 10
-4553.157606254532
 20
-982.6139037108037
 30
-0.000000000000006
 40
22.30468900084021
210
0.0
220
0.0
230
-1.0
100
AcDbArc
 50
90.0
 51
270.0
  0
ARC
  5
BD9
330
1F
100
AcDbEntity
  8
Hewi
100
AcDbCircle
 10
-3928.865286254533
 20
-993.1139037108037
 30
-0.000000000000006
 40
11.80468900084017
210
0.0
220
0.0
230
-1.0
100
AcDbArc
 50
165.5224880000844
 51
270.0
  0
ARC
  5
BDA
330
1F
100
AcDbEntity
  8
Hewi
100
AcDbCircle
 10
-4426.449921254532
 20
-993.1139037108037
 30
-0.000000000000006
 40
11.80468900084017
210
0.0
220
0.0
230
-1.0
100
AcDbArc
 50
270.0
 51
14.47751199991557
  0
ARC
  5
BDB
330
1F
100
AcDbEntity
  8
Hewi
100
AcDbCircle
 10
4087.657606254532
 20
-952.1139037108037
 30
0.000000000000006
 40
152.1953109991598
100
AcDbArc
 50
187.0047259998308
 51
194.4775119999156
  0
ARC
  5
BDC
330
1F
100
AcDbEntity
  8
Hewi
100
AcDbCircle
 10
4267.657606254533
 20
-952.1139037108037
 30
0.000000000000006
 40
152.1953109991598
100
AcDbArc
 50
345.5224880000844
 51
352.9952740001691
  0
ARC
  5
BDD
330
1F
100
AcDbEntity
  8
Hewi
100
AcDbCircle
 10
-4177.657606254533
 20
-952.1139037108037
 30
-0.000000000000006
 40
24.42884956125388
210
0.0
220
0.0
230
-1.0
100
AcDbArc
 50
270.0
 51
90.0
  0
ARC
  5
BDE
330
1F
100
AcDbEntity
  8
Hewi
100
AcDbCircle
 10
-4177.657606254533
 20
-952.1139037108037
 30
-0.000000000000006
 40
24.42884956125388
210
0.0
220
0.0
230
-1.0
100
AcDbArc
 50
90.0
 51
270.0
  0
ARC
  5
BDF
330
1F
100
AcDbEntity
  8
Hewi
100
AcDbCircle
 10
-3924.881686254533
 20
-972.1139037108036
 30
-0.000000000000006
 40
11.80468900084021
210
0.0
220
0.0
230
-1.0
100
AcDbArc
 50
90.0
 51
172.9952740001691
  0
ARC
  5
BE0
330
1F
100
AcDbEntity
  8
Hewi
100
AcDbCircle
 10
-4430.433526254533
 20
-972.1139037108036
 30
-0.000000000000006
 40
11.80468900084021
210
0.0
220
0.0
230
-1.0
100
AcDbArc
 50
7.004725999830868
 51
90.0
  0
ARC
  5
BE1
330
1F
100
AcDbEntity
  8
Hewi
100
AcDbCircle
 10
4177.657606254533
 20
-772.1139037108037
 30
0.000000000000006
 40
17.50000000000001
100
AcDbArc
 50
270.0
 51
90.0
  0
ARC
  5
BE2
330
1F
100
AcDbEntity
  8
Hewi
100
AcDbCircle
 10
4177.657606254533
 20
-772.1139037108037
 30
0.000000000000006
 40
17.50000000000001
100
AcDbArc
 50
90.0
 51
270.0
  0
ARC
  5
BE3
330
1F
100
AcDbEntity
  8
Hewi
100
AcDbCircle
 10
-3802.157606254533
 20
-982.6139037108037
 30
-0.000000000000006
 40
22.30468900084021
210
0.0
220
0.0
230
-1.0
100
AcDbArc
 50
270.0
 51
90.0
  0
ARC
  5
BE4
330
1F
100
AcDbEntity
  8
Hewi
100
AcDbCircle
 10
-4553.157606254532
 20
-982.6139037108037
 30
-0.000000000000006
 40
22.30468900084021
210
0.0
220
0.0
230
-1.0
100
AcDbArc
 50
90.0
 51
270.0
  0
ARC
  5
BE5
330
1F
100
AcDbEntity
  8
Hewi
100
AcDbCircle
 10
-3928.865286254533
 20
-993.1139037108037
 30
-0.000000000000006
 40
11.80468900084017
210
0.0
220
0.0
230
-1.0
100
AcDbArc
 50
165.5224880000844
 51
270.0
  0
ARC
  5
BE6
330
1F
100
AcDbEntity
  8
Hewi
100
AcDbCircle
 10
-4426.449921254532
 20
-993.1139037108037
 30
-0.000000000000006
 40
11.80468900084017
210
0.0
220
0.0
230
-1.0
100
AcDbArc
 50
270.0
 51
14.47751199991557
  0
ARC
  5
BE7
330
1F
100
AcDbEntity
  8
Hewi
100
AcDbCircle
 10
4087.657606254532
 20
-952.1139037108037
 30
0.000000000000006
 40
152.1953109991598
100
AcDbArc
 50
187.0047259998308
 51
194.4775119999156
  0
ARC
  5
BE8
330
1F
100
AcDbEntity
  8
Hewi
100
AcDbCircle
 10
4267.657606254533
 20
-952.1139037108037
 30
0.000000000000006
 40
152.1953109991598
100
AcDbArc
 50
345.5224880000844
 51
352.9952740001691
  0
ARC
  5
BE9
330
1F
100
AcDbEntity
  8
Hewi
100
AcDbCircle
 10
-4177.657606254533
 20
-952.1139037108037
 30
-0.000000000000006
 40
24.42884956125388
210
0.0
220
0.0
230
-1.0
100
AcDbArc
 50
270.0
 51
90.0
  0
ARC
  5
BEA
330
1F
100
AcDbEntity
  8
Hewi
100
AcDbCircle
 10
-4177.657606254533
 20
-952.1139037108037
 30
-0.000000000000006
 40
24.42884956125388
210
0.0
220
0.0
230
-1.0
100
AcDbArc
 50
90.0
 51
270.0
  0
ARC
  5
BEB
330
1F
100
AcDbEntity
  8
Hewi
100
AcDbCircle
 10
-3924.881686254533
 20
-972.1139037108036
 30
-0.000000000000006
 40
11.80468900084021
210
0.0
220
0.0
230
-1.0
100
AcDbArc
 50
90.0
 51
172.9952740001691
  0
ARC
  5
BEC
330
1F
100
AcDbEntity
  8
Hewi
100
AcDbCircle
 10
-4430.433526254533
 20
-972.1139037108036
 30
-0.000000000000006
 40
11.80468900084021
210
0.0
220
0.0
230
-1.0
100
AcDbArc
 50
7.004725999830868
 51
90.0
  0
ARC
  5
BED
330
1F
100
AcDbEntity
  8
Hewi
100
AcDbCircle
 10
4177.657606254533
 20
-772.1139037108037
 30
0.000000000000006
 40
17.50000000000001
100
AcDbArc
 50
90.0
 51
270.0
  0
ARC
  5
BEE
102
{ACAD_REACTORS
330
12D3
102
}
330
1F
100
AcDbEntity
  8
Hewi
100
AcDbCircle
 10
4177.657606254533
 20
-772.1139037108037
 30
0.000000000000006
 40
17.50000000000001
100
AcDbArc
 50
270.0
 51
90.0
  0
SPLINE
  5
BF0
330
1F
100
AcDbEntity
  8
Hewi
100
AcDbSpline
210
0.0
220
0.0
230
1.0
 70
     8
 71
     3
 72
     8
 73
     4
 74
     0
 42
0.0000000001
 43
0.0000000001
 40
0.0
 40
0.0
 40
0.0
 40
0.0
 40
1.0
 40
1.0
 40
1.0
 40
1.0
 10
4397.56979029538
 20
-1036.6587085967
 30
0.0000000000000075
 10
4398.25988864093
 20
-1035.59829825567
 30
0.0000000000000075
 10
4399.118188638849
 20
-1034.719889207768
 30
0.0000000000000075
 10
4399.992572818137
 20
-1034.057619508221
 30
0.0000000000000075
  0
SPLINE
  5
BF1
330
1F
100
AcDbEntity
  8
Hewi
100
AcDbSpline
210
0.0
220
0.0
230
1.0
 70
     8
 71
     3
 72
    13
 73
     9
 74
     0
 42
0.0000000001
 43
0.0000000001
 40
0.0
 40
0.0
 40
0.0
 40
0.0
 40
0.1268309599315869
 40
0.2523434519439145
 40
0.3765382321737269
 40
0.4994159880948826
 40
0.7470748567517449
 40
1.0
 40
1.0
 40
1.0
 40
1.0
 10
3949.374895325903
 20
-1032.096144696941
 30
0.0000000000000075
 10
3949.794643957878
 20
-1032.111455514339
 30
0.0000000000000075
 10
3950.629777735948
 20
-1032.141917985962
 30
0.0000000000000075
 10
3951.856092682462
 20
-1032.384250521088
 30
0.0000000000000075
 10
3953.032461288448
 20
-1032.7612993701
 30
0.0000000000000075
 10
3954.516152102054
 20
-1033.454560375375
 30
0.0000000000000075
 10
3956.24085204143
 20
-1034.646255349576
 30
0.0000000000000075
 10
3957.247001373898
 20
-1035.971729095788
 30
0.0000000000000075
 10
3957.755368517054
 20
-1036.641438133923
 30
0.0000000000000075
  0
SPLINE
  5
BF2
330
1F
100
AcDbEntity
  8
Hewi
100
AcDbSpline
210
0.0
220
0.0
230
1.0
 70
     8
 71
     3
 72
    11
 73
     7
 74
     0
 42
0.0000000001
 43
0.0000000001
 40
0.0
 40
0.0
 40
0.0
 40
0.0
 40
0.2463884164926036
 40
0.4951837049457759
 40
0.7463853105933395
 40
1.0
 40
1.0
 40
1.0
 40
1.0
 10
4399.992620516282
 20
-1034.057586703853
 30
0.0000000000000075
 10
4400.427253088329
 20
-1033.765209086977
 30
0.0000000000000075
 10
4401.300763987832
 20
-1033.177597730722
 30
0.0000000000000075
 10
4402.772989807844
 20
-1032.572505952437
 30
0.0000000000000075
 10
4404.329421255749
 20
-1032.170832055864
 30
0.0000000000000075
 10
4405.401640757705
 20
-1032.12111969363
 30
0.0000000000000075
 10
4405.940313178992
 20
-1032.096144696941
 30
0.0000000000000075
  0
SPLINE
  5
BF5
330
1F
100
AcDbEntity
  8
Hewi
100
AcDbSpline
210
0.0
220
0.0
230
1.0
 70
     8
 71
     3
 72
     8
 73
     4
 74
     0
 42
0.0000000001
 43
0.0000000001
 40
0.0
 40
0.0
 40
0.0
 40
0.0
 40
1.0
 40
1.0
 40
1.0
 40
1.0
 10
4397.56979029538
 20
-1036.6587085967
 30
0.0000000000000075
 10
4398.25988864093
 20
-1035.59829825567
 30
0.0000000000000075
 10
4399.118188638849
 20
-1034.719889207768
 30
0.0000000000000075
 10
4399.992572818137
 20
-1034.057619508221
 30
0.0000000000000075
  0
SPLINE
  5
BF6
330
1F
100
AcDbEntity
  8
Hewi
100
AcDbSpline
210
0.0
220
0.0
230
1.0
 70
     8
 71
     3
 72
    13
 73
     9
 74
     0
 42
0.0000000001
 43
0.0000000001
 40
0.0
 40
0.0
 40
0.0
 40
0.0
 40
0.1268309599315869
 40
0.2523434519439145
 40
0.3765382321737269
 40
0.4994159880948826
 40
0.7470748567517449
 40
1.0
 40
1.0
 40
1.0
 40
1.0
 10
3949.374895325903
 20
-1032.096144696941
 30
0.0000000000000075
 10
3949.794643957878
 20
-1032.111455514339
 30
0.0000000000000075
 10
3950.629777735948
 20
-1032.141917985962
 30
0.0000000000000075
 10
3951.856092682462
 20
-1032.384250521088
 30
0.0000000000000075
 10
3953.032461288448
 20
-1032.7612993701
 30
0.0000000000000075
 10
3954.516152102054
 20
-1033.454560375375
 30
0.0000000000000075
 10
3956.24085204143
 20
-1034.646255349576
 30
0.0000000000000075
 10
3957.247001373898
 20
-1035.971729095788
 30
0.0000000000000075
 10
3957.755368517054
 20
-1036.641438133923
 30
0.0000000000000075
  0
SPLINE
  5
BF7
330
1F
100
AcDbEntity
  8
Hewi
100
AcDbSpline
210
0.0
220
0.0
230
1.0
 70
     8
 71
     3
 72
    11
 73
     7
 74
     0
 42
0.0000000001
 43
0.0000000001
 40
0.0
 40
0.0
 40
0.0
 40
0.0
 40
0.2463884164926036
 40
0.4951837049457759
 40
0.7463853105933395
 40
1.0
 40
1.0
 40
1.0
 40
1.0
 10
4399.992620516282
 20
-1034.057586703853
 30
0.0000000000000075
 10
4400.427253088329
 20
-1033.765209086977
 30
0.0000000000000075
 10
4401.300763987832
 20
-1033.177597730722
 30
0.0000000000000075
 10
4402.772989807844
 20
-1032.572505952437
 30
0.0000000000000075
 10
4404.329421255749
 20
-1032.170832055864
 30
0.0000000000000075
 10
4405.401640757705
 20
-1032.12111969363
 30
0.0000000000000075
 10
4405.940313178992
 20
-1032.096144696941
 30
0.0000000000000075
  0
SPLINE
  5
BFA
330
1F
100
AcDbEntity
  8
Hewi
100
AcDbSpline
210
0.0
220
0.0
230
1.0
 70
     8
 71
     3
 72
    28
 73
    24
 74
     0
 42
0.0000000001
 43
0.0000000001
 40
0.0
 40
0.0
 40
0.0
 40
0.0
 40
0.015625
 40
0.015625
 40
0.03125
 40
0.0625
 40
0.0625
 40
0.1250000000000001
 40
0.1250000000000001
 40
0.2500000000000001
 40
0.2500000000000001
 40
0.5
 40
0.5
 40
0.75
 40
0.75
 40
0.875
 40
0.875
 40
0.9375
 40
0.9375
 40
0.96875
 40
0.984375
 40
0.984375
 40
1.0
 40
1.0
 40
1.0
 40
1.0
 10
4267.705871703682
 20
-1096.0130475414
 30
0.000000000000006
 10
4266.767866207596
 20
-1096.020636313125
 30
0.000000000000006
 10
4265.829860798997
 20
-1096.025600163204
 30
0.000000000000006
 10
4263.9538499175
 20
-1096.037456593501
 30
0.000000000000006
 10
4261.139833613682
 20
-1096.054688283354
 30
0.000000000000006
 10
4258.325817365538
 20
-1096.070249591717
 30
0.000000000000006
 10
4252.697784943328
 20
-1096.099148778575
 30
0.000000000000006
 10
4248.945763427725
 20
-1096.115438243326
 30
0.000000000000006
 10
4237.689699162748
 20
-1096.155850000239
 30
0.000000000000006
 10
4230.185656700004
 20
-1096.171371205327
 30
0.000000000000006
 10
4207.673530054632
 20
-1096.195643803333
 30
0.000000000000006
 10
4192.66544658518
 20
-1096.182995056365
 30
0.000000000000006
 10
4162.649278840876
 20
-1096.181864615235
 30
0.000000000000006
 10
4147.641194567831
 20
-1096.193329320722
 30
0.000000000000006
 10
4125.129069591898
 20
-1096.167507434361
 30
0.000000000000006
 10
4117.625028179672
 20
-1096.151505798635
 30
0.000000000000006
 10
4106.368966630213
 20
-1096.110432721234
 30
0.000000000000006
 10
4102.616946207342
 20
-1096.093932691492
 30
0.000000000000006
 10
4096.988915721366
 20
-1096.06473163496
 30
0.000000000000006
 10
4094.174900515315
 20
-1096.049022867034
 30
0.000000000000006
 10
4091.360885364757
 20
-1096.031648626168
 30
0.000000000000006
 10
4089.484875276652
 20
-1096.019698211031
 30
0.000000000000006
 10
4088.546870199582
 20
-1096.014713440159
 30
0.000000000000006
 10
4087.608865211933
 20
-1096.007045695015
 30
0.000000000000006
  0
SPLINE
  5
BFB
330
1F
100
AcDbEntity
  8
Hewi
100
AcDbSpline
210
0.0
220
0.0
230
1.0
 70
     8
 71
     3
 72
    98
 73
    94
 74
     0
 42
0.0000000001
 43
0.0000000001
 40
0.0
 40
0.0
 40
0.0
 40
0.0
 40
0.0312499999999999
 40
0.0312499999999999
 40
0.0624999999999997
 40
0.0624999999999997
 40
0.0937499999999997
 40
0.0937499999999997
 40
0.1093749999999997
 40
0.1093749999999997
 40
0.1249999999999996
 40
0.1249999999999996
 40
0.1562499999999995
 40
0.1562499999999995
 40
0.1874999999999993
 40
0.1874999999999993
 40
0.2187499999999992
 40
0.2187499999999992
 40
0.2343749999999993
 40
0.2343749999999993
 40
0.2499999999999993
 40
0.2499999999999993
 40
0.2812499999999993
 40
0.2812499999999993
 40
0.3124999999999994
 40
0.3124999999999994
 40
0.3281249999999995
 40
0.3281249999999995
 40
0.3437499999999995
 40
0.3437499999999995
 40
0.3749999999999997
 40
0.3749999999999997
 40
0.40625
 40
0.40625
 40
0.421875
 40
0.421875
 40
0.4296875000000001
 40
0.4296875000000001
 40
0.4375000000000001
 40
0.4375000000000001
 40
0.4687500000000001
 40
0.4687500000000001
 40
0.5000000000000002
 40
0.5000000000000002
 40
0.5312500000000005
 40
0.5312500000000005
 40
0.5390625000000002
 40
0.5390625000000002
 40
0.5468750000000001
 40
0.5468750000000001
 40
0.5625000000000001
 40
0.5625000000000001
 40
0.5937500000000001
 40
0.5937500000000001
 40
0.6250000000000001
 40
0.6250000000000001
 40
0.6406250000000001
 40
0.6406250000000001
 40
0.6562500000000002
 40
0.6562500000000002
 40
0.6875000000000005
 40
0.6875000000000005
 40
0.7187500000000006
 40
0.7187500000000006
 40
0.7500000000000009
 40
0.7500000000000009
 40
0.7578125000000011
 40
0.7578125000000011
 40
0.765625000000001
 40
0.765625000000001
 40
0.7812500000000014
 40
0.7812500000000014
 40
0.8125000000000015
 40
0.8125000000000015
 40
0.8437500000000021
 40
0.8437500000000021
 40
0.8593750000000023
 40
0.8593750000000023
 40
0.8671875000000021
 40
0.8671875000000021
 40
0.8750000000000021
 40
0.8750000000000021
 40
0.9062500000000015
 40
0.9062500000000015
 40
0.9375000000000012
 40
0.9375000000000012
 40
0.9687500000000007
 40
0.9687500000000007
 40
0.9765625000000003
 40
0.9765625000000003
 40
0.9843750000000003
 40
0.9843750000000003
 40
1.0
 40
1.0
 40
1.0
 40
1.0
 10
4267.70588015168
 20
-808.2147613889496
 30
0.000000000000006
 10
4272.457299833663
 20
-808.2532021920883
 30
0.000000000000006
 10
4277.168566414902
 20
-808.517956505671
 30
0.000000000000006
 10
4286.513170639326
 20
-809.4866932675609
 30
0.000000000000006
 10
4291.146498587169
 20
-810.1907303613074
 30
0.000000000000006
 10
4300.334744659489
 20
-812.0407430804148
 30
0.000000000000006
 10
4304.889711485897
 20
-813.1864442088076
 30
0.000000000000006
 10
4311.662114896394
 20
-815.2434357338893
 30
0.000000000000006
 10
4313.909551229827
 20
-815.9856395977799
 30
0.000000000000006
 10
4318.383840664825
 20
-817.5860598718967
 30
0.000000000000006
 10
4320.593313553469
 20
-818.4381120889698
 30
0.000000000000006
 10
4327.133637043798
 20
-821.1451701284927
 30
0.000000000000006
 10
4331.379627388506
 20
-823.151349701609
 30
0.000000000000006
 10
4339.648064755053
 20
-827.5580016097624
 30
0.000000000000006
 10
4343.670504181228
 20
-829.9584873422823
 30
0.000000000000006
 10
4351.488208714295
 20
-835.1601560352387
 30
0.000000000000006
 10
4355.283634066564
 20
-837.9610563498095
 30
0.000000000000006
 10
4360.80102322593
 20
-842.4723982188838
 30
0.000000000000006
 10
4362.597874507218
 20
-844.0175207198876
 30
0.000000000000006
 10
4366.100698228777
 20
-847.1820136774873
 30
0.000000000000006
 10
4367.808009583849
 20
-848.8024868004099
 30
0.000000000000006
 10
4372.799214746524
 20
-853.7772229475335
 30
0.000000000000006
 10
4375.952949572366
 20
-857.2443087386886
 30
0.000000000000006
 10
4381.917761128487
 20
-864.4754988894378
 30
0.000000000000006
 10
4384.728841376437
 20
-868.2396001998817
 30
0.000000000000006
 10
4388.6814276763
 20
-874.1146188497328
 30
0.000000000000006
 10
4389.955797471234
 20
-876.112733550191
 30
0.000000000000006
 10
4392.410848033211
 20
-880.1803390441014
 30
0.000000000000006
 10
4393.583255281203
 20
-882.2359420688549
 30
0.000000000000006
 10
4396.938689652973
 20
-888.466741265041
 30
0.000000000000006
 10
4398.960452544318
 20
-892.705720646361
 30
0.000000000000006
 10
4402.578719918919
 20
-901.3518775634542
 30
0.000000000000006
 10
4404.17527753297
 20
-905.7590340849669
 30
0.000000000000006
 10
4406.248973355254
 20
-912.4967863582819
 30
0.000000000000006
 10
4406.886550602734
 20
-914.7639252805342
 30
0.000000000000006
 10
4407.760868033057
 20
-918.197085453397
 30
0.000000000000006
 10
4408.038623329802
 20
-919.3468844111299
 30
0.000000000000006
 10
4408.566390726123
 20
-921.6574553125205
 30
0.000000000000006
 10
4408.816726761896
 20
-922.8198858847713
 30
0.000000000000006
 10
4409.993302446095
 20
-928.6365839469322
 30
0.000000000000006
 10
4410.694701289064
 20
-933.2985402704903
 30
0.000000000000006
 10
4411.633498132394
 20
-942.6390850880084
 30
0.000000000000006
 10
4411.870864096146
 20
-947.3176747302746
 30
0.000000000000006
 10
4411.878154147078
 20
-956.691609529396
 30
0.000000000000006
 10
4411.648026559317
 20
-961.3869565385789
 30
0.000000000000006
 10
4411.064123195528
 20
-967.2667592002939
 30
0.000000000000006
 10
4410.932482379238
 20
-968.4432523963728
 30
0.000000000000006
 10
4410.639187122881
 20
-970.7973146308463
 30
0.000000000000006
 10
4410.477333566134
 20
-971.9759696971264
 30
0.000000000000006
 10
4409.949296333518
 20
-975.4943064290815
 30
0.000000000000006
 10
4409.54008618205
 20
-977.8219977823278
 30
0.000000000000006
 10
4408.144039725583
 20
-984.7524534669314
 30
0.000000000000006
 10
4406.989330879031
 20
-989.3027692171267
 30
0.000000000000006
 10
4404.244012429201
 20
-998.2672118207807
 30
0.000000000000006
 10
4402.65337918248
 20
-1002.681331287308
 30
0.000000000000006
 10
4399.935851135179
 20
-1009.198915195138
 30
0.000000000000006
 10
4398.974579259415
 20
-1011.354125367735
 30
0.000000000000006
 10
4396.939862396434
 20
-1015.62949935879
 30
0.000000000000006
 10
4395.863830103368
 20
-1017.753982286372
 30
0.000000000000006
 10
4392.499890695971
 20
-1024.009478835195
 30
0.000000000000006
 10
4390.069167080267
 20
-1028.040836490847
 30
0.000000000000006
 10
4384.840199784387
 20
-1035.832014185896
 30
0.000000000000006
 10
4382.041800490803
 20
-1039.591719252286
 30
0.000000000000006
 10
4376.0788833749
 20
-1046.840627275956
 30
0.000000000000006
 10
4372.914423675637
 20
-1050.329873176753
 30
0.000000000000006
 10
4368.721588182929
 20
-1054.516133318884
 30
0.000000000000006
 10
4367.869915333457
 20
-1055.345706841628
 30
0.000000000000006
 10
4366.149096112884
 20
-1056.980831603981
 30
0.000000000000006
 10
4365.280319038244
 20
-1057.786106288589
 30
0.000000000000006
 10
4362.649189576663
 20
-1060.165513907526
 30
0.000000000000006
 10
4360.862060091281
 20
-1061.703261450132
 30
0.000000000000006
 10
4355.403182720828
 20
-1066.173340731354
 30
0.000000000000006
 10
4351.634235473819
 20
-1068.962934333463
 30
0.000000000000006
 10
4343.839118657434
 20
-1074.16438824603
 30
0.000000000000006
 10
4339.812756772725
 20
-1076.575966139611
 30
0.000000000000006
 10
4333.578530010576
 20
-1079.90743787189
 30
0.000000000000006
 10
4331.467929045048
 20
-1080.970164639303
 30
0.000000000000006
 10
4328.252361083328
 20
-1082.491319069038
 30
0.000000000000006
 10
4327.170978674014
 20
-1082.986727962033
 30
0.000000000000006
 10
4325.002560121652
 20
-1083.948092114613
 30
0.000000000000006
 10
4323.91453414811
 20
-1084.414552428319
 30
0.000000000000006
 10
4318.455501278867
 20
-1086.676417708596
 30
0.000000000000006
 10
4314.027896458331
 20
-1088.260927713632
 30
0.000000000000006
 10
4305.056110144437
 20
-1090.995560191335
 30
0.000000000000006
 10
4300.511923338051
 20
-1092.145662866529
 30
0.000000000000006
 10
4291.306669964598
 20
-1094.010351319837
 30
0.000000000000006
 10
4286.645528124984
 20
-1094.724656617497
 30
0.000000000000006
 10
4280.744561541524
 20
-1095.339790257737
 30
0.000000000000006
 10
4279.560828556318
 20
-1095.448839801927
 30
0.000000000000006
 10
4277.193850672932
 20
-1095.638294563086
 30
0.000000000000006
 10
4276.009617187684
 20
-1095.718809397028
 30
0.000000000000006
 10
4272.454688731854
 20
-1095.917823739244
 30
0.000000000000006
 10
4270.081767473054
 20
-1095.993825766443
 30
0.000000000000006
 10
4267.705871703682
 20
-1096.0130475414
 30
0.000000000000006
  0
SPLINE
  5
BFC
330
1F
100
AcDbEntity
  8
Hewi
100
AcDbSpline
210
0.0
220
0.0
230
1.0
 70
     8
 71
     3
 72
   104
 73
   100
 74
     0
 42
0.0000000001
 43
0.0000000001
 40
0.0
 40
0.0
 40
0.0
 40
0.0
 40
0.0312500000000003
 40
0.0312500000000003
 40
0.0625000000000007
 40
0.0625000000000007
 40
0.093750000000001
 40
0.093750000000001
 40
0.1093750000000012
 40
0.1093750000000012
 40
0.1171875000000012
 40
0.1171875000000012
 40
0.1250000000000012
 40
0.1250000000000012
 40
0.1562500000000009
 40
0.1562500000000009
 40
0.1875000000000006
 40
0.1875000000000006
 40
0.2187500000000003
 40
0.2187500000000003
 40
0.2265625000000002
 40
0.2265625000000002
 40
0.2343750000000002
 40
0.2343750000000002
 40
0.2500000000000002
 40
0.2500000000000002
 40
0.2812500000000001
 40
0.2812500000000001
 40
0.3125000000000001
 40
0.3125000000000001
 40
0.3281250000000001
 40
0.3281250000000001
 40
0.3359375000000001
 40
0.3359375000000001
 40
0.3437500000000001
 40
0.3437500000000001
 40
0.3750000000000002
 40
0.3750000000000002
 40
0.4062500000000003
 40
0.4062500000000003
 40
0.4375000000000003
 40
0.4375000000000003
 40
0.4453125000000003
 40
0.4453125000000003
 40
0.4531250000000003
 40
0.4531250000000003
 40
0.4687500000000004
 40
0.4687500000000004
 40
0.5000000000000006
 40
0.5000000000000006
 40
0.5312500000000007
 40
0.5312500000000007
 40
0.5468750000000008
 40
0.5468750000000008
 40
0.5546875000000007
 40
0.5546875000000007
 40
0.5625000000000007
 40
0.5625000000000007
 40
0.5937500000000007
 40
0.5937500000000007
 40
0.6250000000000007
 40
0.6250000000000007
 40
0.6562500000000007
 40
0.6562500000000007
 40
0.6640625000000007
 40
0.6640625000000007
 40
0.6718750000000007
 40
0.6718750000000007
 40
0.6875000000000006
 40
0.6875000000000006
 40
0.7187500000000001
 40
0.7187500000000001
 40
0.7499999999999997
 40
0.7499999999999997
 40
0.7656249999999997
 40
0.7656249999999997
 40
0.7734374999999996
 40
0.7734374999999996
 40
0.7812499999999997
 40
0.7812499999999997
 40
0.8124999999999996
 40
0.8124999999999996
 40
0.8437499999999996
 40
0.8437499999999996
 40
0.8749999999999996
 40
0.8749999999999996
 40
0.8828124999999996
 40
0.8828124999999996
 40
0.8906249999999996
 40
0.8906249999999996
 40
0.9062499999999996
 40
0.9062499999999996
 40
0.9374999999999996
 40
0.9374999999999996
 40
0.96875
 40
0.96875
 40
0.984375
 40
0.984375
 40
1.0
 40
1.0
 40
1.0
 40
1.0
 10
4087.608865211933
 20
-1096.007045695015
 30
0.000000000000006
 10
4082.855550451966
 20
-1095.968189605202
 30
0.000000000000006
 10
4078.147214083377
 20
-1095.702888559138
 30
0.000000000000006
 10
4068.817324944631
 20
-1094.735372038627
 30
0.000000000000006
 10
4064.195785772991
 20
-1094.033088102205
 30
0.000000000000006
 10
4055.039520045499
 20
-1092.191459712248
 30
0.000000000000006
 10
4050.504742803158
 20
-1091.05237044136
 30
0.000000000000006
 10
4043.768625110137
 20
-1089.011215192553
 30
0.000000000000006
 10
4041.534286687883
 20
-1088.275278415905
 30
0.000000000000006
 10
4038.19970471133
 20
-1087.086160563161
 30
0.000000000000006
 10
4037.091000119309
 20
-1086.675576815683
 30
0.000000000000006
 10
4034.879321318684
 20
-1085.825559546759
 30
0.000000000000006
 10
4033.774844733079
 20
-1085.385495144928
 30
0.000000000000006
 10
4028.28617245831
 20
-1083.119788020801
 30
0.000000000000006
 10
4024.020120833728
 20
-1081.106859028684
 30
0.000000000000006
 10
4015.729187129135
 20
-1076.694076580937
 30
0.000000000000006
 10
4011.704338835804
 20
-1074.294168919088
 30
0.000000000000006
 10
4003.896757264851
 20
-1069.105912249196
 30
0.000000000000006
 10
4000.113874139553
 20
-1066.317803651832
 30
0.000000000000006
 10
3995.539332682773
 20
-1062.585495191622
 30
0.000000000000006
 10
3994.632150854825
 20
-1061.826637416521
 30
0.000000000000006
 10
3992.833395250903
 20
-1060.283880822458
 30
0.000000000000006
 10
3991.940883088782
 20
-1059.499131584608
 30
0.000000000000006
 10
3989.293629355871
 20
-1057.11280165279
 30
0.000000000000006
 10
3987.575282974705
 20
-1055.484882040484
 30
0.000000000000006
 10
3982.557182297334
 20
-1050.492039486558
 30
0.000000000000006
 10
3979.393777090712
 20
-1047.01850231898
 30
0.000000000000006
 10
3973.42151854972
 20
-1039.788995755905
 30
0.000000000000006
 10
3970.612690142433
 20
-1036.033006503694
 30
0.000000000000006
 10
3966.669341218925
 20
-1030.184028201645
 30
0.000000000000006
 10
3965.399966818911
 20
-1028.198462312789
 30
0.000000000000006
 10
3963.564316375303
 20
-1025.165617884234
 30
0.000000000000006
 10
3962.963841935071
 20
-1024.145581421453
 30
0.000000000000006
 10
3961.785933590557
 20
-1022.087154651406
 30
0.000000000000006
 10
3961.207731339307
 20
-1021.047307129596
 30
0.000000000000006
 10
3958.387499115783
 20
-1015.825043481756
 30
0.000000000000006
 10
3956.353887651055
 20
-1011.569786002521
 30
0.000000000000006
 10
3952.721069675489
 20
-1002.908116271831
 30
0.000000000000006
 10
3951.121840903067
 20
-998.5017117665224
 30
0.000000000000006
 10
3948.355628970615
 20
-989.5384993442235
 30
0.000000000000006
 10
3947.188590879324
 20
-984.9817105410725
 30
0.000000000000006
 10
3946.010026914756
 20
-979.1882149366969
 30
0.000000000000006
 10
3945.788375081747
 20
-978.0246231893356
 30
0.000000000000006
 10
3945.373488600756
 20
-975.6875517015973
 30
0.000000000000006
 10
3945.180147337055
 20
-974.5131075782806
 30
0.000000000000006
 10
3944.646077152645
 20
-970.9945527913328
 30
0.000000000000006
 10
3944.350099744935
 20
-968.6492610811651
 30
0.000000000000006
 10
3943.639204100849
 20
-961.6145986684527
 30
0.000000000000006
 10
3943.400725924131
 20
-956.9264365975646
 30
0.000000000000006
 10
3943.392300544406
 20
-947.5533219385356
 30
0.000000000000006
 10
3943.622428956679
 20
-942.868369868443
 30
0.000000000000006
 10
3944.319201885735
 20
-935.8433501226931
 30
0.000000000000006
 10
3944.610205481634
 20
-933.5020792896061
 30
0.000000000000006
 10
3945.136183826163
 20
-929.9907859383925
 30
0.000000000000006
 10
3945.326431790546
 20
-928.8204570374469
 30
0.000000000000006
 10
3945.737118543247
 20
-926.4800060456432
 30
0.000000000000006
 10
3945.957253915648
 20
-925.3118277542339
 30
0.000000000000006
 10
3947.127304850384
 20
-919.5027496347133
 30
0.000000000000006
 10
3948.28822145009
 20
-914.9362102126429
 30
0.000000000000006
 10
3951.041892217098
 20
-905.9581469268991
 30
0.000000000000006
 10
3952.634708568626
 20
-901.5466453852964
 30
0.000000000000006
 10
3956.252865650805
 20
-892.8789044032415
 30
0.000000000000006
 10
3958.278306829246
 20
-888.6227010203251
 30
0.000000000000006
 10
3961.086256037951
 20
-883.4015747940098
 30
0.000000000000006
 10
3961.66251799333
 20
-882.3609057465178
 30
0.000000000000006
 10
3962.838309644151
 20
-880.2978943068987
 30
0.000000000000006
 10
3963.437719654086
 20
-879.2756560644734
 30
0.000000000000006
 10
3965.270139213446
 20
-876.2364596293878
 30
0.000000000000006
 10
3966.537309446806
 20
-874.2469965118029
 30
0.000000000000006
 10
3970.473747381523
 20
-868.3872066954167
 30
0.000000000000006
 10
3973.277627975503
 20
-864.6252265270263
 30
0.000000000000006
 10
3979.238580167524
 20
-857.3855407434999
 30
0.000000000000006
 10
3982.395625437949
 20
-853.907813937792
 30
0.000000000000006
 10
3987.402508955577
 20
-848.9095988391595
 30
0.000000000000006
 10
3989.116845439309
 20
-847.2800485859584
 30
0.000000000000006
 10
3991.757605896438
 20
-844.8914654020732
 30
0.000000000000006
 10
3992.649899711779
 20
-844.1042013868969
 30
0.000000000000006
 10
3994.447765748647
 20
-842.5569583501014
 30
0.000000000000006
 10
3995.354508224749
 20
-841.7958941862121
 30
0.000000000000006
 10
3999.926869865199
 20
-838.0527201225154
 30
0.000000000000006
 10
4003.708070479425
 20
-835.2564614433608
 30
0.000000000000006
 10
4011.512174050117
 20
-830.052593607786
 30
0.000000000000006
 10
4015.535264411073
 20
-827.6452857917133
 30
0.000000000000006
 10
4023.822452444231
 20
-823.218202095038
 30
0.000000000000006
 10
4028.086514615567
 20
-821.198369130197
 30
0.000000000000006
 10
4033.572405344738
 20
-818.9241201959189
 30
0.000000000000006
 10
4034.676112699807
 20
-818.4824300674767
 30
0.000000000000006
 10
4036.887320964864
 20
-817.6287813718623
 30
0.000000000000006
 10
4037.996142820212
 20
-817.2162647027976
 30
0.000000000000006
 10
4041.33213488259
 20
-816.0210744814499
 30
0.000000000000006
 10
4043.568823662307
 20
-815.280725482396
 30
0.000000000000006
 10
4050.31625549177
 20
-813.2258250002882
 30
0.000000000000006
 10
4054.864245379413
 20
-812.0768924417021
 30
0.000000000000006
 10
4064.058760658849
 20
-810.2171677181573
 30
0.000000000000006
 10
4068.705351428126
 20
-809.5066662556014
 30
0.000000000000006
 10
4075.749756216418
 20
-808.7722628897131
 30
0.000000000000006
 10
4078.110337152529
 20
-808.5828032237291
 30
0.000000000000006
 10
4082.856817816068
 20
-808.3164644817403
 30
0.000000000000006
 10
4085.231950620921
 20
-808.2401930603332
 30
0.000000000000006
 10
4087.608873674032
 20
-808.220762976834
 30
0.000000000000006
  0
SPLINE
  5
BFD
330
1F
100
AcDbEntity
  8
Hewi
100
AcDbSpline
210
0.0
220
0.0000000000000001
230
1.0
 70
     8
 71
     3
 72
    38
 73
    34
 74
     0
 42
0.0000000001
 43
0.0000000001
 40
0.0
 40
0.0
 40
0.0
 40
0.0
 40
0.015503187976468
 40
0.0313272838133343
 40
0.0627812343220477
 40
0.0940568543646155
 40
0.1096806362147234
 40
0.1253418634838908
 40
0.1612423520454747
 40
0.1879569961923032
 40
0.2503845220954952
 40
0.2816769162755258
 40
0.312784205205046
 40
0.3753499775284555
 40
0.4065042184004183
 40
0.4376386748739482
 40
0.5002204935071763
 40
0.535771458022616
 40
0.5715661214792131
 40
0.6250714746599639
 40
0.6875558768565032
 40
0.7187915298742188
 40
0.7498984789008496
 40
0.7811796997123646
 40
0.8125603532722404
 40
0.8303653977565856
 40
0.8481409742483016
 40
0.8748673013833375
 40
0.9062915430836115
 40
0.9375143193728423
 40
0.9686509558170296
 40
0.9841986895128627
 40
1.0
 40
1.0
 40
1.0
 40
1.0
 10
4177.511046009427
 20
-989.9541877605329
 30
0.0000000000000085
 10
4176.896370009495
 20
-989.9426945131232
 30
0.0000000000000085
 10
4175.654294538796
 20
-989.9194701141928
 30
0.0000000000000085
 10
4173.171677569689
 20
-989.7229513863672
 30
0.0000000000000085
 10
4170.086688952671
 20
-989.2623222156794
 30
0.0000000000000085
 10
4167.068594474379
 20
-988.5040372765612
 30
0.000000000000008
 10
4164.7127912443
 20
-987.7250883117335
 30
0.000000000000008
 10
4162.226944352148
 20
-986.765856910522
 30
0.000000000000008
 10
4159.424165480468
 20
-985.4147442115603
 30
0.000000000000008
 10
4155.188753608181
 20
-982.8313804390596
 30
0.000000000000008
 10
4151.471861535521
 20
-979.7745247152011
 30
0.0000000000000075
 10
4148.150521280925
 20
-976.0967306097695
 30
0.0000000000000075
 10
4145.204239803036
 20
-972.1052389301581
 30
0.000000000000007
 10
4142.864844739834
 20
-967.7010128818906
 30
0.000000000000007
 10
4141.206815359551
 20
-963.02996181379
 30
0.0000000000000065
 10
4140.013148936185
 20
-958.2185280575464
 30
0.0000000000000065
 10
4139.518674178563
 20
-953.0782004720636
 30
0.000000000000006
 10
4139.830939592449
 20
-947.7682677130902
 30
0.0000000000000055
 10
4140.675969698427
 20
-942.8804573466436
 30
0.0000000000000055
 10
4142.526493862152
 20
-937.1246947097638
 30
0.000000000000005
 10
4145.313018394493
 20
-931.9481001689087
 30
0.000000000000005
 10
4148.277226987736
 20
-927.9768067932559
 30
0.0000000000000045
 10
4150.784450263051
 20
-925.2310453655331
 30
0.0000000000000045
 10
4153.552637816914
 20
-922.7407168497698
 30
0.000000000000004
 10
4156.128293865801
 20
-920.8486472911276
 30
0.000000000000004
 10
4158.383671673303
 20
-919.4458465046441
 30
0.000000000000004
 10
4160.552176880538
 20
-918.2600230369384
 30
0.000000000000004
 10
4163.291658272032
 20
-917.0034800581593
 30
0.000000000000004
 10
4166.638935660584
 20
-915.8234696524846
 30
0.000000000000004
 10
4170.255053021884
 20
-914.933003564332
 30
0.0000000000000035
 10
4173.316486441506
 20
-914.4883119803667
 30
0.0000000000000035
 10
4175.788038912168
 20
-914.3013061274936
 30
0.0000000000000035
 10
4177.031064269349
 20
-914.2826035217254
 30
0.0000000000000035
 10
4177.657604252444
 20
-914.2731765778258
 30
0.0000000000000035
  0
SPLINE
  5
BFE
330
1F
100
AcDbEntity
  8
Hewi
100
AcDbSpline
210
0.0
220
0.0
230
1.0
 70
     8
 71
     3
 72
    40
 73
    36
 74
     0
 42
0.0000000001
 43
0.0000000001
 40
0.0
 40
0.0
 40
0.0
 40
0.0
 40
0.0157589685197466
 40
0.0313750539407128
 40
0.0625362355854327
 40
0.0937846997199918
 40
0.1252360819871332
 40
0.1502088947490772
 40
0.1688932647824938
 40
0.1782444519699433
 40
0.1876118003724966
 40
0.2190303871095284
 40
0.2503227998909993
 40
0.2814515001029649
 40
0.3127205765237051
 40
0.3441528938279942
 40
0.3753202637115222
 40
0.4467656780320193
 40
0.5001609132625229
 40
0.6244649599933584
 40
0.6559115663901962
 40
0.687154493607098
 40
0.7182903482035892
 40
0.7496231407320307
 40
0.7810091588724918
 40
0.8121539241230102
 40
0.8433591439942354
 40
0.8590882016586196
 40
0.8748225325532692
 40
0.8904656506131356
 40
0.9060530067124231
 40
0.9372013755936992
 40
0.9685724729809248
 40
0.9844576353970044
 40
1.0
 40
1.0
 40
1.0
 40
1.0
 10
4177.790630118715
 20
-914.273251059039
 30
0.0000000000000035
 10
4178.415861854182
 20
-914.2833486396808
 30
0.0000000000000035
 10
4179.660656486592
 20
-914.3034522484045
 30
0.0000000000000035
 10
4182.135500362366
 20
-914.4937549914716
 30
0.0000000000000035
 10
4185.202810274885
 20
-914.9441840580507
 30
0.0000000000000035
 10
4188.82233714165
 20
-915.8432727037247
 30
0.000000000000004
 10
4192.105122385958
 20
-917.0098827397264
 30
0.000000000000004
 10
4194.816077218781
 20
-918.2538003402401
 30
0.000000000000004
 10
4196.663331155196
 20
-919.2614164294313
 30
0.000000000000004
 10
4197.93335120288
 20
-920.0291499508999
 30
0.000000000000004
 10
4199.604726048038
 20
-921.1077501926443
 30
0.000000000000004
 10
4201.907195123819
 20
-922.8123030409001
 30
0.000000000000004
 10
4204.669326953754
 20
-925.3169337063695
 30
0.0000000000000045
 10
4207.16854672074
 20
-928.076304249927
 30
0.0000000000000045
 10
4209.385823294016
 20
-931.0736547073279
 30
0.0000000000000045
 10
4211.298429484862
 20
-934.2765101510408
 30
0.000000000000005
 10
4213.566636463311
 20
-939.0928053993516
 30
0.000000000000005
 10
4215.284679651527
 20
-945.104436139994
 30
0.0000000000000055
 10
4216.1070502353
 20
-954.9810463793942
 30
0.000000000000006
 10
4214.419432325329
 20
-963.3831726387684
 30
0.0000000000000065
 10
4211.227445035384
 20
-970.0836330408451
 30
0.000000000000007
 10
4209.302541916677
 20
-973.277698843532
 30
0.0000000000000075
 10
4207.077094445213
 20
-976.2628822347865
 30
0.0000000000000075
 10
4204.563029081463
 20
-979.0176745010354
 30
0.0000000000000075
 10
4201.78929569967
 20
-981.5112841623299
 30
0.000000000000008
 10
4198.787144471953
 20
-983.7156066572601
 30
0.000000000000008
 10
4196.117926296331
 20
-985.2979436138516
 30
0.000000000000008
 10
4193.890353673252
 20
-986.4038848185405
 30
0.000000000000008
 10
4192.176807150918
 20
-987.1515973573801
 30
0.000000000000008
 10
4190.433670102776
 20
-987.8117283842252
 30
0.000000000000008
 10
4188.078463203234
 20
-988.5739222493389
 30
0.000000000000008
 10
4185.063264234759
 20
-989.311182037734
 30
0.0000000000000085
 10
4181.979407523093
 20
-989.7516698842041
 30
0.0000000000000085
 10
4179.493351014627
 20
-989.9323009370959
 30
0.0000000000000085
 10
4178.246409501347
 20
-989.9472146707225
 30
0.0000000000000085
 10
4177.62973929288
 20
-989.9545902012864
 30
0.0000000000000085
  0
SPLINE
  5
BFF
330
1F
100
AcDbEntity
  8
Hewi
100
AcDbSpline
210
0.0
220
0.0
230
1.0
 70
     8
 71
     3
 72
    28
 73
    24
 74
     0
 42
0.0000000001
 43
0.0000000001
 40
0.0
 40
0.0
 40
0.0
 40
0.0
 40
0.015625
 40
0.015625
 40
0.03125
 40
0.0624999999999999
 40
0.0624999999999999
 40
0.1250000000000001
 40
0.1250000000000001
 40
0.2500000000000001
 40
0.2500000000000001
 40
0.5000000000000002
 40
0.5000000000000002
 40
0.7500000000000005
 40
0.7500000000000005
 40
0.8750000000000003
 40
0.8750000000000003
 40
0.9375000000000003
 40
0.9375000000000003
 40
0.9687500000000003
 40
0.984375
 40
0.984375
 40
1.0
 40
1.0
 40
1.0
 40
1.0
 10
4087.608873674032
 20
-808.220762976834
 30
0.000000000000006
 10
4088.546865638233
 20
-808.2130953907284
 30
0.000000000000006
 10
4089.484863366521
 20
-808.2081106081709
 30
0.000000000000006
 10
4091.360854567433
 20
-808.196160307601
 30
0.000000000000006
 10
4094.174842553436
 20
-808.1787862200977
 30
0.000000000000006
 10
4096.988834117638
 20
-808.1630775540501
 30
0.000000000000006
 10
4102.616822008106
 20
-808.1338766442454
 30
0.000000000000006
 10
4106.368820310335
 20
-808.1173766362876
 30
0.000000000000006
 10
4117.624833322498
 20
-808.0763035005471
 30
0.000000000000006
 10
4125.128866448166
 20
-808.0603016816416
 30
0.000000000000006
 10
4147.641013486439
 20
-808.0344794109945
 30
0.000000000000006
 10
4162.64916459013
 20
-808.045944144596
 30
0.000000000000006
 10
4192.665454477833
 20
-808.044813766693
 30
0.000000000000006
 10
4207.673620336679
 20
-808.0321649399225
 30
0.000000000000006
 10
4230.185794272246
 20
-808.0564378567029
 30
0.000000000000006
 10
4237.689839389856
 20
-808.0719592296476
 30
0.000000000000006
 10
4248.945877417119
 20
-808.1123710870265
 30
0.000000000000006
 10
4252.697885213846
 20
-808.1286605558958
 30
0.000000000000006
 10
4258.325889180877
 20
-808.1575596623256
 30
0.000000000000006
 10
4261.139889240225
 20
-808.1731209088426
 30
0.000000000000006
 10
4263.95388640845
 20
-808.1903524968906
 30
0.000000000000006
 10
4265.829883882569
 20
-808.2022088496847
 30
0.000000000000006
 10
4266.767884288817
 20
-808.2071726435346
 30
0.000000000000006
 10
4267.70588015168
 20
-808.2147613889496
 30
0.000000000000006
  0
SPLINE
  5
C03
330
1F
100
AcDbEntity
  8
Hewi
100
AcDbSpline
210
0.0
220
0.0
230
1.0
 70
     8
 71
     3
 72
    28
 73
    24
 74
     0
 42
0.0000000001
 43
0.0000000001
 40
0.0
 40
0.0
 40
0.0
 40
0.0
 40
0.015625
 40
0.015625
 40
0.03125
 40
0.0625
 40
0.0625
 40
0.1250000000000001
 40
0.1250000000000001
 40
0.2500000000000001
 40
0.2500000000000001
 40
0.5
 40
0.5
 40
0.75
 40
0.75
 40
0.875
 40
0.875
 40
0.9375
 40
0.9375
 40
0.96875
 40
0.984375
 40
0.984375
 40
1.0
 40
1.0
 40
1.0
 40
1.0
 10
4267.705871703682
 20
-1096.0130475414
 30
0.000000000000006
 10
4266.767866207596
 20
-1096.020636313125
 30
0.000000000000006
 10
4265.829860798997
 20
-1096.025600163204
 30
0.000000000000006
 10
4263.9538499175
 20
-1096.037456593501
 30
0.000000000000006
 10
4261.139833613682
 20
-1096.054688283354
 30
0.000000000000006
 10
4258.325817365538
 20
-1096.070249591717
 30
0.000000000000006
 10
4252.697784943328
 20
-1096.099148778575
 30
0.000000000000006
 10
4248.945763427725
 20
-1096.115438243326
 30
0.000000000000006
 10
4237.689699162748
 20
-1096.155850000239
 30
0.000000000000006
 10
4230.185656700004
 20
-1096.171371205327
 30
0.000000000000006
 10
4207.673530054632
 20
-1096.195643803333
 30
0.000000000000006
 10
4192.66544658518
 20
-1096.182995056365
 30
0.000000000000006
 10
4162.649278840876
 20
-1096.181864615235
 30
0.000000000000006
 10
4147.641194567831
 20
-1096.193329320722
 30
0.000000000000006
 10
4125.129069591898
 20
-1096.167507434361
 30
0.000000000000006
 10
4117.625028179672
 20
-1096.151505798635
 30
0.000000000000006
 10
4106.368966630213
 20
-1096.110432721234
 30
0.000000000000006
 10
4102.616946207342
 20
-1096.093932691492
 30
0.000000000000006
 10
4096.988915721366
 20
-1096.06473163496
 30
0.000000000000006
 10
4094.174900515315
 20
-1096.049022867034
 30
0.000000000000006
 10
4091.360885364757
 20
-1096.031648626168
 30
0.000000000000006
 10
4089.484875276652
 20
-1096.019698211031
 30
0.000000000000006
 10
4088.546870199582
 20
-1096.014713440159
 30
0.000000000000006
 10
4087.608865211933
 20
-1096.007045695015
 30
0.000000000000006
  0
SPLINE
  5
C04
330
1F
100
AcDbEntity
  8
Hewi
100
AcDbSpline
210
0.0
220
0.0
230
1.0
 70
     8
 71
     3
 72
    98
 73
    94
 74
     0
 42
0.0000000001
 43
0.0000000001
 40
0.0
 40
0.0
 40
0.0
 40
0.0
 40
0.0312499999999999
 40
0.0312499999999999
 40
0.0624999999999997
 40
0.0624999999999997
 40
0.0937499999999997
 40
0.0937499999999997
 40
0.1093749999999997
 40
0.1093749999999997
 40
0.1249999999999996
 40
0.1249999999999996
 40
0.1562499999999995
 40
0.1562499999999995
 40
0.1874999999999993
 40
0.1874999999999993
 40
0.2187499999999992
 40
0.2187499999999992
 40
0.2343749999999993
 40
0.2343749999999993
 40
0.2499999999999993
 40
0.2499999999999993
 40
0.2812499999999993
 40
0.2812499999999993
 40
0.3124999999999994
 40
0.3124999999999994
 40
0.3281249999999995
 40
0.3281249999999995
 40
0.3437499999999995
 40
0.3437499999999995
 40
0.3749999999999997
 40
0.3749999999999997
 40
0.40625
 40
0.40625
 40
0.421875
 40
0.421875
 40
0.4296875000000001
 40
0.4296875000000001
 40
0.4375000000000001
 40
0.4375000000000001
 40
0.4687500000000001
 40
0.4687500000000001
 40
0.5000000000000002
 40
0.5000000000000002
 40
0.5312500000000005
 40
0.5312500000000005
 40
0.5390625000000002
 40
0.5390625000000002
 40
0.5468750000000001
 40
0.5468750000000001
 40
0.5625000000000001
 40
0.5625000000000001
 40
0.5937500000000001
 40
0.5937500000000001
 40
0.6250000000000001
 40
0.6250000000000001
 40
0.6406250000000001
 40
0.6406250000000001
 40
0.6562500000000002
 40
0.6562500000000002
 40
0.6875000000000005
 40
0.6875000000000005
 40
0.7187500000000006
 40
0.7187500000000006
 40
0.7500000000000009
 40
0.7500000000000009
 40
0.7578125000000011
 40
0.7578125000000011
 40
0.765625000000001
 40
0.765625000000001
 40
0.7812500000000014
 40
0.7812500000000014
 40
0.8125000000000015
 40
0.8125000000000015
 40
0.8437500000000021
 40
0.8437500000000021
 40
0.8593750000000023
 40
0.8593750000000023
 40
0.8671875000000021
 40
0.8671875000000021
 40
0.8750000000000021
 40
0.8750000000000021
 40
0.9062500000000015
 40
0.9062500000000015
 40
0.9375000000000012
 40
0.9375000000000012
 40
0.9687500000000007
 40
0.9687500000000007
 40
0.9765625000000003
 40
0.9765625000000003
 40
0.9843750000000003
 40
0.9843750000000003
 40
1.0
 40
1.0
 40
1.0
 40
1.0
 10
4267.70588015168
 20
-808.2147613889496
 30
0.000000000000006
 10
4272.457299833663
 20
-808.2532021920883
 30
0.000000000000006
 10
4277.168566414902
 20
-808.517956505671
 30
0.000000000000006
 10
4286.513170639326
 20
-809.4866932675609
 30
0.000000000000006
 10
4291.146498587169
 20
-810.1907303613074
 30
0.000000000000006
 10
4300.334744659489
 20
-812.0407430804148
 30
0.000000000000006
 10
4304.889711485897
 20
-813.1864442088076
 30
0.000000000000006
 10
4311.662114896394
 20
-815.2434357338893
 30
0.000000000000006
 10
4313.909551229827
 20
-815.9856395977799
 30
0.000000000000006
 10
4318.383840664825
 20
-817.5860598718967
 30
0.000000000000006
 10
4320.593313553469
 20
-818.4381120889698
 30
0.000000000000006
 10
4327.133637043798
 20
-821.1451701284927
 30
0.000000000000006
 10
4331.379627388506
 20
-823.151349701609
 30
0.000000000000006
 10
4339.648064755053
 20
-827.5580016097624
 30
0.000000000000006
 10
4343.670504181228
 20
-829.9584873422823
 30
0.000000000000006
 10
4351.488208714295
 20
-835.1601560352387
 30
0.000000000000006
 10
4355.283634066564
 20
-837.9610563498095
 30
0.000000000000006
 10
4360.80102322593
 20
-842.4723982188838
 30
0.000000000000006
 10
4362.597874507218
 20
-844.0175207198876
 30
0.000000000000006
 10
4366.100698228777
 20
-847.1820136774873
 30
0.000000000000006
 10
4367.808009583849
 20
-848.8024868004099
 30
0.000000000000006
 10
4372.799214746524
 20
-853.7772229475335
 30
0.000000000000006
 10
4375.952949572366
 20
-857.2443087386886
 30
0.000000000000006
 10
4381.917761128487
 20
-864.4754988894378
 30
0.000000000000006
 10
4384.728841376437
 20
-868.2396001998817
 30
0.000000000000006
 10
4388.6814276763
 20
-874.1146188497328
 30
0.000000000000006
 10
4389.955797471234
 20
-876.112733550191
 30
0.000000000000006
 10
4392.410848033211
 20
-880.1803390441014
 30
0.000000000000006
 10
4393.583255281203
 20
-882.2359420688549
 30
0.000000000000006
 10
4396.938689652973
 20
-888.466741265041
 30
0.000000000000006
 10
4398.960452544318
 20
-892.705720646361
 30
0.000000000000006
 10
4402.578719918919
 20
-901.3518775634542
 30
0.000000000000006
 10
4404.17527753297
 20
-905.7590340849669
 30
0.000000000000006
 10
4406.248973355254
 20
-912.4967863582819
 30
0.000000000000006
 10
4406.886550602734
 20
-914.7639252805342
 30
0.000000000000006
 10
4407.760868033057
 20
-918.197085453397
 30
0.000000000000006
 10
4408.038623329802
 20
-919.3468844111299
 30
0.000000000000006
 10
4408.566390726123
 20
-921.6574553125205
 30
0.000000000000006
 10
4408.816726761896
 20
-922.8198858847713
 30
0.000000000000006
 10
4409.993302446095
 20
-928.6365839469322
 30
0.000000000000006
 10
4410.694701289064
 20
-933.2985402704903
 30
0.000000000000006
 10
4411.633498132394
 20
-942.6390850880084
 30
0.000000000000006
 10
4411.870864096146
 20
-947.3176747302746
 30
0.000000000000006
 10
4411.878154147078
 20
-956.691609529396
 30
0.000000000000006
 10
4411.648026559317
 20
-961.3869565385789
 30
0.000000000000006
 10
4411.064123195528
 20
-967.2667592002939
 30
0.000000000000006
 10
4410.932482379238
 20
-968.4432523963728
 30
0.000000000000006
 10
4410.639187122881
 20
-970.7973146308463
 30
0.000000000000006
 10
4410.477333566134
 20
-971.9759696971264
 30
0.000000000000006
 10
4409.949296333518
 20
-975.4943064290815
 30
0.000000000000006
 10
4409.54008618205
 20
-977.8219977823278
 30
0.000000000000006
 10
4408.144039725583
 20
-984.7524534669314
 30
0.000000000000006
 10
4406.989330879031
 20
-989.3027692171267
 30
0.000000000000006
 10
4404.244012429201
 20
-998.2672118207807
 30
0.000000000000006
 10
4402.65337918248
 20
-1002.681331287308
 30
0.000000000000006
 10
4399.935851135179
 20
-1009.198915195138
 30
0.000000000000006
 10
4398.974579259415
 20
-1011.354125367735
 30
0.000000000000006
 10
4396.939862396434
 20
-1015.62949935879
 30
0.000000000000006
 10
4395.863830103368
 20
-1017.753982286372
 30
0.000000000000006
 10
4392.499890695971
 20
-1024.009478835195
 30
0.000000000000006
 10
4390.069167080267
 20
-1028.040836490847
 30
0.000000000000006
 10
4384.840199784387
 20
-1035.832014185896
 30
0.000000000000006
 10
4382.041800490803
 20
-1039.591719252286
 30
0.000000000000006
 10
4376.0788833749
 20
-1046.840627275956
 30
0.000000000000006
 10
4372.914423675637
 20
-1050.329873176753
 30
0.000000000000006
 10
4368.721588182929
 20
-1054.516133318884
 30
0.000000000000006
 10
4367.869915333457
 20
-1055.345706841628
 30
0.000000000000006
 10
4366.149096112884
 20
-1056.980831603981
 30
0.000000000000006
 10
4365.280319038244
 20
-1057.786106288589
 30
0.000000000000006
 10
4362.649189576663
 20
-1060.165513907526
 30
0.000000000000006
 10
4360.862060091281
 20
-1061.703261450132
 30
0.000000000000006
 10
4355.403182720828
 20
-1066.173340731354
 30
0.000000000000006
 10
4351.634235473819
 20
-1068.962934333463
 30
0.000000000000006
 10
4343.839118657434
 20
-1074.16438824603
 30
0.000000000000006
 10
4339.812756772725
 20
-1076.575966139611
 30
0.000000000000006
 10
4333.578530010576
 20
-1079.90743787189
 30
0.000000000000006
 10
4331.467929045048
 20
-1080.970164639303
 30
0.000000000000006
 10
4328.252361083328
 20
-1082.491319069038
 30
0.000000000000006
 10
4327.170978674014
 20
-1082.986727962033
 30
0.000000000000006
 10
4325.002560121652
 20
-1083.948092114613
 30
0.000000000000006
 10
4323.91453414811
 20
-1084.414552428319
 30
0.000000000000006
 10
4318.455501278867
 20
-1086.676417708596
 30
0.000000000000006
 10
4314.027896458331
 20
-1088.260927713632
 30
0.000000000000006
 10
4305.056110144437
 20
-1090.995560191335
 30
0.000000000000006
 10
4300.511923338051
 20
-1092.145662866529
 30
0.000000000000006
 10
4291.306669964598
 20
-1094.010351319837
 30
0.000000000000006
 10
4286.645528124984
 20
-1094.724656617497
 30
0.000000000000006
 10
4280.744561541524
 20
-1095.339790257737
 30
0.000000000000006
 10
4279.560828556318
 20
-1095.448839801927
 30
0.000000000000006
 10
4277.193850672932
 20
-1095.638294563086
 30
0.000000000000006
 10
4276.009617187684
 20
-1095.718809397028
 30
0.000000000000006
 10
4272.454688731854
 20
-1095.917823739244
 30
0.000000000000006
 10
4270.081767473054
 20
-1095.993825766443
 30
0.000000000000006
 10
4267.705871703682
 20
-1096.0130475414
 30
0.000000000000006
  0
SPLINE
  5
C05
330
1F
100
AcDbEntity
  8
Hewi
100
AcDbSpline
210
0.0
220
0.0
230
1.0
 70
     8
 71
     3
 72
   104
 73
   100
 74
     0
 42
0.0000000001
 43
0.0000000001
 40
0.0
 40
0.0
 40
0.0
 40
0.0
 40
0.0312500000000003
 40
0.0312500000000003
 40
0.0625000000000007
 40
0.0625000000000007
 40
0.093750000000001
 40
0.093750000000001
 40
0.1093750000000012
 40
0.1093750000000012
 40
0.1171875000000012
 40
0.1171875000000012
 40
0.1250000000000012
 40
0.1250000000000012
 40
0.1562500000000009
 40
0.1562500000000009
 40
0.1875000000000006
 40
0.1875000000000006
 40
0.2187500000000003
 40
0.2187500000000003
 40
0.2265625000000002
 40
0.2265625000000002
 40
0.2343750000000002
 40
0.2343750000000002
 40
0.2500000000000002
 40
0.2500000000000002
 40
0.2812500000000001
 40
0.2812500000000001
 40
0.3125000000000001
 40
0.3125000000000001
 40
0.3281250000000001
 40
0.3281250000000001
 40
0.3359375000000001
 40
0.3359375000000001
 40
0.3437500000000001
 40
0.3437500000000001
 40
0.3750000000000002
 40
0.3750000000000002
 40
0.4062500000000003
 40
0.4062500000000003
 40
0.4375000000000003
 40
0.4375000000000003
 40
0.4453125000000003
 40
0.4453125000000003
 40
0.4531250000000003
 40
0.4531250000000003
 40
0.4687500000000004
 40
0.4687500000000004
 40
0.5000000000000006
 40
0.5000000000000006
 40
0.5312500000000007
 40
0.5312500000000007
 40
0.5468750000000008
 40
0.5468750000000008
 40
0.5546875000000007
 40
0.5546875000000007
 40
0.5625000000000007
 40
0.5625000000000007
 40
0.5937500000000007
 40
0.5937500000000007
 40
0.6250000000000007
 40
0.6250000000000007
 40
0.6562500000000007
 40
0.6562500000000007
 40
0.6640625000000007
 40
0.6640625000000007
 40
0.6718750000000007
 40
0.6718750000000007
 40
0.6875000000000006
 40
0.6875000000000006
 40
0.7187500000000001
 40
0.7187500000000001
 40
0.7499999999999997
 40
0.7499999999999997
 40
0.7656249999999997
 40
0.7656249999999997
 40
0.7734374999999996
 40
0.7734374999999996
 40
0.7812499999999997
 40
0.7812499999999997
 40
0.8124999999999996
 40
0.8124999999999996
 40
0.8437499999999996
 40
0.8437499999999996
 40
0.8749999999999996
 40
0.8749999999999996
 40
0.8828124999999996
 40
0.8828124999999996
 40
0.8906249999999996
 40
0.8906249999999996
 40
0.9062499999999996
 40
0.9062499999999996
 40
0.9374999999999996
 40
0.9374999999999996
 40
0.96875
 40
0.96875
 40
0.984375
 40
0.984375
 40
1.0
 40
1.0
 40
1.0
 40
1.0
 10
4087.608865211933
 20
-1096.007045695015
 30
0.000000000000006
 10
4082.855550451966
 20
-1095.968189605202
 30
0.000000000000006
 10
4078.147214083377
 20
-1095.702888559138
 30
0.000000000000006
 10
4068.817324944631
 20
-1094.735372038627
 30
0.000000000000006
 10
4064.195785772991
 20
-1094.033088102205
 30
0.000000000000006
 10
4055.039520045499
 20
-1092.191459712248
 30
0.000000000000006
 10
4050.504742803158
 20
-1091.05237044136
 30
0.000000000000006
 10
4043.768625110137
 20
-1089.011215192553
 30
0.000000000000006
 10
4041.534286687883
 20
-1088.275278415905
 30
0.000000000000006
 10
4038.19970471133
 20
-1087.086160563161
 30
0.000000000000006
 10
4037.091000119309
 20
-1086.675576815683
 30
0.000000000000006
 10
4034.879321318684
 20
-1085.825559546759
 30
0.000000000000006
 10
4033.774844733079
 20
-1085.385495144928
 30
0.000000000000006
 10
4028.28617245831
 20
-1083.119788020801
 30
0.000000000000006
 10
4024.020120833728
 20
-1081.106859028684
 30
0.000000000000006
 10
4015.729187129135
 20
-1076.694076580937
 30
0.000000000000006
 10
4011.704338835804
 20
-1074.294168919088
 30
0.000000000000006
 10
4003.896757264851
 20
-1069.105912249196
 30
0.000000000000006
 10
4000.113874139553
 20
-1066.317803651832
 30
0.000000000000006
 10
3995.539332682773
 20
-1062.585495191622
 30
0.000000000000006
 10
3994.632150854825
 20
-1061.826637416521
 30
0.000000000000006
 10
3992.833395250903
 20
-1060.283880822458
 30
0.000000000000006
 10
3991.940883088782
 20
-1059.499131584608
 30
0.000000000000006
 10
3989.293629355871
 20
-1057.11280165279
 30
0.000000000000006
 10
3987.575282974705
 20
-1055.484882040484
 30
0.000000000000006
 10
3982.557182297334
 20
-1050.492039486558
 30
0.000000000000006
 10
3979.393777090712
 20
-1047.01850231898
 30
0.000000000000006
 10
3973.42151854972
 20
-1039.788995755905
 30
0.000000000000006
 10
3970.612690142433
 20
-1036.033006503694
 30
0.000000000000006
 10
3966.669341218925
 20
-1030.184028201645
 30
0.000000000000006
 10
3965.399966818911
 20
-1028.198462312789
 30
0.000000000000006
 10
3963.564316375303
 20
-1025.165617884234
 30
0.000000000000006
 10
3962.963841935071
 20
-1024.145581421453
 30
0.000000000000006
 10
3961.785933590557
 20
-1022.087154651406
 30
0.000000000000006
 10
3961.207731339307
 20
-1021.047307129596
 30
0.000000000000006
 10
3958.387499115783
 20
-1015.825043481756
 30
0.000000000000006
 10
3956.353887651055
 20
-1011.569786002521
 30
0.000000000000006
 10
3952.721069675489
 20
-1002.908116271831
 30
0.000000000000006
 10
3951.121840903067
 20
-998.5017117665224
 30
0.000000000000006
 10
3948.355628970615
 20
-989.5384993442235
 30
0.000000000000006
 10
3947.188590879324
 20
-984.9817105410725
 30
0.000000000000006
 10
3946.010026914756
 20
-979.1882149366969
 30
0.000000000000006
 10
3945.788375081747
 20
-978.0246231893356
 30
0.000000000000006
 10
3945.373488600756
 20
-975.6875517015973
 30
0.000000000000006
 10
3945.180147337055
 20
-974.5131075782806
 30
0.000000000000006
 10
3944.646077152645
 20
-970.9945527913328
 30
0.000000000000006
 10
3944.350099744935
 20
-968.6492610811651
 30
0.000000000000006
 10
3943.639204100849
 20
-961.6145986684527
 30
0.000000000000006
 10
3943.400725924131
 20
-956.9264365975646
 30
0.000000000000006
 10
3943.392300544406
 20
-947.5533219385356
 30
0.000000000000006
 10
3943.622428956679
 20
-942.868369868443
 30
0.000000000000006
 10
3944.319201885735
 20
-935.8433501226931
 30
0.000000000000006
 10
3944.610205481634
 20
-933.5020792896061
 30
0.000000000000006
 10
3945.136183826163
 20
-929.9907859383925
 30
0.000000000000006
 10
3945.326431790546
 20
-928.8204570374469
 30
0.000000000000006
 10
3945.737118543247
 20
-926.4800060456432
 30
0.000000000000006
 10
3945.957253915648
 20
-925.3118277542339
 30
0.000000000000006
 10
3947.127304850384
 20
-919.5027496347133
 30
0.000000000000006
 10
3948.28822145009
 20
-914.9362102126429
 30
0.000000000000006
 10
3951.041892217098
 20
-905.9581469268991
 30
0.000000000000006
 10
3952.634708568626
 20
-901.5466453852964
 30
0.000000000000006
 10
3956.252865650805
 20
-892.8789044032415
 30
0.000000000000006
 10
3958.278306829246
 20
-888.6227010203251
 30
0.000000000000006
 10
3961.086256037951
 20
-883.4015747940098
 30
0.000000000000006
 10
3961.66251799333
 20
-882.3609057465178
 30
0.000000000000006
 10
3962.838309644151
 20
-880.2978943068987
 30
0.000000000000006
 10
3963.437719654086
 20
-879.2756560644734
 30
0.000000000000006
 10
3965.270139213446
 20
-876.2364596293878
 30
0.000000000000006
 10
3966.537309446806
 20
-874.2469965118029
 30
0.000000000000006
 10
3970.473747381523
 20
-868.3872066954167
 30
0.000000000000006
 10
3973.277627975503
 20
-864.6252265270263
 30
0.000000000000006
 10
3979.238580167524
 20
-857.3855407434999
 30
0.000000000000006
 10
3982.395625437949
 20
-853.907813937792
 30
0.000000000000006
 10
3987.402508955577
 20
-848.9095988391595
 30
0.000000000000006
 10
3989.116845439309
 20
-847.2800485859584
 30
0.000000000000006
 10
3991.757605896438
 20
-844.8914654020732
 30
0.000000000000006
 10
3992.649899711779
 20
-844.1042013868969
 30
0.000000000000006
 10
3994.447765748647
 20
-842.5569583501014
 30
0.000000000000006
 10
3995.354508224749
 20
-841.7958941862121
 30
0.000000000000006
 10
3999.926869865199
 20
-838.0527201225154
 30
0.000000000000006
 10
4003.708070479425
 20
-835.2564614433608
 30
0.000000000000006
 10
4011.512174050117
 20
-830.052593607786
 30
0.000000000000006
 10
4015.535264411073
 20
-827.6452857917133
 30
0.000000000000006
 10
4023.822452444231
 20
-823.218202095038
 30
0.000000000000006
 10
4028.086514615567
 20
-821.198369130197
 30
0.000000000000006
 10
4033.572405344738
 20
-818.9241201959189
 30
0.000000000000006
 10
4034.676112699807
 20
-818.4824300674767
 30
0.000000000000006
 10
4036.887320964864
 20
-817.6287813718623
 30
0.000000000000006
 10
4037.996142820212
 20
-817.2162647027976
 30
0.000000000000006
 10
4041.33213488259
 20
-816.0210744814499
 30
0.000000000000006
 10
4043.568823662307
 20
-815.280725482396
 30
0.000000000000006
 10
4050.31625549177
 20
-813.2258250002882
 30
0.000000000000006
 10
4054.864245379413
 20
-812.0768924417021
 30
0.000000000000006
 10
4064.058760658849
 20
-810.2171677181573
 30
0.000000000000006
 10
4068.705351428126
 20
-809.5066662556014
 30
0.000000000000006
 10
4075.749756216418
 20
-808.7722628897131
 30
0.000000000000006
 10
4078.110337152529
 20
-808.5828032237291
 30
0.000000000000006
 10
4082.856817816068
 20
-808.3164644817403
 30
0.000000000000006
 10
4085.231950620921
 20
-808.2401930603332
 30
0.000000000000006
 10
4087.608873674032
 20
-808.220762976834
 30
0.000000000000006
  0
SPLINE
  5
C06
330
1F
100
AcDbEntity
  8
Hewi
100
AcDbSpline
210
0.0
220
0.0000000000000001
230
1.0
 70
     8
 71
     3
 72
    38
 73
    34
 74
     0
 42
0.0000000001
 43
0.0000000001
 40
0.0
 40
0.0
 40
0.0
 40
0.0
 40
0.015503187976468
 40
0.0313272838133343
 40
0.0627812343220477
 40
0.0940568543646155
 40
0.1096806362147234
 40
0.1253418634838908
 40
0.1612423520454747
 40
0.1879569961923032
 40
0.2503845220954952
 40
0.2816769162755258
 40
0.312784205205046
 40
0.3753499775284555
 40
0.4065042184004183
 40
0.4376386748739482
 40
0.5002204935071763
 40
0.535771458022616
 40
0.5715661214792131
 40
0.6250714746599639
 40
0.6875558768565032
 40
0.7187915298742188
 40
0.7498984789008496
 40
0.7811796997123646
 40
0.8125603532722404
 40
0.8303653977565856
 40
0.8481409742483016
 40
0.8748673013833375
 40
0.9062915430836115
 40
0.9375143193728423
 40
0.9686509558170296
 40
0.9841986895128627
 40
1.0
 40
1.0
 40
1.0
 40
1.0
 10
4177.511046009427
 20
-989.9541877605329
 30
0.0000000000000085
 10
4176.896370009495
 20
-989.9426945131232
 30
0.0000000000000085
 10
4175.654294538796
 20
-989.9194701141928
 30
0.0000000000000085
 10
4173.171677569689
 20
-989.7229513863672
 30
0.0000000000000085
 10
4170.086688952671
 20
-989.2623222156794
 30
0.0000000000000085
 10
4167.068594474379
 20
-988.5040372765612
 30
0.000000000000008
 10
4164.7127912443
 20
-987.7250883117335
 30
0.000000000000008
 10
4162.226944352148
 20
-986.765856910522
 30
0.000000000000008
 10
4159.424165480468
 20
-985.4147442115603
 30
0.000000000000008
 10
4155.188753608181
 20
-982.8313804390596
 30
0.000000000000008
 10
4151.471861535521
 20
-979.7745247152011
 30
0.0000000000000075
 10
4148.150521280925
 20
-976.0967306097695
 30
0.0000000000000075
 10
4145.204239803036
 20
-972.1052389301581
 30
0.000000000000007
 10
4142.864844739834
 20
-967.7010128818906
 30
0.000000000000007
 10
4141.206815359551
 20
-963.02996181379
 30
0.0000000000000065
 10
4140.013148936185
 20
-958.2185280575464
 30
0.0000000000000065
 10
4139.518674178563
 20
-953.0782004720636
 30
0.000000000000006
 10
4139.830939592449
 20
-947.7682677130902
 30
0.0000000000000055
 10
4140.675969698427
 20
-942.8804573466436
 30
0.0000000000000055
 10
4142.526493862152
 20
-937.1246947097638
 30
0.000000000000005
 10
4145.313018394493
 20
-931.9481001689087
 30
0.000000000000005
 10
4148.277226987736
 20
-927.9768067932559
 30
0.0000000000000045
 10
4150.784450263051
 20
-925.2310453655331
 30
0.0000000000000045
 10
4153.552637816914
 20
-922.7407168497698
 30
0.000000000000004
 10
4156.128293865801
 20
-920.8486472911276
 30
0.000000000000004
 10
4158.383671673303
 20
-919.4458465046441
 30
0.000000000000004
 10
4160.552176880538
 20
-918.2600230369384
 30
0.000000000000004
 10
4163.291658272032
 20
-917.0034800581593
 30
0.000000000000004
 10
4166.638935660584
 20
-915.8234696524846
 30
0.000000000000004
 10
4170.255053021884
 20
-914.933003564332
 30
0.0000000000000035
 10
4173.316486441506
 20
-914.4883119803667
 30
0.0000000000000035
 10
4175.788038912168
 20
-914.3013061274936
 30
0.0000000000000035
 10
4177.031064269349
 20
-914.2826035217254
 30
0.0000000000000035
 10
4177.657604252444
 20
-914.2731765778258
 30
0.0000000000000035
  0
SPLINE
  5
C07
330
1F
100
AcDbEntity
  8
Hewi
100
AcDbSpline
210
0.0
220
0.0
230
1.0
 70
     8
 71
     3
 72
    40
 73
    36
 74
     0
 42
0.0000000001
 43
0.0000000001
 40
0.0
 40
0.0
 40
0.0
 40
0.0
 40
0.0157589685197466
 40
0.0313750539407128
 40
0.0625362355854327
 40
0.0937846997199918
 40
0.1252360819871332
 40
0.1502088947490772
 40
0.1688932647824938
 40
0.1782444519699433
 40
0.1876118003724966
 40
0.2190303871095284
 40
0.2503227998909993
 40
0.2814515001029649
 40
0.3127205765237051
 40
0.3441528938279942
 40
0.3753202637115222
 40
0.4467656780320193
 40
0.5001609132625229
 40
0.6244649599933584
 40
0.6559115663901962
 40
0.687154493607098
 40
0.7182903482035892
 40
0.7496231407320307
 40
0.7810091588724918
 40
0.8121539241230102
 40
0.8433591439942354
 40
0.8590882016586196
 40
0.8748225325532692
 40
0.8904656506131356
 40
0.9060530067124231
 40
0.9372013755936992
 40
0.9685724729809248
 40
0.9844576353970044
 40
1.0
 40
1.0
 40
1.0
 40
1.0
 10
4177.790630118715
 20
-914.273251059039
 30
0.0000000000000035
 10
4178.415861854182
 20
-914.2833486396808
 30
0.0000000000000035
 10
4179.660656486592
 20
-914.3034522484045
 30
0.0000000000000035
 10
4182.135500362366
 20
-914.4937549914716
 30
0.0000000000000035
 10
4185.202810274885
 20
-914.9441840580507
 30
0.0000000000000035
 10
4188.82233714165
 20
-915.8432727037247
 30
0.000000000000004
 10
4192.105122385958
 20
-917.0098827397264
 30
0.000000000000004
 10
4194.816077218781
 20
-918.2538003402401
 30
0.000000000000004
 10
4196.663331155196
 20
-919.2614164294313
 30
0.000000000000004
 10
4197.93335120288
 20
-920.0291499508999
 30
0.000000000000004
 10
4199.604726048038
 20
-921.1077501926443
 30
0.000000000000004
 10
4201.907195123819
 20
-922.8123030409001
 30
0.000000000000004
 10
4204.669326953754
 20
-925.3169337063695
 30
0.0000000000000045
 10
4207.16854672074
 20
-928.076304249927
 30
0.0000000000000045
 10
4209.385823294016
 20
-931.0736547073279
 30
0.0000000000000045
 10
4211.298429484862
 20
-934.2765101510408
 30
0.000000000000005
 10
4213.566636463311
 20
-939.0928053993516
 30
0.000000000000005
 10
4215.284679651527
 20
-945.104436139994
 30
0.0000000000000055
 10
4216.1070502353
 20
-954.9810463793942
 30
0.000000000000006
 10
4214.419432325329
 20
-963.3831726387684
 30
0.0000000000000065
 10
4211.227445035384
 20
-970.0836330408451
 30
0.000000000000007
 10
4209.302541916677
 20
-973.277698843532
 30
0.0000000000000075
 10
4207.077094445213
 20
-976.2628822347865
 30
0.0000000000000075
 10
4204.563029081463
 20
-979.0176745010354
 30
0.0000000000000075
 10
4201.78929569967
 20
-981.5112841623299
 30
0.000000000000008
 10
4198.787144471953
 20
-983.7156066572601
 30
0.000000000000008
 10
4196.117926296331
 20
-985.2979436138516
 30
0.000000000000008
 10
4193.890353673252
 20
-986.4038848185405
 30
0.000000000000008
 10
4192.176807150918
 20
-987.1515973573801
 30
0.000000000000008
 10
4190.433670102776
 20
-987.8117283842252
 30
0.000000000000008
 10
4188.078463203234
 20
-988.5739222493389
 30
0.000000000000008
 10
4185.063264234759
 20
-989.311182037734
 30
0.0000000000000085
 10
4181.979407523093
 20
-989.7516698842041
 30
0.0000000000000085
 10
4179.493351014627
 20
-989.9323009370959
 30
0.0000000000000085
 10
4178.246409501347
 20
-989.9472146707225
 30
0.0000000000000085
 10
4177.62973929288
 20
-989.9545902012864
 30
0.0000000000000085
  0
SPLINE
  5
C08
330
1F
100
AcDbEntity
  8
Hewi
100
AcDbSpline
210
0.0
220
0.0
230
1.0
 70
     8
 71
     3
 72
    28
 73
    24
 74
     0
 42
0.0000000001
 43
0.0000000001
 40
0.0
 40
0.0
 40
0.0
 40
0.0
 40
0.015625
 40
0.015625
 40
0.03125
 40
0.0624999999999999
 40
0.0624999999999999
 40
0.1250000000000001
 40
0.1250000000000001
 40
0.2500000000000001
 40
0.2500000000000001
 40
0.5000000000000002
 40
0.5000000000000002
 40
0.7500000000000005
 40
0.7500000000000005
 40
0.8750000000000003
 40
0.8750000000000003
 40
0.9375000000000003
 40
0.9375000000000003
 40
0.9687500000000003
 40
0.984375
 40
0.984375
 40
1.0
 40
1.0
 40
1.0
 40
1.0
 10
4087.608873674032
 20
-808.220762976834
 30
0.000000000000006
 10
4088.546865638233
 20
-808.2130953907284
 30
0.000000000000006
 10
4089.484863366521
 20
-808.2081106081709
 30
0.000000000000006
 10
4091.360854567433
 20
-808.196160307601
 30
0.000000000000006
 10
4094.174842553436
 20
-808.1787862200977
 30
0.000000000000006
 10
4096.988834117638
 20
-808.1630775540501
 30
0.000000000000006
 10
4102.616822008106
 20
-808.1338766442454
 30
0.000000000000006
 10
4106.368820310335
 20
-808.1173766362876
 30
0.000000000000006
 10
4117.624833322498
 20
-808.0763035005471
 30
0.000000000000006
 10
4125.128866448166
 20
-808.0603016816416
 30
0.000000000000006
 10
4147.641013486439
 20
-808.0344794109945
 30
0.000000000000006
 10
4162.64916459013
 20
-808.045944144596
 30
0.000000000000006
 10
4192.665454477833
 20
-808.044813766693
 30
0.000000000000006
 10
4207.673620336679
 20
-808.0321649399225
 30
0.000000000000006
 10
4230.185794272246
 20
-808.0564378567029
 30
0.000000000000006
 10
4237.689839389856
 20
-808.0719592296476
 30
0.000000000000006
 10
4248.945877417119
 20
-808.1123710870265
 30
0.000000000000006
 10
4252.697885213846
 20
-808.1286605558958
 30
0.000000000000006
 10
4258.325889180877
 20
-808.1575596623256
 30
0.000000000000006
 10
4261.139889240225
 20
-808.1731209088426
 30
0.000000000000006
 10
4263.95388640845
 20
-808.1903524968906
 30
0.000000000000006
 10
4265.829883882569
 20
-808.2022088496847
 30
0.000000000000006
 10
4266.767884288817
 20
-808.2071726435346
 30
0.000000000000006
 10
4267.70588015168
 20
-808.2147613889496
 30
0.000000000000006
  0
LINE
  5
C0C
330
1F
100
AcDbEntity
  8
Hewi
100
AcDbLine
 10
4147.657606254532
 20
-772.1139037108037
 30
0.000000000000006
 11
4207.657606254533
 21
-772.1139037108037
 31
0.000000000000006
  0
LINE
  5
C0D
330
1F
100
AcDbEntity
  8
Hewi
100
AcDbLine
 10
4177.657606254533
 20
-802.1139037108037
 30
0.000000000000006
 11
4177.657606254533
 21
-742.1139037108036
 31
0.000000000000006
  0
LINE
  5
C0E
330
1F
100
AcDbEntity
  8
Hewi
100
AcDbLine
 10
5434.342188461277
 20
-802.0289743956487
 30
0.000000000000005
 11
5464.342188461277
 21
-802.0289743956487
 31
0.000000000000005
  0
LINE
  5
C0F
330
1F
100
AcDbEntity
  8
Hewi
100
AcDbLine
 10
5210.842188461278
 20
-692.0289743956195
 30
0.000000000000005
 11
5538.871518461275
 21
-692.0289743956195
 31
0.000000000000005
  0
LINE
  5
C10
330
1F
100
AcDbEntity
  8
Hewi
100
AcDbLine
 10
5436.817758461287
 20
-752.7056343956314
 30
0.000000000000005
 11
5242.465808461282
 21
-790.4838343956466
 31
0.000000000000005
  0
LINE
  5
C11
330
1F
100
AcDbEntity
  8
Hewi
100
AcDbLine
 10
5620.870448461284
 20
-692.0289743956195
 30
0.000000000000005
 11
5551.795648461274
 21
-692.0289743956195
 31
0.000000000000005
  0
LINE
  5
C12
330
1F
100
AcDbEntity
  8
Hewi
100
AcDbLine
 10
5539.325958461283
 20
-721.0115143956313
 30
0.000000000000005
 11
5539.325958461283
 21
-721.0289743956195
 31
0.000000000000005
  0
LINE
  5
C13
330
1F
100
AcDbEntity
  8
Hewi
100
AcDbLine
 10
5539.325958461283
 20
-721.0115143956313
 30
0.000000000000005
 11
5538.871518461275
 21
-694.9766143956471
 31
0.000000000000005
  0
LINE
  5
C14
330
1F
100
AcDbEntity
  8
Hewi
100
AcDbLine
 10
5539.325958461283
 20
-722.0289743956195
 30
0.000000000000005
 11
5210.842188461278
 21
-722.0289743956195
 31
0.000000000000005
  0
LINE
  5
C15
330
1F
100
AcDbEntity
  8
Hewi
100
AcDbLine
 10
5229.371278461274
 20
-802.0289743956487
 30
0.000000000000005
 11
5210.84249846128
 21
-802.0289743956487
 31
0.000000000000005
  0
LINE
  5
C16
330
1F
100
AcDbEntity
  8
Hewi
100
AcDbLine
 10
5229.371278461274
 20
-802.0289743956487
 30
0.000000000000005
 11
5230.710258461289
 21
-725.3188743956521
 31
0.000000000000005
  0
LINE
  5
C17
330
1F
100
AcDbEntity
  8
Hewi
100
AcDbLine
 10
5235.652848461287
 20
-726.9417043956305
 30
0.000000000000005
 11
5234.342188461277
 21
-802.0289743956487
 31
0.000000000000005
  0
LINE
  5
C18
330
1F
100
AcDbEntity
  8
Hewi
100
AcDbLine
 10
5482.143028461288
 20
-802.0289743956487
 30
0.000000000000005
 11
5464.342188461277
 21
-802.0289743956487
 31
0.000000000000005
  0
LINE
  5
C19
330
1F
100
AcDbEntity
  8
Hewi
100
AcDbLine
 10
5624.342188461277
 20
-722.0289743956195
 30
0.000000000000005
 11
5550.692328461287
 21
-722.0289743956195
 31
0.000000000000005
  0
LINE
  5
C1A
330
1F
100
AcDbEntity
  8
Hewi
100
AcDbLine
 10
5624.342188461277
 20
-722.0289743956195
 30
0.000000000000005
 11
5623.869988461287
 21
-694.9766143956471
 31
0.000000000000005
  0
LINE
  5
C1B
330
1F
100
AcDbEntity
  8
Hewi
100
AcDbLine
 10
5503.490508461284
 20
-802.0289743956487
 30
0.000000000000005
 11
5487.131418461279
 21
-802.0289743956487
 31
0.000000000000005
  0
ARC
  5
C1C
330
1F
100
AcDbEntity
  8
Hewi
100
AcDbCircle
 10
5620.870448461284
 20
-695.0289743956487
 30
0.000000000000005
 40
3.000000000000003
100
AcDbArc
 50
0.9999999998715036
 51
90.0
  0
ARC
  5
C1D
330
1F
100
AcDbEntity
  8
Hewi
100
AcDbCircle
 10
-5472.966508461286
 20
-624.6359443956276
 30
-0.000000000000005
 40
180.0
210
0.0
220
0.0
230
-1.0
100
AcDbArc
 50
212.7566690001394
 51
260.2367280001797
  0
SPLINE
  5
C1E
330
1F
100
AcDbEntity
  8
Hewi
100
AcDbSpline
210
0.0
220
0.0
230
1.0
 70
     8
 71
     3
 72
    11
 73
     7
 74
     0
 42
0.0000000001
 43
0.0000000001
 40
0.0
 40
0.0
 40
0.0
 40
0.0
 40
0.2498918419687343
 40
0.4998398975778489
 40
0.7498684383722667
 40
1.0
 40
1.0
 40
1.0
 40
1.0
 10
5429.267284903364
 20
-797.6788591262115
 30
0.000000000000005
 10
5429.869989847009
 20
-797.7540388459997
 30
0.000000000000005
 10
5430.999250873415
 20
-798.0596955524483
 30
0.000000000000005
 10
5432.52468795694
 20
-799.0136286399606
 30
0.000000000000005
 10
5433.701081948473
 20
-800.3752344003691
 30
0.000000000000005
 10
5434.175834781026
 20
-801.444601948107
 30
0.000000000000005
 10
5434.342193055885
 20
-802.0289706118305
 30
0.000000000000005
  0
SPLINE
  5
C1F
330
1F
100
AcDbEntity
  8
Hewi
100
AcDbSpline
210
0.0
220
0.0
230
1.0
 70
     8
 71
     3
 72
    14
 73
    10
 74
     0
 42
0.0000000001
 43
0.0000000001
 40
0.0
 40
0.0
 40
0.0
 40
0.0
 40
0.0688885411093785
 40
0.2525626229043991
 40
0.4419995309868487
 40
0.5870506085518612
 40
0.7346520441873082
 40
0.8856691286187125
 40
1.0
 40
1.0
 40
1.0
 40
1.0
 10
5361.80345222939
 20
-767.3978774269739
 30
0.000000000000005
 10
5363.032095613359
 20
-768.4988579022861
 30
0.000000000000005
 10
5367.599466662877
 20
-772.436564389001
 30
0.000000000000005
 10
5376.03081477996
 20
-778.7084650890278
 30
0.000000000000005
 10
5386.732671020219
 20
-784.962075290688
 30
0.000000000000005
 10
5397.387982302739
 20
-789.8076385185954
 30
0.000000000000005
 10
5407.730035088696
 20
-793.4157741713238
 30
0.000000000000005
 10
5417.778779057321
 20
-795.9616825143998
 30
0.000000000000005
 10
5424.401057982833
 20
-797.0019877946429
 30
0.000000000000005
 10
5429.182157270131
 20
-797.3477803966048
 30
0.000000000000005
  0
SPLINE
  5
C20
330
1F
100
AcDbEntity
  8
Hewi
100
AcDbSpline
210
0.0
220
0.0
230
1.0
 70
     8
 71
     3
 72
    14
 73
    10
 74
     0
 42
0.0000000001
 43
0.0000000001
 40
0.0
 40
0.0
 40
0.0
 40
0.0
 40
0.25
 40
0.25
 40
0.5
 40
0.5
 40
0.75
 40
0.75
 40
1.0
 40
1.0
 40
1.0
 40
1.0
 10
5234.37541690442
 20
-800.1255776034918
 30
0.000000000000005
 10
5234.395216031474
 20
-798.9912863740423
 30
0.000000000000005
 10
5234.609874292111
 20
-797.8606487467
 30
0.000000000000005
 10
5235.404469634909
 20
-795.7354069638491
 30
0.000000000000005
 10
5235.984230013085
 20
-794.7412754246865
 30
0.000000000000005
 10
5237.442668836514
 20
-793.0031757173233
 30
0.000000000000005
 10
5238.321022950623
 20
-792.2595940718415
 30
0.000000000000005
 10
5240.275997502134
 20
-791.1080260550329
 30
0.000000000000005
 10
5241.352183187636
 20
-790.700295772152
 30
0.000000000000005
 10
5242.465803902226
 20
-790.483829833403
 30
0.000000000000005
  0
SPLINE
  5
C21
330
1F
100
AcDbEntity
  8
Hewi
100
AcDbSpline
210
0.0
220
0.0
230
1.0
 70
    12
 71
     3
 72
     8
 73
     4
 74
     0
 42
0.0000000001
 43
0.0000000001
 40
0.0
 40
0.0
 40
0.0
 40
0.0
 40
1.0
 40
1.0
 40
1.0
 40
1.0
 10
5550.692328461287
 20
-722.0289743956195
 30
0.000000000000005
 41
1.0
 10
5548.324535657908
 20
-722.0289706118598
 30
0.000000000000005
 41
0.8048096403827882
 10
5544.597563849333
 20
-722.0289706118598
 30
0.000000000000005
 41
0.8048096403827882
 10
5539.325956406502
 20
-722.0289706118306
 30
0.000000000000005
 41
1.0
  0
SPLINE
  5
C22
330
1F
100
AcDbEntity
  8
Hewi
100
AcDbSpline
210
0.0
220
0.0
230
1.0
 70
    24
 71
     3
 72
    14
 73
    10
 74
     0
 42
0.0000000001
 43
0.0000000001
 40
0.0
 40
0.0
 40
0.0
 40
0.0
 40
0.2422309868010281
 40
0.2422309868010281
 40
0.4955992058920815
 40
0.4955992058920815
 40
0.7489674249831349
 40
0.7489674249831349
 40
1.0
 40
1.0
 40
1.0
 40
1.0
 10
5539.325956406524
 20
-721.0289706114813
 30
0.000000000000005
 10
5539.325956406524
 20
-721.1555032081045
 30
0.000000000000005
 10
5539.325956406524
 20
-721.2819999407761
 30
0.000000000000005
 10
5539.325956406524
 20
-721.5224598342424
 30
0.000000000000005
 10
5539.325956406524
 20
-721.6354782299418
 30
0.000000000000005
 10
5539.325956406524
 20
-721.8242815223452
 30
0.000000000000005
 10
5539.325956406524
 20
-721.8999887887289
 30
0.000000000000005
 10
5539.325956406524
 20
-722.0018825559632
 30
0.000000000000005
 10
5539.325956406524
 20
-722.0285857992962
 30
0.000000000000005
 10
5539.325956406524
 20
-722.0289206114789
 30
0.000000000000005
  0
SPLINE
  5
C23
330
1F
100
AcDbEntity
  8
Hewi
100
AcDbSpline
210
0.0
220
0.0
230
1.0
 70
    24
 71
     3
 72
    10
 73
     6
 74
     0
 42
0.0000000001
 43
0.0000000001
 40
0.0
 40
0.0
 40
0.0
 40
0.0
 40
0.5
 40
0.5
 40
1.0
 40
1.0
 40
1.0
 40
1.0
 10
5538.871515452586
 20
-694.9766133925399
 30
0.000000000000005
 10
5538.871515452586
 20
-694.2000601662252
 30
0.000000000000005
 10
5538.871515452586
 20
-693.4335955260426
 30
0.000000000000005
 10
5538.871515452586
 20
-692.3448430027015
 30
0.000000000000005
 10
5538.871515452586
 20
-692.0288606008357
 30
0.000000000000005
 10
5538.871515452586
 20
-692.0290181166015
 30
0.000000000000005
  0
SPLINE
  5
C24
330
1F
100
AcDbEntity
  8
Hewi
100
AcDbSpline
210
0.0
220
0.0
230
1.0
 70
    28
 71
     3
 72
     8
 73
     4
 74
     0
 42
0.0000000001
 43
0.0000000001
 40
0.0
 40
0.0
 40
0.0
 40
0.0
 40
1.0
 40
1.0
 40
1.0
 40
1.0
 10
5538.871515452586
 20
-692.0289706118305
 30
0.000000000000005
 41
1.0
 10
5542.971654574802
 20
-692.0289706118305
 30
0.000000000000005
 41
0.8048096403827884
 10
5545.870559329685
 20
-692.0289706118305
 30
0.000000000000005
 41
0.8048096403827884
 10
5545.870401813925
 20
-692.0289706118305
 30
0.000000000000005
 41
1.0
  0
SPLINE
  5
C25
330
1F
100
AcDbEntity
  8
Hewi
100
AcDbSpline
210
0.0
220
0.0
230
1.0
 70
     8
 71
     3
 72
    14
 73
    10
 74
     0
 42
0.0000000001
 43
0.0000000001
 40
0.0
 40
0.0
 40
0.0
 40
0.0
 40
0.25
 40
0.25
 40
0.5
 40
0.5
 40
0.75
 40
0.75
 40
1.0
 40
1.0
 40
1.0
 40
1.0
 10
5235.652846089929
 20
-726.941708579568
 30
0.000000000000005
 10
5235.664141745759
 20
-726.294580890953
 30
0.000000000000005
 10
5235.802639923474
 20
-725.6499171324353
 30
0.000000000000005
 10
5236.313617106521
 20
-724.4605855272489
 30
0.000000000000005
 10
5236.685903820552
 20
-723.9163652507663
 30
0.000000000000005
 10
5237.609172667945
 20
-723.0090714813227
 30
0.000000000000005
 10
5238.159807356119
 20
-722.6463394218403
 30
0.000000000000005
 10
5239.357875601825
 20
-722.1561967616976
 30
0.000000000000005
 10
5240.004858301444
 20
-722.0289706118306
 30
0.000000000000005
 10
5240.652084565723
 20
-722.0289706118306
 30
0.000000000000005
  0
SPLINE
  5
C26
330
1F
100
AcDbEntity
  8
Hewi
100
AcDbSpline
210
0.0
220
0.0
230
1.0
 70
    24
 71
     3
 72
    10
 73
     6
 74
     0
 42
0.0000000001
 43
0.0000000001
 40
0.0
 40
0.0
 40
0.0
 40
0.0
 40
0.5004072817497499
 40
0.5004072817497499
 40
1.0
 40
1.0
 40
1.0
 40
1.0
 10
5230.710261123357
 20
-725.3188698952394
 30
0.000000000000005
 10
5230.710261123357
 20
-724.362160634158
 30
0.000000000000005
 10
5230.710261123357
 20
-723.5171735677681
 30
0.000000000000005
 10
5230.710261123357
 20
-722.3501977889204
 30
0.000000000000005
 10
5230.710261123357
 20
-722.0299043505906
 30
0.000000000000005
 10
5230.710261123357
 20
-722.0290198951947
 30
0.000000000000005
  0
SPLINE
  5
C27
330
1F
100
AcDbEntity
  8
Hewi
100
AcDbSpline
210
0.0
220
0.0
230
1.0
 70
    12
 71
     3
 72
     8
 73
     4
 74
     0
 42
0.0000000001
 43
0.0000000001
 40
0.0
 40
0.0
 40
0.0
 40
0.0
 40
1.0
 40
1.0
 40
1.0
 40
1.0
 10
5230.935358818163
 20
-725.3171347435959
 30
0.000000000000005
 41
1.0
 10
5230.860390815827
 20
-725.3171347435959
 30
0.000000000000005
 41
0.9998310418705379
 10
5230.785345571371
 20
-725.317713225198
 30
0.000000000000005
 41
0.9998310418705379
 10
5230.710261123357
 20
-725.3188698952394
 30
0.000000000000005
 41
1.0
  0
SPLINE
  5
C28
330
1F
100
AcDbEntity
  8
Hewi
100
AcDbSpline
210
0.0
220
0.0
230
1.0
 70
    28
 71
     3
 72
     8
 73
     4
 74
     0
 42
0.0000000001
 43
0.0000000001
 40
0.0
 40
0.0
 40
0.0
 40
0.0
 40
1.0
 40
1.0
 40
1.0
 40
1.0
 10
5234.342243060885
 20
-802.0289706118305
 30
0.000000000000005
 41
1.0
 10
5234.342143050876
 20
-802.0289706118887
 30
0.000000000000005
 41
0.806142685222198
 10
5232.28676216989
 20
-802.0289706118887
 30
0.000000000000005
 41
0.806142685222198
 10
5229.371281334702
 20
-802.0289706118305
 30
0.000000000000005
 41
1.0
  0
SPLINE
  5
C29
330
1F
100
AcDbEntity
  8
Hewi
100
AcDbSpline
210
0.0
220
0.0
230
1.0
 70
     8
 71
     3
 72
    16
 73
    12
 74
     0
 42
0.0000000001
 43
0.0000000001
 40
0.0
 40
0.0
 40
0.0
 40
0.0
 40
0.2500000000000031
 40
0.2500000000000031
 40
0.3750000000000029
 40
0.3750000000000029
 40
0.5000000000000027
 40
0.5000000000000027
 40
0.7500000000000015
 40
0.7500000000000015
 40
1.0
 40
1.0
 40
1.0
 40
1.0
 10
5438.341372805903
 20
-745.7064828801626
 30
0.000000000000005
 10
5439.598975296519
 20
-746.2479391157208
 30
0.000000000000005
 10
5440.830121602012
 20
-746.8519112033641
 30
0.000000000000005
 10
5442.245652762352
 20
-747.9950287977366
 30
0.000000000000005
 10
5442.636511656187
 20
-748.4282674220262
 30
0.000000000000005
 10
5442.977560043757
 20
-749.3115481349628
 30
0.000000000000005
 10
5442.913267068639
 20
-749.7518456093926
 30
0.000000000000005
 10
5442.202948308071
 20
-750.8827062620362
 30
0.000000000000005
 10
5441.219729059537
 20
-751.3839669077383
 30
0.000000000000005
 10
5439.148323434769
 20
-752.1826422065309
 30
0.000000000000005
 10
5438.000371302791
 20
-752.4757600906118
 30
0.000000000000005
 10
5436.817760643972
 20
-752.7056364004051
 30
0.000000000000005
  0
SPLINE
  5
C2A
330
1F
100
AcDbEntity
  8
Hewi
100
AcDbSpline
210
0.0
220
0.0
230
1.0
 70
     8
 71
     3
 72
     8
 73
     4
 74
     0
 42
0.0000000001
 43
0.0000000001
 40
0.0
 40
0.0
 40
0.0
 40
0.0
 40
1.0
 40
1.0
 40
1.0
 40
1.0
 10
5408.157089228612
 20
-725.3503437669382
 30
0.000000000000005
 10
5416.791581453436
 20
-733.9919619707175
 30
0.000000000000005
 10
5426.862928777148
 20
-740.7644378751533
 30
0.000000000000005
 10
5438.341372806172
 20
-745.7064828801335
 30
0.000000000000005
  0
SPLINE
  5
C2B
330
1F
100
AcDbEntity
  8
Hewi
100
AcDbSpline
210
0.0
220
0.0
230
1.0
 70
     8
 71
     3
 72
    14
 73
    10
 74
     0
 42
0.0000000001
 43
0.0000000001
 40
0.0
 40
0.0
 40
0.0
 40
0.0
 40
0.25
 40
0.25
 40
0.5
 40
0.5
 40
0.75
 40
0.75
 40
1.0
 40
1.0
 40
1.0
 40
1.0
 10
5411.12739421327
 20
-722.0289706118306
 30
0.000000000000005
 10
5410.518970678416
 20
-722.0289710396714
 30
0.000000000000005
 10
5409.928117648052
 20
-722.0600737054442
 30
0.000000000000005
 10
5408.805747078412
 20
-722.2344252778961
 30
0.000000000000005
 10
5408.259674087116
 20
-722.3774542536952
 30
0.000000000000005
 10
5407.414564370658
 20
-722.9062699201417
 30
0.000000000000005
 10
5407.139068079946
 20
-723.3347575740004
 30
0.000000000000005
 10
5407.309735575342
 20
-724.3613988863321
 30
0.000000000000005
 10
5407.697312229227
 20
-724.8901975604053
 30
0.000000000000005
 10
5408.157089229725
 20
-725.3503437674039
 30
0.000000000000005
  0
SPLINE
  5
C2C
330
1F
100
AcDbEntity
  8
Hewi
100
AcDbSpline
210
0.0
220
0.0
230
1.0
 70
     8
 71
     3
 72
    20
 73
    16
 74
     0
 42
0.0000000001
 43
0.0000000001
 40
0.0
 40
0.0
 40
0.0
 40
0.0
 40
0.0418968355853969
 40
0.083793658256999
 40
0.1256904673495749
 40
0.1897662231191468
 40
0.2505149209800848
 40
0.3746882587080237
 40
0.4995805339971289
 40
0.6246243265755357
 40
0.7491452455680845
 40
0.8744105528960821
 40
0.9371829886887772
 40
0.9703935589819804
 40
1.0
 40
1.0
 40
1.0
 40
1.0
 10
5550.692333350694
 20
-722.0289706118306
 30
0.000000000000005
 10
5550.097645188276
 20
-723.7691100676561
 30
0.000000000000005
 10
5548.908269046756
 20
-727.2493884429673
 30
0.000000000000005
 10
5547.004155457916
 20
-732.3148179783416
 30
0.000000000000005
 10
5544.664070448155
 20
-738.1310624051361
 30
0.000000000000005
 10
5541.871645173437
 20
-744.4591232108027
 30
0.000000000000005
 10
5537.447545708921
 20
-753.483699503729
 30
0.000000000000005
 10
5531.488237960417
 20
-763.8885286079562
 30
0.000000000000005
 10
5523.630471970261
 20
-774.9659612014907
 30
0.000000000000005
 10
5515.17930828609
 20
-784.4455317629285
 30
0.000000000000005
 10
5506.223791301113
 20
-792.2228209393611
 30
0.000000000000005
 10
5498.420807512987
 20
-797.2158603152307
 30
0.000000000000005
 10
5492.768379383503
 20
-799.9158468801574
 30
0.000000000000005
 10
5489.53016778821
 20
-801.2175242973567
 30
0.000000000000005
 10
5487.899822399269
 20
-801.7690361813105
 30
0.000000000000005
 10
5487.131420280327
 20
-802.0289706118305
 30
0.000000000000005
  0
SPLINE
  5
C2D
330
1F
100
AcDbEntity
  8
Hewi
100
AcDbSpline
210
0.0
220
0.0
230
1.0
 70
    24
 71
     3
 72
     8
 73
     4
 74
     0
 42
0.0000000001
 43
0.0000000001
 40
0.0
 40
0.0
 40
0.0
 40
0.0
 40
1.0
 40
1.0
 40
1.0
 40
1.0
 10
5487.131527285201
 20
-802.0289706118305
 30
0.000000000000005
 10
5485.637689560136
 20
-802.0289706118305
 30
0.000000000000005
 10
5483.891360663285
 20
-802.0289706118305
 30
0.000000000000005
 10
5482.143030410465
 20
-802.0289706118305
 30
0.000000000000005
  0
SPLINE
  5
C2E
330
1F
100
AcDbEntity
  8
Hewi
100
AcDbSpline
210
0.0
220
0.0
230
1.0
 70
    24
 71
     3
 72
    20
 73
    16
 74
     0
 42
0.0000000001
 43
0.0000000001
 40
0.0
 40
0.0
 40
0.0
 40
0.0
 40
0.2499999999999932
 40
0.2499999999999932
 40
0.3749999999999933
 40
0.3749999999999933
 40
0.4999999999999936
 40
0.4999999999999936
 40
0.6249999999999936
 40
0.6249999999999936
 40
0.6874999999999964
 40
0.6874999999999964
 40
0.7499999999999991
 40
0.7499999999999991
 40
1.0
 40
1.0
 40
1.0
 40
1.0
 10
5545.870399313688
 20
-692.0289706118305
 30
0.000000000000005
 10
5545.870499323676
 20
-692.0289706118305
 30
0.000000000000005
 10
5546.004986829679
 20
-692.0289706118305
 30
0.000000000000005
 10
5546.403244600327
 20
-692.0289706118305
 30
0.000000000000005
 10
5546.570635413825
 20
-692.0289706118305
 30
0.000000000000005
 10
5546.964959063299
 20
-692.0289706118305
 30
0.000000000000005
 10
5547.191906542344
 20
-692.0289706118305
 30
0.000000000000005
 10
5547.704194418287
 20
-692.0289706118305
 30
0.000000000000005
 10
5547.989533368506
 20
-692.0289706118305
 30
0.000000000000005
 10
5548.462503819792
 20
-692.0289706118305
 30
0.000000000000005
 10
5548.628269915528
 20
-692.0289706118305
 30
0.000000000000005
 10
5548.970941279004
 20
-692.0289706118305
 30
0.000000000000005
 10
5549.148066547132
 20
-692.0289706118305
 30
0.000000000000005
 10
5550.062043694154
 20
-692.0289706118305
 30
0.000000000000005
 10
5550.882633522299
 20
-692.0289706118305
 30
0.000000000000005
 10
5551.795651813403
 20
-692.0289706118305
 30
0.000000000000005
  0
LINE
  5
C2F
330
1F
100
AcDbEntity
  8
Hewi
100
AcDbLine
 10
5210.842188461278
 20
-692.0289743956195
 30
0.000000000000005
 11
5210.842188461278
 21
-802.0289743956487
 31
0.000000000000005
  0
LINE
  5
C30
330
1F
100
AcDbEntity
  8
Hewi
100
AcDbLine
 10
4267.657372009443
 20
-1437.113903710804
 30
0.000000000000006
 11
4087.657372009435
 21
-1437.113903710804
 31
0.000000000000006
  0
LINE
  5
C31
330
1F
100
AcDbEntity
  8
Hewi
100
AcDbLine
 10
4360.671382009434
 20
-1497.691918710795
 30
0.000000000000006
 11
4360.671382009434
 21
-1488.963513710794
 31
0.000000000000006
  0
LINE
  5
C32
330
1F
100
AcDbEntity
  8
Hewi
100
AcDbLine
 10
4087.657372009435
 20
-1517.113903710804
 30
0.000000000000006
 11
4058.508597009434
 21
-1517.113903710804
 31
0.000000000000006
  0
LINE
  5
C33
330
1F
100
AcDbEntity
  8
Hewi
100
AcDbLine
 10
4087.657372009435
 20
-1437.113903710804
 30
0.000000000000006
 11
3955.721192009432
 21
-1437.113903710804
 31
0.000000000000006
  0
LINE
  5
C34
330
1F
100
AcDbEntity
  8
Hewi
100
AcDbLine
 10
3955.721192009432
 20
-1437.113903710804
 30
0.000000000000006
 11
3955.352117009443
 21
-1437.113903710804
 31
0.000000000000006
  0
LINE
  5
C35
330
1F
100
AcDbEntity
  8
Hewi
100
AcDbLine
 10
4267.657372009443
 20
-1517.113903710804
 30
0.000000000000006
 11
4087.657372009435
 21
-1517.113903710804
 31
0.000000000000006
  0
LINE
  5
C36
330
1F
100
AcDbEntity
  8
Hewi
100
AcDbLine
 10
4267.657372009443
 20
-1437.113903710804
 30
0.000000000000006
 11
4397.569557009436
 21
-1437.113903710804
 31
0.000000000000006
  0
LINE
  5
C37
330
1F
100
AcDbEntity
  8
Hewi
100
AcDbLine
 10
4267.657372009443
 20
-1517.113903710804
 30
0.000000000000006
 11
4296.806142009436
 21
-1517.113903710804
 31
0.000000000000006
  0
LINE
  5
C38
330
1F
100
AcDbEntity
  8
Hewi
100
AcDbLine
 10
3960.526572009444
 20
-1407.113903710803
 30
0.000000000000006
 11
4087.657372009435
 21
-1407.113903710803
 31
0.000000000000006
  0
LINE
  5
C39
330
1F
100
AcDbEntity
  8
Hewi
100
AcDbLine
 10
4267.657372009443
 20
-1407.113903710803
 30
0.000000000000006
 11
4394.788167009433
 21
-1407.113903710803
 31
0.000000000000006
  0
LINE
  5
C3A
330
1F
100
AcDbEntity
  8
Hewi
100
AcDbLine
 10
4087.657372009435
 20
-1407.113903710803
 30
0.000000000000006
 11
4267.657372009443
 21
-1407.113903710803
 31
0.000000000000006
  0
LINE
  5
C3B
330
1F
100
AcDbEntity
  8
Trennung
 48
20.0
370
     9
100
AcDbLine
 10
3752.675127009437
 20
-1436.096453710804
 30
0.000000000000006
 11
3753.129572009432
 21
-1410.061548710796
 31
0.000000000000006
  0
LINE
  5
C3C
330
1F
100
AcDbEntity
  8
Trennung
 48
20.0
370
     9
100
AcDbLine
 10
4602.185167009437
 20
-1410.061548710796
 30
0.000000000000006
 11
4602.639612009433
 21
-1436.096453710804
 31
0.000000000000006
  0
LINE
  5
C3D
330
1F
100
AcDbEntity
  8
Hewi
100
AcDbLine
 10
4592.641132009431
 20
-1437.113903710804
 30
0.000000000000006
 11
4405.940077009433
 21
-1437.113903710804
 31
0.000000000000006
  0
LINE
  5
C3E
330
1F
100
AcDbEntity
  8
Hewi
100
AcDbLine
 10
3949.374662009436
 20
-1437.113903710804
 30
0.000000000000006
 11
3662.605351471314
 21
-1437.113903710804
 31
0.000000000000006
  0
LINE
  5
C3F
330
1F
100
AcDbEntity
  8
Hewi
100
AcDbLine
 10
3662.605351471314
 20
-1407.113903710803
 30
0.000000000000006
 11
3949.621357009437
 21
-1407.113903710803
 31
0.000000000000006
  0
LINE
  5
C40
330
1F
100
AcDbEntity
  8
Hewi
100
AcDbLine
 10
4405.693387009433
 20
-1407.113903710803
 30
0.000000000000006
 11
4592.186692009437
 21
-1407.113903710803
 31
0.000000000000006
  0
LINE
  5
C41
330
1F
100
AcDbEntity
  8
Hewi
100
AcDbLine
 10
4380.184122009433
 20
-1471.497118710798
 30
0.000000000000006
 11
4380.184122009433
 21
-1498.922443710802
 31
0.000000000000006
  0
LINE
  5
C42
330
1F
100
AcDbEntity
  8
Hewi
100
AcDbLine
 10
3975.262517009437
 20
-1498.576133710808
 30
0.000000000000006
 11
3975.262517009437
 21
-1471.638618710796
 31
0.000000000000006
  0
LINE
  5
C43
330
1F
100
AcDbEntity
  8
Hewi
100
AcDbLine
 10
4380.184122009433
 20
-1498.922443710802
 30
0.000000000000006
 11
4401.686782009431
 21
-1444.520788710808
 31
0.000000000000006
  0
LINE
  5
C44
330
1F
100
AcDbEntity
  8
Hewi
100
AcDbLine
 10
3958.339372009437
 20
-1451.048663710807
 30
0.000000000000006
 11
3975.262517009437
 21
-1498.576133710808
 31
0.000000000000006
  0
LINE
  5
C45
330
1F
100
AcDbEntity
  8
Hewi
100
AcDbLine
 10
4370.330642009434
 20
-1505.568763710801
 30
0.000000000000006
 11
4370.912287009433
 21
-1505.568763710801
 31
0.000000000000006
  0
LINE
  5
C46
330
1F
100
AcDbEntity
  8
Hewi
100
AcDbLine
 10
3984.659447009433
 20
-1505.568763710801
 30
0.000000000000006
 11
3984.984102009444
 21
-1505.568763710801
 31
0.000000000000006
  0
LINE
  5
C47
330
1F
100
AcDbEntity
  8
Hewi
100
AcDbLine
 10
3994.643357009435
 20
-1488.963293710807
 30
0.000000000000006
 11
3994.643357009435
 21
-1497.691918710795
 31
0.000000000000006
  0
LINE
  5
C48
330
1F
100
AcDbEntity
  8
Hewi
100
AcDbLine
 10
4358.739367009444
 20
-1490.321583710796
 30
0.000000000000006
 11
4360.671382009434
 21
-1497.691918710795
 31
0.000000000000006
  0
LINE
  5
C49
330
1F
100
AcDbEntity
  8
Hewi
100
AcDbLine
 10
3994.643357009435
 20
-1497.691918710795
 30
0.000000000000006
 11
3996.575372009433
 21
-1490.321583710796
 31
0.000000000000006
  0
LINE
  5
C4A
330
1F
100
AcDbEntity
  8
Hewi
100
AcDbLine
 10
4005.287762009434
 20
-1496.299853710803
 30
0.000000000000006
 11
4004.302617009435
 21
-1500.058033710807
 31
0.000000000000006
  0
LINE
  5
C4B
330
1F
100
AcDbEntity
  8
Hewi
100
AcDbLine
 10
4351.012122009434
 20
-1500.058033710807
 30
0.000000000000006
 11
4350.026977009435
 21
-1496.299853710803
 31
0.000000000000006
  0
LINE
  5
C4C
330
1F
100
AcDbEntity
  8
Hewi
100
AcDbLine
 10
3965.865592009443
 20
-1501.758973710802
 30
0.000000000000006
 11
3944.596652009435
 21
-1442.026643710803
 31
0.000000000000006
  0
LINE
  5
C4D
330
1F
100
AcDbEntity
  8
Hewi
100
AcDbLine
 10
4413.328927009444
 20
-1442.026643710803
 30
0.000000000000006
 11
4389.455962009434
 21
-1502.425158710797
 31
0.000000000000006
  0
LINE
  5
C4E
330
1F
100
AcDbEntity
  8
Hewi
100
AcDbLine
 10
4370.912287009433
 20
-1515.210513710797
 30
0.000000000000006
 11
4370.330642009434
 21
-1515.210513710797
 31
0.000000000000006
  0
LINE
  5
C4F
330
1F
100
AcDbEntity
  8
Hewi
100
AcDbLine
 10
3984.984102009444
 20
-1515.210513710797
 30
0.000000000000006
 11
3984.659447009433
 21
-1515.210513710797
 31
0.000000000000006
  0
LINE
  5
C50
330
1F
100
AcDbEntity
  8
Hewi
100
AcDbLine
 10
4393.250622009434
 20
-1517.113903710804
 30
0.000000000000006
 11
4298.302007009432
 21
-1517.113903710804
 31
0.000000000000006
  0
LINE
  5
C51
330
1F
100
AcDbEntity
  8
Hewi
100
AcDbLine
 10
4057.012732009437
 20
-1517.113903710804
 30
0.000000000000006
 11
3962.064117009436
 21
-1517.113903710804
 31
0.000000000000006
  0
LINE
  5
C52
330
1F
100
AcDbEntity
  8
Hewi
100
AcDbLine
 10
4426.459942009443
 20
-1440.403803710807
 30
0.000000000000006
 11
4398.539752009431
 21
-1517.113903710804
 31
0.000000000000006
  0
LINE
  5
C53
330
1F
100
AcDbEntity
  8
Hewi
100
AcDbLine
 10
3956.774987009431
 20
-1517.113903710804
 30
0.000000000000006
 11
3928.854797009434
 21
-1440.403803710807
 31
0.000000000000006
  0
SPLINE
  5
C56
330
1F
100
AcDbEntity
  8
Hewi
100
AcDbSpline
210
0.0
220
0.0
230
1.0
 70
    24
 71
     1
 72
     4
 73
     2
 74
     0
 42
0.0000000001
 43
0.0000000001
 40
0.0
 40
0.0
 40
1.0
 40
1.0
 10
3947.890066493933
 20
-1437.113906453534
 30
0.000000000000006
 10
3947.94677697597
 20
-1437.185935800687
 30
0.000000000000006
  0
SPLINE
  5
C57
330
1F
100
AcDbEntity
  8
Hewi
100
AcDbSpline
210
0.0
220
0.0
230
1.0
 70
     8
 71
     3
 72
    11
 73
     7
 74
     0
 42
0.0000000001
 43
0.0000000001
 40
0.0
 40
0.0
 40
0.0
 40
0.0
 40
0.2502131043664304
 40
0.5004239519195225
 40
0.7503722037165966
 40
1.0
 40
1.0
 40
1.0
 40
1.0
 10
3957.75513397675
 20
-1436.096453492991
 30
0.000000000000006
 10
3957.554722278995
 20
-1436.216275720955
 30
0.000000000000006
 10
3957.153900691116
 20
-1436.455919096228
 30
0.000000000000006
 10
3956.556052367615
 20
-1436.778301887283
 30
0.000000000000006
 10
3955.954944241454
 20
-1437.044391081839
 30
0.000000000000006
 10
3955.552974436342
 20
-1437.090744204713
 30
0.000000000000006
 10
3955.352118456523
 20
-1437.113905899397
 30
0.000000000000006
  0
SPLINE
  5
C58
330
1F
100
AcDbEntity
  8
Hewi
100
AcDbSpline
210
0.0
220
0.0
230
1.0
 70
     8
 71
     3
 72
    10
 73
     6
 74
     0
 42
0.0000000001
 43
0.0000000001
 40
0.0
 40
0.0
 40
0.0
 40
0.0
 40
0.6548331658331997
 40
0.6548331658331997
 40
1.0
 40
1.0
 40
1.0
 40
1.0
 10
3958.009983817971
 20
-1410.061548680092
 30
0.000000000000006
 10
3957.954305668032
 20
-1415.744388031565
 30
0.000000000000006
 10
3957.898660386386
 20
-1421.427227620744
 30
0.000000000000006
 10
3957.813734137676
 20
-1430.105529396267
 30
0.000000000000006
 10
3957.784429514633
 20
-1433.100991411829
 30
0.000000000000006
 10
3957.75513397675
 20
-1436.096453492991
 30
0.000000000000006
  0
SPLINE
  5
C59
330
1F
100
AcDbEntity
  8
Hewi
100
AcDbSpline
210
0.0
220
0.0
230
1.0
 70
     8
 71
     3
 72
    10
 73
     6
 74
     0
 42
0.0000000001
 43
0.0000000001
 40
0.0
 40
0.0
 40
0.0
 40
0.0
 40
0.7391652423530142
 40
0.7391652423530142
 40
1.0
 40
1.0
 40
1.0
 40
1.0
 10
4397.569555755068
 20
-1437.113905899397
 30
0.000000000000006
 10
4397.504373020541
 20
-1430.448518065833
 30
0.000000000000006
 10
4397.439145311317
 20
-1423.783130556792
 30
0.000000000000006
 10
4397.350839126583
 20
-1414.765678435502
 30
0.000000000000006
 10
4397.327800181677
 20
-1412.413613537438
 30
0.000000000000006
 10
4397.3047556063
 20
-1410.061548680092
 30
0.000000000000006
  0
SPLINE
  5
C5A
330
1F
100
AcDbEntity
  8
Hewi
100
AcDbSpline
210
0.0
220
0.0
230
1.0
 70
     8
 71
     3
 72
     8
 73
     4
 74
     0
 42
0.0000000001
 43
0.0000000001
 40
0.0
 40
0.0
 40
0.0
 40
0.0
 40
1.0
 40
1.0
 40
1.0
 40
1.0
 10
4397.569555755068
 20
-1437.113905899397
 30
0.000000000000006
 10
4398.259654100603
 20
-1437.113905899397
 30
0.000000000000006
 10
4399.117954098537
 20
-1436.716848153326
 30
0.000000000000006
 10
4399.992338277833
 20
-1436.094143498045
 30
0.000000000000006
  0
SPLINE
  5
C5B
330
1F
100
AcDbEntity
  8
Hewi
100
AcDbSpline
210
0.0
220
0.0
230
1.0
 70
     8
 71
     3
 72
    22
 73
    18
 74
     0
 42
0.0000000001
 43
0.0000000001
 40
0.0
 40
0.0
 40
0.0
 40
0.0
 40
0.2776282615454694
 40
0.2776282615454694
 40
0.4169554696844952
 40
0.4169554696844952
 40
0.4725029696777635
 40
0.4725029696777635
 40
0.528910113635247
 40
0.528910113635247
 40
0.578650826851106
 40
0.578650826851106
 40
0.648719338487318
 40
0.648719338487318
 40
0.8158546047053171
 40
0.8158546047053171
 40
1.0
 40
1.0
 40
1.0
 40
1.0
 10
4399.621714708203
 20
-1437.062654734046
 30
0.000000000000006
 10
4399.547117442931
 20
-1437.036212776128
 30
0.000000000000006
 10
4399.478059855294
 20
-1436.998976198501
 30
0.000000000000006
 10
4399.404823836234
 20
-1436.906225635913
 30
0.000000000000006
 10
4399.384767010267
 20
-1436.868259119768
 30
0.000000000000006
 10
4399.378098167083
 20
-1436.796343179925
 30
0.000000000000006
 10
4399.378872977327
 20
-1436.773061292169
 30
0.000000000000006
 10
4399.38847888706
 20
-1436.721629741801
 30
0.000000000000006
 10
4399.397756646879
 20
-1436.692618143769
 30
0.000000000000006
 10
4399.423165582278
 20
-1436.637088868865
 30
0.000000000000006
 10
4399.438604262996
 20
-1436.610077440414
 30
0.000000000000006
 10
4399.479968533172
 20
-1436.547924281443
 30
0.000000000000006
 10
4399.508088633517
 20
-1436.512879340716
 30
0.000000000000006
 10
4399.60512255623
 20
-1436.403884626935
 30
0.000000000000006
 10
4399.67920680474
 20
-1436.337965332346
 30
0.000000000000006
 10
4399.831946890762
 20
-1436.211371972367
 30
0.000000000000006
 10
4399.912468320942
 20
-1436.151092535405
 30
0.000000000000006
 10
4399.992330501806
 20
-1436.09423002689
 30
0.000000000000006
  0
SPLINE
  5
C5C
330
1F
100
AcDbEntity
  8
Hewi
100
AcDbSpline
210
0.0
220
0.0
230
1.0
 70
     8
 71
     3
 72
    14
 73
    10
 74
     0
 42
0.0000000001
 43
0.0000000001
 40
0.0
 40
0.0
 40
0.0
 40
0.0
 40
0.25
 40
0.25
 40
0.5
 40
0.5
 40
0.75
 40
0.75
 40
1.0
 40
1.0
 40
1.0
 40
1.0
 10
3958.009983818
 20
-1410.061548680092
 30
0.000000000000006
 10
3958.01566998808
 20
-1409.673272066935
 30
0.000000000000006
 10
3958.085389197547
 20
-1409.286473811804
 30
0.000000000000006
 10
3958.342612258949
 20
-1408.572874848698
 30
0.000000000000006
 10
3958.530019312498
 20
-1408.246342682799
 30
0.000000000000006
 10
3958.994787696106
 20
-1407.701966421136
 30
0.000000000000006
 10
3959.271974124201
 20
-1407.484327185415
 30
0.000000000000006
 10
3959.875074990847
 20
-1407.190241589294
 30
0.000000000000006
 10
3960.200762470046
 20
-1407.113905899397
 30
0.000000000000006
 10
3960.526572558328
 20
-1407.113905899397
 30
0.000000000000006
  0
SPLINE
  5
C5D
330
1F
100
AcDbEntity
  8
Hewi
100
AcDbSpline
210
0.0
220
0.0
230
1.0
 70
     8
 71
     3
 72
    10
 73
     6
 74
     0
 42
0.0000000001
 43
0.0000000001
 40
0.0
 40
0.0
 40
0.0
 40
0.0
 40
0.5
 40
0.5
 40
1.0
 40
1.0
 40
1.0
 40
1.0
 10
4397.3047556063
 20
-1410.061548680092
 30
0.000000000000006
 10
4397.293383266133
 20
-1409.284995453806
 30
0.000000000000006
 10
4397.017104303592
 20
-1408.518530813638
 30
0.000000000000006
 10
4396.087567536375
 20
-1407.429778290297
 30
0.000000000000006
 10
4395.439787042528
 20
-1407.113905899397
 30
0.000000000000006
 10
4394.788166865965
 20
-1407.113905899397
 30
0.000000000000006
  0
SPLINE
  5
C5E
330
1F
100
AcDbEntity
  8
Hewi
100
AcDbSpline
210
0.0
220
0.0
230
1.0
 70
    24
 71
     3
 72
    12
 73
     8
 74
     0
 42
0.0000000001
 43
0.0000000001
 40
0.0
 40
0.0
 40
0.0
 40
0.0
 40
0.25
 40
0.25
 40
0.5
 40
0.5
 40
1.0
 40
1.0
 40
1.0
 40
1.0
 10
3955.352118456523
 20
-1437.113905899397
 30
0.000000000000006
 10
3954.906748484788
 20
-1437.113905899397
 30
0.000000000000006
 10
3954.444426905674
 20
-1437.113905899397
 30
0.000000000000006
 10
3953.486551679631
 20
-1437.113905899397
 30
0.000000000000006
 10
3952.987394226131
 20
-1437.113905899397
 30
0.000000000000006
 10
3951.471545464269
 20
-1437.113905899397
 30
0.000000000000006
 10
3950.435913859216
 20
-1437.113905899397
 30
0.000000000000006
 10
3949.374660785598
 20
-1437.113905899397
 30
0.000000000000006
  0
SPLINE
  5
C5F
330
1F
100
AcDbEntity
  8
Hewi
100
AcDbSpline
210
0.0
220
0.0
230
1.0
 70
    24
 71
     3
 72
    20
 73
    16
 74
     0
 42
0.0000000001
 43
0.0000000001
 40
0.0
 40
0.0
 40
0.0
 40
0.0
 40
0.2499999999999932
 40
0.2499999999999932
 40
0.3749999999999933
 40
0.3749999999999933
 40
0.4999999999999936
 40
0.4999999999999936
 40
0.6249999999999936
 40
0.6249999999999936
 40
0.6874999999999964
 40
0.6874999999999964
 40
0.7499999999999991
 40
0.7499999999999991
 40
1.0
 40
1.0
 40
1.0
 40
1.0
 10
3949.621354683547
 20
-1407.113905899397
 30
0.000000000000006
 10
3950.70958891141
 20
-1407.113905899397
 30
0.000000000000006
 10
3951.776065083982
 20
-1407.113905899397
 30
0.000000000000006
 10
3953.344008257909
 20
-1407.113905899397
 30
0.000000000000006
 10
3953.864488814467
 20
-1407.113905899397
 30
0.000000000000006
 10
3954.869926418881
 20
-1407.113905899397
 30
0.000000000000006
 10
3955.356781952684
 20
-1407.113905899397
 30
0.000000000000006
 10
3956.299394071857
 20
-1407.113905899397
 30
0.000000000000006
 10
3956.755151427698
 20
-1407.113905899397
 30
0.000000000000006
 10
3957.414841548508
 20
-1407.113905899397
 30
0.000000000000006
 10
3957.631411826752
 20
-1407.113905899397
 30
0.000000000000006
 10
3958.051154840219
 20
-1407.113905899397
 30
0.000000000000006
 10
3958.254737015432
 20
-1407.113905899397
 30
0.000000000000006
 10
3959.241849902367
 20
-1407.113905899397
 30
0.000000000000006
 10
3959.934414578526
 20
-1407.113905899397
 30
0.000000000000006
 10
3960.526572558299
 20
-1407.113905899397
 30
0.000000000000006
  0
SPLINE
  5
C60
330
1F
100
AcDbEntity
  8
Hewi
100
AcDbSpline
210
0.0
220
0.0
230
1.0
 70
    24
 71
     3
 72
    20
 73
    16
 74
     0
 42
0.0000000001
 43
0.0000000001
 40
0.0
 40
0.0
 40
0.0
 40
0.0
 40
0.249999999999996
 40
0.249999999999996
 40
0.3749999999999973
 40
0.3749999999999973
 40
0.4999999999999988
 40
0.4999999999999988
 40
0.6250000000000005
 40
0.6250000000000005
 40
0.6875000000000005
 40
0.6875000000000005
 40
0.7500000000000005
 40
0.7500000000000005
 40
1.0
 40
1.0
 40
1.0
 40
1.0
 10
4394.788166865965
 20
-1407.113905899397
 30
0.000000000000006
 10
4395.3803249112
 20
-1407.113905899397
 30
0.000000000000006
 10
4396.073519122725
 20
-1407.113905899397
 30
0.000000000000006
 10
4397.260843322952
 20
-1407.113905899397
 30
0.000000000000006
 10
4397.684499948094
 20
-1407.113905899397
 30
0.000000000000006
 10
4398.562438434452
 20
-1407.113905899397
 30
0.000000000000006
 10
4399.017765634181
 20
-1407.113905899397
 30
0.000000000000006
 10
4399.960488787347
 20
-1407.113905899397
 30
0.000000000000006
 10
4400.447883946273
 20
-1407.113905899397
 30
0.000000000000006
 10
4401.203669339015
 20
-1407.113905899397
 30
0.000000000000006
 10
4401.460591350519
 20
-1407.113905899397
 30
0.000000000000006
 10
4401.976490818878
 20
-1407.113905899397
 30
0.000000000000006
 10
4402.235875649084
 20
-1407.113905899397
 30
0.000000000000006
 10
4403.539827267527
 20
-1407.113905899397
 30
0.000000000000006
 10
4404.605150633162
 20
-1407.113905899397
 30
0.000000000000006
 10
4405.693384740746
 20
-1407.113905899397
 30
0.000000000000006
  0
SPLINE
  5
C61
330
1F
100
AcDbEntity
  8
Hewi
100
AcDbSpline
210
0.0
220
0.0
230
1.0
 70
    24
 71
     3
 72
    12
 73
     8
 74
     0
 42
0.0000000001
 43
0.0000000001
 40
0.0
 40
0.0
 40
0.0
 40
0.0
 40
0.5
 40
0.5
 40
0.7500000000000001
 40
0.7500000000000001
 40
1.0
 40
1.0
 40
1.0
 40
1.0
 10
4405.94007863868
 20
-1437.113905899397
 30
0.000000000000006
 10
4404.877204683329
 20
-1437.113905899397
 30
0.000000000000006
 10
4403.840028902229
 20
-1437.113905899397
 30
0.000000000000006
 10
4402.321982333019
 20
-1437.113905899397
 30
0.000000000000006
 10
4401.822183490138
 20
-1437.113905899397
 30
0.000000000000006
 10
4400.863151888302
 20
-1437.113905899397
 30
0.000000000000006
 10
4400.400301767546
 20
-1437.113905899397
 30
0.000000000000006
 10
4399.954460135178
 20
-1437.113905899397
 30
0.000000000000006
  0
SPLINE
  5
C62
330
1F
100
AcDbEntity
  8
Hewi
100
AcDbSpline
210
0.0
220
0.0
230
1.0
 70
     8
 71
     3
 72
     8
 73
     4
 74
     0
 42
0.0000000001
 43
0.0000000001
 40
0.0
 40
0.0
 40
0.0
 40
0.0
 40
1.0
 40
1.0
 40
1.0
 40
1.0
 10
4399.954440822713
 20
-1437.113905899397
 30
0.000000000000006
 10
4399.835338008259
 20
-1437.113905899397
 30
0.000000000000006
 10
4399.722535827049
 20
-1437.098391104194
 30
0.000000000000006
 10
4399.621716533602
 20
-1437.062654163437
 30
0.000000000000006
  0
SPLINE
  5
C63
330
1F
100
AcDbEntity
  8
Hewi
100
AcDbSpline
210
0.0
220
0.0
230
1.0
 70
     8
 71
     3
 72
    25
 73
    21
 74
     0
 42
0.0000000001
 43
0.0000000001
 40
0.0
 40
0.0
 40
0.0
 40
0.0
 40
0.0413117491927203
 40
0.0831994839735491
 40
0.1256435047768294
 40
0.1880758583986899
 40
0.2502604566080903
 40
0.3123577178035954
 40
0.3745278360866798
 40
0.4996515428101317
 40
0.5622039940504202
 40
0.6245020373788771
 40
0.6867171106458767
 40
0.7490214645889567
 40
0.8115926173776216
 40
0.874427383756705
 40
0.8953498864021243
 40
0.93718066176183
 40
0.9704549368933484
 40
1.0
 40
1.0
 40
1.0
 40
1.0
 10
4405.950536571535
 20
-1437.113905899397
 30
0.000000000000006
 10
4404.957935524389
 20
-1438.806554806487
 30
0.000000000000006
 10
4402.958894173488
 20
-1442.215452235697
 30
0.000000000000006
 10
4399.740842390031
 20
-1447.219890447635
 30
0.000000000000006
 10
4395.813248282579
 20
-1452.931755420195
 30
0.000000000000006
 10
4391.085983333801
 20
-1459.219424014965
 30
0.000000000000006
 10
4385.481354433778
 20
-1465.946953002286
 30
0.000000000000006
 10
4379.574555954617
 20
-1472.34740010388
 30
0.000000000000006
 10
4371.279457741472
 20
-1480.45858023922
 30
0.000000000000006
 10
4362.392112081482
 20
-1487.877162779517
 30
0.000000000000006
 10
4352.99966375875
 20
-1494.510632904388
 30
0.000000000000006
 10
4345.734983750179
 20
-1499.07015224019
 30
0.000000000000006
 10
4338.264267131632
 20
-1503.204776994632
 30
0.000000000000006
 10
4330.585807414555
 20
-1506.912156708724
 30
0.000000000000006
 10
4322.704760148056
 20
-1510.182830260102
 30
0.000000000000006
 10
4316.438867887836
 20
-1512.371447140725
 30
0.000000000000006
 10
4311.002866050051
 20
-1514.038573978363
 30
0.000000000000006
 10
4306.813463775685
 20
-1515.188805384164
 30
0.000000000000006
 10
4302.21366700951
 20
-1516.291186295955
 30
0.000000000000006
 10
4299.432844519408
 20
-1516.850738464239
 30
0.000000000000006
 10
4298.124973754396
 20
-1517.113905899397
 30
0.000000000000006
  0
SPLINE
  5
C64
330
1F
100
AcDbEntity
  8
Hewi
100
AcDbSpline
210
0.0
220
0.0
230
1.0
 70
    24
 71
     3
 72
     8
 73
     4
 74
     0
 42
0.0000000001
 43
0.0000000001
 40
0.0
 40
0.0
 40
0.0
 40
0.0
 40
1.0
 40
1.0
 40
1.0
 40
1.0
 10
4298.124994531963
 20
-1517.113905899397
 30
0.000000000000006
 10
4298.125093489882
 20
-1517.113905899397
 30
0.000000000000006
 10
4297.71721052293
 20
-1517.113905899397
 30
0.000000000000006
 10
4296.8063155772
 20
-1517.113905899397
 30
0.000000000000006
  0
SPLINE
  5
C65
330
1F
100
AcDbEntity
  8
Hewi
100
AcDbSpline
210
0.0
220
0.0
230
1.0
 70
    24
 71
     3
 72
     8
 73
     4
 74
     0
 42
0.0000000001
 43
0.0000000001
 40
0.0
 40
0.0
 40
0.0
 40
0.0
 40
1.0
 40
1.0
 40
1.0
 40
1.0
 10
4058.508424021876
 20
-1517.113905899397
 30
0.000000000000006
 10
4057.596752411785
 20
-1517.113905899397
 30
0.000000000000006
 10
4057.189645960196
 20
-1517.113905899397
 30
0.000000000000006
 10
4057.189744920242
 20
-1517.113905899397
 30
0.000000000000006
  0
SPLINE
  5
C66
330
1F
100
AcDbEntity
  8
Hewi
100
AcDbSpline
210
0.0
220
0.0
230
1.0
 70
     8
 71
     3
 72
    24
 73
    20
 74
     0
 42
0.0000000001
 43
0.0000000001
 40
0.0
 40
0.0
 40
0.0
 40
0.0
 40
0.0278398081988223
 40
0.062819757800633
 40
0.1046508475548275
 40
0.1255735074509632
 40
0.1884087460877266
 40
0.2509803691528529
 40
0.3132851913671558
 40
0.3755007322343437
 40
0.437799243786569
 40
0.5003521651627078
 40
0.6254768122991683
 40
0.6876473978445289
 40
0.7497451257547262
 40
0.8119301913352325
 40
0.8743630141902956
 40
0.937817995907779
 40
1.0
 40
1.0
 40
1.0
 40
1.0
 10
4057.189765669883
 20
-1517.113905899397
 30
0.000000000000006
 10
4055.957336080447
 20
-1516.866441413989
 30
0.000000000000006
 10
4053.176392772189
 20
-1516.308044641755
 30
0.000000000000006
 10
4048.575625579154
 20
-1515.209282856794
 30
0.000000000000006
 10
4044.311880006736
 20
-1514.038567649633
 30
0.000000000000006
 10
4038.875867211417
 20
-1512.371451267474
 30
0.000000000000006
 10
4032.609980892205
 20
-1510.182828721033
 30
0.000000000000006
 10
4024.728931548231
 20
-1506.912157138413
 30
0.000000000000006
 10
4017.050472532083
 20
-1503.204776805647
 30
0.000000000000006
 10
4009.579755176591
 20
-1499.070152567695
 30
0.000000000000006
 10
4002.315077421864
 20
-1494.510631779845
 30
0.000000000000006
 10
3992.922618011963
 20
-1487.877168741975
 30
0.000000000000006
 10
3984.03533983103
 20
-1480.458543091208
 30
0.000000000000006
 10
3975.740084761766
 20
-1472.347463163063
 30
0.000000000000006
 10
3969.833761002189
 20
-1465.946712788772
 30
0.000000000000006
 10
3964.227346051518
 20
-1459.220324812598
 30
0.000000000000006
 10
3958.912287559757
 20
-1452.137584161693
 30
0.000000000000006
 10
3953.911811336814
 20
-1444.786130984761
 30
0.000000000000006
 10
3950.869798264129
 20
-1439.653980957325
 30
0.000000000000006
 10
3949.364202852744
 20
-1437.113905899397
 30
0.000000000000006
  0
SPLINE
  5
C6F
330
1F
100
AcDbEntity
  8
Hewi
100
AcDbSpline
210
0.0
220
0.0
230
1.0
 70
     8
 71
     3
 72
     9
 73
     5
 74
     0
 42
0.0000000001
 43
0.0000000001
 40
0.0
 40
0.0
 40
0.0
 40
0.0
 40
0.1883141938415733
 40
1.0
 40
1.0
 40
1.0
 40
1.0
 10
3957.662477160452
 20
-1450.241063717006
 30
0.000000000000006
 10
3957.6934155846
 20
-1450.285645845153
 30
0.000000000000006
 10
3957.844181789985
 20
-1450.502687776937
 30
0.000000000000006
 10
3957.917858690617
 20
-1450.608173366443
 30
0.000000000000006
 10
3957.973619228314
 20
-1450.687945385096
 30
0.000000000000006
  0
SPLINE
  5
C70
330
1F
100
AcDbEntity
  8
Hewi
100
AcDbSpline
210
0.0
220
0.0
230
1.0
 70
     8
 71
     3
 72
    13
 73
     9
 74
     0
 42
0.0000000001
 43
0.0000000001
 40
0.0
 40
0.0
 40
0.0
 40
0.0
 40
0.1183251635010406
 40
0.2379288049246364
 40
0.4895521964806795
 40
0.7472001181124477
 40
0.8677452441845161
 40
1.0
 40
1.0
 40
1.0
 40
1.0
 10
4370.912284543713
 20
-1505.568765120955
 30
0.000000000000006
 10
4371.394317688781
 20
-1505.547177869997
 30
0.000000000000006
 10
4372.363592243284
 20
-1505.503770122519
 30
0.000000000000006
 10
4374.307267390138
 20
-1505.031616240299
 30
0.000000000000006
 10
4376.624334810284
 20
-1503.869731199254
 30
0.000000000000006
 10
4378.448792357206
 20
-1502.052663075093
 30
0.000000000000006
 10
4379.577417916055
 20
-1500.338599353006
 30
0.000000000000006
 10
4379.975738001417
 20
-1499.408850383999
 30
0.000000000000006
 10
4380.184123089389
 20
-1498.922443025159
 30
0.000000000000006
  0
SPLINE
  5
C71
330
1F
100
AcDbEntity
  8
Hewi
100
AcDbSpline
210
0.0
220
0.0
230
1.0
 70
     8
 71
     3
 72
    13
 73
     9
 74
     0
 42
0.0000000001
 43
0.0000000001
 40
0.0
 40
0.0
 40
0.0
 40
0.0
 40
0.1327257543366545
 40
0.2526765580175364
 40
0.5108011966539756
 40
0.7626465647279117
 40
0.8819969931585898
 40
1.0
 40
1.0
 40
1.0
 40
1.0
 10
3975.262518886365
 20
-1498.576132940997
 30
0.000000000000006
 10
3975.461688482979
 20
-1499.08565211984
 30
0.000000000000006
 10
3975.840857457265
 20
-1500.055648884848
 30
0.000000000000006
 10
3976.955066540676
 20
-1501.853958716175
 30
0.000000000000006
 10
3978.793593499465
 20
-1503.769426676935
 30
0.000000000000006
 10
3981.168693144731
 20
-1505.000511535061
 30
0.000000000000006
 10
3983.167494504826
 20
-1505.500068872464
 30
0.000000000000006
 10
3984.164013930623
 20
-1505.545953197735
 30
0.000000000000006
 10
3984.659445094241
 20
-1505.568765120955
 30
0.000000000000006
  0
SPLINE
  5
C72
330
1F
100
AcDbEntity
  8
Hewi
100
AcDbSpline
210
0.0
220
0.0
230
1.0
 70
     8
 71
     3
 72
    14
 73
    10
 74
     0
 42
0.0000000001
 43
0.0000000001
 40
0.0
 40
0.0
 40
0.0
 40
0.0
 40
0.1240400315210263
 40
0.2519944700407644
 40
0.5111217012360149
 40
0.6403559842542671
 40
0.7643308601667901
 40
0.8829273233896831
 40
1.0
 40
1.0
 40
1.0
 40
1.0
 10
4360.671381329045
 20
-1497.691919433676
 30
0.000000000000006
 10
4360.828335575378
 20
-1498.218103935036
 30
0.000000000000006
 10
4361.147197169001
 20
-1499.28707806332
 30
0.000000000000006
 10
4362.197329783685
 20
-1501.305134044301
 30
0.000000000000006
 10
4363.72748266468
 20
-1503.082756295549
 30
0.000000000000006
 10
4365.632816276103
 20
-1504.380498561757
 30
0.000000000000006
 10
4367.162599773871
 20
-1505.067737944333
 30
0.000000000000006
 10
4368.738126033135
 20
-1505.490860836693
 30
0.000000000000006
 10
4369.802094871182
 20
-1505.542909204097
 30
0.000000000000006
 10
4370.330639591926
 20
-1505.568765120955
 30
0.000000000000006
  0
SPLINE
  5
C73
330
1F
100
AcDbEntity
  8
Hewi
100
AcDbSpline
210
0.0
220
0.0
230
1.0
 70
     8
 71
     3
 72
    14
 73
    10
 74
     0
 42
0.0000000001
 43
0.0000000001
 40
0.0
 40
0.0
 40
0.0
 40
0.0
 40
0.1170726146392395
 40
0.2356691296625593
 40
0.3596407567353178
 40
0.4888782917959623
 40
0.7480055265238466
 40
0.8759599667879649
 40
1.0
 40
1.0
 40
1.0
 40
1.0
 10
3984.984099832354
 20
-1505.568765120955
 30
0.000000000000006
 10
3985.512644194741
 20
-1505.542908972096
 30
0.000000000000006
 10
3986.576612828682
 20
-1505.490860112284
 30
0.000000000000006
 10
3988.152125345882
 20
-1505.067742012204
 30
0.000000000000006
 10
3989.681910072669
 20
-1504.380505936929
 30
0.000000000000006
 10
3991.587247249413
 20
-1503.082767434079
 30
0.000000000000006
 10
3993.117409621378
 20
-1501.305134052436
 30
0.000000000000006
 10
3994.167542258515
 20
-1499.287078061966
 30
0.000000000000006
 10
3994.486403849985
 20
-1498.218103934614
 30
0.000000000000006
 10
3994.643358095234
 20
-1497.691919433676
 30
0.000000000000006
  0
SPLINE
  5
C74
330
1F
100
AcDbEntity
  8
Hewi
100
AcDbSpline
210
0.0
220
0.0
230
1.0
 70
    24
 71
     3
 72
    10
 73
     6
 74
     0
 42
0.0000000001
 43
0.0000000001
 40
0.0
 40
0.0
 40
0.0
 40
0.0
 40
0.5
 40
0.5
 40
1.0
 40
1.0
 40
1.0
 40
1.0
 10
3944.596652414669
 20
-1442.026643867222
 30
0.000000000000006
 10
3944.596652414669
 20
-1440.732388490036
 30
0.000000000000006
 10
3944.596652414669
 20
-1439.454947423084
 30
0.000000000000006
 10
3944.596652414669
 20
-1437.640359884168
 30
0.000000000000006
 10
3944.596652414669
 20
-1437.113850893929
 30
0.000000000000006
 10
3944.596652414669
 20
-1437.11392965179
 30
0.000000000000006
  0
SPLINE
  5
C75
330
1F
100
AcDbEntity
  8
Hewi
100
AcDbSpline
210
0.0
220
0.0
230
1.0
 70
    24
 71
     3
 72
    10
 73
     6
 74
     0
 42
0.0000000001
 43
0.0000000001
 40
0.0
 40
0.0
 40
0.0
 40
0.0
 40
0.5
 40
0.5
 40
1.0
 40
1.0
 40
1.0
 40
1.0
 10
4413.328926751765
 20
-1437.113880896893
 30
0.000000000000006
 10
4413.328926751765
 20
-1437.11393090193
 30
0.000000000000006
 10
4413.328926751765
 20
-1437.640359884168
 30
0.000000000000006
 10
4413.328926751765
 20
-1439.454947423084
 30
0.000000000000006
 10
4413.328926751765
 20
-1440.732388490036
 30
0.000000000000006
 10
4413.328926751765
 20
-1442.026643867222
 30
0.000000000000006
  0
SPLINE
  5
C76
330
1F
100
AcDbEntity
  8
Hewi
100
AcDbSpline
210
0.0
220
0.0
230
1.0
 70
    12
 71
     3
 72
     8
 73
     4
 74
     0
 42
0.0000000001
 43
0.0000000001
 40
0.0
 40
0.0
 40
0.0
 40
0.0
 40
1.0
 40
1.0
 40
1.0
 40
1.0
 10
4370.330639591926
 20
-1515.210512891073
 30
0.000000000000006
 41
1.0
 10
4360.916948684052
 20
-1515.210512891073
 30
0.000000000000006
 41
0.8622355601941562
 10
4353.448565557815
 20
-1509.352686206326
 30
0.000000000000006
 41
0.8622355601941562
 10
4351.012123066143
 20
-1500.058033471937
 30
0.000000000000006
 41
1.0
  0
SPLINE
  5
C77
330
1F
100
AcDbEntity
  8
Hewi
100
AcDbSpline
210
0.0
220
0.0
230
1.0
 70
    12
 71
     3
 72
     8
 73
     4
 74
     0
 42
0.0000000001
 43
0.0000000001
 40
0.0
 40
0.0
 40
0.0
 40
0.0
 40
1.0
 40
1.0
 40
1.0
 40
1.0
 10
4004.302616358142
 20
-1500.058033471937
 30
0.000000000000006
 41
1.0
 10
4001.866173866479
 20
-1509.352686206282
 30
0.000000000000006
 41
0.8622355601941574
 10
3994.397790740233
 20
-1515.210512891073
 30
0.000000000000006
 41
0.8622355601941574
 10
3984.984099832354
 20
-1515.210512891073
 30
0.000000000000006
 41
1.0
  0
SPLINE
  5
C78
330
1F
100
AcDbEntity
  8
Hewi
100
AcDbSpline
210
0.0
220
0.0
230
1.0
 70
    12
 71
     3
 72
     8
 73
     4
 74
     0
 42
0.0000000001
 43
0.0000000001
 40
0.0
 40
0.0
 40
0.0
 40
0.0
 40
1.0
 40
1.0
 40
1.0
 40
1.0
 10
3984.659445094241
 20
-1515.210512891073
 30
0.000000000000006
 41
1.0
 10
3975.963306709962
 20
-1515.210512891073
 30
0.000000000000006
 41
0.8794346961926612
 10
3968.839847175089
 20
-1510.111956825141
 30
0.000000000000006
 41
0.8794346961926612
 10
3965.865592678504
 20
-1501.7589715764
 30
0.000000000000006
 41
1.0
  0
SPLINE
  5
C79
330
1F
100
AcDbEntity
  8
Hewi
100
AcDbSpline
210
0.0
220
0.0
230
1.0
 70
    12
 71
     3
 72
     8
 73
     4
 74
     0
 42
0.0000000001
 43
0.0000000001
 40
0.0
 40
0.0
 40
0.0
 40
0.0
 40
1.0
 40
1.0
 40
1.0
 40
1.0
 10
4389.455961635049
 20
-1502.425159112735
 30
0.000000000000006
 41
1.0
 10
4386.303645207632
 20
-1510.40050825223
 30
0.000000000000006
 41
0.8860250483700278
 10
4379.327289732694
 20
-1515.210512891087
 30
0.000000000000006
 41
0.8860250483700278
 10
4370.912284543713
 20
-1515.210512891073
 30
0.000000000000006
 41
1.0
  0
SPLINE
  5
C7A
330
1F
100
AcDbEntity
  8
Hewi
100
AcDbSpline
210
0.0
220
0.0
230
1.0
 70
     8
 71
     3
 72
    14
 73
    10
 74
     0
 42
0.0000000001
 43
0.0000000001
 40
0.0
 40
0.0
 40
0.0
 40
0.0
 40
0.25
 40
0.25
 40
0.5
 40
0.5
 40
0.75
 40
0.75
 40
1.0
 40
1.0
 40
1.0
 40
1.0
 10
3924.167118743198
 20
-1437.113905899397
 30
0.000000000000006
 10
3924.675435016584
 20
-1437.113905899397
 30
0.000000000000006
 10
3925.183677975363
 20
-1437.192197830761
 30
0.000000000000006
 10
3926.153285890255
 20
-1437.498166854431
 30
0.000000000000006
 10
3926.61451099951
 20
-1437.725799816802
 30
0.000000000000006
 10
3927.44739529456
 20
-1438.309432493126
 30
0.000000000000006
 10
3927.818934353204
 20
-1438.665348029633
 30
0.000000000000006
 10
3928.438044421488
 20
-1439.472652162872
 30
0.000000000000006
 10
3928.685526136677
 20
-1439.923924321843
 30
0.000000000000006
 10
3928.859556942528
 20
-1440.402070031177
 30
0.000000000000006
  0
SPLINE
  5
C7B
330
1F
100
AcDbEntity
  8
Hewi
100
AcDbSpline
210
0.0
220
0.0
230
1.0
 70
     8
 71
     3
 72
    10
 73
     6
 74
     0
 42
0.0000000001
 43
0.0000000001
 40
0.0
 40
0.0
 40
0.0
 40
0.0
 40
0.499999999999994
 40
0.499999999999994
 40
1.0
 40
1.0
 40
1.0
 40
1.0
 10
4431.158407403183
 20
-1437.113905899397
 30
0.000000000000006
 10
4430.140298672855
 20
-1437.113905899397
 30
0.000000000000006
 10
4429.124511069178
 20
-1437.434182500608
 30
0.000000000000006
 10
4427.45653937366
 20
-1438.602108855335
 30
0.000000000000006
 10
4426.808157993128
 20
-1439.447095921724
 30
0.000000000000006
 10
4426.459944299252
 20
-1440.403805182777
 30
0.000000000000006
  0
SPLINE
  5
C7C
330
1F
100
AcDbEntity
  8
Hewi
100
AcDbSpline
210
0.0
220
0.0
230
1.0
 70
    28
 71
     3
 72
     8
 73
     4
 74
     0
 42
0.0000000001
 43
0.0000000001
 40
0.0
 40
0.0
 40
0.0
 40
0.0
 40
1.0
 40
1.0
 40
1.0
 40
1.0
 10
4398.539775973328
 20
-1517.113905899397
 30
0.000000000000006
 41
1.0
 10
4398.539725968349
 20
-1517.113905899441
 30
0.000000000000006
 41
0.806142685222198
 10
4396.352740252177
 20
-1517.113905899441
 30
0.000000000000006
 41
0.806142685222198
 10
4393.250622890763
 20
-1517.113905899397
 30
0.000000000000006
 41
1.0
  0
SPLINE
  5
C7D
330
1F
100
AcDbEntity
  8
Hewi
100
AcDbSpline
210
0.0
220
0.0
230
1.0
 70
    28
 71
     3
 72
     8
 73
     4
 74
     0
 42
0.0000000001
 43
0.0000000001
 40
0.0
 40
0.0
 40
0.0
 40
0.0
 40
1.0
 40
1.0
 40
1.0
 40
1.0
 10
3962.064116533516
 20
-1517.113905899397
 30
0.000000000000006
 41
1.0
 10
3958.961999172102
 20
-1517.113905899441
 30
0.000000000000006
 41
0.806142685222198
 10
3956.774933447928
 20
-1517.113905899441
 30
0.000000000000006
 41
0.806142685222198
 10
3956.775012205811
 20
-1517.113905899397
 30
0.000000000000006
 41
1.0
  0
SPLINE
  5
C7E
330
1F
100
AcDbEntity
  8
Hewi
100
AcDbSpline
210
0.0
220
0.0
230
1.0
 70
    12
 71
     3
 72
     8
 73
     4
 74
     0
 42
0.0000000001
 43
0.0000000001
 40
0.0
 40
0.0
 40
0.0
 40
0.0
 40
1.0
 40
1.0
 40
1.0
 40
1.0
 10
3928.859556942528
 20
-1440.402070031177
 30
0.000000000000006
 41
1.0
 10
3928.855961672297
 20
-1440.402070031177
 30
0.000000000000006
 41
0.9998310418705379
 10
3928.854374131564
 20
-1440.402648512794
 30
0.000000000000006
 41
0.9998310418705379
 10
3928.854795125026
 20
-1440.403805182777
 30
0.000000000000006
 41
1.0
  0
SPLINE
  5
C7F
330
1F
100
AcDbEntity
  8
Hewi
100
AcDbSpline
210
0.0
220
0.0
230
1.0
 70
     8
 71
     3
 72
    10
 73
     6
 74
     0
 42
0.0000000001
 43
0.0000000001
 40
0.0
 40
0.0
 40
0.0
 40
0.0
 40
0.5000000000000062
 40
0.5000000000000062
 40
1.0
 40
1.0
 40
1.0
 40
1.0
 10
3928.854795125026
 20
-1440.403805182777
 30
0.000000000000006
 10
3928.506581431143
 20
-1439.447095921724
 30
0.000000000000006
 10
3927.858200050604
 20
-1438.602108855335
 30
0.000000000000006
 10
3926.1902283551
 20
-1437.434182500608
 30
0.000000000000006
 10
3925.174440751418
 20
-1437.113905899397
 30
0.000000000000006
 10
3924.156332021082
 20
-1437.113905899397
 30
0.000000000000006
  0
LINE
  5
F14
330
1F
100
AcDbEntity
  8
Hewi
100
AcDbLine
 10
3472.675366254536
 20
-693.6139037108037
 30
0.000000000000006
 11
3472.675366254536
 21
-1022.097668710801
 31
0.000000000000006
  0
LINE
  5
F18
330
1F
100
AcDbEntity
  8
Hewi
100
AcDbLine
 10
3472.675366254536
 20
-1022.0976687108
 30
0.000000000000006
 11
3472.675366254536
 21
-693.6139037108035
 31
0.000000000000006
  0
LINE
  5
F19
330
1F
100
AcDbEntity
  8
Hewi
100
AcDbLine
 10
3482.673996254538
 20
-1032.096143710801
 30
0.000000000000006
 11
3482.673996254538
 21
-1032.096298710803
 31
0.000000000000006
  0
LINE
  5
F1A
330
1F
100
AcDbEntity
  8
Hewi
100
AcDbLine
 10
3472.675521254537
 20
-1030.72164855147
 30
0.0000000000000045
 11
3472.675366254536
 21
-1030.72164855147
 31
0.0000000000000045
  0
LINE
  5
F1B
330
1F
100
AcDbEntity
  8
Hewi
100
AcDbLine
 10
3482.673996254538
 20
-1032.096143710801
 30
0.000000000000006
 11
3482.673996254538
 21
-1032.096298710803
 31
0.000000000000006
  0
LINE
  5
F1C
330
1F
100
AcDbEntity
  8
Hewi
100
AcDbLine
 10
3472.675521254537
 20
-1030.72164855147
 30
0.0000000000000045
 11
3472.675366254536
 21
-1030.72164855147
 31
0.0000000000000045
  0
LINE
  5
F1D
330
1F
100
AcDbEntity
  8
Hewi
100
AcDbLine
 10
3472.675521254537
 20
-693.6139037108035
 30
0.000000000000006
 11
3472.675521254537
 21
-1022.0976687108
 31
0.000000000000006
  0
LINE
  5
F1E
330
1F
100
AcDbEntity
  8
Hewi
100
AcDbLine
 10
3472.675366254536
 20
-1022.0976687108
 30
0.000000000000006
 11
3472.675366254536
 21
-693.6139037108035
 31
0.000000000000006
  0
LINE
  5
F1F
330
1F
100
AcDbEntity
  8
Hewi
100
AcDbLine
 10
3474.157986254531
 20
-692.1139037108035
 30
0.000000000000006
 11
3474.629731254533
 21
-692.1139037108035
 31
0.000000000000006
  0
LINE
  5
F20
330
1F
100
AcDbEntity
  8
Hewi
100
AcDbLine
 10
3474.629731254533
 20
-692.1139037108035
 30
0.000000000000006
 11
3476.129501254535
 21
-692.1139037108035
 31
0.000000000000006
  0
LINE
  5
F21
330
1F
100
AcDbEntity
  8
Hewi
100
AcDbLine
 10
3472.675521254537
 20
-693.6139037108035
 30
0.000000000000006
 11
3472.675521254537
 21
-1022.0976687108
 31
0.000000000000006
  0
LINE
  5
F22
330
1F
100
AcDbEntity
  8
Hewi
100
AcDbLine
 10
3474.157986254531
 20
-692.1139037108035
 30
0.000000000000006
 11
3474.629731254533
 21
-692.1139037108035
 31
0.000000000000006
  0
LINE
  5
F23
330
1F
100
AcDbEntity
  8
Hewi
100
AcDbLine
 10
3474.629731254533
 20
-692.1139037108035
 30
0.000000000000006
 11
3476.129501254535
 21
-692.1139037108035
 31
0.000000000000006
  0
SPLINE
  5
F26
330
1F
100
AcDbEntity
  8
Hewi
100
AcDbSpline
210
0.0
220
0.0
230
1.0
 70
     8
 71
     3
 72
    12
 73
     8
 74
     0
 42
0.0000000001
 43
0.0000000001
 40
0.0
 40
0.0
 40
0.0
 40
0.0
 40
0.2693781565210258
 40
0.5307522059450555
 40
0.7746299930178201
 40
0.8920767639105941
 40
1.0
 40
1.0
 40
1.0
 40
1.0
 10
3474.157987744515
 20
-692.113904394729
 30
0.0000000000000045
 10
3473.962198073638
 20
-692.1365805240306
 30
0.0000000000000045
 10
3473.576436284083
 20
-692.1812590005678
 30
0.0000000000000045
 10
3473.083813097522
 20
-692.5251776271283
 30
0.0000000000000045
 10
3472.805122749849
 20
-692.9470410617899
 30
0.0000000000000045
 10
3472.690981297198
 20
-693.3273522794728
 30
0.0000000000000045
 10
3472.680525792004
 20
-693.5211163402668
 30
0.0000000000000045
 10
3472.675518950256
 20
-693.613904394729
 30
0.0000000000000045
  0
SPLINE
  5
F27
330
1F
100
AcDbEntity
  8
Hewi
100
AcDbSpline
210
0.0
220
0.0
230
1.0
 70
    24
 71
     2
 72
     6
 73
     3
 74
     0
 42
0.0000000001
 43
0.0000000001
 40
0.0
 40
0.0
 40
0.0
 40
1.0
 40
1.0
 40
1.0
 10
3472.675518950256
 20
-693.613904394729
 30
0.0000000000000045
 10
3472.675417416283
 20
-693.613904394729
 30
0.0000000000000045
 10
3472.675361644918
 20
-693.613904394729
 30
0.0000000000000045
  0
SPLINE
  5
F28
330
1F
100
AcDbEntity
  8
Hewi
100
AcDbSpline
210
0.0
220
0.0
230
1.0
 70
     8
 71
     3
 72
    12
 73
     8
 74
     0
 42
0.0000000001
 43
0.0000000001
 40
0.0
 40
0.0
 40
0.0
 40
0.0
 40
0.2693781565210258
 40
0.5307522059450555
 40
0.7746299930178201
 40
0.8920767639105941
 40
1.0
 40
1.0
 40
1.0
 40
1.0
 10
3474.157987744515
 20
-692.113904394729
 30
0.0000000000000045
 10
3473.962198073638
 20
-692.1365805240306
 30
0.0000000000000045
 10
3473.576436284083
 20
-692.1812590005678
 30
0.0000000000000045
 10
3473.083813097522
 20
-692.5251776271283
 30
0.0000000000000045
 10
3472.805122749849
 20
-692.9470410617899
 30
0.0000000000000045
 10
3472.690981297198
 20
-693.3273522794728
 30
0.0000000000000045
 10
3472.680525792004
 20
-693.5211163402668
 30
0.0000000000000045
 10
3472.675518950256
 20
-693.613904394729
 30
0.0000000000000045
  0
SPLINE
  5
F29
330
1F
100
AcDbEntity
  8
Hewi
100
AcDbSpline
210
0.0
220
0.0
230
1.0
 70
    24
 71
     2
 72
     6
 73
     3
 74
     0
 42
0.0000000001
 43
0.0000000001
 40
0.0
 40
0.0
 40
0.0
 40
1.0
 40
1.0
 40
1.0
 10
3472.675518950256
 20
-693.613904394729
 30
0.0000000000000045
 10
3472.675417416283
 20
-693.613904394729
 30
0.0000000000000045
 10
3472.675361644918
 20
-693.613904394729
 30
0.0000000000000045
  0
DIMENSION
  5
F3B
330
1F
100
AcDbEntity
  8
0
100
AcDbDimension
  2
*D4
 10
4602.63984625453
 20
-572.2635747813651
 30
0.0
 11
4177.657606254533
 21
-551.0309690514879
 31
0.0
 70
    32
  1
850
 71
     5
 42
849.964479999995
  3
ISO-25
100
AcDbAlignedDimension
 13
3752.675366254536
 23
-634.5428174356288
 33
0.0
 14
4602.63984625453
 24
-634.5428174356288
 34
0.0
100
AcDbRotatedDimension
1001
ACAD
1000
DSTYLE
1002
{
1070
    41
1040
11.0
1070
   140
1040
22.0
1070
   147
1040
10.0
1070
   173
1070
     1
1070
   340
1005
93E
1070
   343
1005
F55
1070
   344
1005
F55
1002
}
  0
LINE
  5
FA1
330
1F
100
AcDbEntity
  8
Hewi
100
AcDbLine
 10
3753.562706038191
 20
-692.2392535514718
 30
0.0000000000000045
 11
3662.605351471314
 21
-692.2392535514718
 31
0.0000000000000045
  0
LINE
  5
FA2
330
1F
100
AcDbEntity
  8
Hewi
100
AcDbLine
 10
3753.562706038191
 20
-1032.221648551471
 30
0.0000000000000045
 11
3662.605351471314
 21
-1032.221648551471
 31
0.0000000000000045
  0
LINE
  5
FA3
330
1F
100
AcDbEntity
  8
Hewi
100
AcDbLine
 10
4599.18586125453
 20
-692.1139037108036
 30
0.000000000000006
 11
4692.709861037752
 21
-692.2392535514718
 31
0.0000000000000045
  0
LINE
  5
FA4
330
1F
100
AcDbEntity
  8
Hewi
100
AcDbLine
 10
4572.410992722821
 20
-1032.096143710801
 30
0.000000000000006
 11
4692.709861037752
 21
-1032.221648551471
 31
0.0000000000000045
  0
LINE
  5
FA5
330
1F
100
AcDbEntity
  8
Hewi
100
AcDbLine
 10
3472.675521254537
 20
-857.8557862108022
 30
0.000000000000006
 11
3472.675521254537
 21
-1030.721690571343
 31
0.000000000000006
  0
LINE
  5
FA6
330
1F
100
AcDbEntity
  8
Hewi
100
AcDbLine
 10
3474.157986254531
 20
-1032.221648551471
 30
0.0000000000000045
 11
3474.629731254533
 21
-1032.221648551471
 31
0.0000000000000045
  0
LINE
  5
FA7
330
1F
100
AcDbEntity
  8
Hewi
100
AcDbLine
 10
3474.629731254533
 20
-1032.221648551471
 30
0.0000000000000045
 11
3476.129501254535
 21
-1032.221648551471
 31
0.0000000000000045
  0
LINE
  5
FA8
330
1F
100
AcDbEntity
  8
Hewi
100
AcDbLine
 10
3474.157986254531
 20
-1032.221648551471
 30
0.0000000000000045
 11
3474.629731254533
 21
-1032.221648551471
 31
0.0000000000000045
  0
LINE
  5
FA9
330
1F
100
AcDbEntity
  8
Hewi
100
AcDbLine
 10
3474.629731254533
 20
-1032.221648551471
 30
0.0000000000000045
 11
3476.129501254535
 21
-1032.221648551471
 31
0.0000000000000045
  0
SPLINE
  5
FAA
330
1F
100
AcDbEntity
  8
Hewi
100
AcDbSpline
210
0.0
220
0.0
230
1.0
 70
     8
 71
     3
 72
    12
 73
     8
 74
     0
 42
0.0000000001
 43
0.0000000001
 40
0.0
 40
0.0
 40
0.0
 40
0.0
 40
0.2693781565210258
 40
0.5307522059450555
 40
0.7746299930178201
 40
0.8920767639105941
 40
1.0
 40
1.0
 40
1.0
 40
1.0
 10
3474.157987744515
 20
-1032.221647867545
 30
0.000000000000003
 10
3473.962198073638
 20
-1032.198971738244
 30
0.000000000000003
 10
3473.576436284083
 20
-1032.154293261706
 30
0.000000000000003
 10
3473.083813097522
 20
-1031.810374635146
 30
0.000000000000003
 10
3472.805122749849
 20
-1031.388511200484
 30
0.000000000000003
 10
3472.690981297198
 20
-1031.008199982801
 30
0.000000000000003
 10
3472.680525792004
 20
-1030.814435922008
 30
0.000000000000003
 10
3472.675518950256
 20
-1030.721647867545
 30
0.000000000000003
  0
SPLINE
  5
FAB
330
1F
100
AcDbEntity
  8
Hewi
100
AcDbSpline
210
0.0
220
0.0
230
1.0
 70
    24
 71
     2
 72
     6
 73
     3
 74
     0
 42
0.0000000001
 43
0.0000000001
 40
0.0
 40
0.0
 40
0.0
 40
1.0
 40
1.0
 40
1.0
 10
3472.675518950256
 20
-1030.721647867545
 30
0.000000000000003
 10
3472.675417416283
 20
-1030.721647867545
 30
0.000000000000003
 10
3472.675361644918
 20
-1030.721647867545
 30
0.000000000000003
  0
SPLINE
  5
FAC
330
1F
100
AcDbEntity
  8
Hewi
100
AcDbSpline
210
0.0
220
0.0
230
1.0
 70
     8
 71
     3
 72
    12
 73
     8
 74
     0
 42
0.0000000001
 43
0.0000000001
 40
0.0
 40
0.0
 40
0.0
 40
0.0
 40
0.2693781565210258
 40
0.5307522059450555
 40
0.7746299930178201
 40
0.8920767639105941
 40
1.0
 40
1.0
 40
1.0
 40
1.0
 10
3474.157987744515
 20
-1032.221647867545
 30
0.000000000000003
 10
3473.962198073638
 20
-1032.198971738244
 30
0.000000000000003
 10
3473.576436284083
 20
-1032.154293261706
 30
0.000000000000003
 10
3473.083813097522
 20
-1031.810374635146
 30
0.000000000000003
 10
3472.805122749849
 20
-1031.388511200484
 30
0.000000000000003
 10
3472.690981297198
 20
-1031.008199982801
 30
0.000000000000003
 10
3472.680525792004
 20
-1030.814435922008
 30
0.000000000000003
 10
3472.675518950256
 20
-1030.721647867545
 30
0.000000000000003
  0
SPLINE
  5
FAD
330
1F
100
AcDbEntity
  8
Hewi
100
AcDbSpline
210
0.0
220
0.0
230
1.0
 70
    24
 71
     2
 72
     6
 73
     3
 74
     0
 42
0.0000000001
 43
0.0000000001
 40
0.0
 40
0.0
 40
0.0
 40
1.0
 40
1.0
 40
1.0
 10
3472.675518950256
 20
-1030.721647867545
 30
0.000000000000003
 10
3472.675417416283
 20
-1030.721647867545
 30
0.000000000000003
 10
3472.675361644918
 20
-1030.721647867545
 30
0.000000000000003
  0
LINE
  5
FAE
330
1F
100
AcDbEntity
  8
Hewi
100
AcDbLine
 10
3537.281461014805
 20
-1032.221648551471
 30
0.0000000000000045
 11
3474.157986254531
 21
-1032.221648551471
 31
0.0000000000000045
  0
LINE
  5
FB5
330
1F
100
AcDbEntity
  8
Hewi
100
AcDbLine
 10
3538.503091014808
 20
-692.1139037108035
 30
0.000000000000006
 11
3475.379616254534
 21
-692.1139037108035
 31
0.000000000000006
  0
LINE
  5
FB6
330
1F
100
AcDbEntity
  8
Hewi
100
AcDbLine
 10
4882.63984625453
 20
-693.6139037108037
 30
0.000000000000006
 11
4882.63984625453
 21
-1022.097668710801
 31
0.000000000000006
  0
LINE
  5
FB7
330
1F
100
AcDbEntity
  8
Hewi
100
AcDbLine
 10
4882.63984625453
 20
-1022.0976687108
 30
0.000000000000006
 11
4882.63984625453
 21
-693.6139037108035
 31
0.000000000000006
  0
LINE
  5
FB8
330
1F
100
AcDbEntity
  8
Hewi
100
AcDbLine
 10
4872.641216254528
 20
-1032.096143710801
 30
0.000000000000006
 11
4872.641216254528
 21
-1032.096298710803
 31
0.000000000000006
  0
LINE
  5
FB9
330
1F
100
AcDbEntity
  8
Hewi
100
AcDbLine
 10
4882.639691254529
 20
-1030.72164855147
 30
0.0000000000000045
 11
4882.63984625453
 21
-1030.72164855147
 31
0.0000000000000045
  0
LINE
  5
FBA
330
1F
100
AcDbEntity
  8
Hewi
100
AcDbLine
 10
4872.641216254528
 20
-1032.096143710801
 30
0.000000000000006
 11
4872.641216254528
 21
-1032.096298710803
 31
0.000000000000006
  0
LINE
  5
FBB
330
1F
100
AcDbEntity
  8
Hewi
100
AcDbLine
 10
4882.639691254529
 20
-1030.72164855147
 30
0.0000000000000045
 11
4882.63984625453
 21
-1030.72164855147
 31
0.0000000000000045
  0
LINE
  5
FBC
330
1F
100
AcDbEntity
  8
Hewi
100
AcDbLine
 10
4882.639691254529
 20
-693.6139037108035
 30
0.000000000000006
 11
4882.639691254529
 21
-1022.0976687108
 31
0.000000000000006
  0
LINE
  5
FBD
330
1F
100
AcDbEntity
  8
Hewi
100
AcDbLine
 10
4882.63984625453
 20
-1022.0976687108
 30
0.000000000000006
 11
4882.63984625453
 21
-693.6139037108035
 31
0.000000000000006
  0
LINE
  5
FBE
330
1F
100
AcDbEntity
  8
Hewi
100
AcDbLine
 10
4881.157226254535
 20
-692.1139037108035
 30
0.000000000000006
 11
4880.685481254532
 21
-692.1139037108035
 31
0.000000000000006
  0
LINE
  5
FBF
330
1F
100
AcDbEntity
  8
Hewi
100
AcDbLine
 10
4880.685481254532
 20
-692.1139037108035
 30
0.000000000000006
 11
4879.18571125453
 21
-692.1139037108035
 31
0.000000000000006
  0
LINE
  5
FC0
330
1F
100
AcDbEntity
  8
Hewi
100
AcDbLine
 10
4882.639691254529
 20
-693.6139037108035
 30
0.000000000000006
 11
4882.639691254529
 21
-1022.0976687108
 31
0.000000000000006
  0
LINE
  5
FC1
330
1F
100
AcDbEntity
  8
Hewi
100
AcDbLine
 10
4881.157226254535
 20
-692.1139037108035
 30
0.000000000000006
 11
4880.685481254532
 21
-692.1139037108035
 31
0.000000000000006
  0
LINE
  5
FC2
330
1F
100
AcDbEntity
  8
Hewi
100
AcDbLine
 10
4880.685481254532
 20
-692.1139037108035
 30
0.000000000000006
 11
4879.18571125453
 21
-692.1139037108035
 31
0.000000000000006
  0
SPLINE
  5
FC3
330
1F
100
AcDbEntity
  8
Hewi
100
AcDbSpline
210
0.0
220
0.0
230
1.0
 70
     8
 71
     3
 72
    12
 73
     8
 74
     0
 42
0.0000000001
 43
0.0000000001
 40
0.0
 40
0.0
 40
0.0
 40
0.0
 40
0.2693781565210258
 40
0.5307522059450555
 40
0.7746299930178201
 40
0.8920767639105941
 40
1.0
 40
1.0
 40
1.0
 40
1.0
 10
4881.15722476455
 20
-692.113904394729
 30
0.0000000000000045
 10
4881.353014435427
 20
-692.1365805240306
 30
0.0000000000000045
 10
4881.738776224983
 20
-692.1812590005678
 30
0.0000000000000045
 10
4882.231399411544
 20
-692.5251776271283
 30
0.0000000000000045
 10
4882.510089759217
 20
-692.9470410617899
 30
0.0000000000000045
 10
4882.624231211867
 20
-693.3273522794728
 30
0.0000000000000045
 10
4882.634686717063
 20
-693.5211163402668
 30
0.0000000000000045
 10
4882.63969355881
 20
-693.613904394729
 30
0.0000000000000045
  0
SPLINE
  5
FC4
330
1F
100
AcDbEntity
  8
Hewi
100
AcDbSpline
210
0.0
220
0.0
230
1.0
 70
    24
 71
     2
 72
     6
 73
     3
 74
     0
 42
0.0000000001
 43
0.0000000001
 40
0.0
 40
0.0
 40
0.0
 40
1.0
 40
1.0
 40
1.0
 10
4882.63969355881
 20
-693.613904394729
 30
0.0000000000000045
 10
4882.639795092783
 20
-693.613904394729
 30
0.0000000000000045
 10
4882.639850864148
 20
-693.613904394729
 30
0.0000000000000045
  0
SPLINE
  5
FC5
330
1F
100
AcDbEntity
  8
Hewi
100
AcDbSpline
210
0.0
220
0.0
230
1.0
 70
     8
 71
     3
 72
    12
 73
     8
 74
     0
 42
0.0000000001
 43
0.0000000001
 40
0.0
 40
0.0
 40
0.0
 40
0.0
 40
0.2693781565210258
 40
0.5307522059450555
 40
0.7746299930178201
 40
0.8920767639105941
 40
1.0
 40
1.0
 40
1.0
 40
1.0
 10
4881.15722476455
 20
-692.113904394729
 30
0.0000000000000045
 10
4881.353014435427
 20
-692.1365805240306
 30
0.0000000000000045
 10
4881.738776224983
 20
-692.1812590005678
 30
0.0000000000000045
 10
4882.231399411544
 20
-692.5251776271283
 30
0.0000000000000045
 10
4882.510089759217
 20
-692.9470410617899
 30
0.0000000000000045
 10
4882.624231211867
 20
-693.3273522794728
 30
0.0000000000000045
 10
4882.634686717063
 20
-693.5211163402668
 30
0.0000000000000045
 10
4882.63969355881
 20
-693.613904394729
 30
0.0000000000000045
  0
SPLINE
  5
FC6
330
1F
100
AcDbEntity
  8
Hewi
100
AcDbSpline
210
0.0
220
0.0
230
1.0
 70
    24
 71
     2
 72
     6
 73
     3
 74
     0
 42
0.0000000001
 43
0.0000000001
 40
0.0
 40
0.0
 40
0.0
 40
1.0
 40
1.0
 40
1.0
 10
4882.63969355881
 20
-693.613904394729
 30
0.0000000000000045
 10
4882.639795092783
 20
-693.613904394729
 30
0.0000000000000045
 10
4882.639850864148
 20
-693.613904394729
 30
0.0000000000000045
  0
LINE
  5
FC7
330
1F
100
AcDbEntity
  8
Hewi
100
AcDbLine
 10
4882.639691254529
 20
-857.8557862108022
 30
0.000000000000006
 11
4882.639691254529
 21
-1030.721690571343
 31
0.000000000000006
  0
LINE
  5
FC8
330
1F
100
AcDbEntity
  8
Hewi
100
AcDbLine
 10
4881.157226254535
 20
-1032.221648551471
 30
0.0000000000000045
 11
4880.685481254532
 21
-1032.221648551471
 31
0.0000000000000045
  0
LINE
  5
FC9
330
1F
100
AcDbEntity
  8
Hewi
100
AcDbLine
 10
4880.685481254532
 20
-1032.221648551471
 30
0.0000000000000045
 11
4879.18571125453
 21
-1032.221648551471
 31
0.0000000000000045
  0
LINE
  5
FCA
330
1F
100
AcDbEntity
  8
Hewi
100
AcDbLine
 10
4881.157226254535
 20
-1032.221648551471
 30
0.0000000000000045
 11
4880.685481254532
 21
-1032.221648551471
 31
0.0000000000000045
  0
LINE
  5
FCB
330
1F
100
AcDbEntity
  8
Hewi
100
AcDbLine
 10
4880.685481254532
 20
-1032.221648551471
 30
0.0000000000000045
 11
4879.18571125453
 21
-1032.221648551471
 31
0.0000000000000045
  0
SPLINE
  5
FCC
330
1F
100
AcDbEntity
  8
Hewi
100
AcDbSpline
210
0.0
220
0.0
230
1.0
 70
     8
 71
     3
 72
    12
 73
     8
 74
     0
 42
0.0000000001
 43
0.0000000001
 40
0.0
 40
0.0
 40
0.0
 40
0.0
 40
0.2693781565210258
 40
0.5307522059450555
 40
0.7746299930178201
 40
0.8920767639105941
 40
1.0
 40
1.0
 40
1.0
 40
1.0
 10
4881.15722476455
 20
-1032.221647867545
 30
0.000000000000003
 10
4881.353014435427
 20
-1032.198971738244
 30
0.000000000000003
 10
4881.738776224983
 20
-1032.154293261706
 30
0.000000000000003
 10
4882.231399411544
 20
-1031.810374635146
 30
0.000000000000003
 10
4882.510089759217
 20
-1031.388511200484
 30
0.000000000000003
 10
4882.624231211867
 20
-1031.008199982801
 30
0.000000000000003
 10
4882.634686717063
 20
-1030.814435922008
 30
0.000000000000003
 10
4882.63969355881
 20
-1030.721647867545
 30
0.000000000000003
  0
SPLINE
  5
FCD
330
1F
100
AcDbEntity
  8
Hewi
100
AcDbSpline
210
0.0
220
0.0
230
1.0
 70
    24
 71
     2
 72
     6
 73
     3
 74
     0
 42
0.0000000001
 43
0.0000000001
 40
0.0
 40
0.0
 40
0.0
 40
1.0
 40
1.0
 40
1.0
 10
4882.63969355881
 20
-1030.721647867545
 30
0.000000000000003
 10
4882.639795092783
 20
-1030.721647867545
 30
0.000000000000003
 10
4882.639850864148
 20
-1030.721647867545
 30
0.000000000000003
  0
SPLINE
  5
FCE
330
1F
100
AcDbEntity
  8
Hewi
100
AcDbSpline
210
0.0
220
0.0
230
1.0
 70
     8
 71
     3
 72
    12
 73
     8
 74
     0
 42
0.0000000001
 43
0.0000000001
 40
0.0
 40
0.0
 40
0.0
 40
0.0
 40
0.2693781565210258
 40
0.5307522059450555
 40
0.7746299930178201
 40
0.8920767639105941
 40
1.0
 40
1.0
 40
1.0
 40
1.0
 10
4881.15722476455
 20
-1032.221647867545
 30
0.000000000000003
 10
4881.353014435427
 20
-1032.198971738244
 30
0.000000000000003
 10
4881.738776224983
 20
-1032.154293261706
 30
0.000000000000003
 10
4882.231399411544
 20
-1031.810374635146
 30
0.000000000000003
 10
4882.510089759217
 20
-1031.388511200484
 30
0.000000000000003
 10
4882.624231211867
 20
-1031.008199982801
 30
0.000000000000003
 10
4882.634686717063
 20
-1030.814435922008
 30
0.000000000000003
 10
4882.63969355881
 20
-1030.721647867545
 30
0.000000000000003
  0
SPLINE
  5
FCF
330
1F
100
AcDbEntity
  8
Hewi
100
AcDbSpline
210
0.0
220
0.0
230
1.0
 70
    24
 71
     2
 72
     6
 73
     3
 74
     0
 42
0.0000000001
 43
0.0000000001
 40
0.0
 40
0.0
 40
0.0
 40
1.0
 40
1.0
 40
1.0
 10
4882.63969355881
 20
-1030.721647867545
 30
0.000000000000003
 10
4882.639795092783
 20
-1030.721647867545
 30
0.000000000000003
 10
4882.639850864148
 20
-1030.721647867545
 30
0.000000000000003
  0
LINE
  5
FD0
330
1F
100
AcDbEntity
  8
Hewi
100
AcDbLine
 10
4818.033751494262
 20
-1032.221648551471
 30
0.0000000000000045
 11
4881.157226254535
 21
-1032.221648551471
 31
0.0000000000000045
  0
LINE
  5
FD1
330
1F
100
AcDbEntity
  8
Hewi
100
AcDbLine
 10
4816.812121494257
 20
-692.1139037108035
 30
0.000000000000006
 11
4879.935596254531
 21
-692.1139037108035
 31
0.000000000000006
  0
SPLINE
  5
FF6
330
1F
100
AcDbEntity
  8
0
 62
   253
100
AcDbSpline
210
0.0
220
0.0
230
1.0
 70
     8
 71
     3
 72
    21
 73
    17
 74
    15
 42
0.0000000001
 43
0.0000000001
 44
0.0000000001
 40
0.0
 40
0.0
 40
0.0
 40
0.0
 40
33.10348817986254
 40
66.20697635972508
 40
99.31046453958762
 40
132.4139527194501
 40
165.5174408993129
 40
198.6209290791757
 40
231.7244172590383
 40
264.8279054389009
 40
297.9313936187634
 40
331.034881798626
 40
364.1383699784885
 40
397.2418581583511
 40
430.3453463382139
 40
463.4488345180766
 40
463.4488345180766
 40
463.4488345180766
 40
463.4488345180766
 10
3538.503091014808
 20
-663.7993021326995
 30
0.0
 10
3548.404677681899
 20
-673.2375026587342
 30
0.0
 10
3568.207851016081
 20
-692.1139037108035
 30
0.0
 10
3522.584360131268
 20
-720.4285052889074
 30
0.0
 10
3572.473254547696
 20
-748.7431068670116
 30
0.0
 10
3521.441476888348
 20
-777.0577084451158
 30
0.0
 10
3572.779383987765
 20
-805.3723100232193
 30
0.0
 10
3521.359842370995
 20
-833.6869116013231
 30
0.0
 10
3572.799792617103
 20
-862.0015131794277
 30
0.0
 10
3521.359842370996
 20
-890.3161147575316
 30
0.0
 10
3572.779383987765
 20
-918.6307163356355
 30
0.0
 10
3521.441476888347
 20
-946.9453179137392
 30
0.0
 10
3572.473254547698
 20
-975.2599194918438
 30
0.0
 10
3522.584360131268
 20
-1003.574521069947
 30
0.0
 10
3568.207851016082
 20
-1031.889122648051
 30
0.0
 10
3548.4046776819
 20
-1050.76552370012
 30
0.0
 10
3538.503091014808
 20
-1060.203724226155
 30
0.0
 11
3538.503091014808
 21
-663.7993021326995
 31
0.0
 11
3555.653142535067
 21
-692.1139037108035
 31
0.0
 11
3538.503091014808
 21
-720.4285052889075
 31
0.0
 11
3555.653142535067
 21
-748.7431068670115
 31
0.0
 11
3538.503091014808
 21
-777.0577084451155
 31
0.0
 11
3555.653142535067
 21
-805.3723100232195
 31
0.0
 11
3538.503091014808
 21
-833.6869116013234
 31
0.0
 11
3555.653142535067
 21
-862.0015131794275
 31
0.0
 11
3538.503091014808
 21
-890.3161147575316
 31
0.0
 11
3555.653142535067
 21
-918.6307163356355
 31
0.0
 11
3538.503091014808
 21
-946.9453179137394
 31
0.0
 11
3555.653142535067
 21
-975.2599194918435
 31
0.0
 11
3538.503091014808
 21
-1003.574521069947
 31
0.0
 11
3555.653142535067
 21
-1031.889122648051
 31
0.0
 11
3538.503091014808
 21
-1060.203724226155
 31
0.0
  0
SPLINE
  5
FF8
330
1F
100
AcDbEntity
  8
0
 62
   253
100
AcDbSpline
210
0.0
220
0.0
230
1.0
 70
     8
 71
     3
 72
    21
 73
    17
 74
    15
 42
0.0000000001
 43
0.0000000001
 44
0.0000000001
 40
0.0
 40
0.0
 40
0.0
 40
0.0
 40
33.10348817986254
 40
66.20697635972508
 40
99.31046453958762
 40
132.4139527194501
 40
165.5174408993129
 40
198.6209290791757
 40
231.7244172590383
 40
264.8279054389009
 40
297.9313936187634
 40
331.034881798626
 40
364.1383699784885
 40
397.2418581583511
 40
430.3453463382139
 40
463.4488345180766
 40
463.4488345180766
 40
463.4488345180766
 40
463.4488345180766
 10
3656.187794415418
 20
-663.7993021326995
 30
0.0
 10
3646.286207748327
 20
-673.2375026587342
 30
0.0
 10
3626.483034414145
 20
-692.1139037108035
 30
0.0
 10
3672.106525298958
 20
-720.4285052889074
 30
0.0
 10
3622.217630882529
 20
-748.7431068670116
 30
0.0
 10
3673.249408541878
 20
-777.0577084451158
 30
0.0
 10
3621.911501442461
 20
-805.3723100232193
 30
0.0
 10
3673.33104305923
 20
-833.6869116013231
 30
0.0
 10
3621.891092813123
 20
-862.0015131794277
 30
0.0
 10
3673.33104305923
 20
-890.3161147575316
 30
0.0
 10
3621.911501442461
 20
-918.6307163356355
 30
0.0
 10
3673.249408541879
 20
-946.9453179137392
 30
0.0
 10
3622.217630882528
 20
-975.2599194918438
 30
0.0
 10
3672.106525298958
 20
-1003.574521069947
 30
0.0
 10
3626.483034414144
 20
-1031.889122648051
 30
0.0
 10
3646.286207748327
 20
-1050.76552370012
 30
0.0
 10
3656.187794415418
 20
-1060.203724226155
 30
0.0
 11
3656.187794415418
 21
-663.7993021326995
 31
0.0
 11
3639.037742895159
 21
-692.1139037108035
 31
0.0
 11
3656.187794415418
 21
-720.4285052889075
 31
0.0
 11
3639.037742895159
 21
-748.7431068670115
 31
0.0
 11
3656.187794415418
 21
-777.0577084451155
 31
0.0
 11
3639.037742895158
 21
-805.3723100232195
 31
0.0
 11
3656.187794415418
 21
-833.6869116013234
 31
0.0
 11
3639.037742895159
 21
-862.0015131794275
 31
0.0
 11
3656.187794415418
 21
-890.3161147575316
 31
0.0
 11
3639.037742895159
 21
-918.6307163356355
 31
0.0
 11
3656.187794415418
 21
-946.9453179137394
 31
0.0
 11
3639.037742895159
 21
-975.2599194918435
 31
0.0
 11
3656.187794415418
 21
-1003.574521069947
 31
0.0
 11
3639.037742895158
 21
-1031.889122648051
 31
0.0
 11
3656.187794415418
 21
-1060.203724226155
 31
0.0
  0
SPLINE
  5
FF9
330
1F
100
AcDbEntity
  8
0
 62
   253
100
AcDbSpline
210
0.0
220
0.0
230
1.0
 70
     8
 71
     3
 72
    21
 73
    17
 74
    15
 42
0.0000000001
 43
0.0000000001
 44
0.0000000001
 40
0.0
 40
0.0
 40
0.0
 40
0.0
 40
33.10348817986254
 40
66.20697635972508
 40
99.31046453958762
 40
132.4139527194501
 40
165.5174408993129
 40
198.6209290791757
 40
231.7244172590383
 40
264.8279054389009
 40
297.9313936187634
 40
331.034881798626
 40
364.1383699784885
 40
397.2418581583511
 40
430.3453463382139
 40
463.4488345180766
 40
463.4488345180766
 40
463.4488345180766
 40
463.4488345180766
 10
4696.018538087241
 20
-663.7993021326995
 30
0.0
 10
4705.920124754332
 20
-673.2375026587342
 30
0.0
 10
4725.723298088515
 20
-692.1139037108035
 30
0.0
 10
4680.099807203701
 20
-720.4285052889074
 30
0.0
 10
4729.98870162013
 20
-748.7431068670116
 30
0.0
 10
4678.956923960781
 20
-777.0577084451158
 30
0.0
 10
4730.294831060199
 20
-805.3723100232193
 30
0.0
 10
4678.875289443429
 20
-833.6869116013231
 30
0.0
 10
4730.315239689536
 20
-862.0015131794277
 30
0.0
 10
4678.875289443429
 20
-890.3161147575316
 30
0.0
 10
4730.294831060199
 20
-918.6307163356355
 30
0.0
 10
4678.956923960781
 20
-946.9453179137392
 30
0.0
 10
4729.988701620131
 20
-975.2599194918438
 30
0.0
 10
4680.099807203701
 20
-1003.574521069947
 30
0.0
 10
4725.723298088515
 20
-1031.889122648051
 30
0.0
 10
4705.920124754333
 20
-1050.76552370012
 30
0.0
 10
4696.018538087241
 20
-1060.203724226155
 30
0.0
 11
4696.018538087241
 21
-663.7993021326995
 31
0.0
 11
4713.168589607501
 21
-692.1139037108035
 31
0.0
 11
4696.018538087241
 21
-720.4285052889075
 31
0.0
 11
4713.168589607501
 21
-748.7431068670115
 31
0.0
 11
4696.018538087241
 21
-777.0577084451155
 31
0.0
 11
4713.168589607501
 21
-805.3723100232195
 31
0.0
 11
4696.018538087241
 21
-833.6869116013234
 31
0.0
 11
4713.168589607501
 21
-862.0015131794275
 31
0.0
 11
4696.018538087241
 21
-890.3161147575316
 31
0.0
 11
4713.168589607501
 21
-918.6307163356355
 31
0.0
 11
4696.018538087241
 21
-946.9453179137394
 31
0.0
 11
4713.168589607501
 21
-975.2599194918435
 31
0.0
 11
4696.018538087241
 21
-1003.574521069947
 31
0.0
 11
4713.168589607501
 21
-1031.889122648051
 31
0.0
 11
4696.018538087241
 21
-1060.203724226155
 31
0.0
  0
SPLINE
  5
FFA
330
1F
100
AcDbEntity
  8
0
 62
   253
100
AcDbSpline
210
0.0
220
0.0
230
1.0
 70
     8
 71
     3
 72
    21
 73
    17
 74
    15
 42
0.0000000001
 43
0.0000000001
 44
0.0000000001
 40
0.0
 40
0.0
 40
0.0
 40
0.0
 40
33.10348817986254
 40
66.20697635972508
 40
99.31046453958762
 40
132.4139527194501
 40
165.5174408993129
 40
198.6209290791757
 40
231.7244172590383
 40
264.8279054389009
 40
297.9313936187634
 40
331.034881798626
 40
364.1383699784885
 40
397.2418581583511
 40
430.3453463382139
 40
463.4488345180766
 40
463.4488345180766
 40
463.4488345180766
 40
463.4488345180766
 10
4813.703241487851
 20
-663.7993021326995
 30
0.0
 10
4803.80165482076
 20
-673.2375026587342
 30
0.0
 10
4783.998481486577
 20
-692.1139037108035
 30
0.0
 10
4829.621972371391
 20
-720.4285052889074
 30
0.0
 10
4779.733077954963
 20
-748.7431068670116
 30
0.0
 10
4830.764855614314
 20
-777.0577084451158
 30
0.0
 10
4779.426948514894
 20
-805.3723100232193
 30
0.0
 10
4830.846490131665
 20
-833.6869116013231
 30
0.0
 10
4779.406539885556
 20
-862.0015131794277
 30
0.0
 10
4830.846490131666
 20
-890.3161147575316
 30
0.0
 10
4779.426948514894
 20
-918.6307163356355
 30
0.0
 10
4830.764855614312
 20
-946.9453179137392
 30
0.0
 10
4779.733077954964
 20
-975.2599194918438
 30
0.0
 10
4829.621972371392
 20
-1003.574521069947
 30
0.0
 10
4783.998481486576
 20
-1031.889122648051
 30
0.0
 10
4803.80165482076
 20
-1050.76552370012
 30
0.0
 10
4813.703241487851
 20
-1060.203724226155
 30
0.0
 11
4813.703241487851
 21
-663.7993021326995
 31
0.0
 11
4796.553189967592
 21
-692.1139037108035
 31
0.0
 11
4813.703241487851
 21
-720.4285052889075
 31
0.0
 11
4796.553189967592
 21
-748.7431068670115
 31
0.0
 11
4813.703241487851
 21
-777.0577084451155
 31
0.0
 11
4796.553189967592
 21
-805.3723100232195
 31
0.0
 11
4813.703241487851
 21
-833.6869116013234
 31
0.0
 11
4796.553189967592
 21
-862.0015131794275
 31
0.0
 11
4813.703241487851
 21
-890.3161147575316
 31
0.0
 11
4796.553189967592
 21
-918.6307163356355
 31
0.0
 11
4813.703241487851
 21
-946.9453179137394
 31
0.0
 11
4796.553189967592
 21
-975.2599194918435
 31
0.0
 11
4813.703241487851
 21
-1003.574521069947
 31
0.0
 11
4796.553189967592
 21
-1031.889122648051
 31
0.0
 11
4813.703241487851
 21
-1060.203724226155
 31
0.0
  0
DIMENSION
  5
FFC
330
1F
100
AcDbEntity
  8
0
100
AcDbDimension
  2
*D7
 10
4177.65745125453
 20
-491.8947421431089
 30
-0.000000000000006
 11
3825.166331254532
 21
-470.6621364132317
 31
-0.000000000000006
 70
    32
  1
max. 1400
 71
     5
 42
704.9822399999975
  3
ISO-25
100
AcDbAlignedDimension
 13
3472.675211254533
 23
-564.2548811797346
 33
0.0
 14
4177.65745125453
 24
-527.1373116614218
 34
-0.000000000000012
100
AcDbRotatedDimension
1001
ACAD
1000
DSTYLE
1002
{
1070
    41
1040
11.0
1070
   140
1040
22.0
1070
   147
1040
10.0
1070
   173
1070
     1
1070
   340
1005
93E
1070
   343
1005
F55
1070
   344
1005
F55
1002
}
  0
DIMENSION
  5
1016
330
1F
100
AcDbEntity
  8
0
100
AcDbDimension
  2
*D8
 10
4882.63984625453
 20
-491.8947421431089
 30
0.0
 11
4530.148648754529
 21
-470.6621364132317
 31
0.0
 70
    32
  1
max. 1400
 71
     5
 42
704.982395
  3
ISO-25
100
AcDbAlignedDimension
 13
4177.65745125453
 23
-527.1373116614218
 33
-0.000000000000012
 14
4882.63984625453
 24
-595.4813192730848
 34
0.000000000000006
100
AcDbRotatedDimension
1001
ACAD
1000
DSTYLE
1002
{
1070
    41
1040
11.0
1070
   140
1040
22.0
1070
   147
1040
10.0
1070
   173
1070
     1
1070
   340
1005
93E
1070
   343
1005
F55
1070
   344
1005
F55
1002
}
  0
DIMENSION
  5
1030
330
1F
100
AcDbEntity
  8
0
100
AcDbDimension
  2
*D9
 10
4882.639691254529
 20
-442.6898475982029
 30
0.0
 11
4177.657528754532
 21
-421.4572418683257
 31
0.0
 70
    32
  1
max. 2800
 71
     5
 42
1409.964324999994
  3
ISO-25
100
AcDbAlignedDimension
 13
3472.675366254535
 23
-635.1678174356289
 33
0.000000000000006
 14
4882.639691254529
 24
-635.1678174356289
 34
0.000000000000006
100
AcDbRotatedDimension
1001
ACAD
1000
DSTYLE
1002
{
1070
    41
1040
11.0
1070
   140
1040
22.0
1070
   147
1040
10.0
1070
   173
1070
     1
1070
   340
1005
93E
1070
   343
1005
F55
1070
   344
1005
F55
1002
}
  0
LINE
  5
11B9
330
1F
100
AcDbEntity
  8
Hewi
100
AcDbLine
 10
3472.675521254537
 20
-1408.067788927919
 30
0.000000000000006
 11
3472.675521254537
 21
-1436.160022870875
 31
0.000000000000006
  0
SPLINE
  5
11BC
330
1F
100
AcDbEntity
  8
Hewi
100
AcDbSpline
210
0.0
220
0.0
230
1.0
 70
     8
 71
     3
 72
    14
 73
    10
 74
     0
 42
0.0000000001
 43
0.0000000001
 40
0.0
 40
0.0
 40
0.0
 40
0.0
 40
0.2416665397794627
 40
0.2416665397794627
 40
0.4944443598529752
 40
0.4944443598529752
 40
0.7472221799264877
 40
0.7472221799264877
 40
1.0
 40
1.0
 40
1.0
 40
1.0
 10
3472.674440511876
 20
-1436.113905899048
 30
0.000000000000006
 10
3472.674465499661
 20
-1436.240438495686
 30
0.000000000000006
 10
3472.698740193798
 20
-1436.366935228314
 30
0.000000000000006
 10
3472.794673963728
 20
-1436.607395121794
 30
0.000000000000006
 10
3472.868420019007
 20
-1436.720413517494
 30
0.000000000000006
 10
3473.053956497697
 20
-1436.909216809883
 30
0.000000000000006
 10
3473.165670634032
 20
-1436.984924076296
 30
0.000000000000006
 10
3473.409784857718
 20
-1437.087289665894
 30
0.000000000000006
 10
3473.54208457257
 20
-1437.113905899397
 30
0.000000000000006
 10
3473.674438707519
 20
-1437.113905899397
 30
0.000000000000006
  0
SPLINE
  5
11BF
330
1F
100
AcDbEntity
  8
Hewi
100
AcDbSpline
210
0.0
220
0.0
230
1.0
 70
     8
 71
     3
 72
    14
 73
    10
 74
     0
 42
0.0000000001
 43
0.0000000001
 40
0.0
 40
0.0
 40
0.0
 40
0.0
 40
0.2416665397794627
 40
0.2416665397794627
 40
0.4944443598529752
 40
0.4944443598529752
 40
0.7472221799264877
 40
0.7472221799264877
 40
1.0
 40
1.0
 40
1.0
 40
1.0
 10
3472.674440511876
 20
-1408.113905899746
 30
0.000000000000006
 10
3472.674465499661
 20
-1407.987373303108
 30
0.000000000000006
 10
3472.698740193798
 20
-1407.860876570481
 30
0.000000000000006
 10
3472.794673963728
 20
-1407.620416677
 30
0.000000000000006
 10
3472.868420019007
 20
-1407.507398281301
 30
0.000000000000006
 10
3473.053956497697
 20
-1407.318594988912
 30
0.000000000000006
 10
3473.165670634032
 20
-1407.242887722499
 30
0.000000000000006
 10
3473.409784857718
 20
-1407.1405221329
 30
0.000000000000006
 10
3473.54208457257
 20
-1407.113905899397
 30
0.000000000000006
 10
3473.674438707519
 20
-1407.113905899397
 30
0.000000000000006
  0
LINE
  5
11C1
330
1F
100
AcDbEntity
  8
Hewi
100
AcDbLine
 10
3536.797913467792
 20
-1407.113905899397
 30
0.000000000000006
 11
3473.674438707519
 21
-1407.113905899397
 31
0.000000000000006
  0
LINE
  5
11C2
330
1F
100
AcDbEntity
  8
Hewi
100
AcDbLine
 10
3536.797913467792
 20
-1437.113905899397
 30
0.000000000000006
 11
3473.674438707519
 21
-1437.113905899397
 31
0.000000000000006
  0
LINE
  5
11C4
330
1F
100
AcDbEntity
  8
Hewi
100
AcDbLine
 10
4405.940550499629
 20
-1437.113903710804
 30
0.000000000000006
 11
4692.709861037751
 21
-1437.113903710804
 31
0.000000000000006
  0
LINE
  5
11C5
330
1F
100
AcDbEntity
  8
Hewi
100
AcDbLine
 10
4692.709861037752
 20
-1407.113903710803
 30
0.000000000000006
 11
4405.693855499627
 21
-1407.113903710803
 31
0.000000000000006
  0
LINE
  5
11C6
330
1F
100
AcDbEntity
  8
Hewi
100
AcDbLine
 10
4882.639691254529
 20
-1408.067788927919
 30
0.000000000000006
 11
4882.639691254529
 21
-1436.160022870875
 31
0.000000000000006
  0
SPLINE
  5
11C7
330
1F
100
AcDbEntity
  8
Hewi
100
AcDbSpline
210
0.0
220
0.0
230
1.0
 70
     8
 71
     3
 72
    14
 73
    10
 74
     0
 42
0.0000000001
 43
0.0000000001
 40
0.0
 40
0.0
 40
0.0
 40
0.0
 40
0.2416665397794627
 40
0.2416665397794627
 40
0.4944443598529752
 40
0.4944443598529752
 40
0.7472221799264877
 40
0.7472221799264877
 40
1.0
 40
1.0
 40
1.0
 40
1.0
 10
4882.64077199719
 20
-1436.113905899048
 30
0.000000000000006
 10
4882.640747009405
 20
-1436.240438495686
 30
0.000000000000006
 10
4882.616472315268
 20
-1436.366935228314
 30
0.000000000000006
 10
4882.520538545337
 20
-1436.607395121794
 30
0.000000000000006
 10
4882.44679249006
 20
-1436.720413517494
 30
0.000000000000006
 10
4882.26125601137
 20
-1436.909216809883
 30
0.000000000000006
 10
4882.149541875034
 20
-1436.984924076296
 30
0.000000000000006
 10
4881.905427651348
 20
-1437.087289665894
 30
0.000000000000006
 10
4881.773127936496
 20
-1437.113905899397
 30
0.000000000000006
 10
4881.640773801548
 20
-1437.113905899397
 30
0.000000000000006
  0
SPLINE
  5
11C8
330
1F
100
AcDbEntity
  8
Hewi
100
AcDbSpline
210
0.0
220
0.0
230
1.0
 70
     8
 71
     3
 72
    14
 73
    10
 74
     0
 42
0.0000000001
 43
0.0000000001
 40
0.0
 40
0.0
 40
0.0
 40
0.0
 40
0.2416665397794627
 40
0.2416665397794627
 40
0.4944443598529752
 40
0.4944443598529752
 40
0.7472221799264877
 40
0.7472221799264877
 40
1.0
 40
1.0
 40
1.0
 40
1.0
 10
4882.64077199719
 20
-1408.113905899746
 30
0.000000000000006
 10
4882.640747009405
 20
-1407.987373303108
 30
0.000000000000006
 10
4882.616472315268
 20
-1407.860876570481
 30
0.000000000000006
 10
4882.520538545337
 20
-1407.620416677
 30
0.000000000000006
 10
4882.44679249006
 20
-1407.507398281301
 30
0.000000000000006
 10
4882.26125601137
 20
-1407.318594988912
 30
0.000000000000006
 10
4882.149541875034
 20
-1407.242887722499
 30
0.000000000000006
 10
4881.905427651348
 20
-1407.1405221329
 30
0.000000000000006
 10
4881.773127936496
 20
-1407.113905899397
 30
0.000000000000006
 10
4881.640773801548
 20
-1407.113905899397
 30
0.000000000000006
  0
LINE
  5
11C9
330
1F
100
AcDbEntity
  8
Hewi
100
AcDbLine
 10
4818.517299041274
 20
-1407.113905899397
 30
0.000000000000006
 11
4881.640773801548
 21
-1407.113905899397
 31
0.000000000000006
  0
LINE
  5
11CA
330
1F
100
AcDbEntity
  8
Hewi
100
AcDbLine
 10
4818.517299041274
 20
-1437.113905899397
 30
0.000000000000006
 11
4881.640773801548
 21
-1437.113905899397
 31
0.000000000000006
  0
SPLINE
  5
11CB
330
1F
100
AcDbEntity
  8
0
 62
   253
100
AcDbSpline
210
0.0
220
0.0
230
1.0
 70
     8
 71
     3
 72
    12
 73
     8
 74
     0
 42
0.0000000001
 43
0.0000000001
 40
313.1133298378638
 40
313.1133298378638
 40
313.1133298378638
 40
313.1133298378638
 40
331.034881798626
 40
364.1383699784885
 40
397.2418581583511
 40
430.3453463382139
 40
463.4488345180766
 40
463.4488345180766
 40
463.4488345180766
 40
463.4488345180766
 10
3548.16309498953
 20
-1350.216975317454
 30
0.0
 10
3543.558954814955
 20
-1355.326624192654
 30
0.0
 10
3529.242882280654
 20
-1369.874473593889
 30
0.0
 10
3572.473254547698
 20
-1393.860523521158
 30
0.0
 10
3522.584360131268
 20
-1422.175125099261
 30
0.0
 10
3568.207851016082
 20
-1450.489726677365
 30
0.0
 10
3548.4046776819
 20
-1469.366127729435
 30
0.0
 10
3538.503091014808
 20
-1478.804328255469
 30
0.0
  0
SPLINE
  5
11CC
330
1F
100
AcDbEntity
  8
0
 62
   253
100
AcDbSpline
210
0.0
220
0.0
230
1.0
 70
     8
 71
     3
 72
    12
 73
     8
 74
     0
 42
0.0000000001
 43
0.0000000001
 40
313.1133298378639
 40
313.1133298378639
 40
313.1133298378639
 40
313.1133298378639
 40
331.034881798626
 40
364.1383699784885
 40
397.2418581583511
 40
430.3453463382139
 40
463.4488345180766
 40
463.4488345180766
 40
463.4488345180766
 40
463.4488345180766
 10
3646.527790440694
 20
-1350.216975317454
 30
0.0
 10
3651.13193061527
 20
-1355.326624192654
 30
0.0
 10
3665.448003149573
 20
-1369.874473593888
 30
0.0
 10
3622.217630882531
 20
-1393.860523521158
 30
0.0
 10
3672.106525298958
 20
-1422.175125099261
 30
0.0
 10
3626.483034414143
 20
-1450.489726677365
 30
0.0
 10
3646.286207748326
 20
-1469.366127729435
 30
0.0
 10
3656.187794415418
 20
-1478.804328255469
 30
0.0
  0
SPLINE
  5
11CE
330
1F
100
AcDbEntity
  8
0
 62
   253
100
AcDbSpline
210
0.0
220
0.0
230
1.0
 70
     8
 71
     3
 72
    12
 73
     8
 74
     0
 42
0.0000000001
 43
0.0000000001
 40
313.1133298378638
 40
313.1133298378638
 40
313.1133298378638
 40
313.1133298378638
 40
331.034881798626
 40
364.1383699784885
 40
397.2418581583511
 40
430.3453463382139
 40
463.4488345180766
 40
463.4488345180766
 40
463.4488345180766
 40
463.4488345180766
 10
4807.153005964532
 20
-1350.226805724433
 30
0.0
 10
4811.757066344533
 20
-1355.336526498825
 30
0.0
 10
4826.072911692933
 20
-1369.884599462936
 30
0.0
 10
4782.84216485686
 20
-1393.869974287108
 30
0.0
 10
4832.730617096775
 20
-1422.185354943675
 30
0.0
 10
4787.10668404709
 20
-1450.4992440464
 30
0.0
 10
4806.909562598569
 20
-1469.375954349247
 30
0.0
 10
4816.811001874309
 20
-1478.814309500671
 30
0.0
  0
SPLINE
  5
11CF
330
1F
100
AcDbEntity
  8
0
 62
   253
100
AcDbSpline
210
0.0
220
0.0
230
1.0
 70
     8
 71
     3
 72
    12
 73
     8
 74
     0
 42
0.0000000001
 43
0.0000000001
 40
313.1133298378639
 40
313.1133298378639
 40
313.1133298378639
 40
313.1133298378639
 40
331.034881798626
 40
364.1383699784885
 40
397.2418581583511
 40
430.3453463382139
 40
463.4488345180766
 40
463.4488345180766
 40
463.4488345180766
 40
463.4488345180766
 10
4708.788310525362
 20
-1350.225269627947
 30
0.0
 10
4704.184090557336
 20
-1355.334846602707
 30
0.0
 10
4689.867790840622
 20
-1369.882472437518
 30
0.0
 10
4733.097788528094
 20
-1393.869197462036
 30
0.0
 10
4683.208451947315
 20
-1422.183019954771
 30
0.0
 10
4728.831500656135
 20
-1450.498334001348
 30
0.0
 10
4709.028032544078
 20
-1469.374425798037
 30
0.0
 10
4699.126298488049
 20
-1478.812471696381
 30
0.0
  0
CIRCLE
  5
11D3
330
1F
100
AcDbEntity
  8
Hewi
100
AcDbCircle
 10
4037.657606254533
 20
-1447.113903710804
 30
0.000000000000006
 40
10.0
  0
CIRCLE
  5
11D4
102
{ACAD_REACTORS
330
1287
102
}
330
1F
100
AcDbEntity
  8
Hewi
100
AcDbCircle
 10
4317.657606254533
 20
-1447.113903710804
 30
0.000000000000006
 40
10.0
  0
LINE
  5
11D5
330
1F
100
AcDbEntity
  8
0
100
AcDbLine
 10
3475.765565283896
 20
-2207.113903710804
 30
0.000000000000006
 11
4905.994091089798
 21
-2207.113903710804
 31
0.000000000000006
  0
CIRCLE
  5
11DA
330
1F
100
AcDbEntity
  8
0
100
AcDbCircle
 10
4177.657606254533
 20
-1657.113903710803
 30
0.0
 40
25.0
  0
CIRCLE
  5
11DC
330
1F
100
AcDbEntity
  8
0
100
AcDbCircle
 10
4277.657606254533
 20
-1657.113903710803
 30
0.0
 40
15.0
  0
CIRCLE
  5
11DD
330
1F
100
AcDbEntity
  8
0
100
AcDbCircle
 10
4077.657606254533
 20
-1657.113903710803
 30
0.0
 40
15.0
  0
DIMENSION
  5
11DE
330
1F
100
AcDbEntity
  8
0
100
AcDbDimension
  2
*D13
 10
4317.657606254533
 20
-1349.868422616394
 30
0.0
 11
4177.657606254533
 21
-1328.635816886517
 31
0.0
 70
    32
 71
     5
 42
280.0
  3
ISO-25
100
AcDbAlignedDimension
 13
4037.657606254533
 23
-1381.642554467281
 33
0.0
 14
4317.657606254533
 24
-1381.642554467281
 34
0.0
100
AcDbRotatedDimension
1001
ACAD
1000
DSTYLE
1002
{
1070
    41
1040
11.0
1070
   140
1040
22.0
1070
   147
1040
10.0
1070
   173
1070
     1
1070
   340
1005
93E
1070
   343
1005
F55
1070
   344
1005
F55
1002
}
  0
DIMENSION
  5
11F8
330
1F
100
AcDbEntity
  8
0
100
AcDbDimension
  2
*D14
 10
4077.657606254533
 20
-1775.164504395281
 30
0.0
 11
4177.657606254533
 21
-1753.924395254762
 31
0.0
 70
    32
  1
200 - 300 *
 71
     5
 42
200.0
  3
ISO-25
100
AcDbAlignedDimension
 13
4277.657606254533
 23
-1720.657274518422
 33
0.0
 14
4077.657606254533
 24
-1720.657274518422
 34
0.0
100
AcDbRotatedDimension
1001
ACAD
1000
DSTYLE
1002
{
1070
    41
1040
11.0
1070
   140
1040
22.0
1070
   147
1040
10.0
1070
   173
1070
     1
1070
   340
1005
93E
1070
   343
1005
F55
1070
   344
1005
F55
1002
}
  0
DIMENSION
  5
1212
330
1F
100
AcDbEntity
  8
0
100
AcDbDimension
  2
*D15
 10
4424.256052880974
 20
-2207.113903710804
 30
0.0
 11
4403.015943740457
 21
-1932.113903710803
 31
0.0
 70
    32
  1
550 - 630 *
 71
     5
 42
550.0
  3
ISO-25
100
AcDbAlignedDimension
 13
4361.282844386813
 23
-1657.113903710803
 33
0.000000000000006
 14
4361.282844386813
 24
-2207.113903710804
 34
0.000000000000006
 50
90.0
100
AcDbRotatedDimension
1001
ACAD
1000
DSTYLE
1002
{
1070
    41
1040
11.0
1070
   140
1040
22.0
1070
   147
1040
10.0
1070
   173
1070
     1
1070
   340
1005
93E
1070
   343
1005
F55
1070
   344
1005
F55
1002
}
  0
MTEXT
  5
1275
102
{ACAD_XDICTIONARY
360
136B
102
}
330
1F
100
AcDbEntity
  8
0
100
AcDbMText
 10
3742.90217226388
 20
-2260.284186609349
 30
0.0
 40
25.0
 41
1111.778830343053
 71
     1
 72
     5
  1
{\fArial|b0|i0|c0|p34;* Richwert, abh\U+00E4ngig vom Siphontyp}
 73
     1
 44
1.0
1001
ACAD
1000
MTEXTBEGIN
1070
    73
1070
     1
1070
    44
1040
1.0
1070
    74
1070
     0
1000
MTEXTEND
  0
DIMENSION
  5
1276
102
{ACAD_XDICTIONARY
360
1280
102
}
102
{ACAD_REACTORS
330
1287
102
}
330
1F
100
AcDbEntity
  8
0
100
AcDbDimension
  2
*D16
 10
4310.044583007266
 20
-1440.629932933835
 30
0.0000000000000064
 11
4435.931002819594
 21
-1547.846716696241
 31
0.0
 70
   163
 71
     5
 42
20.0
  3
ISO-25
100
AcDbDiametricDimension
 15
4325.270629501798
 25
-1453.597874487772
 35
0.0000000000000056
 40
0.0
1001
ACAD
1000
DSTYLE
1002
{
1070
    41
1040
8.0
1070
   140
1040
22.0
1070
   147
1040
10.0
1070
   173
1070
     1
1070
   340
1005
93E
1070
   343
1005
F55
1070
   344
1005
F55
1002
}
  0
DIMENSION
  5
12C2
102
{ACAD_XDICTIONARY
360
12CC
102
}
102
{ACAD_REACTORS
330
12D3
102
}
330
1F
100
AcDbEntity
  8
0
100
AcDbDimension
  2
*D17
 10
4160.499851931629
 20
-775.5579517062433
 30
0.0000000000000076
 11
4243.270966239229
 21
-736.6597560394913
 31
0.0
 70
    35
 71
     5
 42
34.99999999999864
  3
ISO-25
100
AcDbDiametricDimension
 15
4194.815360577435
 25
-768.6698557153643
 35
0.0000000000000044
 40
0.0
1001
ACAD
1000
DSTYLE
1002
{
1070
    41
1040
8.0
1070
   140
1040
22.0
1070
   147
1040
10.0
1070
   173
1070
     1
1070
   340
1005
93E
1070
   343
1005
F55
1070
   344
1005
F55
1002
}
  0
CIRCLE
  5
1326
102
{ACAD_REACTORS
330
133A
102
}
330
1F
100
AcDbEntity
  8
0
100
AcDbCircle
 10
4177.657606254533
 20
-952.1139037108037
 30
0.000000000000006
 40
23.0
  0
DIMENSION
  5
1327
102
{ACAD_XDICTIONARY
360
1332
102
}
102
{ACAD_REACTORS
330
133A
102
}
330
1F
100
AcDbEntity
  8
0
100
AcDbDimension
  2
*D19
 10
4155.532647436028
 20
-958.3977080743633
 30
0.0000000000000075
 11
4264.518834324868
 21
-927.4440741102203
 31
0.0
 70
   163
 71
     5
 42
46.00000000000181
  3
ISO-25
100
AcDbDiametricDimension
 15
4199.782565073038
 25
-945.830099347245
 35
0.0000000000000045
 40
0.0
1001
ACAD
1000
DSTYLE
1002
{
1070
    41
1040
8.0
1070
   140
1040
22.0
1070
   147
1040
10.0
1070
   173
1070
     1
1070
   340
1005
93E
1070
   343
1005
F55
1070
   344
1005
F55
1002
}
  0
VIEWPORT
  5
53
102
{ACAD_XDICTIONARY
360
1367
102
}
330
4F
100
AcDbEntity
 67
     1
  8
0
100
AcDbViewport
 10
8.076080083212762
 20
4.54251820059606
 30
0.0
 40
15.8224662686566
 41
8.435198697599432
 68
     1
 69
     1
 12
8.076080083212762
 22
4.54251820059606
 13
0.0
 23
0.0
 14
0.5
 24
0.5
 15
0.5
 25
0.5
 16
0.0
 26
0.0
 36
1.0
 17
0.0
 27
0.0
 37
0.0
 42
50.0
 43
0.0
 44
0.0
 45
8.435198697599432
 50
0.0
 51
0.0
 72
   100
 90
   557152
  1

281
     0
 71
     1
 74
     0
110
0.0
120
0.0
130
0.0
111
1.0
121
0.0
131
0.0
112
0.0
122
1.0
132
0.0
 79
     0
146
0.0
  0
ENDSEC
  0
SECTION
  2
OBJECTS
  0
DICTIONARY
  5
C
330
0
100
AcDbDictionary
281
     1
  3
ACAD_COLOR
350
82
  3
ACAD_GROUP
350
D
  3
ACAD_LAYOUT
350
1A
  3
ACAD_MATERIAL
350
7E
  3
ACAD_MLEADERSTYLE
350
77
  3
ACAD_MLINESTYLE
350
17
  3
ACAD_PLOTSETTINGS
350
19
  3
ACAD_PLOTSTYLENAME
350
E
  3
ACAD_SCALELIST
350
54
  3
ACAD_TABLESTYLE
350
76
  3
ACAD_VISUALSTYLE
350
2A
  3
AcDbVariableDictionary
350
78
  3
ASE_INDEX_DICTIONARY
350
C86
  3
DWGPROPS
350
1363
  0
DICTIONARY
  5
89
330
2
100
AcDbDictionary
280
     1
281
     1
  3
ACAD_LAYERFILTERS
360
F9B
  3
ACAD_LAYERSTATES
360
8A
  3
ACLYDICTIONARY
360
F9A
  0
DICTIONARY
  5
A5
330
1F
100
AcDbDictionary
280
     1
281
     1
  3
ACAD_SORTENTS
360
A6
  0
DICTIONARY
  5
136B
330
1275
100
AcDbDictionary
280
     1
281
     1
  3
ACAD_MTEXT_RT
360
136C
  0
DICTIONARY
  5
1280
330
1276
100
AcDbDictionary
280
     1
281
     1
  3
ACAD_DIMASSOC
360
1287
  0
DICTIONARY
  5
12CC
330
12C2
100
AcDbDictionary
280
     1
281
     1
  3
ACAD_DIMASSOC
360
12D3
  0
DICTIONARY
  5
1332
330
1327
100
AcDbDictionary
280
     1
281
     1
  3
ACAD_DIMASSOC
360
133A
  0
DICTIONARY
  5
1367
330
53
100
AcDbDictionary
280
     1
281
     1
  3
ACAD_XREC_ROUNDTRIP
360
1368
  0
DICTIONARY
  5
82
102
{ACAD_REACTORS
330
C
102
}
330
C
100
AcDbDictionary
281
     1
  0
DICTIONARY
  5
D
102
{ACAD_REACTORS
330
C
102
}
330
C
100
AcDbDictionary
281
     1
  0
DICTIONARY
  5
1A
102
{ACAD_REACTORS
330
C
102
}
330
C
100
AcDbDictionary
281
     1
  3
LAYOUT1
350
50
  3
Model
350
22
  0
DICTIONARY
  5
7E
102
{ACAD_REACTORS
330
C
102
}
330
C
100
AcDbDictionary
281
     1
  3
ByBlock
350
80
  3
ByLayer
350
7F
  3
Global
350
81
  0
DICTIONARY
  5
77
102
{ACAD_REACTORS
330
C
102
}
330
C
100
AcDbDictionary
281
     1
  0
DICTIONARY
  5
17
102
{ACAD_REACTORS
330
C
102
}
330
C
100
AcDbDictionary
281
     1
  3
Standard
350
18
  0
DICTIONARY
  5
19
102
{ACAD_REACTORS
330
C
102
}
330
C
100
AcDbDictionary
281
     1
  0
ACDBDICTIONARYWDFLT
  5
E
102
{ACAD_REACTORS
330
C
102
}
330
C
100
AcDbDictionary
281
     1
  3
Normal
350
F
100
AcDbDictionaryWithDefault
340
F
  0
DICTIONARY
  5
54
102
{ACAD_REACTORS
330
C
102
}
330
C
100
AcDbDictionary
281
     1
  3
A0
350
55
  3
A1
350
56
  3
A2
350
57
  3
A3
350
58
  3
A4
350
59
  3
A5
350
5A
  3
A6
350
5B
  3
A7
350
5C
  3
A8
350
5D
  3
A9
350
5E
  3
B0
350
5F
  3
B1
350
60
  3
B2
350
61
  3
B3
350
62
  3
B4
350
63
  3
B5
350
64
  3
B6
350
65
  3
B7
350
66
  3
B8
350
67
  3
B9
350
68
  3
C0
350
69
  3
C1
350
6A
  3
C2
350
6B
  3
C3
350
6C
  3
C4
350
6D
  3
C5
350
6E
  3
C6
350
6F
  3
C7
350
70
  3
C8
350
71
  3
C9
350
72
  3
D0
350
73
  3
D1
350
74
  3
D2
350
75
  0
DICTIONARY
  5
76
102
{ACAD_REACTORS
330
C
102
}
330
C
100
AcDbDictionary
281
     1
  3
Standard
350
83
  0
DICTIONARY
  5
2A
102
{ACAD_REACTORS
330
C
102
}
330
C
100
AcDbDictionary
281
     1
  3
2dWireframe
350
2F
  3
3D Hidden
350
31
  3
3dWireframe
350
30
  3
Basic
350
32
  3
Brighten
350
36
  3
ColorChange
350
3A
  3
Conceptual
350
34
  3
Dim
350
35
  3
Facepattern
350
39
  3
Flat
350
2B
  3
FlatWithEdges
350
2C
  3
Gouraud
350
2D
  3
GouraudWithEdges
350
2E
  3
Linepattern
350
38
  3
Realistic
350
33
  3
Thicken
350
37
  0
DICTIONARY
  5
78
102
{ACAD_REACTORS
330
C
102
}
330
C
100
AcDbDictionary
281
     1
  3
CANNOSCALE
350
79
  3
CTABLESTYLE
350
93
  3
DIMASSOC
350
F5
  3
HIDETEXT
350
F4
  3
INDEXCTL
350
F3
  3
SORTENTS
350
F2
  0
DICTIONARY
  5
C86
102
{ACAD_REACTORS
330
C
102
}
330
C
100
AcDbDictionary
281
     1
  3
ASEBlockHierarchyIndexRecord
350
C87
1001
DCO15
1040
1731736389.491
  0
XRECORD
  5
1363
102
{ACAD_REACTORS
330
C
102
}
330
C
100
AcDbXrecord
280
     1
  1
DWGPROPS COOKIE
  2

  3

  4

  6

  7

  8
kaschu
  9

300
=
301
=
302
=
303
=
304
=
305
=
306
=
307
=
308
=
309
=
 40
0.0578860648148148
 41
2454858.689810058
 42
2456342.478959665
  1

 90
        0
  0
DICTIONARY
  5
F9B
102
{ACAD_REACTORS
330
89
102
}
330
89
100
AcDbDictionary
281
     1
  0
DICTIONARY
  5
8A
102
{ACAD_REACTORS
330
89
102
}
330
89
100
AcDbDictionary
281
     1
  0
DICTIONARY
  5
F9A
102
{ACAD_REACTORS
330
89
102
}
330
89
100
AcDbDictionary
281
     1
1001
ACAD
1000
<All
  0
SORTENTSTABLE
  5
A6
102
{ACAD_REACTORS
330
A5
102
}
330
A5
100
AcDbSortentsTable
330
1F
331
FF6
  5
FF6
331
FB5
  5
FB5
331
C59
  5
C5B
331
C18
  5
C1A
331
FA1
  5
FA1
331
C7E
  5
C80
331
C45
  5
C47
331
C04
  5
C06
331
BCB
  5
BCD
331
11CF
  5
11CF
331
FCE
  5
FCE
331
C31
  5
C33
331
BB7
  5
BB7
331
11D3
  5
11D5
331
F1C
  5
F1C
331
11BF
  5
11BF
331
FBE
  5
FBE
331
C62
  5
C64
331
C21
  5
C23
331
BE8
  5
BEA
331
FAA
  5
FAA
331
C4E
  5
C50
331
C0D
  5
C0F
331
BD4
  5
BD6
331
BA7
  5
BA7
331
C77
  5
C79
331
C3E
  5
C40
331
BFD
  5
BFF
331
BC4
  5
BC4
331
11C8
  5
11C8
331
FC7
  5
FC7
331
C2A
  5
C2C
331
C57
  5
C59
331
C16
  5
C18
331
BDD
  5
BDF
331
BF1
  5
BF3
331
FF8
  5
FF8
331
FB7
  5
FB7
331
C5B
  5
C5D
331
C1A
  5
C1C
331
BE1
  5
BE3
331
FA3
  5
FA3
331
C47
  5
C49
331
C06
  5
C08
331
BCD
  5
BCF
331
C33
  5
C35
331
11D5
  5
11D2
331
F1E
  5
F1E
331
C70
  5
C72
331
11C1
  5
11C1
331
FC0
  5
FC0
331
C64
  5
C66
331
C23
  5
C25
331
BEA
  5
BEC
331
FAC
  5
FAC
331
C50
  5
C52
331
C0F
  5
C11
331
BD6
  5
BD8
331
BA9
  5
BA9
331
F3B
  5
F3B
331
1016
  5
1016
331
F27
  5
F27
331
C79
  5
C7B
331
C40
  5
C42
331
BFF
  5
C01
331
11CA
  5
11CA
331
FC9
  5
FC9
331
BDF
  5
BE1
331
C2C
  5
C2E
331
FFA
  5
FFA
331
FB9
  5
FB9
331
C5D
  5
C5F
331
C1C
  5
C1E
331
BE3
  5
BE5
331
FA5
  5
FA5
331
C49
  5
C4B
331
C08
  5
C0A
331
C35
  5
C37
331
F20
  5
F20
331
C72
  5
C74
331
C39
  5
C3B
331
FC2
  5
FC2
331
C66
  5
C68
331
C25
  5
C27
331
BEC
  5
BEE
331
FAE
  5
FAE
331
C52
  5
C54
331
C11
  5
C13
331
BD8
  5
BDA
331
F14
  5
BCA
331
BAB
  5
BAB
331
F29
  5
F29
331
C7B
  5
C7D
331
C42
  5
C44
331
11CC
  5
11CC
331
FCB
  5
FCB
331
C6F
  5
C71
331
C2E
  5
C30
331
BF5
  5
BF7
331
BB4
  5
BB4
331
F19
  5
F19
331
11BC
  5
11BC
331
FFC
  5
FFC
331
FBB
  5
FBB
331
C5F
  5
C61
331
C1E
  5
C20
331
BE5
  5
BE7
331
FA7
  5
FA7
331
C4B
  5
C4D
331
C37
  5
C39
331
BBD
  5
BBD
331
BA4
  5
BA4
331
F22
  5
F22
331
C74
  5
C76
331
C3B
  5
C3D
331
BFA
  5
BFC
331
BC1
  5
BC1
331
11C5
  5
11C5
331
FC4
  5
FC4
331
C27
  5
C29
331
C13
  5
C15
331
BDA
  5
BDC
331
BEE
  5
BF0
331
C58
  5
C5A
331
C7D
  5
C7F
331
C44
  5
C46
331
C03
  5
C05
331
BCA
  5
BCB
331
11CE
  5
11CE
331
FCD
  5
FCD
331
C30
  5
C32
331
BF7
  5
BF9
331
BB6
  5
BB6
331
FD1
  5
FD1
331
F1B
  5
F1B
331
FBD
  5
FBD
331
C61
  5
C63
331
C20
  5
C22
331
BE7
  5
BE9
331
FA9
  5
FA9
331
C4D
  5
C4F
331
C0C
  5
C0E
331
BD3
  5
BD5
331
BBF
  5
BBF
331
BA6
  5
BA6
331
C76
  5
C78
331
C3D
  5
C3F
331
BFC
  5
BFE
331
BC3
  5
BC3
331
11C7
  5
11C7
331
FC6
  5
FC6
331
C29
  5
C2B
331
BF0
  5
BF2
331
C56
  5
C58
331
C15
  5
C17
331
BDC
  5
BDE
331
BAF
  5
BAF
331
1030
  5
1030
331
FB6
  5
FB6
331
C5A
  5
C5C
331
C19
  5
C1B
331
BE0
  5
BE2
331
FA2
  5
FA2
331
C7F
  5
C81
331
C46
  5
C48
331
C05
  5
C07
331
BCC
  5
BCE
331
FCF
  5
FCF
331
C32
  5
C34
331
BB8
  5
BB8
331
11D4
  5
11D6
331
F1D
  5
F1D
331
FBF
  5
FBF
331
C63
  5
C65
331
C22
  5
C24
331
BE9
  5
BEB
331
FAB
  5
FAB
331
C4F
  5
C51
331
C0E
  5
C10
331
BD5
  5
BD7
331
BA8
  5
BA8
331
F26
  5
F26
331
C78
  5
C7A
331
C3F
  5
C41
331
BFE
  5
C00
331
11C9
  5
11C9
331
FC8
  5
FC8
331
C2B
  5
C2D
331
BF2
  5
BF4
331
C17
  5
C19
331
BDE
  5
BE0
331
BB1
  5
BB1
331
11B9
  5
11B9
331
FF9
  5
FF9
331
FB8
  5
FB8
331
C5C
  5
C5E
331
C1B
  5
C1D
331
BE2
  5
BE4
331
FA4
  5
FA4
331
C48
  5
C4A
331
C07
  5
C09
331
BCE
  5
BD0
331
C34
  5
C36
331
BBA
  5
BBA
331
F1F
  5
F1F
331
C71
  5
C73
331
C38
  5
C3A
331
11C2
  5
11C2
331
FC1
  5
FC1
331
C65
  5
C67
331
C24
  5
C26
331
BEB
  5
BED
331
FAD
  5
FAD
331
C51
  5
C53
331
C10
  5
C12
331
BD7
  5
BD9
331
BAA
  5
BAA
331
F28
  5
F28
331
C7A
  5
C7C
331
C41
  5
C43
331
11CB
  5
11CB
331
FCA
  5
FCA
331
C2D
  5
C2F
331
F18
  5
F18
331
FBA
  5
FBA
331
C5E
  5
C60
331
C1D
  5
C1F
331
BE4
  5
BE6
331
FA6
  5
FA6
331
C4A
  5
C4C
331
C36
  5
C38
331
F21
  5
F21
331
C73
  5
C75
331
C3A
  5
C3C
331
BC0
  5
BC0
331
11C4
  5
11C4
331
FC3
  5
FC3
331
C26
  5
C28
331
BED
  5
BEF
331
C53
  5
C55
331
C12
  5
C14
331
BD9
  5
BDB
331
BAC
  5
BAC
331
C7C
  5
C7E
331
C43
  5
C45
331
BC9
  5
BC9
331
FCC
  5
FCC
331
C2F
  5
C31
331
BF6
  5
BF8
331
FD0
  5
FD0
331
F1A
  5
F1A
331
FBC
  5
FBC
331
C60
  5
C62
331
C1F
  5
C21
331
BE6
  5
BE8
331
FA8
  5
FA8
331
C4C
  5
C4E
331
BBE
  5
BBE
331
BA5
  5
BA5
331
F23
  5
F23
331
C75
  5
C77
331
C3C
  5
C3E
331
BFB
  5
BFD
331
BC2
  5
BC2
331
11C6
  5
11C6
331
FC5
  5
FC5
331
C28
  5
C2A
331
C14
  5
C16
331
BDB
  5
BDD
331
BAE
  5
BAE
  0
XRECORD
  5
136C
102
{ACAD_REACTORS
330
136B
102
}
330
136B
100
AcDbXrecord
280
     1
 40
183307.0
  1
{\fArial|b0|i0|c0|p34;* Richwert, abhängig vom Siphontyp}
  0
DIMASSOC
  5
1287
102
{ACAD_REACTORS
330
1280
102
}
330
1280
100
AcDbDimAssoc
330
1276
 90
        2
 70
     0
 71
     0
  1
AcDbOsnapPointRef
 72
     3
331
11D4
 73
     2
 91
        0
 40
0.0
 10
0.0
 20
0.0
 30
0.0
 75
     0
  0
DIMASSOC
  5
12D3
102
{ACAD_REACTORS
330
12CC
102
}
330
12CC
100
AcDbDimAssoc
330
12C2
 90
        2
 70
     0
 71
     0
  1
AcDbOsnapPointRef
 72
     3
331
BEE
 73
     2
 91
        0
 40
0.0
 10
0.0
 20
0.0
 30
0.0
 75
     0
  0
DIMASSOC
  5
133A
102
{ACAD_REACTORS
330
1332
102
}
330
1332
100
AcDbDimAssoc
330
1327
 90
        2
 70
     0
 71
     0
  1
AcDbOsnapPointRef
 72
     3
331
1326
 73
     2
 91
        0
 40
0.0
 10
0.0
 20
0.0
 30
0.0
 75
     0
  0
XRECORD
  5
1368
102
{ACAD_REACTORS
330
1367
102
}
330
1367
100
AcDbXrecord
280
     1
102
SHADEPLOT
 70
     0
  0
LAYOUT
  5
50
102
{ACAD_XDICTIONARY
360
8C
102
}
102
{ACAD_REACTORS
330
1A
102
}
330
1A
100
AcDbPlotSettings
  1

  2
none_device
  4
Letter_(8.50_x_11.00_Inches)
  6

 40
6.349999999999997
 41
6.349999999999997
 42
6.350005079999997
 43
6.350005079999997
 44
215.9
 45
279.4
 46
0.0
 47
0.0
 48
0.0
 49
0.0
140
0.0
141
0.0
142
1.0
143
1.0
 70
   688
 72
     0
 73
     1
 74
     5
  7

 75
    16
147
1.0
148
0.0
149
0.0
100
AcDbLayout
  1
LAYOUT1
 70
     1
 71
     1
 10
0.0
 20
0.0
 11
12.0
 21
9.0
 12
0.0
 22
0.0
 32
0.0
 14
1.000000000000000E+20
 24
1.000000000000000E+20
 34
1.000000000000000E+20
 15
-1.000000000000000E+20
 25
-1.000000000000000E+20
 35
-1.000000000000000E+20
146
0.0
 13
0.0
 23
0.0
 33
0.0
 16
1.0
 26
0.0
 36
0.0
 17
0.0
 27
1.0
 37
0.0
 76
     0
330
4F
331
53
  0
LAYOUT
  5
22
102
{ACAD_XDICTIONARY
360
1364
102
}
102
{ACAD_REACTORS
330
1A
102
}
330
1A
100
AcDbPlotSettings
  1

  2
none_device
  4

  6

 40
0.0
 41
0.0
 42
0.0
 43
0.0
 44
0.0
 45
0.0
 46
0.0
 47
0.0
 48
0.0
 49
0.0
140
0.0
141
0.0
142
1.0
143
1.0
 70
  1712
 72
     0
 73
     0
 74
     0
  7

 75
     0
147
1.0
148
0.0
149
0.0
100
AcDbLayout
  1
Model
 70
     1
 71
     0
 10
0.0
 20
0.0
 11
12.0
 21
9.0
 12
0.0
 22
0.0
 32
0.0
 14
50.53571028364556
 24
111.1244162473404
 34
0.0
 15
160.665036390476
 25
185.7831598806171
 35
0.0
146
0.0
 13
0.0
 23
0.0
 33
0.0
 16
1.0
 26
0.0
 36
0.0
 17
0.0
 27
1.0
 37
0.0
 76
     0
330
1F
331
29
  0
MATERIAL
  5
80
102
{ACAD_XDICTIONARY
360
96
102
}
102
{ACAD_REACTORS
330
7E
102
}
330
7E
100
AcDbMaterial
  1
ByBlock
  0
MATERIAL
  5
7F
102
{ACAD_XDICTIONARY
360
94
102
}
102
{ACAD_REACTORS
330
7E
102
}
330
7E
100
AcDbMaterial
  1
ByLayer
  0
MATERIAL
  5
81
102
{ACAD_XDICTIONARY
360
98
102
}
102
{ACAD_REACTORS
330
7E
102
}
330
7E
100
AcDbMaterial
  1
Global
  0
MLINESTYLE
  5
18
102
{ACAD_REACTORS
330
17
102
}
330
17
100
AcDbMlineStyle
  2
STANDARD
 70
     0
  3

 62
   256
 51
90.0
 52
90.0
 71
     2
 49
0.5
 62
   256
  6
BYLAYER
 49
-0.5
 62
   256
  6
BYLAYER
  0
ACDBPLACEHOLDER
  5
F
102
{ACAD_REACTORS
330
E
102
}
330
E
  0
ACAD_PROXY_OBJECT
  5
55
102
{ACAD_REACTORS
330
54
102
}
330
54
100
AcDbProxyObject
 90
      499
 91
      502
 95
  6815769
 70
     1
100
AcDbScale
 70
     0
300
1:1
140
1.0
141
1.0
290
     1
1001
ACAD
1001
ACAD
1000
AcRTDxfName
1000
SCALE
  0
ACAD_PROXY_OBJECT
  5
56
102
{ACAD_REACTORS
330
54
102
}
330
54
100
AcDbProxyObject
 90
      499
 91
      502
 95
  6815769
 70
     1
100
AcDbScale
 70
     0
300
1:2
140
1.0
141
2.0
290
     0
1001
ACAD
1001
ACAD
1000
AcRTDxfName
1000
SCALE
  0
ACAD_PROXY_OBJECT
  5
57
102
{ACAD_REACTORS
330
54
102
}
330
54
100
AcDbProxyObject
 90
      499
 91
      502
 95
  6815769
 70
     1
100
AcDbScale
 70
     0
300
1:4
140
1.0
141
4.0
290
     0
1001
ACAD
1001
ACAD
1000
AcRTDxfName
1000
SCALE
  0
ACAD_PROXY_OBJECT
  5
58
102
{ACAD_REACTORS
330
54
102
}
330
54
100
AcDbProxyObject
 90
      499
 91
      502
 95
  6815769
 70
     1
100
AcDbScale
 70
     0
300
1:5
140
1.0
141
5.0
290
     0
1001
ACAD
1001
ACAD
1000
AcRTDxfName
1000
SCALE
  0
ACAD_PROXY_OBJECT
  5
59
102
{ACAD_REACTORS
330
54
102
}
330
54
100
AcDbProxyObject
 90
      499
 91
      502
 95
  6815769
 70
     1
100
AcDbScale
 70
     0
300
1:8
140
1.0
141
8.0
290
     0
1001
ACAD
1001
ACAD
1000
AcRTDxfName
1000
SCALE
  0
ACAD_PROXY_OBJECT
  5
5A
102
{ACAD_REACTORS
330
54
102
}
330
54
100
AcDbProxyObject
 90
      499
 91
      502
 95
  6815769
 70
     1
100
AcDbScale
 70
     0
300
1:10
140
1.0
141
10.0
290
     0
1001
ACAD
1001
ACAD
1000
AcRTDxfName
1000
SCALE
  0
ACAD_PROXY_OBJECT
  5
5B
102
{ACAD_REACTORS
330
54
102
}
330
54
100
AcDbProxyObject
 90
      499
 91
      502
 95
  6815769
 70
     1
100
AcDbScale
 70
     0
300
1:16
140
1.0
141
16.0
290
     0
1001
ACAD
1001
ACAD
1000
AcRTDxfName
1000
SCALE
  0
ACAD_PROXY_OBJECT
  5
5C
102
{ACAD_REACTORS
330
54
102
}
330
54
100
AcDbProxyObject
 90
      499
 91
      502
 95
  6815769
 70
     1
100
AcDbScale
 70
     0
300
1:20
140
1.0
141
20.0
290
     0
1001
ACAD
1001
ACAD
1000
AcRTDxfName
1000
SCALE
  0
ACAD_PROXY_OBJECT
  5
5D
102
{ACAD_REACTORS
330
54
102
}
330
54
100
AcDbProxyObject
 90
      499
 91
      502
 95
  6815769
 70
     1
100
AcDbScale
 70
     0
300
1:30
140
1.0
141
30.0
290
     0
1001
ACAD
1001
ACAD
1000
AcRTDxfName
1000
SCALE
  0
ACAD_PROXY_OBJECT
  5
5E
102
{ACAD_REACTORS
330
54
102
}
330
54
100
AcDbProxyObject
 90
      499
 91
      502
 95
  6815769
 70
     1
100
AcDbScale
 70
     0
300
1:40
140
1.0
141
40.0
290
     0
1001
ACAD
1001
ACAD
1000
AcRTDxfName
1000
SCALE
  0
ACAD_PROXY_OBJECT
  5
5F
102
{ACAD_REACTORS
330
54
102
}
330
54
100
AcDbProxyObject
 90
      499
 91
      502
 95
  6815769
 70
     1
100
AcDbScale
 70
     0
300
1:50
140
1.0
141
50.0
290
     0
1001
ACAD
1001
ACAD
1000
AcRTDxfName
1000
SCALE
  0
ACAD_PROXY_OBJECT
  5
60
102
{ACAD_REACTORS
330
54
102
}
330
54
100
AcDbProxyObject
 90
      499
 91
      502
 95
  6815769
 70
     1
100
AcDbScale
 70
     0
300
1:100
140
1.0
141
100.0
290
     0
1001
ACAD
1001
ACAD
1000
AcRTDxfName
1000
SCALE
  0
ACAD_PROXY_OBJECT
  5
61
102
{ACAD_REACTORS
330
54
102
}
330
54
100
AcDbProxyObject
 90
      499
 91
      502
 95
  6815769
 70
     1
100
AcDbScale
 70
     0
300
2:1
140
2.0
141
1.0
290
     0
1001
ACAD
1001
ACAD
1000
AcRTDxfName
1000
SCALE
  0
ACAD_PROXY_OBJECT
  5
62
102
{ACAD_REACTORS
330
54
102
}
330
54
100
AcDbProxyObject
 90
      499
 91
      502
 95
  6815769
 70
     1
100
AcDbScale
 70
     0
300
4:1
140
4.0
141
1.0
290
     0
1001
ACAD
1001
ACAD
1000
AcRTDxfName
1000
SCALE
  0
ACAD_PROXY_OBJECT
  5
63
102
{ACAD_REACTORS
330
54
102
}
330
54
100
AcDbProxyObject
 90
      499
 91
      502
 95
  6815769
 70
     1
100
AcDbScale
 70
     0
300
8:1
140
8.0
141
1.0
290
     0
1001
ACAD
1001
ACAD
1000
AcRTDxfName
1000
SCALE
  0
ACAD_PROXY_OBJECT
  5
64
102
{ACAD_REACTORS
330
54
102
}
330
54
100
AcDbProxyObject
 90
      499
 91
      502
 95
  6815769
 70
     1
100
AcDbScale
 70
     0
300
10:1
140
10.0
141
1.0
290
     0
1001
ACAD
1001
ACAD
1000
AcRTDxfName
1000
SCALE
  0
ACAD_PROXY_OBJECT
  5
65
102
{ACAD_REACTORS
330
54
102
}
330
54
100
AcDbProxyObject
 90
      499
 91
      502
 95
  6815769
 70
     1
100
AcDbScale
 70
     0
300
100:1
140
100.0
141
1.0
290
     0
1001
ACAD
1001
ACAD
1000
AcRTDxfName
1000
SCALE
  0
ACAD_PROXY_OBJECT
  5
66
102
{ACAD_REACTORS
330
54
102
}
330
54
100
AcDbProxyObject
 90
      499
 91
      502
 95
  6815769
 70
     1
100
AcDbScale
 70
     0
300
1/128" = 1'-0"
140
0.0078125
141
12.0
290
     0
1001
ACAD
1001
ACAD
1000
AcRTDxfName
1000
SCALE
  0
ACAD_PROXY_OBJECT
  5
67
102
{ACAD_REACTORS
330
54
102
}
330
54
100
AcDbProxyObject
 90
      499
 91
      502
 95
  6815769
 70
     1
100
AcDbScale
 70
     0
300
1/64" = 1'-0"
140
0.015625
141
12.0
290
     0
1001
ACAD
1001
ACAD
1000
AcRTDxfName
1000
SCALE
  0
ACAD_PROXY_OBJECT
  5
68
102
{ACAD_REACTORS
330
54
102
}
330
54
100
AcDbProxyObject
 90
      499
 91
      502
 95
  6815769
 70
     1
100
AcDbScale
 70
     0
300
1/32" = 1'-0"
140
0.03125
141
12.0
290
     0
1001
ACAD
1001
ACAD
1000
AcRTDxfName
1000
SCALE
  0
ACAD_PROXY_OBJECT
  5
69
102
{ACAD_REACTORS
330
54
102
}
330
54
100
AcDbProxyObject
 90
      499
 91
      502
 95
  6815769
 70
     1
100
AcDbScale
 70
     0
300
1/16" = 1'-0"
140
0.0625
141
12.0
290
     0
1001
ACAD
1001
ACAD
1000
AcRTDxfName
1000
SCALE
  0
ACAD_PROXY_OBJECT
  5
6A
102
{ACAD_REACTORS
330
54
102
}
330
54
100
AcDbProxyObject
 90
      499
 91
      502
 95
  6815769
 70
     1
100
AcDbScale
 70
     0
300
3/32" = 1'-0"
140
0.09375
141
12.0
290
     0
1001
ACAD
1001
ACAD
1000
AcRTDxfName
1000
SCALE
  0
ACAD_PROXY_OBJECT
  5
6B
102
{ACAD_REACTORS
330
54
102
}
330
54
100
AcDbProxyObject
 90
      499
 91
      502
 95
  6815769
 70
     1
100
AcDbScale
 70
     0
300
1/8" = 1'-0"
140
0.125
141
12.0
290
     0
1001
ACAD
1001
ACAD
1000
AcRTDxfName
1000
SCALE
  0
ACAD_PROXY_OBJECT
  5
6C
102
{ACAD_REACTORS
330
54
102
}
330
54
100
AcDbProxyObject
 90
      499
 91
      502
 95
  6815769
 70
     1
100
AcDbScale
 70
     0
300
3/16" = 1'-0"
140
0.1875
141
12.0
290
     0
1001
ACAD
1001
ACAD
1000
AcRTDxfName
1000
SCALE
  0
ACAD_PROXY_OBJECT
  5
6D
102
{ACAD_REACTORS
330
54
102
}
330
54
100
AcDbProxyObject
 90
      499
 91
      502
 95
  6815769
 70
     1
100
AcDbScale
 70
     0
300
1/4" = 1'-0"
140
0.25
141
12.0
290
     0
1001
ACAD
1001
ACAD
1000
AcRTDxfName
1000
SCALE
  0
ACAD_PROXY_OBJECT
  5
6E
102
{ACAD_REACTORS
330
54
102
}
330
54
100
AcDbProxyObject
 90
      499
 91
      502
 95
  6815769
 70
     1
100
AcDbScale
 70
     0
300
3/8" = 1'-0"
140
0.375
141
12.0
290
     0
1001
ACAD
1001
ACAD
1000
AcRTDxfName
1000
SCALE
  0
ACAD_PROXY_OBJECT
  5
6F
102
{ACAD_REACTORS
330
54
102
}
330
54
100
AcDbProxyObject
 90
      499
 91
      502
 95
  6815769
 70
     1
100
AcDbScale
 70
     0
300
1/2" = 1'-0"
140
0.5
141
12.0
290
     0
1001
ACAD
1001
ACAD
1000
AcRTDxfName
1000
SCALE
  0
ACAD_PROXY_OBJECT
  5
70
102
{ACAD_REACTORS
330
54
102
}
330
54
100
AcDbProxyObject
 90
      499
 91
      502
 95
  6815769
 70
     1
100
AcDbScale
 70
     0
300
3/4" = 1'-0"
140
0.75
141
12.0
290
     0
1001
ACAD
1001
ACAD
1000
AcRTDxfName
1000
SCALE
  0
ACAD_PROXY_OBJECT
  5
71
102
{ACAD_REACTORS
330
54
102
}
330
54
100
AcDbProxyObject
 90
      499
 91
      502
 95
  6815769
 70
     1
100
AcDbScale
 70
     0
300
1" = 1'-0"
140
1.0
141
12.0
290
     0
1001
ACAD
1001
ACAD
1000
AcRTDxfName
1000
SCALE
  0
ACAD_PROXY_OBJECT
  5
72
102
{ACAD_REACTORS
330
54
102
}
330
54
100
AcDbProxyObject
 90
      499
 91
      502
 95
  6815769
 70
     1
100
AcDbScale
 70
     0
300
1-1/2" = 1'-0"
140
1.5
141
12.0
290
     0
1001
ACAD
1001
ACAD
1000
AcRTDxfName
1000
SCALE
  0
ACAD_PROXY_OBJECT
  5
73
102
{ACAD_REACTORS
330
54
102
}
330
54
100
AcDbProxyObject
 90
      499
 91
      502
 95
  6815769
 70
     1
100
AcDbScale
 70
     0
300
3" = 1'-0"
140
3.0
141
12.0
290
     0
1001
ACAD
1001
ACAD
1000
AcRTDxfName
1000
SCALE
  0
ACAD_PROXY_OBJECT
  5
74
102
{ACAD_REACTORS
330
54
102
}
330
54
100
AcDbProxyObject
 90
      499
 91
      502
 95
  6815769
 70
     1
100
AcDbScale
 70
     0
300
6" = 1'-0"
140
6.0
141
12.0
290
     0
1001
ACAD
1001
ACAD
1000
AcRTDxfName
1000
SCALE
  0
ACAD_PROXY_OBJECT
  5
75
102
{ACAD_REACTORS
330
54
102
}
330
54
100
AcDbProxyObject
 90
      499
 91
      502
 95
  6815769
 70
     1
100
AcDbScale
 70
     0
300
1'-0" = 1'-0"
140
12.0
141
12.0
290
     0
1001
ACAD
1001
ACAD
1000
AcRTDxfName
1000
SCALE
  0
TABLESTYLE
  5
83
102
{ACAD_XDICTIONARY
360
1369
102
}
102
{ACAD_REACTORS
330
76
102
}
330
76
100
AcDbTableStyle
  3
Standard
 70
     0
 71
     0
 40
0.06
 41
0.06
280
     0
281
     0
  7
Standard
140
0.18
170
     2
 62
     0
 63
     7
283
     0
274
    -2
284
     1
 64
     0
275
    -2
285
     1
 65
     0
276
    -2
286
     1
 66
     0
277
    -2
287
     1
 67
     0
278
    -2
288
     1
 68
     0
279
    -2
289
     1
 69
     0
  7
Standard
140
0.25
170
     5
 62
     0
 63
     7
283
     0
274
    -2
284
     1
 64
     0
275
    -2
285
     1
 65
     0
276
    -2
286
     1
 66
     0
277
    -2
287
     1
 67
     0
278
    -2
288
     1
 68
     0
279
    -2
289
     1
 69
     0
  7
Standard
140
0.18
170
     5
 62
     0
 63
     7
283
     0
274
    -2
284
     1
 64
     0
275
    -2
285
     1
 65
     0
276
    -2
286
     1
 66
     0
277
    -2
287
     1
 67
     0
278
    -2
288
     1
 68
     0
279
    -2
289
     1
 69
     0
  0
VISUALSTYLE
  5
2F
102
{ACAD_REACTORS
330
2A
102
}
330
2A
100
AcDbVisualStyle
  2
2dWireframe
 70
     4
 71
     0
 72
     2
 73
     0
 90
        0
 40
-0.6
 41
-30.0
 62
     5
 63
     7
 74
     1
 91
        4
 64
     7
 65
   257
 75
     1
175
     1
 42
1.0
 92
        0
 66
   257
 43
1.0
 76
     1
 77
     6
 78
     2
 67
     7
 79
     5
170
     0
171
     0
290
     0
174
     0
 93
        1
 44
0.0
173
     0
291
     0
 45
0.0
1001
ACAD
1000
AcDbSavedByObjectVersion
1070
     0
  0
VISUALSTYLE
  5
31
102
{ACAD_REACTORS
330
2A
102
}
330
2A
100
AcDbVisualStyle
  2
3D Hidden
 70
     6
 71
     1
 72
     2
 73
     2
 90
        0
 40
-0.6
 41
-30.0
 62
     5
 63
     7
 74
     2
 91
        2
 64
     7
 65
   257
 75
     2
175
     1
 42
40.0
 92
        0
 66
   257
 43
1.0
 76
     1
 77
     6
 78
     2
 67
     7
 79
     3
170
     0
171
     0
290
     0
174
     0
 93
        1
 44
0.0
173
     0
291
     0
 45
0.0
1001
ACAD
1000
AcDbSavedByObjectVersion
1070
     0
  0
VISUALSTYLE
  5
30
102
{ACAD_REACTORS
330
2A
102
}
330
2A
100
AcDbVisualStyle
  2
3dWireframe
 70
     5
 71
     0
 72
     2
 73
     0
 90
        0
 40
-0.6
 41
-30.0
 62
     5
 63
     7
 74
     1
 91
        4
 64
     7
 65
   257
 75
     1
175
     1
 42
1.0
 92
        0
 66
   257
 43
1.0
 76
     1
 77
     6
 78
     2
 67
     7
 79
     5
170
     0
171
     0
290
     0
174
     0
 93
        1
 44
0.0
173
     0
291
     0
 45
0.0
1001
ACAD
1000
AcDbSavedByObjectVersion
1070
     0
  0
VISUALSTYLE
  5
32
102
{ACAD_REACTORS
330
2A
102
}
330
2A
100
AcDbVisualStyle
  2
Basic
 70
     7
 71
     1
 72
     0
 73
     1
 90
        0
 40
-0.6
 41
-30.0
 62
     5
 63
     7
 74
     0
 91
        4
 64
     7
 65
   257
 75
     1
175
     1
 42
1.0
 92
        8
 66
     7
 43
1.0
 76
     1
 77
     6
 78
     2
 67
     7
 79
     5
170
     0
171
     0
290
     0
174
     0
 93
        1
 44
0.0
173
     0
291
     1
 45
0.0
1001
ACAD
1000
AcDbSavedByObjectVersion
1070
     0
  0
VISUALSTYLE
  5
36
102
{ACAD_REACTORS
330
2A
102
}
330
2A
100
AcDbVisualStyle
  2
Brighten
 70
    12
 71
     2
 72
     2
 73
     0
 90
        0
 40
-0.6
 41
-30.0
 62
     5
 63
     7
 74
     1
 91
        4
 64
     7
 65
   257
 75
     1
175
     1
 42
1.0
 92
        8
 66
     7
 43
1.0
 76
     1
 77
     6
 78
     2
 67
     7
 79
     5
170
     0
171
     0
290
     0
174
     0
 93
        1
 44
50.0
173
     0
291
     1
 45
0.0
1001
ACAD
1000
AcDbSavedByObjectVersion
1070
     0
  0
VISUALSTYLE
  5
3A
102
{ACAD_REACTORS
330
2A
102
}
330
2A
100
AcDbVisualStyle
  2
ColorChange
 70
    16
 71
     2
 72
     2
 73
     3
 90
        0
 40
-0.6
 41
-30.0
 62
     5
 63
     8
 74
     1
 91
        4
 64
     7
 65
   257
 75
     1
175
     1
 42
1.0
 92
        8
 66
     8
 43
1.0
 76
     1
 77
     6
 78
     2
 67
     7
 79
     5
170
     0
171
     0
290
     0
174
     0
 93
        1
 44
0.0
173
     0
291
     1
 45
0.0
1001
ACAD
1000
AcDbSavedByObjectVersion
1070
     0
  0
VISUALSTYLE
  5
34
102
{ACAD_REACTORS
330
2A
102
}
330
2A
100
AcDbVisualStyle
  2
Conceptual
 70
     9
 71
     3
 72
     2
 73
     0
 90
        0
 40
-0.6
 41
-30.0
 62
     5
 63
     7
 74
     2
 91
        2
 64
     7
 65
   257
 75
     1
175
     1
 42
40.0
 92
        8
 66
     7
 43
1.0
 76
     1
 77
     6
 78
     2
 67
     7
 79
     3
170
     0
171
     0
290
     0
174
     0
 93
        1
 44
0.0
173
     0
291
     0
 45
0.0
1001
ACAD
1000
AcDbSavedByObjectVersion
1070
     0
  0
VISUALSTYLE
  5
35
102
{ACAD_REACTORS
330
2A
102
}
330
2A
100
AcDbVisualStyle
  2
Dim
 70
    11
 71
     2
 72
     2
 73
     0
 90
        0
 40
-0.6
 41
-30.0
 62
     5
 63
     7
 74
     1
 91
        4
 64
     7
 65
   257
 75
     1
175
     1
 42
1.0
 92
        8
 66
     7
 43
1.0
 76
     1
 77
     6
 78
     2
 67
     7
 79
     5
170
     0
171
     0
290
     0
174
     0
 93
        1
 44
-50.0
173
     0
291
     1
 45
0.0
1001
ACAD
1000
AcDbSavedByObjectVersion
1070
     0
  0
VISUALSTYLE
  5
39
102
{ACAD_REACTORS
330
2A
102
}
330
2A
100
AcDbVisualStyle
  2
Facepattern
 70
    15
 71
     2
 72
     2
 73
     0
 90
        0
 40
-0.6
 41
-30.0
 62
     5
 63
     7
 74
     1
 91
        4
 64
     7
 65
   257
 75
     1
175
     1
 42
1.0
 92
        8
 66
     7
 43
1.0
 76
     1
 77
     6
 78
     2
 67
     7
 79
     5
170
     0
171
     0
290
     0
174
     0
 93
        1
 44
0.0
173
     0
291
     1
 45
0.0
1001
ACAD
1000
AcDbSavedByObjectVersion
1070
     0
  0
VISUALSTYLE
  5
2B
102
{ACAD_REACTORS
330
2A
102
}
330
2A
100
AcDbVisualStyle
  2
Flat
 70
     0
 71
     2
 72
     1
 73
     1
 90
        2
 40
-0.6
 41
30.0
 62
     5
 63
     7
 74
     0
 91
        4
 64
     7
 65
   257
 75
     1
175
     1
 42
1.0
 92
        8
 66
     7
 43
1.0
 76
     1
 77
     6
 78
     2
 67
     7
 79
     5
170
     0
171
     0
290
     0
174
     0
 93
       13
 44
0.0
173
     0
291
     1
 45
0.0
1001
ACAD
1000
AcDbSavedByObjectVersion
1070
     0
  0
VISUALSTYLE
  5
2C
102
{ACAD_REACTORS
330
2A
102
}
330
2A
100
AcDbVisualStyle
  2
FlatWithEdges
 70
     1
 71
     2
 72
     1
 73
     1
 90
        2
 40
-0.6
 41
30.0
 62
     5
 63
     7
 74
     1
 91
        4
 64
     7
 65
   257
 75
     1
175
     1
 42
1.0
 92
        0
 66
   257
 43
1.0
 76
     1
 77
     6
 78
     2
 67
     7
 79
     5
170
     0
171
     0
290
     0
174
     0
 93
       13
 44
0.0
173
     0
291
     1
 45
0.0
1001
ACAD
1000
AcDbSavedByObjectVersion
1070
     0
  0
VISUALSTYLE
  5
2D
102
{ACAD_REACTORS
330
2A
102
}
330
2A
100
AcDbVisualStyle
  2
Gouraud
 70
     2
 71
     2
 72
     2
 73
     1
 90
        2
 40
-0.6
 41
30.0
 62
     5
 63
     7
 74
     0
 91
        4
 64
     7
 65
   257
 75
     1
175
     1
 42
1.0
 92
        0
 66
     7
 43
1.0
 76
     1
 77
     6
 78
     2
 67
     7
 79
     5
170
     0
171
     0
290
     0
174
     0
 93
       13
 44
0.0
173
     0
291
     1
 45
0.0
1001
ACAD
1000
AcDbSavedByObjectVersion
1070
     0
  0
VISUALSTYLE
  5
2E
102
{ACAD_REACTORS
330
2A
102
}
330
2A
100
AcDbVisualStyle
  2
GouraudWithEdges
 70
     3
 71
     2
 72
     2
 73
     1
 90
        2
 40
-0.6
 41
30.0
 62
     5
 63
     7
 74
     1
 91
        4
 64
     7
 65
   257
 75
     1
175
     1
 42
1.0
 92
        0
 66
   257
 43
1.0
 76
     1
 77
     6
 78
     2
 67
     7
 79
     5
170
     0
171
     0
290
     0
174
     0
 93
       13
 44
0.0
173
     0
291
     1
 45
0.0
1001
ACAD
1000
AcDbSavedByObjectVersion
1070
     0
  0
VISUALSTYLE
  5
38
102
{ACAD_REACTORS
330
2A
102
}
330
2A
100
AcDbVisualStyle
  2
Linepattern
 70
    14
 71
     2
 72
     2
 73
     0
 90
        0
 40
-0.6
 41
-30.0
 62
     5
 63
     7
 74
     1
 91
        4
 64
     7
 65
   257
 75
     7
175
     7
 42
1.0
 92
        8
 66
     7
 43
1.0
 76
     1
 77
     6
 78
     2
 67
     7
 79
     5
170
     0
171
     0
290
     0
174
     0
 93
        1
 44
0.0
173
     0
291
     1
 45
0.0
1001
ACAD
1000
AcDbSavedByObjectVersion
1070
     0
  0
VISUALSTYLE
  5
33
102
{ACAD_REACTORS
330
2A
102
}
330
2A
100
AcDbVisualStyle
  2
Realistic
 70
     8
 71
     2
 72
     2
 73
     0
 90
        0
 40
-0.6
 41
-30.0
 62
     5
 63
     7
 74
     1
 91
        0
 64
     7
 65
   257
 75
     1
175
     1
 42
1.0
 92
        8
 66
     8
 43
1.0
 76
     1
 77
     6
 78
     2
 67
     7
 79
     5
170
     0
171
     0
290
     0
174
     0
 93
       13
 44
0.0
173
     0
291
     0
 45
0.0
1001
ACAD
1000
AcDbSavedByObjectVersion
1070
     0
  0
VISUALSTYLE
  5
37
102
{ACAD_REACTORS
330
2A
102
}
330
2A
100
AcDbVisualStyle
  2
Thicken
 70
    13
 71
     2
 72
     2
 73
     0
 90
        0
 40
-0.6
 41
-30.0
 62
     5
 63
     7
 74
     1
 91
        4
 64
     7
 65
   257
 75
     1
175
     1
 42
1.0
 92
       12
 66
     7
 43
1.0
 76
     1
 77
     6
 78
     2
 67
     7
 79
     5
170
     0
171
     0
290
     0
174
     0
 93
        1
 44
0.0
173
     0
291
     1
 45
0.0
1001
ACAD
1000
AcDbSavedByObjectVersion
1070
     0
  0
DICTIONARYVAR
  5
79
102
{ACAD_REACTORS
330
78
102
}
330
78
100
DictionaryVariables
280
     0
  1
1:1
  0
DICTIONARYVAR
  5
93
102
{ACAD_REACTORS
330
78
102
}
330
78
100
DictionaryVariables
280
     0
  1
STANDARD
  0
DICTIONARYVAR
  5
F5
102
{ACAD_REACTORS
330
78
102
}
330
78
100
DictionaryVariables
280
     0
  1
2
  0
DICTIONARYVAR
  5
F4
102
{ACAD_REACTORS
330
78
102
}
330
78
100
DictionaryVariables
280
     0
  1
1
  0
DICTIONARYVAR
  5
F3
102
{ACAD_REACTORS
330
78
102
}
330
78
100
DictionaryVariables
280
     0
  1
0
  0
DICTIONARYVAR
  5
F2
102
{ACAD_REACTORS
330
78
102
}
330
78
100
DictionaryVariables
280
     0
  1
127
  0
XRECORD
  5
C87
102
{ACAD_REACTORS
330
C86
102
}
330
C86
100
AcDbXrecord
280
     1
330
49
  0
DICTIONARY
  5
8C
330
50
100
AcDbDictionary
280
     1
281
     1
  3
ACAD_XREC_ROUNDTRIP
360
1366
  3
ADSK_XREC_LAYOUTTHUMBNAIL
360
8D
  0
DICTIONARY
  5
1364
330
22
100
AcDbDictionary
280
     1
281
     1
  3
ACAD_XREC_ROUNDTRIP
360
1365
  0
DICTIONARY
  5
96
330
80
100
AcDbDictionary
280
     1
281
     1
  3
ACAD_XREC_ROUNDTRIP
360
97
  0
DICTIONARY
  5
94
330
7F
100
AcDbDictionary
280
     1
281
     1
  3
ACAD_XREC_ROUNDTRIP
360
95
  0
DICTIONARY
  5
98
330
81
100
AcDbDictionary
280
     1
281
     1
  3
ACAD_XREC_ROUNDTRIP
360
99
  0
DICTIONARY
  5
1369
330
83
100
AcDbDictionary
280
     1
281
     1
  3
ACAD_XREC_ROUNDTRIP
360
136A
  0
XRECORD
  5
1366
102
{ACAD_REACTORS
330
8C
102
}
330
8C
100
AcDbXrecord
280
     1
102
SHADEPLOT
 70
     0
102
SHADEPLOTRESLEVEL
 70
     2
102
SHADEPLOTCUSTOMDPI
 70
   300
  0
XRECORD
  5
8D
102
{ACAD_REACTORS
330
8C
102
}
330
8C
100
AcDbXrecord
280
     1
310
28000000B4000000870000000100080000000000EC5E000000000000000000000001000000000000FFFFFF0000000000FFFFFF000000000000000000000000000000000000000000000000000000000000000000330000006600000099000000CC000000FF00000000330000333300006633000099330000CC330000FF3300
310
0000660000336600006666000099660000CC660000FF66000000990000339900006699000099990000CC990000FF99000000CC000033CC000066CC000099CC0000CCCC0000FFCC000000FF000033FF000066FF000099FF0000CCFF0000FFFF000000003300330033006600330099003300CC003300FF003300003333003333
310
33006633330099333300CC333300FF33330000663300336633006666330099663300CC663300FF66330000993300339933006699330099993300CC993300FF99330000CC330033CC330066CC330099CC3300CCCC3300FFCC330000FF330033FF330066FF330099FF3300CCFF3300FFFF330000006600330066006600660099
310
006600CC006600FF00660000336600333366006633660099336600CC336600FF33660000666600336666006666660099666600CC666600FF66660000996600339966006699660099996600CC996600FF99660000CC660033CC660066CC660099CC6600CCCC6600FFCC660000FF660033FF660066FF660099FF6600CCFF6600
310
FFFF660000009900330099006600990099009900CC009900FF00990000339900333399006633990099339900CC339900FF33990000669900336699006666990099669900CC669900FF66990000999900339999006699990099999900CC999900FF99990000CC990033CC990066CC990099CC9900CCCC9900FFCC990000FF99
310
0033FF990066FF990099FF9900CCFF9900FFFF99000000CC003300CC006600CC009900CC00CC00CC00FF00CC000033CC003333CC006633CC009933CC00CC33CC00FF33CC000066CC003366CC006666CC009966CC00CC66CC00FF66CC000099CC003399CC006699CC009999CC00CC99CC00FF99CC0000CCCC0033CCCC0066CC
310
CC0099CCCC00CCCCCC00FFCCCC0000FFCC0033FFCC0066FFCC0099FFCC00CCFFCC00FFFFCC000000FF003300FF006600FF009900FF00CC00FF00FF00FF000033FF003333FF006633FF009933FF00CC33FF00FF33FF000066FF003366FF006666FF009966FF00CC66FF00FF66FF000099FF003399FF006699FF009999FF00CC
310
99FF00FF99FF0000CCFF0033CCFF0066CCFF0099CCFF00CCCCFF00FFCCFF0000FFFF0033FFFF0066FFFF0099FFFF00CCFFFF00FFFFFF00000000000D0D0D001A1A1A00282828003535350043434300505050005D5D5D006B6B6B00787878008686860093939300A1A1A100AEAEAE00BBBBBB00C9C9C900D6D6D600E4E4E400
310
F1F1F100FFFFFF0000000000000000000000000000000000000000000000000000000000000000000000000000000000E2E2E2E2E2E2E2E2F5F5F5F5F5F5F5F5F5E2E2E2E2E2E2E2E2E2E2E2E2E2E2E2E2E2F5F5F5F5F5F5F5F5F5E2E2E2E2E2E2E2E2E2E2E2E2E2E2E2E2E2F5F5F5F5F5F5F5F5F5E2E2E2E2E2E2E2E2E2E2
310
E2E2E2E2E2E2E2F5F5F5F5F5F5F5F5F5E2E2E2E2E2E2E2E2E2E2E2E2E2E2E2E2E2F5F5F5F5F5F5F5F5F5E2E2E2E2E2E2E2E2E2E2E2E2E2E2E2E2E2F5F5F5F5F5F5F5F5F5E2E2E2E2E2E2E2E2E2F5F5F5E2E2EFEFEFEFEFEFEFEFEFEFEFEFEFEFEFEFEFEFEFF5F5F5F5F5F5F5F5F5F5F5F5F5F5F5F5F5F5F5F5F5F5F5F5F5F5
310
F5F5F5F5F5F5F5F5F5F5F5F5F5F5F5F5F5F5F5F5F5F5F5F5F5F5F5F5F5F5F5F5F5F5F5F5F5F5F5F5F5F5F5F5F5F5F5F5F5F5F5F5F5F5F5F5F5F5F5F5F5F5F5F5F5F5F5F5F5F5F5F5F5F5F5F5F5F5F5F5F5F5F5F5F5F5F5F5F5F5F5F5F5F5F5F5F5F5F5F5F5F5F5F5F5F5F5F5F5F5F5F5F5F5F5F5F5F5F5F5F5F5F5F5F5F5F5
310
F5F5E2F5F5F5E2E2EFEFEFEFEFEFEFEFEFEFEFEFEFEFEFEFEFEFEFF5F5F5F5F5F5F5F5F5F5F5F5F5F5F5F5F5F5F5F5F5F5F5F5F5F5F5F5F5F5F5F5F5F5F5F5F5F5F5F5F5F5F5F5F5F5F5F5F5F5F5F5F5F5F5F5F5F5F5F5F5F5F5F5F5F5F5F5F5F5F5F5F5F5F5F5F5F5F5F5F5F5F5F5F5F5F5F5F5F5F5F5F5F5F5F5F5F5F5F5
310
F5F5F5F5F5F5F5F5F5F5F5F5F5F5F5F5F5F5F5F5F5F5F5F5F5F5F5F5F5F5F5F5F5F5F5F5F5F5F5F5F5F5F5F5F5F5F5F5F5F5F5F5F5F5F5E2F5F5F5E2E2EFEFEFEFEFEFEFEFEFEFEFEFEFEFEFEFEFEFEFF5F5F5F5F5F5F5F5F5F5F5F5F5F5F5F5F5F5F5F5F5F5F5F5F5F5F5F5F5F5F5F5F5F5F5F5F5F5F5F5F5F5F5F5F5F5F5
310
F5F5F5F5F5F5F5F5F5F5F5F5F5F5F5F5F5F5F5F5F5F5F5F5F5F5F5F5F5F5F5F5F5F5F5F5F5F5F5F5F5F5F5F5F5F5F5F5F5F5F5F5F5F5F5F5F5F5F5F5F5F5F5F5F5F5F5F5F5F5F5F5F5F5F5F5F5F5F5F5F5F5F5F5F5F5F5F5F5F5F5F5F5F5F5F5F5F5F5F5F5F5F5F5F5F5F5F5E2F5F5F5E2E2EFEFEFEFEFEFEFEFEFEFEFEFEF
310
EFEFEFEFEFEFF5F5F5F5F5F5F5F5F5F5F5F5F5F5F5F5F5F5F5F5F5F5F5F5F5F5F5F5F5F5F5F5F5F5F5F5F5F5F5F5F5F5F5F5F5F5F5F5F5F5F5F5F5F5F5F5F5F5F5F5F5F5F5F5F5F5F5F5F5F5F5F5F5F5F5F5F5F5F5F5F5F5F5F5F5F5F5F5F5F5F5F5F5F5F5F5F5F5F5F5F5F5F5F5F5F5F5F5F5F5F5F5F5F5F5F5F5F5F5F5F5
310
F5F5F5F5F5F5F5F5F5F5F5F5F5F5F5F5F5F5F5F5F5F5F5F5F5F5F5F5F5F5F5F5F5F5E2F5F5F5E2E2EFEFEFEFEFEFEFEFEFEFEFEFEFEFEFEFEFEFEFF5F5F5F5F5F5F5F5F5F5F5F5F5F5F5F5F5F5F5F5F5F5F5F5F5F5F5F5F5F5F5F5F5F5F5F5F5F5F5F5F5F5F5F5F5F5F5F5F5F5F5F5F5F5F5F5F5F5F5F5F5F5F5F5F5F5F5F5
310
F5F5F5F5F5F5F5F5F5F5F5F5F5F5F5F5F5F5F5F5F5F5F5F5F5F5F5F5F5F5F5F5F5F5F5F5F5F5F5F5F5F5F5F5F5F5F5F5F5F5F5F5F5F5F5F5F5F5F5F5F5F5F5F5F5F5F5F5F5F5F5F5F5F5F5F5F5F5F5F5F5F5F5F5F5F5F5E2F5F5F5E2E2EFEFEFEFEFEFEFEFEFEFEFEFEFEFEFEFEFEFEFF5F5F5F5F5F5F5F5F5F5F5F5F5F5F5
310
F5F5F5F5F5F5F5F5F5F5F5F5F5F5F5F5F5F5F5F5F5F5F5F5F5F5F5F5F5F5F5F5F5F5F5F5F5F5F5F5F5F5F5F5F5F5F5F5F5F5F5F5F5F5F5F5F5F5F5F5F5F5F5F5F5F5F5F5F5F5F5F5F5F5F5F5F5F5F5F5F5F5F5F5F5F5F5F5F5F5F5F5F5F5F5F5F5F5F5F5F5F5F5F5F5F5F5F5F5F5F5F5F5F5F5F5F5F5F5F5F5F5F5F5F5F5F5
310
F5F5F5F5F5F5F5F5F5F5F5F5F5E2F5F5F5E2E2EFEFEFEFEFEFEFEFEFEFEFEFEFEFEFEFEFEFEFF5F5F5F5F5F5F5F5F5F5F5F5F5F5F5F5F5F5F5F5F5F5F5F5F5F5F5F5F5F5F5F5F5F5F5F5F5F5F5F5F5F5F5F5F5F5F5F5F5F5F5F5F5F5F5F5F5F5F5F5F5F5F5F5F5F5F5F5F5F5F5F5F5F5F5F5F5F5F5F5F5F5F5F5F5F5F5F5F5
310
F5F5F5F5F5F5F5F5F5F5F5F5F5F5F5F5F5F5F5F5F5F5F5F5F5F5F5F5F5F5F5F5F5F5F5F5F5F5F5F5F5F5F5F5F5F5F5F5F5F5F5F5F5F5F5F5F5F5F5F5F5F5F5F5F5F5E2F5F5F5E2E2EFEFEFEFEFEFEFEFEFEFEFEFEFEFEFEFEFEFEFF5F5F5F5F5F5F5F5F5F5F5F5F5F5F5F5F5F5F5F5F5F5F5F5F5F5F5F5F5F5F5F5F5F5F5F5
310
F5F5F5F5F5F5F5F5F5F5F5F5F5F5F5F5F5F5F5F5F5F5F5F5F5F5F5F5F5F5F5F5F5F5F5F5F5F5F5F5F5F5F5F5F5F5F5F5F5F5F5F5F5F5F5F5F5F5F5F5F5F5F5F5F5F5F5F5F5F5F5F5F5F5F5F5F5F5F5F5F5F5F5F5F5F5F5F5F5F5F5F5F5F5F5F5F5F5F5F5F5F5F5F5F5F5F5F5F5F5F5F5F5F5F5F5F5F5F5F5F5F5F5E2E2EFEF
310
EFEFEFEFEFEFEFEFEFEFEFEFEFEFEFEFEFF5F5F5F5F5F5F5F5F5F5F5F5F5F5F5F5F5F5F5F5F5F5F5F5F5F5F5F5F5F5F5F5F5F5F5F5F5F5F5F5F5F5F5F5F5F5F5F5F5F5F5F5F5F5F5F5F5F5F5F5F5F5F5F5F5F5F5F5F5F5F5F5F5F5F5F5F5F5F5F5F5F5F5F5F5F5F5F5F5F5F5F5F5F5F5F5F5F5F5F5F5F5F5F5F5F5F5F5F5F5
310
F5F5F5F5F5F5F5F5F5F5F5F5F5F5F5F5F5F5F5F5F5F5F5F5F5F5F5F5F5F5F5F5F5F5F5F5F5F5F5F5F5F5F5F5F5F5F5F5F5E2E2EFEFEFEFEFEFEFEFEFEFEFEFEFEFEFEFEFEFEFF5F5F5F5F5F5F5F5F5F5F5F5F5F5F5F5F5F5F5F5F5F5F5F5F5F5F5F5F5F5F5F5F5F5F5F5F5F5F5F5F5F5F5F5F5F5F5F5F5F5F5F5F5F5F5F5F5
310
F5F5F5F5F5F5F5F5F5F5F5F5F5F5F5F5F5F5F5F5F5F5F5F5F5F5F5F5F5F5F5F5F5F5F5F5F5F5F5F5F5F5F5F5F5F5F5F5F5F5F5F5F5F5F5F5F5F5F5F5F5F5F5F5F5F5F5F5F5F5F5F5F5F5F5F5F5F5F5F5F5F5F5F5F5F5F5F5F5F5F5F5F5F5F5F5F5F5F5F5F5F5E2E2EFEFEFEFEFEFEFEFEFEFEFEFEFEFEFEFEFEFEFF5F5F5F5
310
F5F5F5F5F5F5F5F5F5F5F5F5F5F5F5F5F5F5F5F5F5F5F5F5F5F5F5F5F5F5F5F5F5F5F5F5F5F5F5F5F5F5F5F5F5F5F5F5F5F5F5F5F5F5F5F5F5F5F5F5F5F5F5F5F5F5F5F5F5F5F5F5F5F5F5F5F5F5F5F5F5F5F5F5F5F5F5F5F5F5F5F5F5F5F5F5F5F5F5F5F5F5F5F5F5F5F5F5F5F5F5F5F5F5F5F5F5F5F5F5F5F5F5F5F5F5F5
310
F5F5F5F5F5F5F5F5F5F5F5F5F5F5F5F5F5F5F5F5F5F5F5F5F5F5F5F5E2E2EFEFEFEFEFEFEFEFEFEFEFEFEFEFEFEFEFEFEFF5F5F5F5F5F5F5F5F5F5F5F5F5F5F5F5F5F5F5F5F5F5F5F5F5F5F5F5F5F5F5F5F5F5F5F5F5F5F5F5F5F5F5F5F5F5F5F5F5F5F5F5F5F5F5F5F5F5F5F5F5F5F5F5F5F5F5F5F5F5F5F5F5F5F5F5F5F5
310
F5F5F5F5F5F5F5F5F5F5F5F5F5F5F5F5F5F5F5F5F5F5F5F5F5F5F5F5F5F5F5F5F5F5F5F5F5F5F5F5F5F5F5F5F5F5F5F5F5F5F5F5F5F5F5F5F5F5F5F5F5F5F5F5F5F5F5F5F5F5F5F5F5F5F5F5F5F5F5F5F5E2E2EFEFEFEFEFEFEFEFEFEFEFEFEFEFEFEFEFEFEFF5F5F5F5F5F5F5F5F5F5F5F5F5F5F5F5F5F5F5F5F5F5F5F5F5
310
F5F5F5F5F5F5F5F5F5F5F5F5F5F5F5F5F5F5F5F5F5F5F5F5F5F5F5F5F5F5F5F5F5F5F5F5F5F5F5F5F5F5F5F5F5F5F5F5F5F5F5F5F5F5F5F5F5F5F5F5F5F5F5F5F5F5F5F5F5F5F5F5F5F5F5F5F5F5F5F5F5F5F5F5F5F5F5F5F5F5F5F5F5F5F5F5F5F5F5F5F5F5F5F5F5F5F5F5F5F5F5F5F5F5F5F5F5F5F5F5F5F5F5F5F5F5F5
310
F5F5F5F5F5F5F5E2E2EFEFEFEFEFEFEFEFEFEFEFEFEFEFEFEFEFEFEFF5F5F5F5F5F5F5F5F5F5F5F5F5F5F5F5F5F5F5F5F5F5F5F5F5F5F5F5F5F5F5F5F5F5F5F5F5F5F5F5F5F5F5F5F5F5F5F5F5F5F5F5F5F5F5F5F5F5F5F5F5F5F5F5F5F5F5F5F5F5F5F5F5F5F5F5F5F5F5F5F5F5F5F5F5F5F5F5F5F5F5F5F5F5F5F5F5F5F5
310
F5F5F5F5F5F5F5F5F5F5F5F5F5F5F5F5F5F5F5F5F5F5F5F5F5F5F5F5F5F5F5F5F5F5F5F5F5F5F5F5F5F5F5F5F5F5F5F5F5F5F5F5F5F5F5F5F5F5F5F5E2E2EFEFEFEFEFEFEFEFEFEFEFEFEFEFEFEFEFEFEFF5F5F5F5F5F5F5F5F5F5F5F5F5F5F5F5F5F5F5F5F5F5F5F5F5F5F5F5F5F5F5F5F5F5F5F5F5F5F5F5F5F5F5F5F5F5
310
F5F5F5F5F5F5F5F5F5F5F5F5F5F5F5F5F5F5F5F5F5F5F5F5F5F5F5F5F5F5F5F5F5F5F5F5F5F5F5F5F5F5F5F5F5F5F5F5F5F5F5F5F5F5F5F5F5F5F5F5F5F5F5F5F5F5F5F5F5F5F5F5F5F5F5F5F5F5F5F5F5F5F5F5F5F5F5F5F5F5F5F5F5F5F5F5F5F5F5F5F5F5F5F5F5F5F5F5F5F5F5F5F5E2E2EFEFEFEFEFEFEFEFEFEFEFEF
310
EFEFEFEFEFEFEFF5F5F5F5F5F5F5F5F5F5F5F5F5F5F5F5F5F5F5F5F5F5F5F5F5F5F5F5F5F5F5F5F5F5F5F5F5F5F5F5F5F5F5F5F5F5F5F5F5F5F5F5F5F5F5F5F5F5F5F5F5F5F5F5F5F5F5F5F5F5F5F5F5F5F5F5F5F5F5F5F5F5F5F5F5F5F5F5F5F5F5F5F5F5F5F5F5F5F5F5F5F5F5F5F5F5F5F5F5F5F5F5F5F5F5F5F5F5F5F5
310
F5F5F5F5F5F5F5F5F5F5F5F5F5F5F5F5F5F5F5F5F5F5F5F5F5F5F5F5F5F5F5F5F5F5F5F5F5F5F5E2E2EFEFEFEFEFEFEFEFEFEFEFEFEFEFEFEFEFEFEFF5F5F5F5F5F5F5F5F5F5F5F5F5F5F5F5F5F5F5F5F5F5F5F5F5F5F5F5F5F5F5F5F5F5F5F5F5F5F5F5F5F5F5F5F5F5F5F5F5F5F5F5F5F5F5F5F5F5F5F5F5F5F5F5F5F5F5
310
F5F5F5F5F5F5F5F5F5F5F5F5F5F5F5F5F5F5F5F5F5F5F5F5F5F5F5F5F5F5F5F5F5F5F5F5F5F5F5F5F5F5F5F5F5F5F5F5F5F5F5F5F5F5F5F5F5F5F5F5F5F5F5F5F5F5F5F5F5F5F5F5F5F5F5F5F5F5F5F5F5F5F5F5F5F5F5F5E2F5F5F5E2E2EFEFEFEFEFEFEFEFEFEFEFEFEFEFEFEFEFEFEFF5F5F5F5F5F5F5F5F5F5F5F5F5F5
310
F5F5F5F5F5F5F5F5F5F5F5F5F5F5F5F5F5F5F5F5F5F5F5F5F5F5F5F5F5F5F5F5F5F5F5F5F5F5F5F5F5F5F5F5F5F5F5F5F5F5F5F5F5F5F5F5F5F5F5F5F5F5F5F5F5F5F5F5F5F5F5F5F5F5F5F5F5F5F5F5F5F5F5F5F5F5F5F5F5F5F5F5F5F5F5F5F5F5F5F5F5F5F5F5F5F5F5F5F5F5F5F5F5F5F5F5F5F5F5F5F5F5F5F5F5F5F5
310
F5F5F5F5F5F5F5F5F5F5F5F5F5F5E2F5F5F5E2E2EFEFEFEFEFEFEFEFEFEFEFEFEFEFEFEFEFEFEFF5F5F5F5F5F5F5F5F5F5F5F5F5F5F5F5F5F5F5F5F5F5F5F5F5F5F5F5F5F5F5F5F5F5F5F5F5F5F5F5F5F5F5F5F5F5F5F5F5F5F5F5F5F5F5F5F5F5F5F5F5F5F5F5F5F5F5F5F5F5F5F5F5F5F5F5F5F5F5F5F5F5F5F5F5F5F5F5
310
F5F5F5F5F5F5F5F5F5F5F5F5F5F5F5F5F5F5F5F5F5F5F5F5F5F5F5F5F5F5F5F5F5F5F5F5F5F5F5F5F5F5F5F5F5F5F5F5F5F5F5F5F5F5F5F5F5F5F5F5F5F5F5F5F5F5F5E2F5F5F5E2E2EFEFEFEFEFEFEFEFEFEFEFEFEFEFEFEFEFEFEFF5F5F5F5F5F5F5F5F5F5F5F5F5F5F5F5F5F5F5F5F5F5F5F5F5F5F5F5F5F5F5F5F5F5F5
310
F5F5F5F5F5F5F5F5F5F5F5F5F5F5F5F5F5F5F5F5F5F5F5F5F5F5F5F5F5F5F5F5F5F5F5F5F5F5F5F5F5F5F5F5F5F5F5F5F5F5F5F5F5F5F5F5F5F5F5F5F5F5F5F5F5F5F5F5F5F5F5F5F5F5F5F5F5F5F5F5F5F5F5F5F5F5F5F5F5F5F5F5F5F5F5F5F5F5F5F5F5F5F5F5F5F5F5F5F5F5F5F5F5F5F5F5F5F5F5F5E2F5F5F5E2E2EF
310
EFEFEFEFEFEFEFEFEFEFEFEFEFEFEFEFEFEFF5F5F5F5F5F5F5F5F5F5F5F5F5F5F5F5F5F5F5F5F5F5F5F5F5F5F5F5F5F5F5F5F5F5F5F5F5F5F5F5F5F5F5F5F5F5F5F5F5F5F5F5F5F5F5F5F5F5F5F5F5F5F5F5F5F5F5F5F5F5F5F5F5F5F5F5F5F5F5F5F5F5F5F5F5F5F5F5F5F5F5F5F5F5F5F5F5F5F5F5F5F5F5F5F5F5F5F5F5
310
F5F5F5F5F5F5F5F5F5F5F5F5F5F5F5F5F5F5F5F5F5F5F5F5F5F5F5F5F5F5F5F5F5F5F5F5F5F5F5F5F5F5F5F5F5F5E2F5F5F5E2E2EFEFEFEFEFEFEFEFEFEFEFEFEFEFEFEFEFEFEFF5F5F5F5F5F5F5F5F5F5F5F5F5F5F5F5F5F5F5F5F5F5F5F5F5F5F5F5F5F5F5F5F5F5F5F5F5F5F5F5F5F5F5F5F5F5F5F5F5F5F5F5F5F5F5F5
310
F5F5F5F5F5F5F5F5F5F5F5F5F5F5F5F5F5F5F5F5F5F5F5F5F5F5F5F5F5F5F5F5F5F5F5F5F5F5F5F5F5F5F5F5F5F5F5F5F5F5F5F5F5F5F5F5F5F5F5F5F5F5F5F5F5F5F5F5F5F5F5F5F5F5F5F5F5F5F5F5F5F5F5F5F5F5F5F5F5F5F5F5F5F5F5F5F5F5F5E2F5F5F5E2E2EFEFEFEFEFEFEFEFEFEFEFEFEFEFEFEFEFEFEFF5F5F5
310
F5F5F5F5F5F5F5F5F5F5F5F5F5F5F5F5F5F5F5F5F5F5F5F5F5F5F5F5F5F5F5F5F5F5F5F5F5F5F5F5F5F5F5F5F5F5F5F5F5F5F5F5F5F5F5F5F5F5F5F5F5F5F5F5F5F5F5F5F5F5F5F5F5F5F5F5F5F5F5F5F5F5F5F5F5F5F5F5F5F5F5F5F5F5F5F5F5F5F5F5F5F5F5F5F5F5F5F5F5F5F5F5F5F5F5F5F5F5F5F5F5F5F5F5F5F5F5
310
F5F5F5F5F5F5F5F5F5F5F5F5F5F5F5F5F5F5F5F5F5F5F5F5F5E2F5F5F5E2E2EFEFEFEFEFEFEFEFEFEFEFEFEFEFEFEFEFEFEFF5F5F5F5F5F5F5F5F5F5F5F5F5F5F5F5F5F5F5F5F5F5F5F5F5F5F5F5F5F5F5F5F5F5F5F5F5F5F5F5F5F5F5F5F5F5F5F5F5F5F5F5F5F5F5F5F5F5F5F5F5F5F5F5F5F5F5F5F5F5F5F5F5F5F5F5F5
310
F5F5F5F5F5F5F5F5F5F5F5F5F5F5F5F5F5F5F5F5F5F5F5F5F5F5F5F5F5F5F5F5F5F5F5F5F5F5F5F5F5F5F5F5F5F5F5F5F5F5F5F5F5F5F5F5F5F5F5F5F5F5F5F5F5F5F5F5F5F5F5F5F5F5F5F5F5F5E2F5F5F5E2E2EFEFEFEFEFEFEFEFEFEFEFEFEFEFEFEFEFEFEFF5F5F5F5F5F5F5F5F5F5F5F5F5F5F5F5F5F5F5F5F5F5F5F5
310
F5F5F5F5F5F5F5F5F5F5F5F5F5F5F5F5F5F5F5F5F5F5F5F5F5F5F5F5F5F5F5F5F5F5F5F5F5F5F5F5F5F5F5F5F5F5F5F5F5F5F5F5F5F5F5F5F5F5F5F5F5F5F5F5F5F5F5F5F5F5F5F5F5F5F5F5F5F5F5F5F5F5F5F5F5F5F5F5F5F5F5F5F5F5F5F5F5F5F5F5F5F5F5F5F5F5F5F5F5F5F5F5F5F5F5F5F5F5F5F5F5F5F5F5F5F5F5
310
F5F5F5F5E2F5F5F5E2E2EFEFEFEFEFEFEFEFEFEFEFEFEFEFEFEFEFEFEFF5F5F5F5F5F5F5F5F5F5F5F5F5F5F5F5F5F5F5F5F5F5F5F5F5F5F5F5F5F5F5F5F5F5F5F5F5F5F5F5F5F5F5F5F5F5F5F5F5F5F5F5F5F5F5F5F5F5F5F5F5F5F5F5F5F5F5F5F5F5F5F5F5F5F5F5F5F5F5F5F5F5F5F5F5F5F5F5F5F5F5F5F5F5F5F5F5F5
310
F5F5F5F5F5F5F5F5F5F5F5F5F5F5F5F5F5F5F5F5F5F5F5F5F5F5F5F5F5F5F5F5F5F5F5F5F5F5F5F5F5F5F5F5F5F5F5F5F5F5F5F5F5F5F5F5F5E2F5F5F5E2E2EFEFEFEFEFEFEFEFEFEFEFEFEFEFEFEFEFEFEFF5F5F5F5F5F5F5F5F5F5F5F5F5F5F5F5F5F5F5F5F5F5F5F5F5F5F5F5F5F5F5F5F5F5F5F5F5F5F5F5F5F5F5F5F5
310
F5F5F5F5F5F5F5F5F5F5F5F5F5F5F5F5F5F5F5F5F5F5F5F5F5F5F5F5F5F5F5F5F5F5F5F5F5F5F5F5F5F5F5F5F5F5F5F5F5F5F5F5F5F5F5F5F5F5F5F5F5F5F5F5F5F5F5F5F5F5F5F5F5F5F5F5F5F5F5F5F5F5F5F5F5F5F5F5F5F5F5F5F5F5F5F5F5F5F5F5F5F5F5F5F5F5F5F5F5F5E2F5F5F5E2E2EFEFEFEFEFEFEFEFEFEFEF
310
EFEFEFEFEFEFEFEFF5F5F5F5F5F5F5F5F5F5F5F5F5F5F5F5F5F5F5F5F5F5F5F5F5F5F5F5F5F5F5F5F5F5F5F5F5F5F5F5F5F5F5F5F5F5F5F5F5F5F5F5F5F5F5F5F5F5F5F5F5F5F5F5F5F5F5F5F5F5F5F5F5F5F5F5F5F5F5F5F5F5F5F5F5F5F5F5F5F5F5F5F5F5F5F5F5F5F5F5F5F5F5F5F5F5F5F5F5F5F5F5F5F5F5F5F5F5F5
310
F5F5F5F5F5F5F5F5F5F5F5F5F5F5F5F5F5F5F5F5F5F5F5F5F5F5F5F5F5F5F5F5F5F5F5F5E2F5F5F5E2E2EFEFEFEFEFEFEFEFEFEFEFEFEFEFEFEFEFEFEFF5F5F5F5F5F5F5F5F5F5F5F5F5F5F5F5F5F5F5F5F5F5F5F5F5F5F5F5F5F5F5F5F5F5F5F5F5F5F5F5F5F5F5F5F5F5F5F5F5F5F5F5F5F5F5F5F5F5F5F5F5F5F5F5F5F5
310
F5F5F5F5F5F5F5F5F5F5F5F5F5F5F5F5F5F5F5F5F5F5F5F5F5F5F5F5F5F5F5F5F5F5F5F5F5F5F5F5F5F5F5F5F5F5F5F5F5F5F5F5F5F5F5F5F5F5F5F5F5F5F5F5F5F5F5F5F5F5F5F5F5F5F5F5F5F5F5F5F5F5F5F5F5F5F5F5F5E2F5F5F5E2E2EFEFEFEFEFEFEFEFEFEFEFEFEFEFEFEFEFEFEFF5F5F5F5F5F5F5F5F5F5F5F5F5
310
F5F5F5F5F5F5F5F5F5F5F5F5F5F5F5F5F5F5F5F5F5F5F5F5F5F5F5F5F5F5F5F5F5F5F5F5F5F5F5F5F5F5F5F5F5F5F5F5F5F5F5F5F5F5F5F5F5F5F5F5F5F5F5F5F5F5F5F5F5F5F5F5F5F5F5F5F5F5F5F5F5F5F5F5F5F5F5F5F5F5F5F5F5F5F5F5F5F5F5F5F5F5F5F5F5F5F5F5F5F5F5F5F5F5F5F5F5F5F5F5F5F5F5F5F5F5F5
310
F5F5F5F5F5F5F5F5F5F5F5F5F5F5F5E2F5F5F5E2E2EFEFEFEFEFEFEFEFEFEFEFEFEFEFEFEFEFEFEFF5F5F5F5F5F5F5F5F5F5F5F5F5F5F5F5F5F5F5F5F5F5F5F5F5F5F5F5F5F5F5F5F5F5F5F5F5F5F5F5F5F5F5F5F5F5F5F5F5F5F5F5F5F5F5F5F5F5F5F5F5F5F5F5F5F5F5F5F5F5F5F5F5F5F5F5F5F5F5F5F5F5F5F5F5F5F5
310
F5F5F5F5F5F5F5F5F5F5F5F5F5F5F5F5F5F5F5F5F5F5F5F5F5F5F5F5F5F5F5F5F5F5F5F5F5F5F5F5F5F5F5F5F5F5F5F5F5F5F5F5F5F5F5F5F5F5F5F5F5F5F5F5F5F5F5F5E2F5F5F5E2E2EFEFEFEFEFEFEFEFEFEFEFEFEFEFEFEFEFEFEFF5F5F5F5F5F5F5F5F5F5F5F5F5F5F5F5F5F5F5F5F5F5F5F5F5F5F5F5F5F5F5F5F5F5
310
F5F5F5F5F5F5F5F5F5F5F5F5F5F5F5F5F5F5F5F5F5F5F5F5F5F5F5F5F5F5F5F5F5F5F5F5F5F5F5F5F5F5F5F5F5F5F5F5F5F5F5F5F5F5F5F5F5F5F5F5F5F5F5F5F5F5F5F5F5F5F5F5F5F5F5F5F5F5F5F5F5F5F5F5F5F5F5F5F5F5F5F5F5F5F5F5F5F5F5F5F5F5F5F5F5F5F5F5F5F5F5F5F5F5F5F5F5F5F5F5F5F5F5F5F5E2E2
310
EFEFEFEFEFEFEFEFEFEFEFEFEFEFEFEFEFEFEFF5F5F5F5F5F5F5F5F5F5F5F5F5F5F5F5F5F5F5F5F5F5F5F5F5F5F5F5F5F5F5F5F5F5F5F5F5F5F5F5F5F5F5F5F5F5F5F5F5F5F5F5F5F5F5F5F5F5F5F5F5F5F5F5F5F5F5F5F5F5F5F5F5F5F5F5F5F5F5F5F5F5F5F5F5F5F5F5F5F5F5F5F5F5F5F5F5F5F5F5F5F5F5F5F5F5F5F5
310
F5F5F5F5F5F5F5F5F5F5F5F5F5F5F5F5F5F5F5F5F5F5F5F5F5F5F5F5F5F5F5F5F5F5F5F5F5F5F5F5F5F5F5F5F5F5F5F5F5F5F5E2E2EFEFEFEFEFEFEFEFEFEFEFEFEFEFEFEFEFEFEFF5F5F5F5F5F5F5F5F5F5F5F5F5F5F5F5F5F5F5F5F5F5F5F5F5F5F5F5F5F5F5F5F5F5F5F5F5F5F5F5F5F5F5F5F5F5F5F5F5F5F5F5F5F5F5
310
F5F5F5F5F5F5F5F5F5F5F5F5F5F5F5F5F5F5F5F5F5F5F5F5F5F5F5F5F5F5F5F5F5F5F5F5F5F5F5F5F5F5F5F5F5F5F5F5F5F5F5F5F5F5F5F5F5F5F5F5F5F5F5F5F5F5F5F5F5F5F5F5F5F5F5F5F5F5F5F5F5F5F5F5F5F5F5F5F5F5F5F5F5F5F5F5F5F5F5F5F5F5F5F5E2E2EFEFEFEFEFEFEFEFEFEFEFEFEFEFEFEFEFEFEFF5F5
310
F5F5F5F5F5F5F5F5F5F5F5F5F5F5F5F5F5F5F5F5F5F5F5F5F5F5F5F5F5F5F5F5F5F5F5F5F5F5F5F5F5F5F5F5F5F5F5F5F5F5F5F5F5F5F5F5F5F5F5F5F5F5F5F5F5F5F5F5F5F5F5F5F5F5F5F5F5F5F5F5F5F5F5F5F5F5F5F5F5F5F5F5F5F5F5F5F5F5F5F5F5F5F5F5F5F5F5F5F5F5F5F5F5F5F5F5F5F5F5F5F5F5F5F5F5F5F5
310
F5F5F5F5F5F5F5F5F5F5F5F5F5F5F5F5F5F5F5F5F5F5F5F5F5F5F5F5F5F5E2E2EFEFEFEFEFEFEFEFEFEFEFEFEFEFEFEFEFEFEFF5F5F5F5F5F5F5F5F5F5F5F5F5F5F5F5F5F5F5F5F5F5F5F5F5F5F5F5F5F5F5F5F5F5F5F5F5F5F5F5F5F5F5F5F5F5F5F5F5F5F5F5F5F5F5F5F5F5F5F5F5F5F5F5F5F5F5F5F5F5F5F5F5F5F5F5
310
F5F5F5F5F5F5F5F5F5F5F5F5F5F5F5F5F5F5F5F5F5F5F5F5F5F5F5F5F5F5F5F5F5F5F5F5F5F5F5F5F5F5F5F5F5F5F5F5F5F5F5F5F5F5F5F5F5F5F5F5F5F5F5F5F5F5F5F5F5F5F5F5F5F5F5F5F5F5F5F5F5F5F5E2E2EFEFEFEFEFEFEFEFEFEFEFEFEFEFEFEFEFEFEFF5F5F5F5F5F5F5F5F5F5F5F5F5F5F5F5F5F5F5F5F5F5F5
310
F5F5F5F5F5F5F5F5F5F5F5F5F5F5F5F5F5F5F5F5F5F5F5F5F5F5F5F5F5F5F5F5F5F5F5F5F5F5F5F5F5F5F5F5F5F5F5F5F5F5F5F5F5F5F5F5F5F5F5F5F5F5F5F5F5F5F5F5F5F5F5F5F5F5F5F5F5F5F5F5F5F5F5F5F5F5F5F5F5F5F5F5F5F5F5F5F5F5F5F5F5F5F5F5F5F5F5F5F5F5F5F5F5F5F5F5F5F5F5F5F5F5F5F5F5F5F5
310
F5F5F5F5F5F5F5F5F5E2E2EFEFEFEFEFEFEFEFEFEFEFEFEFEFEFEFEFEFEFF5F5F5F5F5F5F5F5F5F5F5F5F5F5F5F5F5F5F5F5F5F5F5F5F5F5F5F5F5F5F5F5F5F5F5F5F5F5F5F5F5F5F5F5F5F5F5F5F5F5F5F5F5F5F5F5F5F5F5F5F5F5F5F5F5F5F5F5F5F5F5F5F5F5F5F5F5F5F5F5F5F5F5F5F5F5F5F5F5F5F5F5F5F5F5F5F5
310
F5F5F5F5F5F5F5F5F5F5F5F5F5F5F5F5F5F5F5F5F5F5F5F5F5F5F5F5F5F5F5F5F5F5F5F5F5F5F5F5F5F5F5F5F5F5F5F5F5F5F5F5F5F5F5F5F5F5F5F5F5F5E2E2EFEFEFEFEFEFEFEFEFEFEFEFEFEFEFEFEFEFEFF5F5F5F5F5F5F5F5F5F5F5F5F5F5F5F5F5F5F5F5F5F5F5F5F5F5F5F5F5F5F5F5F5F5F5F5F5F5F5F5F5F5F5F5
310
F5F5F5F5F5F5F5F5F5F5F5F5F5F5F5F5F5F5F5F5F5F5F5F5F5F5F5F5F5F5F5F5F5F5F5F5F5F5F5F5F5F5F5F5F5F5F5F5F5F5F5F5F5F5F5F5F5F5F5F5F5F5F5F5F5F5F5F5F5F5F5F5F5F5F5F5F5F5F5F5F5F5F5F5F5F5F5F5F5F5F5F5F5F5F5F5F5F5F5F5F5F5F5F5F5F5F5F5F5F5F5F5F5F5F5E2E2EFEFEFEFEFEFEFEFEFEF
310
EFEFEFEFEFEFEFEFEFF5F5F5F5F5F5F5F5F5F5F5F5F5F5F5F5F5F5F5F5F5F5F5F5F5F5F5F5F5F5F5F5F5F5F5F5F5F5F5F5F5F5F5F5F5F5F5F5F5F5F5F5F5F5F5F5F5F5F5F5F5F5F5F5F5F5F5F5F5F5F5F5F5F5F5F5F5F5F5F5F5F5F5F5F5F5F5F5F5F5F5F5F5F5F5F5F5F5F5F5F5F5F5F5F5F5F5F5F5F5F5F5F5F5F5F5F5F5
310
F5F5F5F5F5F5F5F5F5F5F5F5F5F5F5F5F5F5F5F5F5F5F5F5F5F5F5F5F5F5F5F5F5F5F5F5F5E2F5F5F5E2E2EFEFEFEFEFEFEFEFEFEFEFEFEFEFEFEFEFEFEFF5F5F5F5F5F5F5F5F5F5F5F5F5F5F5F5F5F5F5F5F5F5F5F5F5F5F5F5F5F5F5F5F5F5F5F5F5F5F5F5F5F5F5F5F5F5F5F5F5F5F5F5F5F5F5F5F5F5F5F5F5F5F5F5F5
310
F5F5F5F5F5F5F5F5F5F5F5F5F5F5F5F5F5F5F5F5F5F5F5F5F5F5F5F5F5F5F5F5F5F5F5F5F5F5F5F5F5F5F5F5F5F5F5F5F5F5F5F5F5F5F5F5F5F5F5F5F5F5F5F5F5F5F5F5F5F5F5F5F5F5F5F5F5F5F5F5F5F5F5F5F5F5F5F5F5F5E2F5F5F5E2E2EFEFEFEFEFEFEFEFEFEFEFEFEFEFEFEFEFEFEFF5F5F5F5F5F5F5F5F5F5F5F5
310
F5F5F5F5F5F5F5F5F5F5F5F5F5F5F5F5F5F5F5F5F5F5F5F5F5F5F5F5F5F5F5F5F5F5F5F5F5F5F5F5F5F5F5F5F5F5F5F5F5F5F5F5F5F5F5F5F5F5F5F5F5F5F5F5F5F5F5F5F5F5F5F5F5F5F5F5F5F5F5F5F5F5F5F5F5F5F5F5F5F5F5F5F5F5F5F5F5F5F5F5F5F5F5F5F5F5F5F5F5F5F5F5F5F5F5F5F5F5F5F5F5F5F5F5F5F5F5
310
F5F5F5F5F5F5F5F5F5F5F5F5F5F5F5F5E2F5F5F5E2E2EFEFEFEFEFEFEFEFEFEFEFEFEFEFEFEFEFEFEFF5F5F5F5F5F5F5F5F5F5F5F5F5F5F5F5F5F5F5F5F5F5F5F5F5F5F5F5F5F5F5F5F5F5F5F5F5F5F5F5F5F5F5F5F5F5F5F5F5F5F5F5F5F5F5F5F5F5F5F5F5F5F5F5F5F5F5F5F5F5F5F5F5F5F5F5F5F5F5F5F5F5F5F5F5F5
310
F5F5F5F5F5F5F5F5F5F5F5F5F5F5F5F5F5F5F5F5F5F5F5F5F5F5F5F5F5F5F5F5F5F5F5F5F5F5F5F5F5F5F5F5F5F5F5F5F5F5F5F5F5F5F5F5F5F5F5F5F5F5F5F5F5F5F5F5F5E2F5F5F5E2E2EFEFEFEFEFEFEFEFEFEFEFEFEFEFEFEFEFEFEFF5F5F5F5F5F5F5F5F5F5F5F5F5F5F5F5F5F5F5F5F5F5F5F5F5F5F5F5F5F5F5F5F5
310
F5F5F5F5F5F5F5F5F5F5F5F5F5F5F5F5F5F5F5F5F5F5F5F5F5F5F5F5F5F5F5F5F5F5F5F5F5F5F5F5F5F5F5F5F5F5F5F5F5F5F5F5F5F5F5F5F5F5F5F5F5F5F5F5F5F5F5F5F5F5F5F5F5F5F5F5F5F5F5F5F5F5F5F5F5F5F5F5F5F5F5F5F5F5F5F5F5F5F5F5F5F5F5F5F5F5F5F5F5F5F5F5F5F5F5F5F5F5F5F5F5F5E2F5F5F5E2
310
E2EFEFEFEFEFEFEFEFEFEFEFEFEFEFEFEFEFEFEFF5F5F5F5F5F5F5F5F5F5F5F5F5F5F5F5F5F5F5F5F5F5F5F5F5F5F5F5F5F5F5F5F5F5F5F5F5F5F5F5F5F5F5F5F5F5F5F5F5F5F5F5F5F5F5F5F5F5F5F5F5F5F5F5F5F5F5F5F5F5F5F5F5F5F5F5F5F5F5F5F5F5F5F5F5F5F5F5F5F5F5F5F5F5F5F5F5F5F5F5F5F5F5F5F5F5F5
310
F5F5F5F5F5F5F5F5F5F5F5F5F5F5F5F5F5F5F5F5F5F5F5F5F5F5F5F5F5F5F5F5F5F5F5F5F5F5F5F5F5F5F5F5F5F5F5F5E2F5F5F5E2E2EFEFEFEFEFEFEFEFEFEFEFEFEFEFEFEFEFEFEFF5F5F5F5F5F5F5F5F5F5F5F5F5F5F5F5F5F5F5F5F5F5F5F5F5F5F5F5F5F5F5F5F5F5F5F5F5F5F5F5F5F5F5F5F5F5F5F5F5F5F5F5F5F5
310
F5F5F5F5F5F5F5F5F5F5F5F5F5F5F5F5F5F5F5F5F5F5F5F5F5F5F5F5F5F5F5F5F5F5F5F5F5F5F5F5F5F5F5F5F5F5F5F5F5F5F5F5F5F5F5F5F5F5F5F5F5F5F5F5F5F5F5F5F5F5F5F5F5F5F5F5F5F5F5F5F5F5F5F5F5F5F5F5F5F5F5F5F5F5F5F5F5F5F5F5F5E2F5F5F5E2E2EFEFEFEFEFEFEFEFEFEFEFEFEFEFEFEFEFEFEFF5
310
F5F5F5F5F5F5F5F5F5F5F5F5F5F5F5F5F5F5F5F5F5F5F5F5F5F5F5F5F5F5F5F5F5F5F5F5F5F5F5F5F5F5F5F5F5F5F5F5F5F5F5F5F5F5F5F5F5F5F5F5F5F5F5F5F5F5F5F5F5F5F5F5F5F5F5F5F5F5F5F5F5F5F5F5F5F5F5F5F5F5F5F5F5F5F5F5F5F5F5F5F5F5F5F5F5F5F5F5F5F5F5F5F5F5F5F5F5F5F5F5F5F5F5F5F5F5F5
310
F5F5F5F5F5F5F5F5F5F5F5F5F5F5F5F5F5F5F5F5F5F5F5F5F5F5F5E2F5F5F5E2E2EFEFEFEFEFEFEFEFEFEFEFEFEFEFEFEFEFEFEFF5F5F5F5F5F5F5F5F5F5F5F5F5F5F5F5F5F5F5F5F5F5F5F5F5F5F5F5F5F5F5F5F5F5F5F5F5F5F5F5F5F5F5F5F5F5F5F5F5F5F5F5F5F5F5F5F5F5F5F5F5F5F5F5F5F5F5F5F5F5F5F5F5F5F5
310
F5F5F5F5F5F5F5F5F5F5F5F5F5F5F5F5F5F5F5F5F5F5F5F5F5F5F5F5F5F5F5F5F5F5F5F5F5F5F5F5F5F5F5F5F5F5F5F5F5F5F5F5F5F5F5F5F5F5F5F5F5F5F5F5F5F5F5F5F5F5F5F5F5F5F5F5F5F5F5F5E2F5F5F5E2E2EFEFEFEFEFEFEFEFEFEFEFEFEFEFEFEFEFEFEFF5F5F5F5F5F5F5F5F5F5F5F5F5F5F5F5F5F5F5F5F5F5
310
F5F5F5F5F5F5F5F5F5F5F5F5F5F5F5F5F5F5F5F5F5F5F5F5F5F5F5F5F5F5F5F5F5F5F5F5F5F5F5F5F5F5F5F5F5F5F5F5F5F5F5F5F5F5F5F5F5F5F5F5F5F5F5F5F5F5F5F5F5F5F5F5F5F5F5F5F5F5F5F5F5F5F5F5F5F5F5F5F5F5F5F5F5F5F5F5F5F5F5F5F5F5F5F5F5F5F5F5F5F5F5F5F5F5F5F5F5F5F5F5F5F5F5F5F5F5F5
310
F5F5F5F5F5F5E2F5F5F5E2E2EFEFEFEFEFEFEFEFEFEFEFEFEFEFEFEFEFEFEFF5F5F5F5F5F5F5F5F5F5F5F5F5F5F5F5F5F5F5F5F5F5F5F5F5F5F5F5F5F5F5F5F5F5F5F5F5F5F5F5F5F5F5F5F5F5F5F5F5F5F5F5F5F5F5F5F5F5F5F5F5F5F5F5F5F5F5F5F5F5F5F5F5F5F5F5F5F5F5F5F5F5F5F5F5F5F5F5F5F5F5F5F5F5F5F5
310
F5F5F5F5F5F5F5F5F5F5F5F5F5F5F5F5F5F5F5F5F5F5F5F5F5F5F5F5F5F5F5F5F5F5F5F5F5F5F5F5F5F5F5F5F5F5F5F5F5F5F5F5F5F5F5F5F5F5F5E2F5F5F5E2E2EFEFEFEFEFEFEFEFEFEFEFEFEFEFEFEFEFEFEFF5F5F5F5F5F5F5F5F5F5F5F5F5F5F5F5F5F5F5F5F5F5F5F5F5F5F5F5F5F5F5F5F5F5F5F5F5F5F5F5F5F5F5
310
F5F5F5F5F5F5F5F5F5F5F5F5F5F5F5F5F5F5F5F5F5F5F5F5F5F5F5F5F5F5F5F5F5F5F5F5F5F5F5F5F5F5F5F5F5F5F5F5F5F5F5F5F5F5F5F5F5F5F5F5F5F5F5F5F5F5F5F5F5F5F5F5F5F5F5F5F5F5F5F5F5F5F5F5F5F5F5F5F5F5F5F5F5F5F5F5F5F5F5F5F5F5F5F5F5F5F5F5F5F5F5F5E2F5F5F5E2E2EFEFEFEFEFEFEFEFEF
310
EFEFEFEFEFEFEFEFEFEFF5F5F5F5F5F5F5F5F5F5F5F5F5F5F5F5F5F5F5F5F5F5F5F5F5F5F5F5F5F5F5F5F5F5F5F5F5F5F5F5F5F5F5F5F5F5F5F5F5F5F5F5F5F5F5F5F5F5F5F5F5F5F5F5F5F5F5F5F5F5F5F5F5F5F5F5F5F5F5F5F5F5F5F5F5F5F5F5F5F5F5F5F5F5F5F5F5F5F5F5F5F5F5F5F5F5F5F5F5F5F5F5F5F5F5F5F5
310
F5F5F5F5F5F5F5F5F5F5F5F5F5F5F5F5F5F5F5F5F5F5F5F5F5F5F5F5F5F5F5F5F5F5F5F5F5F5E2F5F5F5E2E2EFEFEFEFEFEFEFEFEFEFEFEFEFEFEFEFEFEFEFF5F5F5F5F5F5F5F5F5F5F5F5F5F5F5F5F5F5F5F5F5F5F5F5F5F5F5F5F5F5F5F5F5F5F5F5F5F5F5F5F5F5F5F5F5F5F5F5F5F5F5F5F5F5F5F5F5F5F5F5F5F5F5F5
310
F5F5F5F5F5F5F5F5F5F5F5F5F5F5F5F5F5F5F5F5F5F5F5F5F5F5F5F5F5F5F5F5F5F5F5F5F5F5F5F5F5F5F5F5F5F5F5F5F5F5F5F5F5F5F5F5F5F5F5F5F5F5F5F5F5F5F5F5F5F5F5F5F5F5F5F5F5F5F5F5F5F5F5F5F5F5F5F5F5F5F5E2F5F5F5E2E2EFEFEFEFEFEFEFEFEFEFEFEFEFEFEFEFEFEFEFF5F5F5F5F5F5F5F5F5F5F5
310
F5F5F5F5F5F5F5F5F5F5F5F5F5F5F5F5F5F5F5F5F5F5F5F5F5F5F5F5F5F5F5F5F5F5F5F5F5F5F5F5F5F5F5F5F5F5F5F5F5F5F5F5F5F5F5F5F5F5F5F5F5F5F5F5F5F5F5F5F5F5F5F5F5F5F5F5F5F5F5F5F5F5F5F5F5F5F5F5F5F5F5F5F5F5F5F5F5F5F5F5F5F5F5F5F5F5F5F5F5F5F5F5F5F5F5F5F5F5F5F5F5F5F5F5F5F5F5
310
F5F5F5F5F5F5F5F5F5F5F5F5F5F5F5F5F5E2F5F5F5E2E2EFEFEFEFEFEFEFEFEFEFEFEFEFEFEFEFEFEFEFF5F5F5F5F5F5F5F5F5F5F5F5F5F5F5F5F5F5F5F5F5F5F5F5F5F5F5F5F5F5F5F5F5F5F5F5F5F5F5F5F5F5F5F5F5F5F5F5F5F5F5F5F5F5F5F5F5F5F5F5F5F5F5F5F5F5F5F5F5F5F5F5F5F5F5F5F5F5F5F5F5F5F5F5F5
310
F5F5F5F5F5F5F5F5F5F5F5F5F5F5F5F5F5F5F5F5F5F5F5F5F5F5F5F5F5F5F5F5F5F5F5F5F5F5F5F5F5F5F5F5F5F5F5F5F5F5F5F5F5F5F5F5F5F5F5F5F5F5F5F5F5F5F5F5F5F5E2F5F5F5E2E2EFEFEFEFEFEFEFEFEFEFEFEFEFEFEFEFEFEFEFF5F5F5F5F5F5F5F5F5F5F5F5F5F5F5F5F5F5F5F5F5F5F5F5F5F5F5F5F5F5F5F5
310
F5F5F5F5F5F5F5F5F5F5F5F5F5F5F5F5F5F5F5F5F5F5F5F5F5F5F5F5F5F5F5F5F5F5F5F5F5F5F5F5F5F5F5F5F5F5F5F5F5F5F5F5F5F5F5F5F5F5F5F5F5F5F5F5F5F5F5F5F5F5F5F5F5F5F5F5F5F5F5F5F5F5F5F5F5F5F5F5F5F5F5F5F5F5F5F5F5F5F5F5F5F5F5F5F5F5F5F5F5F5F5F5F5F5F5F5F5F5F5F5F5F5F5F5F5F5F5
310
E2E2EFEFEFEFEFEFEFEFEFEFEFEFEFEFEFEFEFEFEFF5F5F5F5F5F5F5F5F5F5F5F5F5F5F5F5F5F5F5F5F5F5F5F5F5F5F5F5F5F5F5F5F5F5F5F5F5F5F5F5F5F5F5F5F5F5F5F5F5F5F5F5F5F5F5F5F5F5F5F5F5F5F5F5F5F5F5F5F5F5F5F5F5F5F5F5F5F5F5F5F5F5F5F5F5F5F5F5F5F5F5F5F5F5F5F5F5F5F5F5F5F5F5F5F5F5
310
F5F5F5F5F5F5F5F5F5F5F5F5F5F5F5F5F5F5F5F5F5F5F5F5F5F5F5F5F5F5F5F5F5F5F5F5F5F5F5F5F5F5F5F5F5F5F5F5F5F5F5F5F5E2E2EFEFEFEFEFEFEFEFEFEFEFEFEFEFEFEFEFEFEFF5F5F5F5F5F5F5F5F5F5F5F5F5F5F5F5F5F5F5F5F5F5F5F5F5F5F5F5F5F5F5F5F5F5F5F5F5F5F5F5F5F5F5F5F5F5F5F5F5F5F5F5F5
310
F5F5F5F5F5F5F5F5F5F5F5F5F5F5F5F5F5F5F5F5F5F5F5F5F5F5F5F5F5F5F5F5F5F5F5F5F5F5F5F5F5F5F5F5F5F5F5F5F5F5F5F5F5F5F5F5F5F5F5F5F5F5F5F5F5F5F5F5F5F5F5F5F5F5F5F5F5F5F5F5F5F5F5F5F5F5F5F5F5F5F5F5F5F5F5F5F5F5F5F5F5F5F5F5F5F5E2E2EFEFEFEFEFEFEFEFEFEFEFEFEFEFEFEFEFEFEF
310
F5F5F5F5F5F5F5F5F5F5F5F5F5F5F5F5F5F5F5F5F5F5F5F5F5F5F5F5F5F5F5F5F5F5F5F5F5F5F5F5F5F5F5F5F5F5F5F5F5F5F5F5F5F5F5F5F5F5F5F5F5F5F5F5F5F5F5F5F5F5F5F5F5F5F5F5F5F5F5F5F5F5F5F5F5F5F5F5F5F5F5F5F5F5F5F5F5F5F5F5F5F5F5F5F5F5F5F5F5F5F5F5F5F5F5F5F5F5F5F5F5F5F5F5F5F5F5
310
F5F5F5F5F5F5F5F5F5F5F5F5F5F5F5F5F5F5F5F5F5F5F5F5F5F5F5F5F5F5F5F5E2E2EFEFEFEFEFEFEFEFEFEFEFEFEFEFEFEFEFEFEFF5F5F5F5F5F5F5F5F5F5F5F5F5F5F5F5F5F5F5F5F5F5F5F5F5F5F5F5F5F5F5F5F5F5F5F5F5F5F5F5F5F5F5F5F5F5F5F5F5F5F5F5F5F5F5F5F5F5F5F5F5F5F5F5F5F5F5F5F5F5F5F5F5F5
310
F5F5F5F5F5F5F5F5F5F5F5F5F5F5F5F5F5F5F5F5F5F5F5F5F5F5F5F5F5F5F5F5F5F5F5F5F5F5F5F5F5F5F5F5F5F5F5F5F5F5F5F5F5F5F5F5F5F5F5F5F5F5F5F5F5F5F5F5F5F5F5F5F5F5F5F5F5F5F5F5F5F5F5F5F5E2E2EFEFEFEFEFEFEFEFEFEFEFEFEFEFEFEFEFEFEFF5F5F5F5F5F5F5F5F5F5F5F5F5F5F5F5F5F5F5F5F5
310
F5F5F5F5F5F5F5F5F5F5F5F5F5F5F5F5F5F5F5F5F5F5F5F5F5F5F5F5F5F5F5F5F5F5F5F5F5F5F5F5F5F5F5F5F5F5F5F5F5F5F5F5F5F5F5F5F5F5F5F5F5F5F5F5F5F5F5F5F5F5F5F5F5F5F5F5F5F5F5F5F5F5F5F5F5F5F5F5F5F5F5F5F5F5F5F5F5F5F5F5F5F5F5F5F5F5F5F5F5F5F5F5F5F5F5F5F5F5F5F5F5F5F5F5F5F5F5
310
F5F5F5F5F5F5F5F5F5F5F5E2E2EFEFEFEFEFEFEFEFEFEFEFEFEFEFEFEFEFEFEFF5F5F5F5F5F5F5F5F5F5F5F5F5F5F5F5F5F5F5F5F5F5F5F5F5F5F5F5F5F5F5F5F5F5F5F5F5F5F5F5F5F5F5F5F5F5F5F5F5F5F5F5F5F5F5F5F5F5F5F5F5F5F5F5F5F5F5F5F5F5F5F5F5F5F5F5F5F5F5F5F5F5F5F5F5F5F5F5F5F5F5F5F5F5F5
310
F5F5F5F5F5F5F5F5F5F5F5F5F5F5F5F5F5F5F5F5F5F5F5F5F5F5F5F5F5F5F5F5F5F5F5F5F5F5F5F5F5F5F5F5F5F5F5F5F5F5F5F5F5F5F5F5F5F5F5F5F5F5F5F5E2E2EFEFEFEFEFEFEFEFEFEFEFEFEFEFEFEFEFEFEFF5F5F5F5F5F5F5F5F5F5F5F5F5F5F5F5F5F5F5F5F5F5F5F5F5F5F5F5F5F5F5F5F5F5F5F5F5F5F5F5F5F5
310
F5F5F5F5F5F5F5F5F5F5F5F5F5F5F5F5F5F5F5F5F5F5F5F5F5F5F5F5F5F5F5F5F5F5F5F5F5F5F5F5F5F5F5F5F5F5F5F5F5F5F5F5F5F5F5F5F5F5F5F5F5F5F5F5F5F5F5F5F5F5F5F5F5F5F5F5F5F5F5F5F5F5F5F5F5F5F5F5F5F5F5F5F5F5F5F5F5F5F5F5F5F5F5F5F5F5F5F5F5F5F5F5F5F5F5F5F5E2E2EFEFEFEFEFEFEFEF
310
EFEFEFEFEFEFEFEFEFEFEFF5F5F5F5F5F5F5F5F5F5F5F5F5F5F5F5F5F5F5F5F5F5F5F5F5F5F5F5F5F5F5F5F5F5F5F5F5F5F5F5F5F5F5F5F5F5F5F5F5F5F5F5F5F5F5F5F5F5F5F5F5F5F5F5F5F5F5F5F5F5F5F5F5F5F5F5F5F5F5F5F5F5F5F5F5F5F5F5F5F5F5F5F5F5F5F5F5F5F5F5F5F5F5F5F5F5F5F5F5F5F5F5F5F5F5F5
310
F5F5F5F5F5F5F5F5F5F5F5F5F5F5F5F5F5F5F5F5F5F5F5F5F5F5F5F5F5F5F5F5F5F5F5F5F5F5F5E2F5F5F5E2E2EFEFEFEFEFEFEFEFEFEFEFEFEFEFEFEFEFEFEFF5F5F5F5F5F5F5F5F5F5F5F5F5F5F5F5F5F5F5F5F5F5F5F5F5F5F5F5F5F5F5F5F5F5F5F5F5F5F5F5F5F5F5F5F5F5F5F5F5F5F5F5F5F5F5F5F5F5F5F5F5F5F5
310
F5F5F5F5F5F5F5F5F5F5F5F5F5F5F5F5F5F5F5F5F5F5F5F5F5F5F5F5F5F5F5F5F5F5F5F5F5F5F5F5F5F5F5F5F5F5F5F5F5F5F5F5F5F5F5F5F5F5F5F5F5F5F5F5F5F5F5F5F5F5F5F5F5F5F5F5F5F5F5F5F5F5F5F5F5F5F5F5F5F5F5F5E2F5F5F5E2E2EFEFEFEFEFEFEFEFEFEFEFEFEFEFEFEFEFEFEFF5F5F5F5F5F5F5F5F5F5
310
F5F5F5F5F5F5F5F5F5F5F5F5F5F5F5F5F5F5F5F5F5F5F5F5F5F5F5F5F5F5F5F5F5F5F5F5F5F5F5F5F5F5F5F5F5F5F5F5F5F5F5F5F5F5F5F5F5F5F5F5F5F5F5F5F5F5F5F5F5F5F5F5F5F5F5F5F5F5F5F5F5F5F5F5F5F5F5F5F5F5F5F5F5F5F5F5F5F5F5F5F5F5F5F5F5F5F5F5F5F5F5F5F5F5F5F5F5F5F5F5F5F5F5F5F5F5F5
310
F5F5F5F5F5F5F5F5F5F5F5F5F5F5F5F5F5F5E2F5F5F5E2E2EFEFEFEFEFEFEFEFEFEFEFEFEFEFEFEFEFEFEFF5F5F5F5F5F5F5F5F5F5F5F5F5F5F5F5F5F5F5F5F5F5F5F5F5F5F5F5F5F5F5F5F5F5F5F5F5F5F5F5F5F5F5F5F5F5F5F5F5F5F5F5F5F5F5F5F5F5F5F5F5F5F5F5F5F5F5F5F5F5F5F5F5F5F5F5F5F5F5F5F5F5F5F5
310
F5F5F5F5F5F5F5F5F5F5F5F5F5F5F5F5F5F5F5F5F5F5F5F5F5F5F5F5F5F5F5F5F5F5F5F5F5F5F5F5F5F5F5F5F5F5F5F5F5F5F5F5F5F5F5F5F5F5F5F5F5F5F5F5F5F5F5F5F5F5F5E2F5F5F5E2E2EFEFEFEFEFEFEFEFEFEFEFEFEFEFEFEFEFEFEFF5F5F5F5F5F5F5F5F5F5F5F5F5F5F5F5F5F5F5F5F5F5F5F5F5F5F5F5F5F5F5
310
F5F5F5F5F5F5F5F5F5F5F5F5F5F5F5F5F5F5F5F5F5F5F5F5F5F5F5F5F5F5F5F5F5F5F5F5F5F5F5F5F5F5F5F5F5F5F5F5F5F5F5F5F5F5F5F5F5F5F5F5F5F5F5F5F5F5F5F5F5F5F5F5F5F5F5F5F5F5F5F5F5F5F5F5F5F5F5F5F5F5F5F5F5F5F5F5F5F5F5F5F5F5F5F5F5F5F5F5F5F5F5F5F5F5F5F5F5F5F5F5F5F5F5F5E2F5F5
310
F5E2E2EFEFEFEFEFEFEFEFEFEFEFEFEFEFEFEFEFEFEFF5F5F5F5F5F5F5F5F5F5F5F5F5F5F5F5F5F5F5F5F5F5F5F5F5F5F5F5F5F5F5F5F5F5F5F5F5F5F5F5F5F5F5F5F5F5F5F5F5F5F5F5F5F5F5F5F5F5F5F5F5F5F5F5F5F5F5F5F5F5F5F5F5F5F5F5F5F5F5F5F5F5F5F5F5F5F5F5F5F5F5F5F5F5F5F5F5F5F5F5F5F5F5F5F5
310
F5F5F5F5F5F5F5F5F5F5F5F5F5F5F5F5F5F5F5F5F5F5F5F5F5F5F5F5F5F5F5F5F5F5F5F5F5F5F5F5F5F5F5F5F5F5F5F5F5F5E2F5F5F5E2E2EFEFEFEFEFEFEFEFEFEFEFEFEFEFEFEFEFEFEFF5F5F5F5F5F5F5F5F5F5F5F5F5F5F5F5F5F5F5F5F5F5F5F5F5F5F5F5F5F5F5F5F5F5F5F5F5F5F5F5F5F5F5F5F5F5F5F5F5F5F5F5
310
F5F5F5F5F5F5F5F5F5F5F5F5F5F5F5F5F5F5F5F5F5F5F5F5F5F5F5F5F5F5F5F5F5F5F5F5F5F5F5F5F5F5F5F5F5F5F5F5F5F5F5F5F5F5F5F5F5F5F5F5F5F5F5F5F5F5F5F5F5F5F5F5F5F5F5F5F5F5F5F5F5F5F5F5F5F5F5F5F5F5F5F5F5F5F5F5F5F5F5F5F5F5F5E2F5F5F5E2E2EFEFEFEFEFEFEFEFEFEFEFEFEFEFEFEFEFEF
310
EFF5F5F5F5F5F5F5F5F5F5F5F5F5F5F5F5F5F5F5F5F5F5F5F5F5F5F5F5F5F5F5F5F5F5F5F5F5F5F5F5F5F5F5F5F5F5F5F5F5F5F5F5F5F5F5F5F5F5F5F5F5F5F5F5F5F5F5F5F5F5F5F5F5F5F5F5F5F5F5F5F5F5F5F5F5F5F5F5F5F5F5F5F5F5F5F5F5F5F5F5F5F5F5F5F5F5F5F5F5F5F5F5F5F5F5F5F5F5F5F5F5F5F5F5F5F5
310
F5F5F5F5F5F5F5F5F5F5F5F5F5F5F5F5F5F5F5F5F5F5F5F5F5F5F5F5F5E2F5F5F5E2E2EFEFEFEFEFEFEFEFEFEFEFEFEFEFEFEFEFEFEFF5F5F5F5F5F5F5F5F5F5F5F5F5F5F5F5F5F5F5F5F5F5F5F5F5F5F5F5F5F5F5F5F5F5F5F5F5F5F5F5F5F5F5F5F5F5F5F5F5F5F5F5F5F5F5F5F5F5F5F5F5F5F5F5F5F5F5F5F5F5F5F5F5
310
F5F5F5F5F5F5F5F5F5F5F5F5F5F5F5F5F5F5F5F5F5F5F5F5F5F5F5F5F5F5F5F5F5F5F5F5F5F5F5F5F5F5F5F5F5F5F5F5F5F5F5F5F5F5F5F5F5F5F5F5F5F5F5F5F5F5F5F5F5F5F5F5F5F5F5F5F5F5F5F5F5F5E2F5F5F5E2E2EFEFEFEFEFEFEFEFEFEFEFEFEFEFEFEFEFEFEFF5F5F5F5F5F5F5F5F5F5F5F5F5F5F5F5F5F5F5F5
310
F5F5F5F5F5F5F5F5F5F5F5F5F5F5F5F5F5F5F5F5F5F5F5F5F5F5F5F5F5F5F5F5F5F5F5F5F5F5F5F5F5F5F5F5F5F5F5F5F5F5F5F5F5F5F5F5F5F5F5F5F5F5F5F5F5F5F5F5F5F5F5F5F5F5F5F5F5F5F5F5F5F5F5F5F5F5F5F5F5F5F5F5F5F5F5F5F5F5F5F5F5F5F5F5F5F5F5F5F5F5F5F5F5F5F5F5F5F5F5F5F5F5F5F5F5F5F5
310
F5F5F5F5F5F5F5F5E2F5F5F5E2E2EFEFEFEFEFEFEFEFEFEFEFEFEFEFEFEFEFEFEFF5F5F5F5F5F5F5F5F5F5F5F5F5F5F5F5F5F5F5F5F5F5F5F5F5F5F5F5F5F5F5F5F5F5F5F5F5F5F5F5F5F5F5F5F5F5F5F5F5F5F5F5F5F5F5F5F5F5F5F5F5F5F5F5F5F5F5F5F5F5F5F5F5F5F5F5F5F5F5F5F5F5F5F5F5F5F5F5F5F5F5F5F5F5
310
F5F5F5F5F5F5F5F5F5F5F5F5F5F5F5F5F5F5F5F5F5F5F5F5F5F5F5F5F5F5F5F5F5F5F5F5F5F5F5F5F5F5F5F5F5F5F5F5F5F5F5F5F5F5F5F5F5F5F5F5F5E2F5F5F5E2E2EFEFEFEFEFEFEFEFEFEFEFEFEFEFEFEFEFEFEFF5F5F5F5F5F5F5F5F5F5F5F5F5F5F5F5F5F5F5F5F5F5F5F5F5F5F5F5F5F5F5F5F5F5F5F5F5F5F5F5F5
310
F5F5F5F5F5F5F5F5F5F5F5F5F5F5F5F5F5F5F5F5F5F5F5F5F5F5F5F5F5F5F5F5F5F5F5F5F5F5F5F5F5F5F5F5F5F5F5F5F5F5F5F5F5F5F5F5F5F5F5F5F5F5F5F5F5F5F5F5F5F5F5F5F5F5F5F5F5F5F5F5F5F5F5F5F5F5F5F5F5F5F5F5F5F5F5F5F5F5F5F5F5F5F5F5F5F5F5F5F5F5F5F5F5F5E2F5F5F5E2E2EFEFEFEFEFEFEF
310
EFEFEFEFEFEFEFEFEFEFEFEFF5F5F5F5F5F5F5F5F5F5F5F5F5F5F5F5F5F5F5F5F5F5F5F5F5F5F5F5F5F5F5F5F5F5F5F5F5F5F5F5F5F5F5F5F5F5F5F5F5F5F5F5F5F5F5F5F5F5F5F5F5F5F5F5F5F5F5F5F5F5F5F5F5F5F5F5F5F5F5F5F5F5F5F5F5F5F5F5F5F5F5F5F5F5F5F5F5F5F5F5F5F5F5F5F5F5F5F5F5F5F5F5F5F5F5
310
F5F5F5F5F5F5F5F5F5F5F5F5F5F5F5F5F5F5F5F5F5F5F5F5F5F5F5F5F5F5F5F5F5F5F5F5F5F5F5F5E2F5F5F5E2E2EFEFEFEFEFEFEFEFEFEFEFEFEFEFEFEFEFEFEFF5F5F5F5F5F5F5F5F5F5F5F5F5F5F5F5F5F5F5F5F5F5F5F5F5F5F5F5F5F5F5F5F5F5F5F5F5F5F5F5F5F5F5F5F5F5F5F5F5F5F5F5F5F5F5F5F5F5F5F5F5F5
310
F5F5F5F5F5F5F5F5F5F5F5F5F5F5F5F5F5F5F5F5F5F5F5F5F5F5F5F5F5F5F5F5F5F5F5F5F5F5F5F5F5F5F5F5F5F5F5F5F5F5F5F5F5F5F5F5F5F5F5F5F5F5F5F5F5F5F5F5F5F5F5F5F5F5F5F5F5F5F5F5F5F5F5F5F5F5F5F5F5F5F5F5F5E2F5F5F5E2E2EFEFEFEFEFEFEFEFEFEFEFEFEFEFEFEFEFEFEFF5F5F5F5F5F5F5F5F5
310
F5F5F5F5F5F5F5F5F5F5F5F5F5F5F5F5F5F5F5F5F5F5F5F5F5F5F5F5F5F5F5F5F5F5F5F5F5F5F5F5F5F5F5F5F5F5F5F5F5F5F5F5F5F5F5F5F5F5F5F5F5F5F5F5F5F5F5F5F5F5F5F5F5F5F5F5F5F5F5F5F5F5F5F5F5F5F5F5F5F5F5F5F5F5F5F5F5F5F5F5F5F5F5F5F5F5F5F5F5F5F5F5F5F5F5F5F5F5F5F5F5F5F5F5F5F5F5
310
F5F5F5F5F5F5F5F5F5F5F5F5F5F5F5F5F5F5F5E2F5F5F5E2E2EFEFEFEFEFEFEFEFEFEFEFEFEFEFEFEFEFEFEFF5F5F5F5F5F5F5F5F5F5F5F5F5F5F5F5F5F5F5F5F5F5F5F5F5F5F5F5F5F5F5F5F5F5F5F5F5F5F5F5F5F5F5F5F5F5F5F5F5F5F5F5F5F5F5F5F5F5F5F5F5F5F5F5F5F5F5F5F5F5F5F5F5F5F5F5F5F5F5F5F5F5F5
310
F5F5F5F5F5F5F5F5F5F5F5F5F5F5F5F5F5F5F5F5F5F5F5F5F5F5F5F5F5F5F5F5F5F5F5F5F5F5F5F5F5F5F5F5F5F5F5F5F5F5F5F5F5F5F5F5F5F5F5F5F5F5F5F5F5F5F5F5F5F5F5F5E2F5F5F5E2E2EFEFEFEFEFEFEFEFEFEFEFEFEFEFEFEFEFEFEFF5F5F5F5F5F5F5F5F5F5F5F5F5F5F5F5F5F5F5F5F5F5F5F5F5F5F5F5F5F5
310
F5F5F5F5F5F5F5F5F5F5F5F5F5F5F5F5F5F5F5F5F5F5F5F5F5F5F5F5F5F5F5F5F5F5F5F5F5F5F5F5F5F5F5F5F5F5F5F5F5F5F5F5F5F5F5F5F5F5F5F5F5F5F5F5F5F5F5F5F5F5F5F5F5F5F5F5F5F5F5F5F5F5F5F5F5F5F5F5F5F5F5F5F5F5F5F5F5F5F5F5F5F5F5F5F5F5F5F5F5F5F5F5F5F5F5F5F5F5F5F5F5F5F5F5F5F5F5
310
F5F5E2E2EFEFEFEFEFEFEFEFEFEFEFEFEFEFEFEFEFEFEFF5F5F5F5F5F5F5F5F5F5F5F5F5F5F5F5F5F5F5F5F5F5F5F5F5F5F5F5F5F5F5F5F5F5F5F5F5F5F5F5F5F5F5F5F5F5F5F5F5F5F5F5F5F5F5F5F5F5F5F5F5F5F5F5F5F5F5F5F5F5F5F5F5F5F5F5F5F5F5F5F5F5F5F5F5F5F5F5F5F5F5F5F5F5F5F5F5F5F5F5F5F5F5F5
310
F5F5F5F5F5F5F5F5F5F5F5F5F5F5F5F5F5F5F5F5F5F5F5F5F5F5F5F5F5F5F5F5F5F5F5F5F5F5F5F5F5F5F5F5F5F5F5F5F5F5F5F5F5F5F5E2E2EFEFEFEFEFEFEFEFEFEFEFEFEFEFEFEFEFEFEFF5F5F5F5F5F5F5F5F5F5F5F5F5F5F5F5F5F5F5F5F5F5F5F5F5F5F5F5F5F5F5F5F5F5F5F5F5F5F5F5F5F5F5F5F5F5F5F5F5F5F5
310
F5F5F5F5F5F5F5F5F5F5F5F5F5F5F5F5F5F5F5F5F5F5F5F5F5F5F5F5F5F5F5F5F5F5F5F5F5F5F5F5F5F5F5F5F5F5F5F5F5F5F5F5F5F5F5F5F5F5F5F5F5F5F5F5F5F5F5F5F5F5F5F5F5F5F5F5F5F5F5F5F5F5F5F5F5F5F5F5F5F5F5F5F5F5F5F5F5F5F5F5F5F5F5F5F5F5F5F5E2E2EFEFEFEFEFEFEFEFEFEFEFEFEFEFEFEFEF
310
EFEFF5F5F5F5F5F5F5F5F5F5F5F5F5F5F5F5F5F5F5F5F5F5F5F5F5F5F5F5F5F5F5F5F5F5F5F5F5F5F5F5F5F5F5F5F5F5F5F5F5F5F5F5F5F5F5F5F5F5F5F5F5F5F5F5F5F5F5F5F5F5F5F5F5F5F5F5F5F5F5F5F5F5F5F5F5F5F5F5F5F5F5F5F5F5F5F5F5F5F5F5F5F5F5F5F5F5F5F5F5F5F5F5F5F5F5F5F5F5F5F5F5F5F5F5F5
310
F5F5F5F5F5F5F5F5F5F5F5F5F5F5F5F5F5F5F5F5F5F5F5F5F5F5F5F5F5F5F5F5F5F5E2E2EFEFEFEFEFEFEFEFEFEFEFEFEFEFEFEFEFEFEFF5F5F5F5F5F5F5F5F5F5F5F5F5F5F5F5F5F5F5F5F5F5F5F5F5F5F5F5F5F5F5F5F5F5F5F5F5F5F5F5F5F5F5F5F5F5F5F5F5F5F5F5F5F5F5F5F5F5F5F5F5F5F5F5F5F5F5F5F5F5F5F5
310
F5F5F5F5F5F5F5F5F5F5F5F5F5F5F5F5F5F5F5F5F5F5F5F5F5F5F5F5F5F5F5F5F5F5F5F5F5F5F5F5F5F5F5F5F5F5F5F5F5F5F5F5F5F5F5F5F5F5F5F5F5F5F5F5F5F5F5F5F5F5F5F5F5F5F5F5F5F5F5F5F5F5F5F5F5F5F5E2E2EFEFEFEFEFEFEFEFEFEFEFEFEFEFEFEFEFEFEFF5F5F5F5F5F5F5F5F5F5F5F5F5F5F5F5F5F5F5
310
F5F5F5F5F5F5F5F5F5F5F5F5F5F5F5F5F5F5F5F5F5F5F5F5F5F5F5F5F5F5F5F5F5F5F5F5F5F5F5F5F5F5F5F5F5F5F5F5F5F5F5F5F5F5F5F5F5F5F5F5F5F5F5F5F5F5F5F5F5F5F5F5F5F5F5F5F5F5F5F5F5F5F5F5F5F5F5F5F5F5F5F5F5F5F5F5F5F5F5F5F5F5F5F5F5F5F5F5F5F5F5F5F5F5F5F5F5F5F5F5F5F5F5F5F5F5F5
310
F5F5F5F5F5F5F5F5F5F5F5F5F5E2E2EFEFEFEFEFEFEFEFEFEFEFEFEFEFEFEFEFEFEFF5F5F5F5F5F5F5F5F5F5F5F5F5F5F5F5F5F5F5F5F5F5F5F5F5F5F5F5F5F5F5F5F5F5F5F5F5F5F5F5F5F5F5F5F5F5F5F5F5F5F5F5F5F5F5F5F5F5F5F5F5F5F5F5F5F5F5F5F5F5F5F5F5F5F5F5F5F5F5F5F5F5F5F5F5F5F5F5F5F5F5F5F5
310
F5F5F5F5F5F5F5F5F5F5F5F5F5F5F5F5F5F5F5F5F5F5F5F5F5F5F5F5F5F5F5F5F5F5F5F5F5F5F5F5F5F5F5F5F5F5F5F5F5F5F5F5F5F5F5F5F5F5F5F5F5F5F5F5F5F5E2E2EFEFEFEFEFEFEFEFEFEFEFEFEFEFEFEFEFEFEFF5F5F5F5F5F5F5F5F5F5F5F5F5F5F5F5F5F5F5F5F5F5F5F5F5F5F5F5F5F5F5F5F5F5F5F5F5F5F5F5
310
F5F5F5F5F5F5F5F5F5F5F5F5F5F5F5F5F5F5F5F5F5F5F5F5F5F5F5F5F5F5F5F5F5F5F5F5F5F5F5F5F5F5F5F5F5F5F5F5F5F5F5F5F5F5F5F5F5F5F5F5F5F5F5F5F5F5F5F5F5F5F5F5F5F5F5F5F5F5F5F5F5F5F5F5F5F5F5F5F5F5F5F5F5F5F5F5F5F5F5F5F5F5F5F5F5F5F5F5F5F5F5F5F5F5F5F5F5F5F5E2E2EFEFEFEFEFEF
310
EFEFEFEFEFEFEFEFEFEFEFEFEFF5F5F5F5F5F5F5F5F5F5F5F5F5F5F5F5F5F5F5F5F5F5F5F5F5F5F5F5F5F5F5F5F5F5F5F5F5F5F5F5F5F5F5F5F5F5F5F5F5F5F5F5F5F5F5F5F5F5F5F5F5F5F5F5F5F5F5F5F5F5F5F5F5F5F5F5F5F5F5F5F5F5F5F5F5F5F5F5F5F5F5F5F5F5F5F5F5F5F5F5F5F5F5F5F5F5F5F5F5F5F5F5F5F5
310
F5F5F5F5F5F5F5F5F5F5F5F5F5F5F5F5F5F5F5F5F5F5F5F5F5F5F5F5F5F5F5F5F5F5F5F5F5F5F5F5F5E2F5F5F5E2E2EFEFEFEFEFEFEFEFEFEFEFEFEFEFEFEFEFEFEFF5F5F5F5F5F5F5F5F5F5F5F5F5F5F5F5F5F5F5F5F5F5F5F5F5F5F5F5F5F5F5F5F5F5F5F5F5F5F5F5F5F5F5F5F5F5F5F5F5F5F5F5F5F5F5F5F5F5F5F5F5
310
F5F5F5F5F5F5F5F5F5F5F5F5F5F5F5F5F5F5F5F5F5F5F5F5F5F5F5F5F5F5F5F5F5F5F5F5F5F5F5F5F5F5F5F5F5F5F5F5F5F5F5F5F5F5F5F5F5F5F5F5F5F5F5F5F5F5F5F5F5F5F5F5F5F5F5F5F5F5F5F5F5F5F5F5F5F5F5F5F5F5F5F5F5F5E2F5F5F5E2E2EFEFEFEFEFEFEFEFEFEFEFEFEFEFEFEFEFEFEFF5F5F5F5F5F5F5F5
310
F5F5F5F5F5F5F5F5F5F5F5F5F5F5F5F5F5F5F5F5F5F5F5F5F5F5F5F5F5F5F5F5F5F5F5F5F5F5F5F5F5F5F5F5F5F5F5F5F5F5F5F5F5F5F5F5F5F5F5F5F5F5F5F5F5F5F5F5F5F5F5F5F5F5F5F5F5F5F5F5F5F5F5F5F5F5F5F5F5F5F5F5F5F5F5F5F5F5F5F5F5F5F5F5F5F5F5F5F5F5F5F5F5F5F5F5F5F5F5F5F5F5F5F5F5F5F5
310
F5F5F5F5F5F5F5F5F5F5F5F5F5F5F5F5F5F5F5F5E2F5F5F5E2E2EFEFEFEFEFEFEFEFEFEFEFEFEFEFEFEFEFEFEFF5F5F5F5F5F5F5F5F5F5F5F5F5F5F5F5F5F5F5F5F5F5F5F5F5F5F5F5F5F5F5F5F5F5F5F5F5F5F5F5F5F5F5F5F5F5F5F5F5F5F5F5F5F5F5F5F5F5F5F5F5F5F5F5F5F5F5F5F5F5F5F5F5F5F5F5F5F5F5F5F5F5
310
F5F5F5F5F5F5F5F5F5F5F5F5F5F5F5F5F5F5F5F5F5F5F5F5F5F5F5F5F5F5F5F5F5F5F5F5F5F5F5F5F5F5F5F5F5F5F5F5F5F5F5F5F5F5F5F5F5F5F5F5F5F5F5F5F5F5F5F5F5F5F5F5F5E2F5F5F5E2E2EFEFEFEFEFEFEFEFEFEFEFEFEFEFEFEFEFEFEFF5F5F5F5F5F5F5F5F5F5F5F5F5F5F5F5F5F5F5F5F5F5F5F5F5F5F5F5F5
310
F5F5F5F5F5F5F5F5F5F5F5F5F5F5F5F5F5F5F5F5F5F5F5F5F5F5F5F5F5F5F5F5F5F5F5F5F5F5F5F5F5F5F5F5F5F5F5F5F5F5F5F5F5F5F5F5F5F5F5F5F5F5F5F5F5F5F5F5F5F5F5F5F5F5F5F5F5F5F5F5F5F5F5F5F5F5F5F5F5F5F5F5F5F5F5F5F5F5F5F5F5F5F5F5F5F5F5F5F5F5F5F5F5F5F5F5F5F5F5F5F5F5F5F5F5F5E2
310
F5F5F5E2E2EFEFEFEFEFEFEFEFEFEFEFEFEFEFEFEFEFEFEFF5F5F5F5F5F5F5F5F5F5F5F5F5F5F5F5F5F5F5F5F5F5F5F5F5F5F5F5F5F5F5F5F5F5F5F5F5F5F5F5F5F5F5F5F5F5F5F5F5F5F5F5F5F5F5F5F5F5F5F5F5F5F5F5F5F5F5F5F5F5F5F5F5F5F5F5F5F5F5F5F5F5F5F5F5F5F5F5F5F5F5F5F5F5F5F5F5F5F5F5F5F5F5
310
F5F5F5F5F5F5F5F5F5F5F5F5F5F5F5F5F5F5F5F5F5F5F5F5F5F5F5F5F5F5F5F5F5F5F5F5F5F5F5F5F5F5F5F5F5F5F5F5F5F5F5F5E2F5F5F5E2E2EFEFEFEFEFEFEFEFEFEFEFEFEFEFEFEFEFEFEFF5F5F5F5F5F5F5F5F5F5F5F5F5F5F5F5F5F5F5F5F5F5F5F5F5F5F5F5F5F5F5F5F5F5F5F5F5F5F5F5F5F5F5F5F5F5F5F5F5F5
310
F5F5F5F5F5F5F5F5F5F5F5F5F5F5F5F5F5F5F5F5F5F5F5F5F5F5F5F5F5F5F5F5F5F5F5F5F5F5F5F5F5F5F5F5F5F5F5F5F5F5F5F5F5F5F5F5F5F5F5F5F5F5F5F5F5F5F5F5F5F5F5F5F5F5F5F5F5F5F5F5F5F5F5F5F5F5F5F5F5F5F5F5F5F5F5F5F5F5F5F5F5F5F5F5F5E2F5F5F5E2E2EFEFEFEFEFEFEFEFEFEFEFEFEFEFEFEF
310
EFEFEFF5F5F5F5F5F5F5F5F5F5F5F5F5F5F5F5F5F5F5F5F5F5F5F5F5F5F5F5F5F5F5F5F5F5F5F5F5F5F5F5F5F5F5F5F5F5F5F5F5F5F5F5F5F5F5F5F5F5F5F5F5F5F5F5F5F5F5F5F5F5F5F5F5F5F5F5F5F5F5F5F5F5F5F5F5F5F5F5F5F5F5F5F5F5F5F5F5F5F5F5F5F5F5F5F5F5F5F5F5F5F5F5F5F5F5F5F5F5F5F5F5F5F5F5
310
F5F5F5F5F5F5F5F5F5F5F5F5F5F5F5F5F5F5F5F5F5F5F5F5F5F5F5F5F5F5F5E2F5F5F5E2E2EFEFEFEFEFEFEFEFEFEFEFEFEFEFEFEFEFEFEFF5F5F5F5F5F5F5F5F5F5F5F5F5F5F5F5F5F5F5F5F5F5F5F5F5F5F5F5F5F5F5F5F5F5F5F5F5F5F5F5F5F5F5F5F5F5F5F5F5F5F5F5F5F5F5F5F5F5F5F5F5F5F5F5F5F5F5F5F5F5F5
310
F5F5F5F5F5F5F5F5F5F5F5F5F5F5F5F5F5F5F5F5F5F5F5F5F5F5F5F5F5F5F5F5F5F5F5F5F5F5F5F5F5F5F5F5F5F5F5F5F5F5F5F5F5F5F5F5F5F5F5F5F5F5F5F5F5F5F5F5F5F5F5F5F5F5F5F5F5F5F5F5F5F5F5F5E2F5F5F5E2E2EFEFEFEFEFEFEFEFEFEFEFEFEFEFEFEFEFEFEFF5F5F5F5F5F5F5F5F5F5F5F5F5F5F5F5F5F5
310
F5F5F5F5F5F5F5F5F5F5F5F5F5F5F5F5F5F5F5F5F5F5F5F5F5F5F5F5F5F5F5F5F5F5F5F5F5F5F5F5F5F5F5F5F5F5F5F5F5F5F5F5F5F5F5F5F5F5F5F5F5F5F5F5F5F5F5F5F5F5F5F5F5F5F5F5F5F5F5F5F5F5F5F5F5F5F5F5F5F5F5F5F5F5F5F5F5F5F5F5F5F5F5F5F5F5F5F5F5F5F5F5F5F5F5F5F5F5F5F5F5F5F5F5F5F5F5
310
F5F5F5F5F5F5F5F5F5F5E2F5F5F5E2E2EFEFEFEFEFEFEFEFEFEFEFEFEFEFEFEFEFEFEFF5F5F5F5F5F5F5F5F5F5F5F5F5F5F5F5F5F5F5F5F5F5F5F5F5F5F5F5F5F5F5F5F5F5F5F5F5F5F5F5F5F5F5F5F5F5F5F5F5F5F5F5F5F5F5F5F5F5F5F5F5F5F5F5F5F5F5F5F5F5F5F5F5F5F5F5F5F5F5F5F5F5F5F5F5F5F5F5F5F5F5F5
310
F5F5F5F5F5F5F5F5F5F5F5F5F5F5F5F5F5F5F5F5F5F5F5F5F5F5F5F5F5F5F5F5F5F5F5F5F5F5F5F5F5F5F5F5F5F5F5F5F5F5F5F5F5F5F5F5F5F5F5F5F5F5F5E2F5F5F5E2E2EFEFEFEFEFEFEFEFEFEFEFEFEFEFEFEFEFEFEFF5F5F5F5F5F5F5F5F5F5F5F5F5F5F5F5F5F5F5F5F5F5F5F5F5F5F5F5F5F5F5F5F5F5F5F5F5F5F5
310
F5F5F5F5F5F5F5F5F5F5F5F5F5F5F5F5F5F5F5F5F5F5F5F5F5F5F5F5F5F5F5F5F5F5F5F5F5F5F5F5F5F5F5F5F5F5F5F5F5F5F5F5F5F5F5F5F5F5F5F5F5F5F5F5F5F5F5F5F5F5F5F5F5F5F5F5F5F5F5F5F5F5F5F5F5F5F5F5F5F5F5F5F5F5F5F5F5F5F5F5F5F5F5F5F5F5F5F5F5F5F5F5F5F5F5F5E2F5F5F5E2E2EFEFEFEFEF
310
EFEFEFEFEFEFEFEFEFEFEFEFEFEFF5F5F5F5F5F5F5F5F5F5F5F5F5F5F5F5F5F5F5F5F5F5F5F5F5F5F5F5F5F5F5F5F5F5F5F5F5F5F5F5F5F5F5F5F5F5F5F5F5F5F5F5F5F5F5F5F5F5F5F5F5F5F5F5F5F5F5F5F5F5F5F5F5F5F5F5F5F5F5F5F5F5F5F5F5F5F5F5F5F5F5F5F5F5F5F5F5F5F5F5F5F5F5F5F5F5F5F5F5F5F5F5F5
310
F5F5F5F5F5F5F5F5F5F5F5F5F5F5F5F5F5F5F5F5F5F5F5F5F5F5F5F5F5F5F5F5F5F5F5F5F5F5F5F5F5F5E2F5F5F5E2E2EFEFEFEFEFEFEFEFEFEFEFEFEFEFEFEFEFEFEFF5F5F5F5F5F5F5F5F5F5F5F5F5F5F5F5F5F5F5F5F5F5F5F5F5F5F5F5F5F5F5F5F5F5F5F5F5F5F5F5F5F5F5F5F5F5F5F5F5F5F5F5F5F5F5F5F5F5F5F5
310
F5F5F5F5F5F5F5F5F5F5F5F5F5F5F5F5F5F5F5F5F5F5F5F5F5F5F5F5F5F5F5F5F5F5F5F5F5F5F5F5F5F5F5F5F5F5F5F5F5F5F5F5F5F5F5F5F5F5F5F5F5F5F5F5F5F5F5F5F5F5F5F5F5F5F5F5F5F5F5F5F5F5F5F5F5F5F5F5F5F5F5F5F5F5F5E2F5F5F5E2E2EFEFEFEFEFEFEFEFEFEFEFEFEFEFEFEFEFEFEFF5F5F5F5F5F5F5
310
F5F5F5F5F5F5F5F5F5F5F5F5F5F5F5F5F5F5F5F5F5F5F5F5F5F5F5F5F5F5F5F5F5F5F5F5F5F5F5F5F5F5F5F5F5F5F5F5F5F5F5F5F5F5F5F5F5F5F5F5F5F5F5F5F5F5F5F5F5F5F5F5F5F5F5F5F5F5F5F5F5F5F5F5F5F5F5F5F5F5F5F5F5F5F5F5F5F5F5F5F5F5F5F5F5F5F5F5F5F5F5F5F5F5F5F5F5F5F5F5F5F5F5F5F5F5F5
310
F5F5F5F5F5F5F5F5F5F5F5F5F5F5F5F5F5F5F5F5F5E2F5F5F5E2E2EFEFEFEFEFEFEFEFEFEFEFEFEFEFEFEFEFEFEFF5F5F5F5F5F5F5F5F5F5F5F5F5F5F5F5F5F5F5F5F5F5F5F5F5F5F5F5F5F5F5F5F5F5F5F5F5F5F5F5F5F5F5F5F5F5F5F5F5F5F5F5F5F5F5F5F5F5F5F5F5F5F5F5F5F5F5F5F5F5F5F5F5F5F5F5F5F5F5F5F5
310
F5F5F5F5F5F5F5F5F5F5F5F5F5F5F5F5F5F5F5F5F5F5F5F5F5F5F5F5F5F5F5F5F5F5F5F5F5F5F5F5F5F5F5F5F5F5F5F5F5F5F5F5F5F5F5F5F5F5F5F5F5F5F5F5F5F5F5F5F5F5F5F5F5F5F5F5F5F5E2E2EFEFEFEFEFEFEFEFEFEFEFEFEFEFEFEFEFEFEFF5F5F5F5F5F5F5F5F5F5F5F5F5F5F5F5F5F5F5F5F5F5F5F5F5F5F5F5
310
F5F5F5F5F5F5F5F5F5F5F5F5F5F5F5F5F5F5F5F5F5F5F5F5F5F5F5F5F5F5F5F5F5F5F5F5F5F5F5F5F5F5F5F5F5F5F5F5F5F5F5F5F5F5F5F5F5F5F5F5F5F5F5F5F5F5F5F5F5F5F5F5F5F5F5F5F5F5F5F5F5F5F5F5F5F5F5F5F5F5F5F5F5F5F5F5F5F5F5F5F5F5F5F5F5F5F5F5F5F5F5F5F5F5F5F5F5F5F5F5F5F5F5F5F5F5F5
310
F5F5F5F5E2E2EFEFEFEFEFEFEFEFEFEFEFEFEFEFEFEFEFEFEFF5F5F5F5F5F5F5F5F5F5F5F5F5F5F5F5F5F5F5F5F5F5F5F5F5F5F5F5F5F5F5F5F5F5F5F5F5F5F5F5F5F5F5F5F5F5F5F5F5F5F5F5F5F5F5F5F5F5F5F5F5F5F5F5F5F5F5F5F5F5F5F5F5F5F5F5F5F5F5F5F5F5F5F5F5F5F5F5F5F5F5F5F5F5F5F5F5F5F5F5F5F5
310
F5F5F5F5F5F5F5F5F5F5F5F5F5F5F5F5F5F5F5F5F5F5F5F5F5F5F5F5F5F5F5F5F5F5F5F5F5F5F5F5F5F5F5F5F5F5F5F5F5F5F5F5F5F5F5F5F5E2E2EFEFEFEFEFEFEFEFEFEFEFEFEFEFEFEFEFEFEFF5F5F5F5F5F5F5F5F5F5F5F5F5F5F5F5F5F5F5F5F5F5F5F5F5F5F5F5F5F5F5F5F5F5F5F5F5F5F5F5F5F5F5F5F5F5F5F5F5
310
F5F5F5F5F5F5F5F5F5F5F5F5F5F5F5F5F5F5F5F5F5F5F5F5F5F5F5F5F5F5F5F5F5F5F5F5F5F5F5F5F5F5F5F5F5F5F5F5F5F5F5F5F5F5F5F5F5F5F5F5F5F5F5F5F5F5F5F5F5F5F5F5F5F5F5F5F5F5F5F5F5F5F5F5F5F5F5F5F5F5F5F5F5F5F5F5F5F5F5F5F5F5F5F5F5F5F5F5F5F5E2E2EFEFEFEFEFEFEFEFEFEFEFEFEFEFEF
310
EFEFEFEFF5F5F5F5F5F5F5F5F5F5F5F5F5F5F5F5F5F5F5F5F5F5F5F5F5F5F5F5F5F5F5F5F5F5F5F5F5F5F5F5F5F5F5F5F5F5F5F5F5F5F5F5F5F5F5F5F5F5F5F5F5F5F5F5F5F5F5F5F5F5F5F5F5F5F5F5F5F5F5F5F5F5F5F5F5F5F5F5F5F5F5F5F5F5F5F5F5F5F5F5F5F5F5F5F5F5F5F5F5F5F5F5F5F5F5F5F5F5F5F5F5F5F5
310
F5F5F5F5F5F5F5F5F5F5F5F5F5F5F5F5F5F5F5F5F5F5F5F5F5F5F5F5F5F5F5F5F5F5F5F5E2E2EFEFEFEFEFEFEFEFEFEFEFEFEFEFEFEFEFEFEFF5F5F5F5F5F5F5F5F5F5F5F5F5F5F5F5F5F5F5F5F5F5F5F5F5F5F5F5F5F5F5F5F5F5F5F5F5F5F5F5F5F5F5F5F5F5F5F5F5F5F5F5F5F5F5F5F5F5F5F5F5F5F5F5F5F5F5F5F5F5
310
F5F5F5F5F5F5F5F5F5F5F5F5F5F5F5F5F5F5F5F5F5F5F5F5F5F5F5F5F5F5F5F5F5F5F5F5F5F5F5F5F5F5F5F5F5F5F5F5F5F5F5F5F5F5F5F5F5F5F5F5F5F5F5F5F5F5F5F5F5F5F5F5F5F5F5F5F5F5F5F5F5F5F5F5F5F5F5F5F5E2E2EFEFEFEFEFEFEFEFEFEFEFEFEFEFEFEFEFEFEFF5F5F5F5F5F5F5F5F5F5F5F5F5F5F5F5F5
310
F5F5F5F5F5F5F5F5F5F5F5F5F5F5F5F5F5F5F5F5F5F5F5F5F5F5F5F5F5F5F5F5F5F5F5F5F5F5F5F5F5F5F5F5F5F5F5F5F5F5F5F5F5F5F5F5F5F5F5F5F5F5F5F5F5F5F5F5F5F5F5F5F5F5F5F5F5F5F5F5F5F5F5F5F5F5F5F5F5F5F5F5F5F5F5F5F5F5F5F5F5F5F5F5F5F5F5F5F5F5F5F5F5F5F5F5F5F5F5F5F5F5F5F5F5F5F5
310
F5F5F5F5F5F5F5F5F5F5F5F5F5F5F5E2E2EFEFEFEFEFEFEFEFEFEFEFEFEFEFEFEFEFEFEFF5F5F5F5F5F5F5F5F5F5F5F5F5F5F5F5F5F5F5F5F5F5F5F5F5F5F5F5F5F5F5F5F5F5F5F5F5F5F5F5F5F5F5F5F5F5F5F5F5F5F5F5F5F5F5F5F5F5F5F5F5F5F5F5F5F5F5F5F5F5F5F5F5F5F5F5F5F5F5F5F5F5F5F5F5F5F5F5F5F5F5
310
F5F5F5F5F5F5F5F5F5F5F5F5F5F5F5F5F5F5F5F5F5F5F5F5F5F5F5F5F5F5F5F5F5F5F5F5F5F5F5F5F5F5F5F5F5F5F5F5F5F5F5F5F5F5F5F5F5F5F5F5F5F5F5F5F5F5F5F5E2E2EFEFEFEFEFEFEFEFEFEFEFEFEFEFEFEFEFEFEFF5F5F5F5F5F5F5F5F5F5F5F5F5F5F5F5F5F5F5F5F5F5F5F5F5F5F5F5F5F5F5F5F5F5F5F5F5F5
310
F5F5F5F5F5F5F5F5F5F5F5F5F5F5F5F5F5F5F5F5F5F5F5F5F5F5F5F5F5F5F5F5F5F5F5F5F5F5F5F5F5F5F5F5F5F5F5F5F5F5F5F5F5F5F5F5F5F5F5F5F5F5F5F5F5F5F5F5F5F5F5F5F5F5F5F5F5F5F5F5F5F5F5F5F5F5F5F5F5F5F5F5F5F5F5F5F5F5F5F5F5F5F5F5F5F5F5F5F5F5F5F5F5F5F5F5F5F5F5F5F5E2E2EFEFEFEF
310
EFEFEFEFEFEFEFEFEFEFEFEFEFEFEFF5F5F5F5F5F5F5F5F5F5F5F5F5F5F5F5F5F5F5F5F5F5F5F5F5F5F5F5F5F5F5F5F5F5F5F5F5F5F5F5F5F5F5F5F5F5F5F5F5F5F5F5F5F5F5F5F5F5F5F5F5F5F5F5F5F5F5F5F5F5F5F5F5F5F5F5F5F5F5F5F5F5F5F5F5F5F5F5F5F5F5F5F5F5F5F5F5F5F5F5F5F5F5F5F5F5F5F5F5F5F5F5
310
F5F5F5F5F5F5F5F5F5F5F5F5F5F5F5F5F5F5F5F5F5F5F5F5F5F5F5F5F5F5F5F5F5F5F5F5F5F5F5F5F5F5F5E2F5F5F5E2E2EFEFEFEFEFEFEFEFEFEFEFEFEFEFEFEFEFEFEFF5F5F5F5F5F5F5F5F5F5F5F5F5F5F5F5F5F5F5F5F5F5F5F5F5F5F5F5F5F5F5F5F5F5F5F5F5F5F5F5F5F5F5F5F5F5F5F5F5F5F5F5F5F5F5F5F5F5F5
310
F5F5F5F5F5F5F5F5F5F5F5F5F5F5F5F5F5F5F5F5F5F5F5F5F5F5F5F5F5F5F5F5F5F5F5F5F5F5F5F5F5F5F5F5F5F5F5F5F5F5F5F5F5F5F5F5F5F5F5F5F5F5F5F5F5F5F5F5F5F5F5F5F5F5F5F5F5F5F5F5F5F5F5F5F5F5F5F5F5F5F5F5F5F5F5F5E2F5F5F5E2E2EFEFEFEFEFEFEFEFEFEFEFEFEFEFEFEFEFEFEFF5F5F5F5F5F5
310
F5F5F5F5F5F5F5F5F5F5F5F5F5F5F5F5F5F5F5F5F5F5F5F5F5F5F5F5F5F5F5F5F5F5F5F5F5F5F5F5F5F5F5F5F5F5F5F5F5F5F5F5F5F5F5F5F5F5F5F5F5F5F5F5F5F5F5F5F5F5F5F5F5F5F5F5F5F5F5F5F5F5F5F5F5F5F5F5F5F5F5F5F5F5F5F5F5F5F5F5F5F5F5F5F5F5F5F5F5F5F5F5F5F5F5F5F5F5F5F5F5F5F5F5F5F5F5
310
F5F5F5F5F5F5F5F5F5F5F5F5F5F5F5F5F5F5F5F5F5F5E2F5F5F5E2E2EFEFEFEFEFEFEFEFEFEFEFEFEFEFEFEFEFEFEFF5F5F5F5F5F5F5F5F5F5F5F5F5F5F5F5F5F5F5F5F5F5F5F5F5F5F5F5F5F5F5F5F5F5F5F5F5F5F5F5F5F5F5F5F5F5F5F5F5F5F5F5F5F5F5F5F5F5F5F5F5F5F5F5F5F5F5F5F5F5F5F5F5F5F5F5F5F5F5F5
310
F5F5F5F5F5F5F5F5F5F5F5F5F5F5F5F5F5F5F5F5F5F5F5F5F5F5F5F5F5F5F5F5F5F5F5F5F5F5F5F5F5F5F5F5F5F5F5F5F5F5F5F5F5F5F5F5F5F5F5F5F5F5F5F5F5F5F5F5F5F5F5F5F5F5F5E2F5F5F5E2E2EFEFEFEFEFEFEFEFEFEFEFEFEFEFEFEFEFEFEFF5F5F5F5F5F5F5F5F5F5F5F5F5F5F5F5F5F5F5F5F5F5F5F5F5F5F5
310
F5F5F5F5F5F5F5F5F5F5F5F5F5F5F5F5F5F5F5F5F5F5F5F5F5F5F5F5F5F5F5F5F5F5F5F5F5F5F5F5F5F5F5F5F5F5F5F5F5F5F5F5F5F5F5F5F5F5F5F5F5F5F5F5F5F5F5F5F5F5F5F5F5F5F5F5F5F5F5F5F5F5F5F5F5F5F5F5F5F5F5F5F5F5F5F5F5F5F5F5F5F5F5F5F5F5F5F5F5F5F5F5F5F5F5F5F5F5F5F5F5F5F5F5F5F5F5
310
F5E2F5F5F5E2E2EFEFEFEFEFEFEFEFEFEFEFEFEFEFEFEFEFEFEFF5F5F5F5F5F5F5F5F5F5F5F5F5F5F5F5F5F5F5F5F5F5F5F5F5F5F5F5F5F5F5F5F5F5F5F5F5F5F5F5F5F5F5F5F5F5F5F5F5F5F5F5F5F5F5F5F5F5F5F5F5F5F5F5F5F5F5F5F5F5F5F5F5F5F5F5F5F5F5F5F5F5F5F5F5F5F5F5F5F5F5F5F5F5F5F5F5F5F5F5F5
310
F5F5F5F5F5F5F5F5F5F5F5F5F5F5F5F5F5F5F5F5F5F5F5F5F5F5F5F5F5F5F5F5F5F5F5F5F5F5F5F5F5F5F5F5F5F5F5F5F5F5F5F5F5F5E2F5F5F5E2E2EFEFEFEFEFEFEFEFEFEFEFEFEFEFEFEFEFEFEFF5F5F5F5F5F5F5F5F5F5F5F5F5F5F5F5F5F5F5F5F5F5F5F5F5F5F5F5F5F5F5F5F5F5F5F5F5F5F5F5F5F5F5F5F5F5F5F5
310
F5F5F5F5F5F5F5F5F5F5F5F5F5F5F5F5F5F5F5F5F5F5F5F5F5F5F5F5F5F5F5F5F5F5F5F5F5F5F5F5F5F5F5F5F5F5F5F5F5F5F5F5F5F5F5F5F5F5F5F5F5F5F5F5F5F5F5F5F5F5F5F5F5F5F5F5F5F5F5F5F5F5F5F5F5F5F5F5F5F5F5F5F5F5F5F5F5F5F5F5F5F5F5F5F5F5F5E2F5F5F5E2E2EFEFEFEFEFEFEFEFEFEFEFEFEFEF
310
EFEFEFEFEFE2E2E2E2E2E2E2E2F5F5F5F5F5F5F5F5F5E2E2E2E2E2E2E2E2E2E2E2E2E2E2E2E2E2F5F5F5F5F5F5F5F5F5E2E2E2E2E2E2E2E2E2E2E2E2E2E2E2E2E2F5F5F5F5F5F5F5F5F5E2E2E2E2E2E2E2E2E2E2E2E2E2E2E2E2E2F5F5F5F5F5F5F5F5F5E2E2E2E2E2E2E2E2E2E2E2E2E2E2E2E2E2F5F5F5F5F5F5F5F5F5E2
310
E2E2E2E2E2E2E2E2E2E2E2E2E2E2E2E2F5F5F5F5F5F5F5F5F5E2E2E2E2E2E2E2E2E2F5F5F5E2E2EFEFEFEFEFEFEFEFEFEFEFEFEFEFEFEFEFEFEFF5F5F5F5F5F5F5F5F5F5F5F5F5F5F5F5F5F5F5F5F5F5F5F5F5F5F5F5F5F5F5F5F5F5F5F5F5F5F5F5F5F5F5F5F5F5F5F5F5F5F5F5F5F5F5F5F5F5F5F5F5F5F5F5F5F5F5F5F5
310
F5F5F5F5F5F5F5F5F5F5F5F5F5F5F5F5F5F5F5F5F5F5F5F5F5F5F5F5F5F5F5F5F5F5F5F5F5F5F5F5F5F5F5F5F5F5F5F5F5F5F5F5F5F5F5F5F5F5F5F5F5F5F5F5F5F5F5F5F5F5F5F5F5F5F5F5F5F5F5F5F5F5F5F5F5F5F5F5F5F5E2E2EFEFEFEFEFEFEFEFEFEFEFEFEFEFEFEFEFEFEFF5F5F5F5F5F5F5F5F5F5F5F5F5F5F5F5
310
F5F5F5F5F5F5F5F5F5F5F5F5F5F5F5F5F5F5F5F5F5F5F5F5F5F5F5F5F5F5F5F5F5F5F5F5F5F5F5F5F5F5F5F5F5F5F5F5F5F5F5F5F5F5F5F5F5F5F5F5F5F5F5F5F5F5F5F5F5F5F5F5F5F5F5F5F5F5F5F5F5F5F5F5F5F5F5F5F5F5F5F5F5F5F5F5F5F5F5F5F5F5F5F5F5F5F5F5F5F5F5F5F5F5F5F5F5F5F5F5F5F5F5F5F5F5F5
310
F5F5F5F5F5F5F5F5F5F5F5F5F5F5F5F5E2E2EFEFEFEFEFEFEFEFEFEFEFEFEFEFEFEFEFEFEFF5F5F5F5F5F5F5F5F5F5F5F5F5F5F5F5F5F5F5F5F5F5F5F5F5F5F5F5F5F5F5F5F5F5F5F5F5F5F5F5F5F5F5F5F5F5F5F5F5F5F5F5F5F5F5F5F5F5F5F5F5F5F5F5F5F5F5F5F5F5F5F5F5F5F5F5F5F5F5F5F5F5F5F5F5F5F5F5F5F5
310
F5F5F5F5F5F5F5F5F5F5F5F5F5F5F5F5F5F5F5F5F5F5F5F5F5F5F5F5F5F5F5F5F5F5F5F5F5F5F5F5F5F5F5F5F5F5F5F5F5F5F5F5F5F5F5F5F5F5F5F5F5F5F5F5F5F5F5F5F5E2EFEFEFEFEFEFEFEFEFEFEFEFEFEFEFEFEFEFEFEFE2E2E2E2E2E2E2E2E2E2E2E2E2E2E2E2E2E2E2E2E2E2E2E2E2E2E2E2E2E2E2E2E2E2E2E2E2
310
E2E2E2E2E2E2E2E2E2E2E2E2E2E2E2E2E2E2E2E2E2E2E2E2E2E2E2E2E2E2E2E2E2E2E2E2E2E2E2E2E2E2E2E2E2E2E2E2E2E2E2E2E2E2E2E2E2E2E2E2E2E2E2E2E2E2E2E2E2E2E2E2E2E2E2E2E2E2E2E2E2E2E2E2E2E2E2E2E2E2E2E2E2E2E2E2E2E2E2E2E2E2E2E2E2E2E2E2E2E2E2E2E2E2E2E2E2E2E2E2E2E2E2EFEFEFEF
310
EFEFEFEFEFEFEFEFEFEFEFEFEFEFEFEFEFEFEFEFEFEFEFEFEFEFEFEFEFEFEFEFEFEFEFEFEFEFEFEFEFEFEFEFEFEFEFEFEFEFEFEFEFEFEFEFEFEFEFEFEFEFEFEFEFEFEFEFEFEFEFEFEFEFEFEFEFEFEFEFEFEFEFEFEFEFEFEFEFEFEFEFEFEFEFEFEFEFEFEFEFEFEFEFEFEFEFEFEFEFEFEFEFEFEFEFEFEFEFEFEFEFEFEFEFEFEF
310
EFEFEFEFEFEFEFEFEFEFEFEFEFEFEFEFEFEFEFEFEFEFEFEFEFEFEFEFEFEFEFEFEFEFEFEFEFEFEFEFEFEFEFEFEFEFEFEFEFEFEFEFEFEFEFEFEFEFEFEFEFEFEFEFEFEFEFEFEFEFEFEFEFEFEFEFEFEFEFEFEFEFEFEFEFEFEFEFEFEFEFEFEFEFEFEFEFEFEFEFEFEFEFEFEFEFEFEFEFEFEFEFEFEFEFEFEFEFEFEFEFEFEFEFEFEFEF
310
EFEFEFEFEFEFEFEFEFEFEFEFEFEFEFEFEFEFEFEFEFEFEFEFEFEFEFEFEFEFEFEFEFEFEFEFEFEFEFEFEFEFEFEFEFEFEFEFEFEFEFEFEFEFEFEFEFEFEFEFEFEFEFEFEFEFEFEFEFEFEFEFEFEFEFEFEFEFEFEFEFEFEFEFEFEFEFEFEFEFEFEFEFEFEFEFEFEFEFEFEFEFEFEFEFEFEFEFEFEFEFEFEFEFEFEFEFEFEFEFEFEFEFEFEFEFEF
310
EFEFEFEFEFEFEFEFEFEFEFEFEFEFEFEFEFEFEFEFEFEFEFEFEFEFEFEFEFEFEFEFEFEFEFEFEFEFEFEFEFEFEFEFEFEFEFEFEFEFEFEFEFEFEFEFEFEFEFEFEFEFEFEFEFEFEFEFEFEFEFEFEFEFEFEFEFEFEFEFEFEFEFEFEFEFEFEFEFEFEFEFEFEFEFEFEFEFEFEFEFEFEFEFEFEFEFEFEFEFEFEFEFEFEFEFEFEFEFEFEFEFEFEFEFEFEF
310
EFEFEFEFEFEFEFEFEFEFEFEFEFEFEFEFEFEFEFEFEFEFEFEFEFEFEFEFEFEFEFEFEFEFEFEFEFEFEFEFEFEFEFEFEFEFEFEFEFEFEFEFEFEFEFEFEFEFEFEFEFEFEFEFEFEFEFEFEFEFEFEFEFEFEFEFEFEFEFEFEFEFEFEFEFEFEFEFEFEFEFEFEFEFEFEFEFEFEFEFEFEFEFEFEFEFEFEFEFEFEFEFEFEFEFEFEFEFEFEFEFEFEFEFEFEFEF
310
EFEFEFEFEFEFEFEFEFEFEFEFEFEFEFEFEFEFEFEFEFEFEFEFEFEFEFEFEFEFEFEFEFEFEFEFEFEFEFEFEFEFEFEFEFEFEFEFEFEFEFEFEFEFEFEFEFEFEFEFEFEFEFEFEFEFEFEFEFEFEFEFEFEFEFEFEFEFEFEFEFEFEFEFEFEFEFEFEFEFEFEFEFEFEFEFEFEFEFEFEFEFEFEFEFEFEFEFEFEFEFEFEFEFEFEFEFEFEFEFEFEFEFEFEFEFEF
310
EFEFEFEFEFEFEFEFEFEFEFEFEFEFEFEFEFEFEFEFEFEFEFEFEFEFEFEFEFEFEFEFEFEFEFEFEFEFEFEFEFEFEFEFEFEFEFEFEFEFEFEFEFEFEFEFEFEFEFEFEFEFEFEFEFEFEFEFEFEFEFEFEFEFEFEFEFEFEFEFEFEFEFEFEFEFEFEFEFEFEFEFEFEFEFEFEFEFEFEFEFEFEFEFEFEFEFEFEFEFEFEFEFEFEFEFEFEFEFEFEFEFEFEFEFEFEF
310
EFEFEFEFEFEFEFEFEFEFEFEFEFEFEFEFEFEFEFEFEFEFEFEFEFEFEFEFEFEFEFEFEFEFEFEFEFEFEFEFEFEFEFEFEFEFEFEFEFEFEFEFEFEFEFEFEFEFEFEFEFEFEFEFEFEFEFEFEFEFEFEFEFEFEFEFEFEFEFEFEFEFEFEFEFEFEFEFEFEFEFEFEFEFEFEFEFEFEFEFEFEFEFEFEFEFEFEFEFEFEFEFEFEFEFEFEFEFEFEFEFEFEFEFEFEFEF
310
EFEFEFEFEFEFEFEFEFEFEFEFEFEFEFEFEFEFEFEFEFEFEFEFEFEFEFEFEFEFEFEFEFEFEFEFEFEFEFEFEFEFEFEFEFEFEFEFEFEFEFEFEFEFEFEFEFEFEFEFEFEFEFEFEFEFEFEFEFEFEFEFEFEFEFEFEFEFEFEFEFEFEFEFEFEFEFEFEFEFEFEFEFEFEFEFEFEFEFEFEFEFEFEFEFEFEFEFEFEFEFEFEFEFEFEFEFEFEFEFEFEFEFEFEFEFEF
310
EFEFEFEFEFEFEFEFEFEFEFEFEFEFEFEFEFEFEFEFEFEFEFEFEFEFEFEFEFEFEFEFEFEFEFEFEFEFEFEFEFEFEFEFEFEFEFEFEFEFEFEFEFEFEFEFEFEFEFEFEFEFEFEFEFEFEFEFEFEFEFEFEFEFEFEFEFEFEFEFEFEFEFEFEFEFEFEFEFEFEFEFEFEFEFEFEFEFEFEFEFEFEFEFEFEFEFEFEFEFEFEFEFEFEFEFEFEFEFEFEFEFEFEFEFEFEF
310
EFEFEFEFEFEFEFEFEFEFEFEFEFEFEFEFEFEFEFEFEFEFEFEFEFEFEFEFEFEFEFEFEFEFEFEFEFEFEFEFEFEFEFEFEFEFEFEFEFEFEFEFEFEFEFEFEFEFEFEFEFEFEFEFEFEFEFEFEFEFEFEFEFEFEFEFEFEFEFEFEFEFEFEFEFEFEFEFEFEFEFEFEFEFEFEFEFEFEFEFEFEFEFEFEFEFEFEFEFEFEFEFEFEFEFEFEFEFEFEFEFEFEFEFEFEFEF
310
EFEFEFEFEFEFEFEFEFEFEFEFEFEFEFEFEFEFEFEFEFEFEFEFEFEFEFEFEFEFEFEFEFEFEFEFEFEFEFEFEFEFEFEFEFEFEFEFEFEFEFEFEFEFEFEFEFEFEFEFEFEFEFEFEFEFEFEFEFEFEFEFEFEFEFEFEFEFEFEFEFEFEFEFEFEFEFEFEFEFEFEFEFEFEFEFEFEFEFEFEFEFEFEFEFEFEFEFEFEFEFEFEFEFEFEFEFEFEFEFEFEFEFEFEFEFEF
310
EFEFEFEFEFEFEFEFEFEFEFEFEFEFEFEFEFEFEFEFEFEFEFEFEFEFEFEFEFEFEFEFEFEFEFEFEFEFEFEFEFEFEFEFEFEFEFEFEFEFEFEFEFEFEFEFEFEFEFEFEFEFEFEFEFEFEFEFEFEFEFEFEFEFEFEFEFEFEFEFEFEFEFEFEFEFEFEFEFEFEFEFEFEFEFEFEFEFEFEFEFEFEFEFEFEFEFEFEFEFEFEFEFEFEFEFEFEFEFEFEFEFEFEFEFEFEF
310
EFEFEFEFEFEFEFEFEFEFEFEFEFEFEFEFEFEFEFEFEFEFEFEFEFEFEFEFEFEFEFEFEFEFEFEFEFEFEFEFEFEFEFEFEFEFEFEFEFEFEFEFEFEFEFEFEFEFEFEFEFEFEFEFEFEFEFEFEFEFEFEFEFEFEFEFEFEFEFEFEFEFEFEFEFEFEFEFEFEFEFEFEFEFEFEFEFEFEFEFEFEFEFEFEFEFEFEFEFEFEFEFEFEFEFEFEFEFEFEFEFEFEFEFEFEFEF
310
EFEFEFEFEFEFEFEFEFEFEFEFEFEFEFEFEFEFEFEFEFEFEFEFEFEFEFEFEFEFEFEFEFEFEFEFEFEFEFEFEFEFEFEFEFEFEFEFEFEFEFEFEFEFEFEFEFEFEFEFEFEFEFEFEFEFEFEFEFEFEFEFEFEFEFEFEFEFEFEFEFEFEFEFEFEFEFEFEFEFEFEFEFEFEFEFEFEFEFEFEFEFEFEFEFEFEFEFEFEFEFEFEFEFEFEFEFEFEFEFEFEFEFEFEFEFEF
310
EFEFEFEFEFEFEFEFEFEFEFEFEFEFEFEFEFEFEFEFEFEFEFEFEFEFEFEFEFEFEFEFEFEFEFEFEFEFEFEFEFEFEFEFEFEFEFEFEFEFEFEFEFEFEFEFEFEFEFEFEFEFEFEFEFEFEFEFEFEFEFEFEFEFEFEFEFEFEFEFEFEFEFEFEFEFEFEFEFEFEF
  0
XRECORD
  5
1365
102
{ACAD_REACTORS
330
1364
102
}
330
1364
100
AcDbXrecord
280
     1
102
SHADEPLOT
 70
     0
102
SHADEPLOTRESLEVEL
 70
     2
102
SHADEPLOTCUSTOMDPI
 70
   300
  0
XRECORD
  5
97
102
{ACAD_REACTORS
330
96
102
}
330
96
100
AcDbXrecord
280
     1
102
MATERIAL
148
0.0
149
0.0
149
0.0
 93
        0
 94
       63
282
     0
 72
     1
 77
     1
171
     1
175
     1
179
     1
273
     0
  0
XRECORD
  5
95
102
{ACAD_REACTORS
330
94
102
}
330
94
100
AcDbXrecord
280
     1
102
MATERIAL
148
0.0
149
0.0
149
0.0
 93
        0
 94
       63
282
     0
 72
     1
 77
     1
171
     1
175
     1
179
     1
273
     0
  0
XRECORD
  5
99
102
{ACAD_REACTORS
330
98
102
}
330
98
100
AcDbXrecord
280
     1
102
MATERIAL
148
0.0
149
0.0
149
0.0
 93
        0
 94
       63
282
     0
 72
     1
 77
     1
171
     1
175
     1
179
     1
273
     0
  0
XRECORD
  5
136A
102
{ACAD_REACTORS
330
1369
102
}
330
1369
100
AcDbXrecord
280
     1
102
ACAD_ROUNDTRIP_PRE2007_TABLESTYLE
 90
      512
 91
        0
  1

 92
      512
 93
        0
  2

 94
      512
 95
        0
  3

  0
ENDSEC
  0
EOF
