  0
SECTION
  2
HEADER
  9
$ACADVER
  1
AC1027
  9
$ACADMAINTVER
 70
   125
  9
$DWGCODEPAGE
  3
ANSI_1252
  9
$LASTSAVEDBY
  1
kaschu
  9
$REQUIREDVERSIONS
160
                 0
  9
$INSBASE
 10
0.0
 20
0.0
 30
0.0
  9
$EXTMIN
 10
-2.634539092081695
 20
-40.0908188187061
 30
0.0
  9
$EXTMAX
 10
1507.03532226212
 20
923.7638963097092
 30
0.000000000000113
  9
$LIMMIN
 10
-0.5
 20
-0.5
  9
$LIMMAX
 10
5.0
 20
5.0
  9
$ORTHOMODE
 70
     1
  9
$REGENMODE
 70
     1
  9
$FILLMODE
 70
     1
  9
$QTEXTMODE
 70
     0
  9
$MIRRTEXT
 70
     1
  9
$LTSCALE
 40
1.0
  9
$ATTMODE
 70
     1
  9
$TEXTSIZE
 40
25.0
  9
$TRACEWID
 40
0.05
  9
$TEXTSTYLE
  7
Standard
  9
$CLAYER
  8
0
  9
$CELTYPE
  6
BYLAYER
  9
$CECOLOR
 62
   256
  9
$CELTSCALE
 40
1.0
  9
$DISPSILH
 70
     0
  9
$DIMSCALE
 40
1.0
  9
$DIMASZ
 40
0.18
  9
$DIMEXO
 40
0.0625
  9
$DIMDLI
 40
0.38
  9
$DIMRND
 40
0.0
  9
$DIMDLE
 40
0.0
  9
$DIMEXE
 40
0.18
  9
$DIMTP
 40
0.0
  9
$DIMTM
 40
0.0
  9
$DIMTXT
 40
0.18
  9
$DIMCEN
 40
0.09
  9
$DIMTSZ
 40
0.0
  9
$DIMTOL
 70
     0
  9
$DIMLIM
 70
     0
  9
$DIMTIH
 70
     1
  9
$DIMTOH
 70
     1
  9
$DIMSE1
 70
     0
  9
$DIMSE2
 70
     0
  9
$DIMTAD
 70
     0
  9
$DIMZIN
 70
     0
  9
$DIMBLK
  1

  9
$DIMASO
 70
     1
  9
$DIMSHO
 70
     1
  9
$DIMPOST
  1

  9
$DIMAPOST
  1

  9
$DIMALT
 70
     0
  9
$DIMALTD
 70
     2
  9
$DIMALTF
 40
25.4
  9
$DIMLFAC
 40
1.0
  9
$DIMTOFL
 70
     0
  9
$DIMTVP
 40
0.0
  9
$DIMTIX
 70
     0
  9
$DIMSOXD
 70
     0
  9
$DIMSAH
 70
     0
  9
$DIMBLK1
  1

  9
$DIMBLK2
  1

  9
$DIMSTYLE
  2
Standard
  9
$DIMCLRD
 70
     0
  9
$DIMCLRE
 70
     0
  9
$DIMCLRT
 70
     0
  9
$DIMTFAC
 40
1.0
  9
$DIMGAP
 40
0.09
  9
$DIMJUST
 70
     0
  9
$DIMSD1
 70
     0
  9
$DIMSD2
 70
     0
  9
$DIMTOLJ
 70
     1
  9
$DIMTZIN
 70
     0
  9
$DIMALTZ
 70
     0
  9
$DIMALTTZ
 70
     0
  9
$DIMUPT
 70
     0
  9
$DIMDEC
 70
     4
  9
$DIMTDEC
 70
     4
  9
$DIMALTU
 70
     2
  9
$DIMALTTD
 70
     2
  9
$DIMTXSTY
  7
Standard
  9
$DIMAUNIT
 70
     0
  9
$DIMADEC
 70
     0
  9
$DIMALTRND
 40
0.0
  9
$DIMAZIN
 70
     0
  9
$DIMDSEP
 70
    46
  9
$DIMATFIT
 70
     3
  9
$DIMFRAC
 70
     0
  9
$DIMLDRBLK
  1

  9
$DIMLUNIT
 70
     2
  9
$DIMLWD
 70
    -2
  9
$DIMLWE
 70
    -2
  9
$DIMTMOVE
 70
     0
  9
$DIMFXL
 40
1.0
  9
$DIMFXLON
 70
     0
  9
$DIMJOGANG
 40
0.7853981633974483
  9
$DIMTFILL
 70
     0
  9
$DIMTFILLCLR
 70
     0
  9
$DIMARCSYM
 70
     0
  9
$DIMLTYPE
  6

  9
$DIMLTEX1
  6

  9
$DIMLTEX2
  6

  9
$DIMTXTDIRECTION
 70
     0
  9
$LUNITS
 70
     2
  9
$LUPREC
 70
     4
  9
$SKETCHINC
 40
0.1
  9
$FILLETRAD
 40
0.5
  9
$AUNITS
 70
     0
  9
$AUPREC
 70
     0
  9
$MENU
  1
.
  9
$ELEVATION
 40
0.0
  9
$PELEVATION
 40
0.0
  9
$THICKNESS
 40
0.0
  9
$LIMCHECK
 70
     0
  9
$CHAMFERA
 40
0.5
  9
$CHAMFERB
 40
0.5
  9
$CHAMFERC
 40
1.0
  9
$CHAMFERD
 40
0.0
  9
$SKPOLY
 70
     0
  9
$TDCREATE
 40
2455694.560428241
  9
$TDUCREATE
 40
2455694.477100590
  9
$TDUPDATE
 40
2459478.672673611
  9
$TDUUPDATE
 40
2459478.589340278
  9
$TDINDWG
 40
0.0158249769
  9
$TDUSRTIMER
 40
0.0158249769
  9
$USRTIMER
 70
     1
  9
$ANGBASE
 50
0.0
  9
$ANGDIR
 70
     0
  9
$PDMODE
 70
     0
  9
$PDSIZE
 40
0.0
  9
$PLINEWID
 40
0.0
  9
$SPLFRAME
 70
     0
  9
$SPLINETYPE
 70
     6
  9
$SPLINESEGS
 70
     8
  9
$HANDSEED
  5
91E
  9
$SURFTAB1
 70
     6
  9
$SURFTAB2
 70
     6
  9
$SURFTYPE
 70
     6
  9
$SURFU
 70
     6
  9
$SURFV
 70
     6
  9
$UCSBASE
  2

  9
$UCSNAME
  2

  9
$UCSORG
 10
0.0
 20
0.0
 30
0.0
  9
$UCSXDIR
 10
1.0
 20
0.0
 30
0.0
  9
$UCSYDIR
 10
0.0
 20
1.0
 30
0.0
  9
$UCSORTHOREF
  2

  9
$UCSORTHOVIEW
 70
     0
  9
$UCSORGTOP
 10
0.0
 20
0.0
 30
0.0
  9
$UCSORGBOTTOM
 10
0.0
 20
0.0
 30
0.0
  9
$UCSORGLEFT
 10
0.0
 20
0.0
 30
0.0
  9
$UCSORGRIGHT
 10
0.0
 20
0.0
 30
0.0
  9
$UCSORGFRONT
 10
0.0
 20
0.0
 30
0.0
  9
$UCSORGBACK
 10
0.0
 20
0.0
 30
0.0
  9
$PUCSBASE
  2

  9
$PUCSNAME
  2

  9
$PUCSORG
 10
0.0
 20
0.0
 30
0.0
  9
$PUCSXDIR
 10
1.0
 20
0.0
 30
0.0
  9
$PUCSYDIR
 10
0.0
 20
1.0
 30
0.0
  9
$PUCSORTHOREF
  2

  9
$PUCSORTHOVIEW
 70
     0
  9
$PUCSORGTOP
 10
0.0
 20
0.0
 30
0.0
  9
$PUCSORGBOTTOM
 10
0.0
 20
0.0
 30
0.0
  9
$PUCSORGLEFT
 10
0.0
 20
0.0
 30
0.0
  9
$PUCSORGRIGHT
 10
0.0
 20
0.0
 30
0.0
  9
$PUCSORGFRONT
 10
0.0
 20
0.0
 30
0.0
  9
$PUCSORGBACK
 10
0.0
 20
0.0
 30
0.0
  9
$USERI1
 70
     0
  9
$USERI2
 70
     0
  9
$USERI3
 70
     0
  9
$USERI4
 70
     0
  9
$USERI5
 70
     0
  9
$USERR1
 40
0.0
  9
$USERR2
 40
0.0
  9
$USERR3
 40
0.0
  9
$USERR4
 40
0.0
  9
$USERR5
 40
0.0
  9
$WORLDVIEW
 70
     1
  9
$SHADEDGE
 70
     3
  9
$SHADEDIF
 70
    70
  9
$TILEMODE
 70
     1
  9
$MAXACTVP
 70
    64
  9
$PINSBASE
 10
0.0
 20
0.0
 30
0.0
  9
$PLIMCHECK
 70
     0
  9
$PEXTMIN
 10
-0.5
 20
-0.5
 30
-0.5
  9
$PEXTMAX
 10
5.0
 20
5.0
 30
5.0
  9
$PLIMMIN
 10
-0.5
 20
-0.5
  9
$PLIMMAX
 10
5.0
 20
5.0
  9
$UNITMODE
 70
     0
  9
$VISRETAIN
 70
     1
  9
$PLINEGEN
 70
     0
  9
$PSLTSCALE
 70
     1
  9
$TREEDEPTH
 70
  3020
  9
$CMLSTYLE
  2
Standard
  9
$CMLJUST
 70
     0
  9
$CMLSCALE
 40
1.0
  9
$PROXYGRAPHICS
 70
     1
  9
$MEASUREMENT
 70
     1
  9
$CELWEIGHT
370
    -1
  9
$ENDCAPS
280
     0
  9
$JOINSTYLE
280
     0
  9
$LWDISPLAY
290
     0
  9
$INSUNITS
 70
     4
  9
$HYPERLINKBASE
  1

  9
$STYLESHEET
  1

  9
$XEDIT
290
     1
  9
$CEPSNTYPE
380
     0
  9
$PSTYLEMODE
290
     1
  9
$FINGERPRINTGUID
  2
{F00BE011-E78A-4A73-80CF-EFD0DEF1625D}
  9
$VERSIONGUID
  2
{C6E12405-E055-1842-9223-704B0F23FC43}
  9
$EXTNAMES
290
     1
  9
$PSVPSCALE
 40
0.0
  9
$OLESTARTUP
290
     0
  9
$SORTENTS
280
   127
  9
$INDEXCTL
280
     0
  9
$HIDETEXT
280
     0
  9
$XCLIPFRAME
280
     2
  9
$HALOGAP
280
     0
  9
$OBSCOLOR
 70
   257
  9
$OBSLTYPE
280
     0
  9
$INTERSECTIONDISPLAY
280
     0
  9
$INTERSECTIONCOLOR
 70
   257
  9
$DIMASSOC
280
     1
  9
$PROJECTNAME
  1

  9
$CAMERADISPLAY
290
     0
  9
$LENSLENGTH
 40
50.0
  9
$CAMERAHEIGHT
 40
0.0
  9
$STEPSPERSEC
 40
2.0
  9
$STEPSIZE
 40
6.0
  9
$3DDWFPREC
 40
2.0
  9
$PSOLWIDTH
 40
0.25
  9
$PSOLHEIGHT
 40
4.0
  9
$LOFTANG1
 40
1.570796326794896
  9
$LOFTANG2
 40
1.570796326794896
  9
$LOFTMAG1
 40
0.0
  9
$LOFTMAG2
 40
0.0
  9
$LOFTPARAM
 70
     7
  9
$LOFTNORMALS
280
     1
  9
$LATITUDE
 40
37.795
  9
$LONGITUDE
 40
-122.394
  9
$NORTHDIRECTION
 40
0.0
  9
$TIMEZONE
 70
 -8000
  9
$LIGHTGLYPHDISPLAY
280
     1
  9
$TILEMODELIGHTSYNCH
280
     1
  9
$CMATERIAL
347
6DA
  9
$SOLIDHIST
280
     0
  9
$SHOWHIST
280
     1
  9
$DWFFRAME
280
     2
  9
$DGNFRAME
280
     0
  9
$REALWORLDSCALE
290
     1
  9
$INTERFERECOLOR
 62
     1
  9
$INTERFEREOBJVS
345
33
  9
$INTERFEREVPVS
346
715
  9
$CSHADOW
280
     0
  9
$SHADOWPLANELOCATION
 40
0.0
  0
ENDSEC
  0
SECTION
  2
CLASSES
  0
CLASS
  1
ACDBDICTIONARYWDFLT
  2
AcDbDictionaryWithDefault
  3
ObjectDBX Classes
 90
        0
 91
        1
280
     0
281
     0
  0
CLASS
  1
VISUALSTYLE
  2
AcDbVisualStyle
  3
ObjectDBX Classes
 90
     4095
 91
       26
280
     0
281
     0
  0
CLASS
  1
MATERIAL
  2
AcDbMaterial
  3
ObjectDBX Classes
 90
     1153
 91
        3
280
     0
281
     0
  0
CLASS
  1
TABLESTYLE
  2
AcDbTableStyle
  3
ObjectDBX Classes
 90
     4095
 91
        1
280
     0
281
     0
  0
CLASS
  1
DICTIONARYVAR
  2
AcDbDictionaryVar
  3
ObjectDBX Classes
 90
        0
 91
       12
280
     0
281
     0
  0
CLASS
  1
SCALE
  2
AcDbScale
  3
ObjectDBX Classes
 90
     1153
 91
       17
280
     0
281
     0
  0
CLASS
  1
MLEADERSTYLE
  2
AcDbMLeaderStyle
  3
ACDB_MLEADERSTYLE_CLASS
 90
     4095
 91
        1
280
     0
281
     0
  0
CLASS
  1
ACDBSECTIONVIEWSTYLE
  2
AcDbSectionViewStyle
  3
ObjectDBX Classes
 90
     1025
 91
        2
280
     0
281
     0
  0
CLASS
  1
ACDBDETAILVIEWSTYLE
  2
AcDbDetailViewStyle
  3
ObjectDBX Classes
 90
     1025
 91
        2
280
     0
281
     0
  0
CLASS
  1
SORTENTSTABLE
  2
AcDbSortentsTable
  3
ObjectDBX Classes
 90
        0
 91
        1
280
     0
281
     0
  0
CLASS
  1
CELLSTYLEMAP
  2
AcDbCellStyleMap
  3
ObjectDBX Classes
 90
     1152
 91
        2
280
     0
281
     0
  0
ENDSEC
  0
SECTION
  2
TABLES
  0
TABLE
  2
VPORT
  5
8
330
0
100
AcDbSymbolTable
 70
    17
1001
ACAD
1000
DbSaveVer
1071
      224
  0
VPORT
  5
29
330
8
100
AcDbSymbolTableRecord
100
AcDbViewportTableRecord
  2
DUMMY
 70
     0
 10
0.0
 20
0.0
 11
1.0
 21
1.0
 12
10.42990654205607
 22
4.5
 13
0.0
 23
0.0
 14
0.5
 24
0.5
 15
0.5
 25
0.5
 16
0.0
 26
0.0
 36
1.0
 17
0.0
 27
0.0
 37
0.0
 40
9.0
 41
1.972972972850327
 42
50.0
 43
0.0
 44
0.0
 50
0.0
 51
0.0
 71
     0
 72
   100
 73
     1
 74
     3
 75
     0
 76
     0
 77
     0
 78
     0
281
     0
 65
     1
110
0.0
120
0.0
130
0.0
111
1.0
121
0.0
131
0.0
112
0.0
122
1.0
132
0.0
 79
     0
146
0.0
348
2F
 60
     3
 61
     5
292
     1
282
     1
141
0.0
142
0.0
 63
   250
421
  3355443
  0
VPORT
  5
6C2
330
8
100
AcDbSymbolTableRecord
100
AcDbViewportTableRecord
  2
*ACTIVE
 70
     0
 10
0.0
 20
0.0
 11
1.0
 21
1.0
 12
1090.419009783286
 22
375.8641508905807
 13
0.0
 23
0.0
 14
0.5
 24
0.5
 15
0.5
 25
0.5
 16
0.0
 26
0.0
 36
1.0
 17
0.0
 27
0.0
 37
0.0
 40
1767.361425653034
 41
2.14188422247446
 42
50.0
 43
1767.948756937242
 44
-1767.948756937242
 50
0.0
 51
0.0
 71
     0
 72
 10000
 73
     1
 74
     3
 75
     0
 76
     0
 77
     0
 78
     0
281
     0
 65
     1
110
0.0
120
0.0
130
0.0
111
1.0
121
0.0
131
0.0
112
0.0
122
1.0
132
0.0
 79
     0
146
0.0
348
2F
 60
     3
 61
     5
292
     1
282
     1
141
0.0
142
0.0
 63
   250
421
  3355443
1001
ACAD_NAV_VCDISPLAY
1070
     3
  0
VPORT
  5
6C3
330
8
100
AcDbSymbolTableRecord
100
AcDbViewportTableRecord
  2
L1
 70
     0
 10
0.0
 20
0.0
 11
1.0
 21
1.0
 12
460.8737472285888
 22
404.664939769725
 13
0.0
 23
0.0
 14
0.5
 24
0.5
 15
0.5
 25
0.5
 16
0.0
 26
0.0
 36
1.0
 17
0.0
 27
0.0
 37
0.0
 40
254.0
 41
0.069908491163988
 42
50.0
 43
1767.948756937242
 44
-1767.948756937242
 50
0.0
 51
0.0
 71
     0
 72
   100
 73
     1
 74
     3
 75
     0
 76
     0
 77
     0
 78
     0
281
     0
 65
     1
110
0.0
120
0.0
130
0.0
111
1.0
121
0.0
131
0.0
112
0.0
122
1.0
132
0.0
 79
     0
146
0.0
348
2F
 60
     3
 61
     5
292
     1
282
     1
141
0.0
142
0.0
 63
   250
421
  3355443
  0
VPORT
  5
6C4
330
8
100
AcDbSymbolTableRecord
100
AcDbViewportTableRecord
  2
L2
 70
     0
 10
0.0
 20
0.0
 11
0.5
 21
1.0
 12
0.0
 22
0.0
 13
0.0
 23
0.0
 14
0.5
 24
0.5
 15
0.5
 25
0.5
 16
0.0
 26
-1.0
 36
0.0
 17
0.0
 27
0.0
 37
0.0
 40
1319.822715367485
 41
0.0134538953973897
 42
50.0
 43
672.0208330104061
 44
-672.0208330104061
 50
0.0
 51
0.0
 71
     0
 72
   100
 73
     1
 74
     3
 75
     0
 76
     0
 77
     0
 78
     0
281
     0
 65
     1
110
0.0
120
0.0
130
0.0
111
1.0
121
0.0
131
0.0
112
0.0
122
1.0
132
0.0
 79
     0
146
0.0
348
2F
 60
     3
 61
     5
292
     1
282
     1
141
0.0
142
0.0
 63
   250
421
  3355443
  0
VPORT
  5
6C5
330
8
100
AcDbSymbolTableRecord
100
AcDbViewportTableRecord
  2
L2
 70
     0
 10
0.5
 20
0.0
 11
1.0
 21
1.0
 12
0.0
 22
0.0
 13
0.0
 23
0.0
 14
0.5
 24
0.5
 15
0.5
 25
0.5
 16
1.0
 26
0.0
 36
0.0
 17
0.0
 27
0.0
 37
0.0
 40
1319.822715367485
 41
0.0134538953973897
 42
50.0
 43
672.0208330104061
 44
-672.0208330104061
 50
0.0
 51
0.0
 71
     0
 72
   100
 73
     1
 74
     3
 75
     0
 76
     0
 77
     0
 78
     0
281
     0
 65
     1
110
0.0
120
0.0
130
0.0
111
1.0
121
0.0
131
0.0
112
0.0
122
1.0
132
0.0
 79
     0
146
0.0
348
2F
 60
     3
 61
     5
292
     1
282
     1
141
0.0
142
0.0
 63
   250
421
  3355443
  0
VPORT
  5
6C6
330
8
100
AcDbSymbolTableRecord
100
AcDbViewportTableRecord
  2
L3
 70
     0
 10
0.0
 20
0.5
 11
1.0
 21
1.0
 12
460.8737472285888
 22
404.664939769725
 13
0.0
 23
0.0
 14
0.5
 24
0.5
 15
0.5
 25
0.5
 16
0.0
 26
0.0
 36
1.0
 17
0.0
 27
0.0
 37
0.0
 40
254.0
 41
0.069908491163988
 42
50.0
 43
1767.948756937242
 44
-1767.948756937242
 50
0.0
 51
0.0
 71
     0
 72
   100
 73
     1
 74
     3
 75
     0
 76
     0
 77
     0
 78
     0
281
     0
 65
     1
110
0.0
120
0.0
130
0.0
111
1.0
121
0.0
131
0.0
112
0.0
122
1.0
132
0.0
 79
     0
146
0.0
348
2F
 60
     3
 61
     5
292
     1
282
     1
141
0.0
142
0.0
 63
   250
421
  3355443
  0
VPORT
  5
6C7
330
8
100
AcDbSymbolTableRecord
100
AcDbViewportTableRecord
  2
L3
 70
     0
 10
0.0
 20
0.0
 11
1.0
 21
0.5
 12
0.0
 22
0.0
 13
0.0
 23
0.0
 14
0.5
 24
0.5
 15
0.5
 25
0.5
 16
0.0
 26
-1.0
 36
0.0
 17
0.0
 27
0.0
 37
0.0
 40
1319.822715367485
 41
0.0134538953973897
 42
50.0
 43
672.0208330104061
 44
-672.0208330104061
 50
0.0
 51
0.0
 71
     0
 72
   100
 73
     1
 74
     3
 75
     0
 76
     0
 77
     0
 78
     0
281
     0
 65
     1
110
0.0
120
0.0
130
0.0
111
1.0
121
0.0
131
0.0
112
0.0
122
1.0
132
0.0
 79
     0
146
0.0
348
2F
 60
     3
 61
     5
292
     1
282
     1
141
0.0
142
0.0
 63
   250
421
  3355443
  0
VPORT
  5
6C8
330
8
100
AcDbSymbolTableRecord
100
AcDbViewportTableRecord
  2
L4
 70
     0
 10
0.0
 20
0.5
 11
0.5
 21
1.0
 12
460.8737472285888
 22
404.664939769725
 13
0.0
 23
0.0
 14
0.5
 24
0.5
 15
0.5
 25
0.5
 16
0.0
 26
0.0
 36
1.0
 17
0.0
 27
0.0
 37
0.0
 40
254.0
 41
0.069908491163988
 42
50.0
 43
1767.948756937242
 44
-1767.948756937242
 50
0.0
 51
0.0
 71
     0
 72
   100
 73
     1
 74
     3
 75
     0
 76
     0
 77
     0
 78
     0
281
     0
 65
     1
110
0.0
120
0.0
130
0.0
111
1.0
121
0.0
131
0.0
112
0.0
122
1.0
132
0.0
 79
     0
146
0.0
348
2F
 60
     3
 61
     5
292
     1
282
     1
141
0.0
142
0.0
 63
   250
421
  3355443
  0
VPORT
  5
6C9
330
8
100
AcDbSymbolTableRecord
100
AcDbViewportTableRecord
  2
L4
 70
     0
 10
0.0
 20
0.0
 11
0.5
 21
0.5
 12
0.0
 22
0.0
 13
0.0
 23
0.0
 14
0.5
 24
0.5
 15
0.5
 25
0.5
 16
0.0
 26
-1.0
 36
0.0
 17
0.0
 27
0.0
 37
0.0
 40
1319.822715367485
 41
0.0134538953973897
 42
50.0
 43
672.0208330104061
 44
-672.0208330104061
 50
0.0
 51
0.0
 71
     0
 72
   100
 73
     1
 74
     3
 75
     0
 76
     0
 77
     0
 78
     0
281
     0
 65
     1
110
0.0
120
0.0
130
0.0
111
1.0
121
0.0
131
0.0
112
0.0
122
1.0
132
0.0
 79
     0
146
0.0
348
2F
 60
     3
 61
     5
292
     1
282
     1
141
0.0
142
0.0
 63
   250
421
  3355443
  0
VPORT
  5
6CA
330
8
100
AcDbSymbolTableRecord
100
AcDbViewportTableRecord
  2
L4
 70
     0
 10
0.5
 20
0.0
 11
1.0
 21
0.5
 12
0.0
 22
0.0
 13
0.0
 23
0.0
 14
0.5
 24
0.5
 15
0.5
 25
0.5
 16
1.0
 26
0.0
 36
0.0
 17
0.0
 27
0.0
 37
0.0
 40
1319.822715367485
 41
0.0134538953973897
 42
50.0
 43
672.0208330104061
 44
-672.0208330104061
 50
0.0
 51
0.0
 71
     0
 72
   100
 73
     1
 74
     3
 75
     0
 76
     0
 77
     0
 78
     0
281
     0
 65
     1
110
0.0
120
0.0
130
0.0
111
1.0
121
0.0
131
0.0
112
0.0
122
1.0
132
0.0
 79
     0
146
0.0
348
2F
 60
     3
 61
     5
292
     1
282
     1
141
0.0
142
0.0
 63
   250
421
  3355443
  0
VPORT
  5
6CB
330
8
100
AcDbSymbolTableRecord
100
AcDbViewportTableRecord
  2
L4
 70
     0
 10
0.5
 20
0.5
 11
1.0
 21
1.0
 12
0.0
 22
0.0
 13
0.0
 23
0.0
 14
0.5
 24
0.5
 15
0.5
 25
0.5
 16
0.577350269189626
 26
-0.577350269189626
 36
0.577350269189626
 17
0.0
 27
0.0
 37
0.0
 40
1285.020866083941
 41
0.0138182633638986
 42
50.0
 43
667.1414067255757
 44
-667.1414067255757
 50
0.0
 51
0.0
 71
     0
 72
   100
 73
     1
 74
     3
 75
     0
 76
     0
 77
     0
 78
     0
281
     0
 65
     1
110
0.0
120
0.0
130
0.0
111
1.0
121
0.0
131
0.0
112
0.0
122
1.0
132
0.0
 79
     0
146
0.0
348
2F
 60
     3
 61
     5
292
     1
282
     1
141
0.0
142
0.0
 63
   250
421
  3355443
  0
VPORT
  5
6CC
330
8
100
AcDbSymbolTableRecord
100
AcDbViewportTableRecord
  2
L6
 70
     0
 10
0.0
 20
0.5
 11
0.3333333333333334
 21
1.0
 12
0.0
 22
0.0
 13
0.0
 23
0.0
 14
0.5
 24
0.5
 15
0.5
 25
0.5
 16
0.7188730927569436
 26
-0.5850486126764432
 36
0.3754192287502549
 17
0.0
 27
0.0
 37
0.0
 40
1357.434191666423
 41
0.0130811179390246
 42
50.0
 43
701.8394773188865
 44
-701.8394773188865
 50
0.0
 51
0.0
 71
     0
 72
   100
 73
     1
 74
     3
 75
     0
 76
     0
 77
     0
 78
     0
281
     0
 65
     1
110
0.0
120
0.0
130
0.0
111
1.0
121
0.0
131
0.0
112
0.0
122
1.0
132
0.0
 79
     0
146
0.0
348
2F
 60
     3
 61
     5
292
     1
282
     1
141
0.0
142
0.0
 63
   250
421
  3355443
  0
VPORT
  5
6CD
330
8
100
AcDbSymbolTableRecord
100
AcDbViewportTableRecord
  2
L6
 70
     0
 10
0.0
 20
0.0
 11
0.3333333333333334
 21
0.5
 12
0.0
 22
0.0
 13
0.0
 23
0.0
 14
0.5
 24
0.5
 15
0.5
 25
0.5
 16
-1.0
 26
0.0
 36
0.0
 17
0.0
 27
0.0
 37
0.0
 40
1319.822715367485
 41
0.0134538953973897
 42
50.0
 43
672.0208330104061
 44
-672.0208330104061
 50
0.0
 51
0.0
 71
     0
 72
   100
 73
     1
 74
     3
 75
     0
 76
     0
 77
     0
 78
     0
281
     0
 65
     1
110
0.0
120
0.0
130
0.0
111
1.0
121
0.0
131
0.0
112
0.0
122
1.0
132
0.0
 79
     0
146
0.0
348
2F
 60
     3
 61
     5
292
     1
282
     1
141
0.0
142
0.0
 63
   250
421
  3355443
  0
VPORT
  5
6CE
330
8
100
AcDbSymbolTableRecord
100
AcDbViewportTableRecord
  2
L6
 70
     0
 10
0.3333333333333334
 20
0.5
 11
0.6666666666666666
 21
1.0
 12
460.8737472285888
 22
404.664939769725
 13
0.0
 23
0.0
 14
0.5
 24
0.5
 15
0.5
 25
0.5
 16
0.0
 26
0.0
 36
1.0
 17
0.0
 27
0.0
 37
0.0
 40
254.0
 41
0.069908491163988
 42
50.0
 43
1767.948756937242
 44
-1767.948756937242
 50
0.0
 51
0.0
 71
     0
 72
   100
 73
     1
 74
     3
 75
     0
 76
     0
 77
     0
 78
     0
281
     0
 65
     1
110
0.0
120
0.0
130
0.0
111
1.0
121
0.0
131
0.0
112
0.0
122
1.0
132
0.0
 79
     0
146
0.0
348
2F
 60
     3
 61
     5
292
     1
282
     1
141
0.0
142
0.0
 63
   250
421
  3355443
  0
VPORT
  5
6CF
330
8
100
AcDbSymbolTableRecord
100
AcDbViewportTableRecord
  2
L6
 70
     0
 10
0.3333333333333334
 20
0.0
 11
0.6666666666666666
 21
0.5
 12
0.0
 22
0.0
 13
0.0
 23
0.0
 14
0.5
 24
0.5
 15
0.5
 25
0.5
 16
0.0
 26
-1.0
 36
0.0
 17
0.0
 27
0.0
 37
0.0
 40
1319.822715367485
 41
0.0134538953973897
 42
50.0
 43
672.0208330104061
 44
-672.0208330104061
 50
0.0
 51
0.0
 71
     0
 72
   100
 73
     1
 74
     3
 75
     0
 76
     0
 77
     0
 78
     0
281
     0
 65
     1
110
0.0
120
0.0
130
0.0
111
1.0
121
0.0
131
0.0
112
0.0
122
1.0
132
0.0
 79
     0
146
0.0
348
2F
 60
     3
 61
     5
292
     1
282
     1
141
0.0
142
0.0
 63
   250
421
  3355443
  0
VPORT
  5
6D0
330
8
100
AcDbSymbolTableRecord
100
AcDbViewportTableRecord
  2
L6
 70
     0
 10
0.6666666666666666
 20
0.5
 11
1.0
 21
1.0
 12
0.0
 22
0.0
 13
0.0
 23
0.0
 14
0.5
 24
0.5
 15
0.5
 25
0.5
 16
0.577350269189626
 26
-0.577350269189626
 36
0.577350269189626
 17
0.0
 27
0.0
 37
0.0
 40
1285.020866083941
 41
0.0138182633638986
 42
50.0
 43
667.1414067255757
 44
-667.1414067255757
 50
0.0
 51
0.0
 71
     0
 72
   100
 73
     1
 74
     3
 75
     0
 76
     0
 77
     0
 78
     0
281
     0
 65
     1
110
0.0
120
0.0
130
0.0
111
1.0
121
0.0
131
0.0
112
0.0
122
1.0
132
0.0
 79
     0
146
0.0
348
2F
 60
     3
 61
     5
292
     1
282
     1
141
0.0
142
0.0
 63
   250
421
  3355443
  0
VPORT
  5
6D1
330
8
100
AcDbSymbolTableRecord
100
AcDbViewportTableRecord
  2
L6
 70
     0
 10
0.6666666666666666
 20
0.0
 11
1.0
 21
0.5
 12
0.0
 22
0.0
 13
0.0
 23
0.0
 14
0.5
 24
0.5
 15
0.5
 25
0.5
 16
1.0
 26
0.0
 36
0.0
 17
0.0
 27
0.0
 37
0.0
 40
1319.822715367485
 41
0.0134538953973897
 42
50.0
 43
672.0208330104061
 44
-672.0208330104061
 50
0.0
 51
0.0
 71
     0
 72
   100
 73
     1
 74
     3
 75
     0
 76
     0
 77
     0
 78
     0
281
     0
 65
     1
110
0.0
120
0.0
130
0.0
111
1.0
121
0.0
131
0.0
112
0.0
122
1.0
132
0.0
 79
     0
146
0.0
348
2F
 60
     3
 61
     5
292
     1
282
     1
141
0.0
142
0.0
 63
   250
421
  3355443
  0
ENDTAB
  0
TABLE
  2
LTYPE
  5
5
330
0
100
AcDbSymbolTable
 70
     9
  0
LTYPE
  5
14
330
5
100
AcDbSymbolTableRecord
100
AcDbLinetypeTableRecord
  2
BYBLOCK
 70
     0
  3

 72
    65
 73
     0
 40
0.0
  0
LTYPE
  5
15
330
5
100
AcDbSymbolTableRecord
100
AcDbLinetypeTableRecord
  2
BYLAYER
 70
     0
  3

 72
    65
 73
     0
 40
0.0
  0
LTYPE
  5
16
330
5
100
AcDbSymbolTableRecord
100
AcDbLinetypeTableRecord
  2
CONTINUOUS
 70
     0
  3
Solid line
 72
    65
 73
     0
 40
0.0
  0
LTYPE
  5
3B
330
5
100
AcDbSymbolTableRecord
100
AcDbLinetypeTableRecord
  2
DASHED
 70
     0
  3
__ __ __ __ __ __ __ __ __
 72
    65
 73
     2
 40
25.72
 49
12.86
 74
     4
 75
     0
340
0
 46
0.0
 50
0.0
 44
0.0
 45
0.0
 49
-12.86
 74
     4
 75
     0
340
0
 46
0.0
 50
0.0
 44
0.0
 45
0.0
  0
LTYPE
  5
3C
330
5
100
AcDbSymbolTableRecord
100
AcDbLinetypeTableRecord
  2
HIDDEN
 70
     0
  3
_ _ _ _ _ _ _ _ _ _ _ _ _ _ _
 72
    65
 73
     2
 40
0.5
 49
0.25
 74
     4
 75
     0
340
0
 46
0.0
 50
0.0
 44
0.0
 45
0.0
 49
-0.25
 74
     4
 75
     0
340
0
 46
0.0
 50
0.0
 44
0.0
 45
0.0
  0
LTYPE
  5
3D
330
5
100
AcDbSymbolTableRecord
100
AcDbLinetypeTableRecord
  2
PHANTOM
 70
     0
  3
____ _ _ ____ _ _ _____ _ _ ____
 72
    65
 73
     6
 40
50.5
 49
18.0
 74
     4
 75
     0
340
0
 46
0.0
 50
0.0
 44
0.0
 45
0.0
 49
-6.5
 74
     4
 75
     0
340
0
 46
0.0
 50
0.0
 44
0.0
 45
0.0
 49
6.5
 74
     4
 75
     0
340
0
 46
0.0
 50
0.0
 44
0.0
 45
0.0
 49
-6.5
 74
     4
 75
     0
340
0
 46
0.0
 50
0.0
 44
0.0
 45
0.0
 49
6.5
 74
     4
 75
     0
340
0
 46
0.0
 50
0.0
 44
0.0
 45
0.0
 49
-6.5
 74
     4
 75
     0
340
0
 46
0.0
 50
0.0
 44
0.0
 45
0.0
  0
LTYPE
  5
3E
330
5
100
AcDbSymbolTableRecord
100
AcDbLinetypeTableRecord
  2
CENTER
 70
     0
  3
____ _ ____ _ ____ _ ____
 72
    65
 73
     4
 40
47.4
 49
22.0
 74
     4
 75
     0
340
0
 46
0.0
 50
0.0
 44
0.0
 45
0.0
 49
-8.5
 74
     4
 75
     0
340
0
 46
0.0
 50
0.0
 44
0.0
 45
0.0
 49
8.5
 74
     4
 75
     0
340
0
 46
0.0
 50
0.0
 44
0.0
 45
0.0
 49
-8.5
 74
     4
 75
     0
340
0
 46
0.0
 50
0.0
 44
0.0
 45
0.0
  0
LTYPE
  5
3F
330
5
100
AcDbSymbolTableRecord
100
AcDbLinetypeTableRecord
  2
DOT
 70
     0
  3
.........................
 72
    65
 73
     2
 40
10.0
 49
0.0
 74
     4
 75
     0
340
0
 46
0.0
 50
0.0
 44
0.0
 45
0.0
 49
-10.0
 74
     4
 75
     0
340
0
 46
0.0
 50
0.0
 44
0.0
 45
0.0
  0
LTYPE
  5
40
330
5
100
AcDbSymbolTableRecord
100
AcDbLinetypeTableRecord
  2
DASHDOT
 70
     0
  3
_._._._._._._._._._._._._._._._.
 72
    65
 73
     4
 40
70.0
 49
31.0
 74
     4
 75
     0
340
0
 46
0.0
 50
0.0
 44
0.0
 45
0.0
 49
-13.0
 74
     4
 75
     0
340
0
 46
0.0
 50
0.0
 44
0.0
 45
0.0
 49
13.0
 74
     4
 75
     0
340
0
 46
0.0
 50
0.0
 44
0.0
 45
0.0
 49
-13.0
 74
     4
 75
     0
340
0
 46
0.0
 50
0.0
 44
0.0
 45
0.0
  0
LTYPE
  5
748
330
5
100
AcDbSymbolTableRecord
100
AcDbLinetypeTableRecord
  2
CUSTOM
 70
     0
  3

 72
    65
 73
     0
 40
0.0
  0
ENDTAB
  0
TABLE
  2
LAYER
  5
2
102
{ACAD_XDICTIONARY
360
843
102
}
330
0
100
AcDbSymbolTable
 70
     6
  0
LAYER
  5
10
102
{ACAD_XDICTIONARY
360
739
102
}
330
2
100
AcDbSymbolTableRecord
100
AcDbLayerTableRecord
  2
0
 70
     0
 62
     7
  6
CONTINUOUS
370
    -3
390
F
347
6DC
348
0
  0
LAYER
  5
42
102
{ACAD_XDICTIONARY
360
73B
102
}
330
2
100
AcDbSymbolTableRecord
100
AcDbLayerTableRecord
  2
1
 70
     0
 62
     7
  6
CONTINUOUS
370
    -3
390
F
347
6DC
348
0
  0
LAYER
  5
6BD
102
{ACAD_XDICTIONARY
360
73D
102
}
330
2
100
AcDbSymbolTableRecord
100
AcDbLayerTableRecord
  2
TOP
 70
     0
 62
     7
  6
CONTINUOUS
370
    -3
390
F
347
6DC
348
0
  0
LAYER
  5
6E4
330
2
100
AcDbSymbolTableRecord
100
AcDbLayerTableRecord
  2
Defpoints
 70
     0
 62
     7
  6
CONTINUOUS
290
     0
370
    -3
390
F
347
6DC
348
0
  0
LAYER
  5
840
330
2
100
AcDbSymbolTableRecord
100
AcDbLayerTableRecord
  2
HEWI
 70
     0
 62
   250
  6
CONTINUOUS
370
    -3
390
F
347
6DC
348
0
1001
AcAecLayerStandard
1000

1000

1001
AcCmTransparency
1071
        0
  0
LAYER
  5
89B
330
2
100
AcDbSymbolTableRecord
100
AcDbLayerTableRecord
  2
VD
 70
     0
 62
   183
  6
HIDDEN
370
    -3
390
F
347
6DC
348
0
1001
AcAecLayerStandard
1000

1000

1001
AcCmTransparency
1071
        0
  0
ENDTAB
  0
TABLE
  2
STYLE
  5
3
330
0
100
AcDbSymbolTable
 70
     3
  0
STYLE
  5
11
330
3
100
AcDbSymbolTableRecord
100
AcDbTextStyleTableRecord
  2
Standard
 70
     0
 40
0.0
 41
1.0
 50
0.0
 71
     0
 42
25.0
  3
txt
  4

  0
STYLE
  5
852
330
3
100
AcDbSymbolTableRecord
100
AcDbTextStyleTableRecord
  2
HEWI
 70
     0
 40
0.0
 41
1.0
 50
0.0
 71
     0
 42
90.0
  3
arial.ttf
  4

1001
ACAD
1000
Arial
1071
       34
  0
STYLE
  5
8CB
330
3
100
AcDbSymbolTableRecord
100
AcDbTextStyleTableRecord
  2
ARIAL
 70
     0
 40
0.0
 41
1.0
 50
0.0
 71
     0
 42
0.0
  3
Arial
  4

  0
ENDTAB
  0
TABLE
  2
VIEW
  5
6
330
0
100
AcDbSymbolTable
 70
     0
  0
ENDTAB
  0
TABLE
  2
UCS
  5
7
330
0
100
AcDbSymbolTable
 70
     0
  0
ENDTAB
  0
TABLE
  2
APPID
  5
9
330
0
100
AcDbSymbolTable
 70
     6
  0
APPID
  5
12
330
9
100
AcDbSymbolTableRecord
100
AcDbRegAppTableRecord
  2
ACAD
 70
     0
  0
APPID
  5
73F
330
9
100
AcDbSymbolTableRecord
100
AcDbRegAppTableRecord
  2
ACAD_NAV_VCDISPLAY
 70
     0
  0
APPID
  5
841
330
9
100
AcDbSymbolTableRecord
100
AcDbRegAppTableRecord
  2
AcAecLayerStandard
 70
     0
  0
APPID
  5
842
330
9
100
AcDbSymbolTableRecord
100
AcDbRegAppTableRecord
  2
AcCmTransparency
 70
     0
  0
APPID
  5
853
330
9
100
AcDbSymbolTableRecord
100
AcDbRegAppTableRecord
  2
ACAD_PSEXT
 70
     0
  0
APPID
  5
89C
330
9
100
AcDbSymbolTableRecord
100
AcDbRegAppTableRecord
  2
ACAD_EXEMPT_FROM_CAD_STANDARDS
 70
     0
  0
ENDTAB
  0
TABLE
  2
DIMSTYLE
  5
A
330
0
100
AcDbSymbolTable
 70
     3
100
AcDbDimStyleTable
 71
     2
340
749
340
27
  0
DIMSTYLE
105
27
330
A
100
AcDbSymbolTableRecord
100
AcDbDimStyleTableRecord
  2
Standard
 70
     0
340
11
  0
DIMSTYLE
105
749
102
{ACAD_REACTORS
330
8EB
102
}
330
A
100
AcDbSymbolTableRecord
100
AcDbDimStyleTableRecord
  2
ISO-25
 70
     0
 41
2.5
 42
0.625
 43
3.75
 44
1.25
 73
     0
 74
     0
 77
     1
 78
     8
140
2.5
141
2.5
143
0.03937007874016
147
0.625
171
     3
172
     1
271
     2
272
     2
274
     3
278
    44
283
     0
284
     8
340
11
  0
ENDTAB
  0
TABLE
  2
BLOCK_RECORD
  5
1
330
0
100
AcDbSymbolTable
 70
    11
  0
BLOCK_RECORD
  5
1F
330
1
100
AcDbSymbolTableRecord
100
AcDbBlockTableRecord
  2
*Model_Space
340
22
 70
     0
280
     1
281
     0
  0
BLOCK_RECORD
  5
1B
330
1
100
AcDbSymbolTableRecord
100
AcDbBlockTableRecord
  2
*Paper_Space
340
1E
 70
     0
280
     1
281
     0
  0
BLOCK_RECORD
  5
23
330
1
100
AcDbSymbolTableRecord
100
AcDbBlockTableRecord
  2
*Paper_Space0
340
26
 70
     0
280
     1
281
     0
  0
BLOCK_RECORD
  5
6E5
330
1
100
AcDbSymbolTableRecord
100
AcDbBlockTableRecord
  2
*D1
340
0
 70
     0
280
     1
281
     0
  0
BLOCK_RECORD
  5
6F1
330
1
100
AcDbSymbolTableRecord
100
AcDbBlockTableRecord
  2
*D2
340
0
 70
     0
280
     1
281
     0
  0
BLOCK_RECORD
  5
832
330
1
100
AcDbSymbolTableRecord
100
AcDbBlockTableRecord
  2
*D3
340
0
 70
     0
280
     1
281
     0
  0
BLOCK_RECORD
  5
88E
330
1
100
AcDbSymbolTableRecord
100
AcDbBlockTableRecord
  2
*D4
340
0
 70
     0
280
     1
281
     0
  0
BLOCK_RECORD
  5
8BA
330
1
100
AcDbSymbolTableRecord
100
AcDbBlockTableRecord
  2
_Dot
340
0
102
{BLKREFS
331
8C4
331
8C5
331
8E5
331
8E6
331
90E
331
90F
102
}
 70
     0
280
     1
281
     0
  0
BLOCK_RECORD
  5
8BF
330
1
100
AcDbSymbolTableRecord
100
AcDbBlockTableRecord
  2
*D7
340
0
 70
     0
280
     1
281
     0
  0
BLOCK_RECORD
  5
8D6
330
1
100
AcDbSymbolTableRecord
100
AcDbBlockTableRecord
  2
*D9
340
0
 70
     0
280
     1
281
     0
  0
BLOCK_RECORD
  5
8EC
330
1
100
AcDbSymbolTableRecord
100
AcDbBlockTableRecord
  2
*D10
340
0
 70
     0
280
     1
281
     0
  0
ENDTAB
  0
ENDSEC
  0
SECTION
  2
BLOCKS
  0
BLOCK
  5
20
330
1F
100
AcDbEntity
  8
0
100
AcDbBlockBegin
  2
*Model_Space
 70
     0
 10
0.0
 20
0.0
 30
0.0
  3
*Model_Space
  1

  0
ENDBLK
  5
21
330
1F
100
AcDbEntity
  8
0
100
AcDbBlockEnd
  0
BLOCK
  5
1C
330
1B
100
AcDbEntity
 67
     1
  8
0
100
AcDbBlockBegin
  2
*Paper_Space
 70
     0
 10
0.0
 20
0.0
 30
0.0
  3
*Paper_Space
  1

  0
ENDBLK
  5
1D
330
1B
100
AcDbEntity
 67
     1
  8
0
100
AcDbBlockEnd
  0
BLOCK
  5
24
330
23
100
AcDbEntity
 67
     1
  8
0
100
AcDbBlockBegin
  2
*Paper_Space0
 70
     0
 10
0.0
 20
0.0
 30
0.0
  3
*Paper_Space0
  1

  0
ENDBLK
  5
25
330
23
100
AcDbEntity
 67
     1
  8
0
100
AcDbBlockEnd
  0
BLOCK
  5
6EE
330
6E5
100
AcDbEntity
  8
0
100
AcDbBlockBegin
  2
*D1
 70
     1
 10
0.0
 20
0.0
 30
0.0
  3
*D1
  1

  0
LINE
  5
6E6
330
6E5
100
AcDbEntity
  8
0
 62
     0
370
    -2
100
AcDbLine
 10
197.7955681797262
 20
729.269403322281
 30
0.0
 11
197.9755681797261
 21
729.269403322281
 31
0.0
  0
LINE
  5
6E7
330
6E5
100
AcDbEntity
  8
0
 62
     0
370
    -2
100
AcDbLine
 10
197.9755681797261
 20
729.269403322281
 30
0.0
 11
229.3197234096654
 21
718.3681070254327
 31
0.0
  0
MTEXT
  5
6E8
330
6E5
100
AcDbEntity
  8
0
 62
     0
100
AcDbMText
 10
197.1205681797261
 20
729.2694033222809
 30
0.0
 40
0.18
 41
0.0
 46
0.0
 71
     5
 72
     1
  1
\A1;∅23.6000
 73
     1
 44
1.0
1001
ACAD
1000
MTEXTBEGIN
1070
    73
1070
     1
1070
    44
1040
1.0
1070
    74
1070
     0
1000
MTEXTEND
  0
SOLID
  5
6E9
330
6E5
100
AcDbEntity
  8
0
 62
     0
100
AcDbTrace
 10
229.3295782070002
 20
718.3964422150294
 30
0.0
 11
229.3098686123305
 21
718.3397718358357
 31
0.0
 12
229.4897345472465
 22
718.3089782414238
 32
0.0
 13
229.4897345472465
 23
718.3089782414238
 33
0.0
  0
LINE
  5
6EA
330
6E5
100
AcDbEntity
  8
0
 62
     0
370
    -2
100
AcDbLine
 10
240.5449091220069
 20
714.4327579563887
 30
0.0
 11
240.7249091220069
 21
714.4327579563887
 31
0.0
  0
LINE
  5
6EB
330
6E5
100
AcDbEntity
  8
0
 62
     0
370
    -2
100
AcDbLine
 10
240.6349091220069
 20
714.3427579563891
 30
0.0
 11
240.6349091220068
 21
714.522757956389
 31
0.0
  0
POINT
  5
6EC
330
6E5
100
AcDbEntity
  8
Defpoints
 62
     0
100
AcDbPoint
 10
229.4897345472465
 20
718.3089782414238
 30
0.0
  0
POINT
  5
6ED
330
6E5
100
AcDbEntity
  8
Defpoints
 62
     0
100
AcDbPoint
 10
251.7800836967673
 20
710.5565376713546
 30
0.0
  0
ENDBLK
  5
6EF
330
6E5
100
AcDbEntity
  8
0
100
AcDbBlockEnd
  0
BLOCK
  5
6FC
330
6F1
100
AcDbEntity
  8
0
100
AcDbBlockBegin
  2
*D2
 70
     1
 10
0.0
 20
0.0
 30
0.0
  3
*D2
  1

  0
LINE
  5
6F2
330
6F1
100
AcDbEntity
  8
0
 62
     0
370
    -2
100
AcDbLine
 10
228.1362870747628
 20
714.1846591413504
 30
0.0
 11
228.1362870747628
 21
711.0397278630072
 31
0.0
  0
LINE
  5
6F3
330
6F1
100
AcDbEntity
  8
0
 62
     0
370
    -2
100
AcDbLine
 10
253.1349091220068
 20
714.3702579563893
 30
0.0
 11
253.1349091220068
 21
711.0397278630072
 31
0.0
  0
LINE
  5
6F4
330
6F1
100
AcDbEntity
  8
0
 62
     0
370
    -2
100
AcDbLine
 10
228.3162870747628
 20
711.2197278630072
 30
0.0
 11
240.0055980983848
 21
711.2197278630072
 31
0.0
  0
LINE
  5
6F5
330
6F1
100
AcDbEntity
  8
0
 62
     0
370
    -2
100
AcDbLine
 10
252.9549091220069
 20
711.2197278630072
 30
0.0
 11
241.2655980983848
 21
711.2197278630072
 31
0.0
  0
SOLID
  5
6F6
330
6F1
100
AcDbEntity
  8
0
 62
     0
100
AcDbTrace
 10
228.3162870747628
 20
711.249727863007
 30
0.0
 11
228.3162870747628
 21
711.189727863007
 31
0.0
 12
228.1362870747628
 22
711.2197278630072
 32
0.0
 13
228.1362870747628
 23
711.2197278630072
 33
0.0
  0
SOLID
  5
6F7
330
6F1
100
AcDbEntity
  8
0
 62
     0
100
AcDbTrace
 10
252.9549091220069
 20
711.249727863007
 30
0.0
 11
252.9549091220069
 21
711.189727863007
 31
0.0
 12
253.1349091220068
 22
711.2197278630072
 32
0.0
 13
253.1349091220068
 23
711.2197278630072
 33
0.0
  0
MTEXT
  5
6F8
330
6F1
100
AcDbEntity
  8
0
 62
     0
100
AcDbMText
 10
240.6355980983848
 20
711.2197278630072
 30
0.0
 40
0.18
 41
0.0
 46
0.0
 71
     5
 72
     1
  1
\A1;24.9986
 73
     1
 44
1.0
1001
ACAD
1000
MTEXTBEGIN
1070
    73
1070
     1
1070
    44
1040
1.0
1070
    74
1070
     0
1000
MTEXTEND
  0
POINT
  5
6F9
330
6F1
100
AcDbEntity
  8
Defpoints
 62
     0
100
AcDbPoint
 10
228.1362870747628
 20
714.2471591413506
 30
0.0
  0
POINT
  5
6FA
330
6F1
100
AcDbEntity
  8
Defpoints
 62
     0
100
AcDbPoint
 10
253.1349091220068
 20
714.4327579563893
 30
0.0
  0
POINT
  5
6FB
330
6F1
100
AcDbEntity
  8
Defpoints
 62
     0
100
AcDbPoint
 10
253.1349091220068
 20
711.2197278630072
 30
0.0
  0
ENDBLK
  5
6FD
330
6F1
100
AcDbEntity
  8
0
100
AcDbBlockEnd
  0
BLOCK
  5
833
330
832
100
AcDbEntity
  8
0
100
AcDbBlockBegin
  2
*D3
 70
     1
 10
0.0
 20
0.0
 30
0.0
  3
*D3
  1

  0
LINE
  5
835
330
832
100
AcDbEntity
  8
0
 62
     0
440
 16777216
370
    -2
100
AcDbLine
 10
683.9660740363707
 20
698.5360695271556
 30
0.0
 11
931.2838988099775
 21
698.5360695271557
 31
0.0
  0
LINE
  5
836
330
832
100
AcDbEntity
  8
0
 62
     0
440
 16777216
370
    -2
100
AcDbLine
 10
743.2960477928137
 20
70.90478901870854
 30
0.0
 11
931.2838988099775
 21
70.90478901870857
 31
0.0
  0
LINE
  5
837
330
832
100
AcDbEntity
  8
0
 62
     0
440
 16777216
370
    -2
100
AcDbLine
 10
931.1038988099776
 20
698.3560695271558
 30
0.0
 11
931.1038988099776
 21
384.9004292729322
 31
0.0
  0
LINE
  5
838
330
832
100
AcDbEntity
  8
0
 62
     0
440
 16777216
370
    -2
100
AcDbLine
 10
931.1038988099776
 20
71.08478901870856
 30
0.0
 11
931.1038988099776
 21
384.5404292729322
 31
0.0
  0
SOLID
  5
839
330
832
100
AcDbEntity
  8
0
 62
     0
440
 16777216
100
AcDbTrace
 10
931.0738988099775
 20
698.3560695271558
 30
0.0
 11
931.1338988099775
 21
698.3560695271558
 31
0.0
 12
931.1038988099776
 22
698.5360695271557
 32
0.0
 13
931.1038988099776
 23
698.5360695271557
 33
0.0
  0
SOLID
  5
83A
330
832
100
AcDbEntity
  8
0
 62
     0
440
 16777216
100
AcDbTrace
 10
931.0738988099775
 20
71.08478901870856
 30
0.0
 11
931.1338988099775
 21
71.08478901870856
 31
0.0
 12
931.1038988099776
 22
70.90478901870857
 32
0.0
 13
931.1038988099776
 23
70.90478901870857
 33
0.0
  0
MTEXT
  5
83B
330
832
100
AcDbEntity
  8
0
 62
     0
440
 16777216
100
AcDbMText
 10
931.1038988099774
 20
384.7204292729318
 30
0.0
 40
0.18
 41
0.0
 46
0.0
 71
     5
 72
     1
  1
\A1;627.6313
 73
     1
 44
1.0
  0
POINT
  5
83C
330
832
100
AcDbEntity
  8
Defpoints
 62
     0
440
 16777216
100
AcDbPoint
 10
683.9035740363707
 20
698.5360695271556
 30
0.0
  0
POINT
  5
83D
330
832
100
AcDbEntity
  8
Defpoints
 62
     0
440
 16777216
100
AcDbPoint
 10
743.2335477928137
 20
70.90478901870854
 30
0.0
  0
POINT
  5
83E
330
832
100
AcDbEntity
  8
Defpoints
 62
     0
440
 16777216
100
AcDbPoint
 10
931.1038988099776
 20
70.90478901870857
 30
0.0
  0
ENDBLK
  5
834
330
832
100
AcDbEntity
  8
0
100
AcDbBlockEnd
  0
BLOCK
  5
88F
330
88E
100
AcDbEntity
  8
0
100
AcDbBlockBegin
  2
*D4
 70
     1
 10
0.0
 20
0.0
 30
0.0
  3
*D4
  1

  0
LINE
  5
891
330
88E
100
AcDbEntity
  8
0
 62
     0
440
 16777216
370
    -2
100
AcDbLine
 10
724.7872616534862
 20
822.735636092444
 30
0.0
 11
442.6772192546708
 21
822.735636092444
 31
0.0
  0
LINE
  5
892
330
88E
100
AcDbEntity
  8
0
 62
     0
440
 16777216
370
    -2
100
AcDbLine
 10
697.4297366889961
 20
62.35615820247002
 30
0.0
 11
442.6772192546709
 21
62.35615820246998
 31
0.0
  0
LINE
  5
893
330
88E
100
AcDbEntity
  8
0
 62
     0
440
 16777216
370
    -2
100
AcDbLine
 10
442.8572192546709
 20
822.5556360924437
 30
0.0
 11
442.8572192546709
 21
442.725897147457
 31
0.0
  0
LINE
  5
894
330
88E
100
AcDbEntity
  8
0
 62
     0
440
 16777216
370
    -2
100
AcDbLine
 10
442.857219254671
 20
62.53615820246999
 30
0.0
 11
442.8572192546709
 21
442.3658971474569
 31
0.0
  0
SOLID
  5
895
330
88E
100
AcDbEntity
  8
0
 62
     0
440
 16777216
100
AcDbTrace
 10
442.8272192546709
 20
822.5556360924437
 30
0.0
 11
442.8872192546708
 21
822.5556360924437
 31
0.0
 12
442.8572192546709
 22
822.735636092444
 32
0.0
 13
442.8572192546709
 23
822.735636092444
 33
0.0
  0
SOLID
  5
896
330
88E
100
AcDbEntity
  8
0
 62
     0
440
 16777216
100
AcDbTrace
 10
442.827219254671
 20
62.53615820246999
 30
0.0
 11
442.887219254671
 21
62.53615820246999
 31
0.0
 12
442.857219254671
 22
62.35615820246998
 32
0.0
 13
442.857219254671
 23
62.35615820246998
 33
0.0
  0
MTEXT
  5
897
330
88E
100
AcDbEntity
  8
0
 62
     0
440
 16777216
100
AcDbMText
 10
442.8572192546709
 20
442.5458971474568
 30
0.0
 40
0.18
 41
0.0
 46
0.0
 71
     5
 72
     1
  1
\A1;760.3795
 73
     1
 44
1.0
  0
POINT
  5
898
330
88E
100
AcDbEntity
  8
Defpoints
 62
     0
440
 16777216
100
AcDbPoint
 10
724.8497616534862
 20
822.735636092444
 30
0.0000000000001063
  0
POINT
  5
899
330
88E
100
AcDbEntity
  8
Defpoints
 62
     0
440
 16777216
100
AcDbPoint
 10
697.4922366889963
 20
62.35615820247002
 30
0.0
  0
POINT
  5
89A
330
88E
100
AcDbEntity
  8
Defpoints
 62
     0
440
 16777216
100
AcDbPoint
 10
442.857219254671
 20
62.35615820246998
 30
0.0
  0
ENDBLK
  5
890
330
88E
100
AcDbEntity
  8
0
100
AcDbBlockEnd
  0
BLOCK
  5
8BB
330
8BA
100
AcDbEntity
  8
0
100
AcDbBlockBegin
  2
_Dot
 70
     0
 10
0.0
 20
0.0
 30
0.0
  3
_Dot
  1

  0
LWPOLYLINE
  5
8BC
330
8BA
100
AcDbEntity
  8
0
  6
ByBlock
 62
     0
100
AcDbPolyline
 90
        2
 70
     1
 43
0.5
 10
-0.25
 20
0.0
 42
1.0
 10
0.25
 20
0.0
 42
1.0
  0
LINE
  5
8BD
330
8BA
100
AcDbEntity
  8
0
  6
ByBlock
 62
     0
370
    -2
100
AcDbLine
 10
-0.5
 20
0.0
 30
0.0
 11
-1.0
 21
0.0
 31
0.0
  0
ENDBLK
  5
8BE
330
8BA
100
AcDbEntity
  8
0
100
AcDbBlockEnd
  0
BLOCK
  5
8C0
330
8BF
100
AcDbEntity
  8
0
100
AcDbBlockBegin
  2
*D7
 70
     1
 10
0.0
 20
0.0
 30
0.0
  3
*D7
  1

  0
LINE
  5
8C1
330
8BF
100
AcDbEntity
  8
0
 62
     0
440
 16777216
370
    -2
100
AcDbLine
 10
21833.66388734562
 20
-62336.93462033389
 30
0.0
 11
21960.19945650409
 21
-62336.93462033389
 31
0.0
  0
LINE
  5
8C2
330
8BF
100
AcDbEntity
  8
0
 62
     0
440
 16777216
370
    -2
100
AcDbLine
 10
21833.66388734562
 20
-61486.93462033389
 30
0.0
 11
21960.19945650409
 21
-61486.93462033389
 31
0.0
  0
LINE
  5
8C3
330
8BF
100
AcDbEntity
  8
0
 62
     0
440
 16777216
370
    -2
100
AcDbLine
 10
21958.94945650409
 20
-62318.93462033388
 30
0.0
 11
21958.94945650409
 21
-61504.93462033389
 31
0.0
  0
INSERT
  5
8C4
330
8BF
100
AcDbEntity
  8
0
 62
     0
440
 16777216
370
    -2
100
AcDbBlockReference
  2
_Dot
 10
21958.94945650409
 20
-62336.93462033389
 30
0.0
 41
18.0
 42
18.0
 43
18.0
 50
270.0
  0
INSERT
  5
8C5
330
8BF
100
AcDbEntity
  8
0
 62
     0
440
 16777216
370
    -2
100
AcDbBlockReference
  2
_Dot
 10
21958.94945650409
 20
-61486.93462033389
 30
0.0
 41
18.0
 42
18.0
 43
18.0
 50
90.0
  0
MTEXT
  5
8C6
330
8BF
100
AcDbEntity
  8
0
 62
     0
440
 16777216
100
AcDbMText
 10
21923.5265369952
 20
-61911.93462033388
 30
0.0
 40
40.0
 41
0.0
 46
0.0
 71
     5
 72
     1
  1
850
  7
ARIAL
 11
0.0000000000000001
 21
1.0
 31
0.0
 73
     1
 44
1.0
  0
POINT
  5
8C7
330
8BF
100
AcDbEntity
  8
Defpoints
 62
     0
440
 16777216
100
AcDbPoint
 10
21833.03888734562
 20
-62336.93462033389
 30
0.0
  0
POINT
  5
8C8
330
8BF
100
AcDbEntity
  8
Defpoints
 62
     0
440
 16777216
100
AcDbPoint
 10
21833.03888734562
 20
-61486.93462033389
 30
0.0
  0
POINT
  5
8C9
330
8BF
100
AcDbEntity
  8
Defpoints
 62
     0
440
 16777216
100
AcDbPoint
 10
21958.94945650409
 20
-61486.93462033389
 30
0.0
  0
ENDBLK
  5
8CA
330
8BF
100
AcDbEntity
  8
0
100
AcDbBlockEnd
  0
BLOCK
  5
8D7
330
8D6
100
AcDbEntity
  8
0
100
AcDbBlockBegin
  2
*D9
 70
     1
 10
0.0
 20
0.0
 30
0.0
  3
*D9
  1

  0
LINE
  5
8E2
330
8D6
100
AcDbEntity
  8
0
 62
     0
440
 16777216
370
    -2
100
AcDbLine
 10
1372.749753103641
 20
64.76389630970882
 30
0.0
 11
1499.285322262118
 21
64.76389630970884
 31
0.0
  0
LINE
  5
8E3
330
8D6
100
AcDbEntity
  8
0
 62
     0
440
 16777216
370
    -2
100
AcDbLine
 10
1372.749753103641
 20
914.7638963097092
 30
0.0
 11
1499.285322262118
 21
914.7638963097092
 31
0.0
  0
LINE
  5
8E4
330
8D6
100
AcDbEntity
  8
0
 62
     0
440
 16777216
370
    -2
100
AcDbLine
 10
1498.035322262118
 20
82.76389630970884
 30
0.0
 11
1498.035322262118
 21
896.7638963097092
 31
0.0
  0
INSERT
  5
8E5
330
8D6
100
AcDbEntity
  8
0
 62
     0
440
 16777216
370
    -2
100
AcDbBlockReference
  2
_Dot
 10
1498.035322262118
 20
64.76389630970884
 30
0.0
 41
18.0
 42
18.0
 43
18.0
 50
270.0
  0
INSERT
  5
8E6
330
8D6
100
AcDbEntity
  8
0
 62
     0
440
 16777216
370
    -2
100
AcDbBlockReference
  2
_Dot
 10
1498.035322262118
 20
914.7638963097092
 30
0.0
 41
18.0
 42
18.0
 43
18.0
 50
90.0
  0
MTEXT
  5
8E7
330
8D6
100
AcDbEntity
  8
0
 62
     0
440
 16777216
100
AcDbMText
 10
1462.612402753251
 20
489.7638963097084
 30
0.0
 40
40.0
 41
0.0
 46
0.0
 71
     5
 72
     1
  1
850
  7
ARIAL
 11
0.0000000000000001
 21
1.0
 31
0.0
 73
     1
 44
1.0
  0
POINT
  5
8E8
330
8D6
100
AcDbEntity
  8
Defpoints
 62
     0
440
 16777216
100
AcDbPoint
 10
1372.124753103641
 20
64.76389630970882
 30
0.0
  0
POINT
  5
8E9
330
8D6
100
AcDbEntity
  8
Defpoints
 62
     0
440
 16777216
100
AcDbPoint
 10
1372.124753103641
 20
914.7638963097092
 30
0.0
  0
POINT
  5
8EA
330
8D6
100
AcDbEntity
  8
Defpoints
 62
     0
440
 16777216
100
AcDbPoint
 10
1498.035322262118
 20
914.7638963097092
 30
0.0
  0
ENDBLK
  5
8D8
330
8D6
100
AcDbEntity
  8
0
100
AcDbBlockEnd
  0
BLOCK
  5
8ED
330
8EC
100
AcDbEntity
  8
0
100
AcDbBlockBegin
  2
*D10
 70
     1
 10
0.0
 20
0.0
 30
0.0
  3
*D10
  1

  0
LINE
  5
90B
330
8EC
100
AcDbEntity
  8
0
 62
     0
440
 16777216
370
    -2
100
AcDbLine
 10
228.6365987562132
 20
822.735636092444
 30
0.0
 11
69.61477877967803
 21
822.735636092444
 31
0.0
  0
LINE
  5
90C
330
8EC
100
AcDbEntity
  8
0
 62
     0
440
 16777216
370
    -2
100
AcDbLine
 10
228.6365987562132
 20
62.79413716748681
 30
0.0
 11
69.6147787796782
 21
62.79413716748678
 31
0.0
  0
LINE
  5
90D
330
8EC
100
AcDbEntity
  8
0
 62
     0
440
 16777216
370
    -2
100
AcDbLine
 10
70.86477877967803
 20
804.7356360924441
 30
0.0
 11
70.8647787796782
 21
80.79413716748678
 31
0.0
  0
INSERT
  5
90E
330
8EC
100
AcDbEntity
  8
0
 62
     0
440
 16777216
370
    -2
100
AcDbBlockReference
  2
_Dot
 10
70.86477877967803
 20
822.735636092444
 30
0.0
 41
18.0
 42
18.0
 43
18.0
 50
90.0
  0
INSERT
  5
90F
330
8EC
100
AcDbEntity
  8
0
 62
     0
440
 16777216
370
    -2
100
AcDbBlockReference
  2
_Dot
 10
70.8647787796782
 20
62.79413716748678
 30
0.0
 41
18.0
 42
18.0
 43
18.0
 50
270.0
  0
MTEXT
  5
910
330
8EC
100
AcDbEntity
  8
0
 62
     0
440
 16777216
100
AcDbMText
 10
35.44185927081057
 20
442.7648866299652
 30
0.0
 40
40.0
 41
0.0
 46
0.0
 71
     5
 72
     1
  1
760
  7
ARIAL
 11
0.0000000000000001
 21
1.0
 31
0.0
 73
     1
 44
1.0
  0
POINT
  5
911
330
8EC
100
AcDbEntity
  8
Defpoints
 62
     0
440
 16777216
100
AcDbPoint
 10
229.2615987562132
 20
822.735636092444
 30
0.0000000000000152
  0
POINT
  5
912
330
8EC
100
AcDbEntity
  8
Defpoints
 62
     0
440
 16777216
100
AcDbPoint
 10
229.2615987562132
 20
62.79413716748681
 30
0.0
  0
POINT
  5
913
330
8EC
100
AcDbEntity
  8
Defpoints
 62
     0
440
 16777216
100
AcDbPoint
 10
70.8647787796782
 20
62.79413716748678
 30
0.0
  0
ENDBLK
  5
8EE
330
8EC
100
AcDbEntity
  8
0
100
AcDbBlockEnd
  0
ENDSEC
  0
SECTION
  2
ENTITIES
  0
POINT
  5
41
330
1F
100
AcDbEntity
  8
1
  6
Continuous
 62
     8
 60
     1
100
AcDbPoint
 10
404.3575923400498
 20
781.375311787343
 30
0.0
  0
POINT
  5
43
330
1F
100
AcDbEntity
  8
1
  6
Continuous
 62
     8
 60
     1
100
AcDbPoint
 10
406.2557024266769
 20
781.375311787343
 30
0.0
  0
POINT
  5
44
330
1F
100
AcDbEntity
  8
1
  6
Continuous
 62
     8
 60
     1
100
AcDbPoint
 10
459.0720825317583
 20
781.375311787343
 30
0.0
  0
POINT
  5
45
330
1F
100
AcDbEntity
  8
1
  6
Continuous
 62
     8
 60
     1
100
AcDbPoint
 10
407.4516212075917
 20
781.375311787343
 30
0.0
  0
POINT
  5
46
330
1F
100
AcDbEntity
  8
1
  6
Continuous
 62
     8
 60
     1
100
AcDbPoint
 10
458.1666053598187
 20
768.375311787343
 30
0.0
  0
POINT
  5
47
330
1F
100
AcDbEntity
  8
1
  6
Continuous
 62
     8
 60
     1
100
AcDbPoint
 10
458.1666053598187
 20
794.772511787343
 30
0.0
  0
POINT
  5
48
330
1F
100
AcDbEntity
  8
1
  6
Continuous
 62
     8
 60
     1
100
AcDbPoint
 10
404.3575923400498
 20
27.05471422462955
 30
0.0
  0
POINT
  5
49
330
1F
100
AcDbEntity
  8
1
  6
Continuous
 62
     8
 60
     1
100
AcDbPoint
 10
406.3864360407983
 20
27.05471422462955
 30
0.0
  0
POINT
  5
4A
330
1F
100
AcDbEntity
  8
1
  6
Continuous
 62
     8
 60
     1
100
AcDbPoint
 10
459.0720825317583
 20
27.05471422462955
 30
0.0
  0
POINT
  5
4B
330
1F
100
AcDbEntity
  8
1
  6
Continuous
 62
     8
 60
     1
100
AcDbPoint
 10
407.4690523561413
 20
27.05471422462955
 30
0.0
  0
LWPOLYLINE
  5
7B2
330
1F
100
AcDbEntity
  8
HEWI
  6
Continuous
100
AcDbPolyline
 90
       17
 70
     0
 43
0.0
 10
749.6062615991242
 20
620.7093883852933
 10
795.0711921422626
 20
101.0428398005873
 10
794.8908370311071
 20
100.8262968035274
 10
794.4425469108
 20
100.7870764989323
 10
793.5720196625124
 20
100.710915231286
 10
792.3298471656744
 20
100.6022392166292
 10
790.7882199706899
 20
100.4673643099132
 10
789.0367318465441
 20
100.3141289504638
 10
787.1771729166139
 20
100.1514386203858
 10
785.3176139866818
 20
99.98874829030823
 10
783.5661258625369
 20
99.83551293085845
 10
782.0244986675525
 20
99.70063802414239
 10
780.7823261707144
 20
99.59196200948515
 10
779.9117989224258
 20
99.51580074183931
 10
779.4635088021196
 20
99.4765804372451
 10
779.2482913945832
 20
99.65851532234914
 10
733.7788477341599
 20
619.3766490751158
  0
LWPOLYLINE
  5
7B3
330
1F
100
AcDbEntity
  8
HEWI
  6
Continuous
100
AcDbPolyline
 90
       44
 70
     1
 43
0.0
 10
784.6420307778815
 20
62.28639823218106
 10
784.4683451369656
 20
62.27120270715936
 10
784.0762999098515
 20
62.27547942692917
 10
783.6926220684599
 20
62.35615820247
 10
783.2639575264892
 20
62.54925750398109
 10
782.8922151553752
 20
62.83709120919098
 10
782.5979374977313
 20
63.2037535817272
 10
782.3973863837673
 20
63.62898280050723
 10
782.3016442999715
 20
64.08928063120431
 10
781.0814639266681
 20
78.03600650695322
 10
782.4450223315625
 20
79.66103218015001
 10
782.6331817758882
 20
79.67749399892507
 10
783.1867249658935
 20
79.72592275417723
 10
784.0734819834224
 20
79.80350394268322
 10
785.241917733847
 20
79.90572882776231
 10
786.6241269784421
 20
80.02665647066834
 10
788.1397807400397
 20
80.15925899634732
 10
789.700794731194
 20
80.29583002799819
 10
791.2164484927926
 20
80.42843255367717
 10
792.5986577373877
 20
80.54936019658322
 10
793.7670934878123
 20
80.65158508166229
 10
794.6538505053411
 20
80.72916627016805
 10
795.2073936953467
 20
80.77759502541987
 10
795.3955531396704
 20
80.79405684419436
 10
797.0205787674167
 20
79.43049840116106
 10
798.2407591407199
 20
65.48377252541222
 10
798.2264015176715
 20
65.01384252276996
 10
798.1027374683382
 20
64.56024787555913
 10
797.8766007887807
 20
64.14805511871117
 10
797.5604878156937
 20
63.80004186635908
 10
797.1718669169439
 20
63.53543931962718
 10
796.8080274399826
 20
63.38936121019589
 10
796.4226812675259
 20
63.31707162781407
 10
796.2489956266098
 20
63.30187610279204
 10
795.7380326819913
 20
63.25717263640506
 10
794.9194877427335
 20
63.18555923163096
 10
793.8409316654187
 20
63.09119779924987
 10
792.5650462088687
 20
62.97957228272213
 10
791.1659811981634
 20
62.85716995132617
 10
789.7250452063281
 20
62.73110438364739
 10
788.3259801956227
 20
62.60870205225211
 10
787.0500947390727
 20
62.49707653572414
 10
785.9715386617581
 20
62.40271510334224
 10
785.1529937225003
 20
62.33110169856814
  0
LWPOLYLINE
  5
7B4
330
1F
100
AcDbEntity
  8
HEWI
  6
Continuous
100
AcDbPolyline
 90
       28
 70
     1
 43
0.0
 10
729.3647683877142
 20
622.6706687156847
 10
727.3105892678477
 20
625.6466610305042
 10
726.0283024176997
 20
629.027773671688
 10
725.5924296880793
 20
632.6175086623747
 10
725.5924296880793
 20
669.3175089320042
 10
725.5924296880793
 20
673.7448487538511
 10
725.5924296880793
 20
677.9148876779777
 10
725.5924296880793
 20
681.5852781995886
 10
725.5924296880793
 20
684.5427105628941
 10
725.5924296880793
 20
686.6153095487684
 10
725.5924296880793
 20
687.6826232377441
 10
755.5924290693765
 20
687.6826232377441
 10
755.5924290693765
 20
686.6153095487684
 10
755.5924290693765
 20
684.5427105628941
 10
755.5924290693765
 20
681.5852781995886
 10
755.5924290693765
 20
677.9148876779777
 10
755.5924290693765
 20
673.7448487538511
 10
755.5924290693765
 20
669.3175089320042
 10
755.5924290693765
 20
632.6175086623747
 10
755.1565563397571
 20
629.027773671688
 10
753.874269489609
 20
625.6466610305042
 10
751.8200903697414
 20
622.6706687156847
 10
749.1134004039641
 20
620.2727505832744
 10
745.9115025746687
 20
618.5922649190517
 10
742.4004795452701
 20
617.7268754415043
 10
738.7843792121865
 20
617.7268754415043
 10
735.2733561827881
 20
618.5922649190517
 10
732.0714583534927
 20
620.2727505832744
  0
LWPOLYLINE
  5
7B5
330
1F
100
AcDbEntity
  8
HEWI
  6
Continuous
100
AcDbPolyline
 90
       11
 70
     0
 43
0.0
 10
938.8370736850019
 20
678.5884769020281
 10
938.3568997040775
 20
678.2645954532689
 10
935.7983882977039
 20
681.2078262269988
 10
932.6038436664184
 20
683.4446705215372
 10
928.9630490665247
 20
684.8422406664781
 10
925.0922988167586
 20
685.3175090495538
 10
921.2215485669913
 20
684.8422406664781
 10
917.5807539670977
 20
683.4446705215372
 10
914.386209335813
 20
681.2078262269988
 10
911.8276979294398
 20
678.2645954532689
 10
911.3475239732215
 20
678.5884768853627
  0
LWPOLYLINE
  5
7B6
330
1F
100
AcDbEntity
  8
HEWI
  6
Continuous
100
AcDbPolyline
 90
        3
 70
     0
 43
0.0
 10
749.9136647828343
 20
630.7832330541502
 10
749.8163764540459
 20
630.3440098349397
 10
749.3840993116264
 20
629.0179896954513
  0
LWPOLYLINE
  5
7B7
330
1F
100
AcDbEntity
  8
HEWI
  6
Continuous
100
AcDbPolyline
 90
        3
 70
     0
 43
0.0
 10
740.9259420241113
 20
623.1233646443357
 10
739.447330939918
 20
623.1867742891567
 10
738.7581538218093
 20
623.2962729975511
  0
LINE
  5
7B8
330
1F
100
AcDbEntity
  8
HEWI
  6
Continuous
100
AcDbLine
 10
738.7581538218093
 20
623.2962729975511
 30
0.0
 11
740.9259420241113
 21
623.1233646443357
 31
0.0
  0
LWPOLYLINE
  5
7B9
330
1F
100
AcDbEntity
  8
HEWI
  6
Continuous
100
AcDbPolyline
 90
       28
 70
     1
 43
0.0
 10
744.4742984328395
 20
633.9370131340484
 10
744.6725279951379
 20
633.0209867858449
 10
744.6575537835406
 20
632.0838768642536
 10
744.4301582689457
 20
631.1746516395596
 10
744.0022239048021
 20
630.3408222793717
 10
743.3961122146891
 20
629.6259601732792
 10
742.6434953006518
 20
629.0674201288884
 10
741.7837008313208
 20
628.6943884126436
 10
740.8616569917411
 20
628.5263576341995
 10
739.9255447806516
 20
628.5721081686074
 10
739.0242803334112
 20
628.8292493416434
 10
738.2049588306728
 20
629.2843443534472
 10
737.5103935602618
 20
629.9136124126426
 10
736.9768787274887
 20
630.6841713912149
 10
736.6322929172773
 20
631.5557560657752
 10
736.4946423108666
 20
632.4828221592468
 10
736.5711197806684
 20
633.4169262372037
 10
736.8577290298489
 20
634.3092570984095
 10
737.339493417081
 20
635.1131863828507
 10
737.991238554403
 20
635.7867051163582
 10
738.778907783887
 20
636.2946188712294
 10
739.6613417934441
 20
636.6103868357019
 10
740.5924293787283
 20
636.7175086924968
 10
741.2593139768049
 20
636.6629091561417
 10
741.9084368238627
 20
636.5005647467585
 10
742.7558739278937
 20
636.1002529349072
 10
743.4902611804717
 20
635.5179518398982
 10
744.0732234959778
 20
634.7840893515126
  0
LWPOLYLINE
  5
7BA
330
1F
100
AcDbEntity
  8
HEWI
  6
Continuous
100
AcDbPolyline
 90
        3
 70
     0
 43
0.0
 10
749.9136647828343
 20
630.7832330541502
 10
750.0924291828059
 20
632.6175086623747
 10
750.0924291828059
 20
669.317508887962
  0
LWPOLYLINE
  5
7BB
330
1F
100
AcDbEntity
  8
HEWI
  6
Continuous
100
AcDbPolyline
 90
        3
 70
     0
 43
0.0
 10
749.3840993116264
 20
629.0179896954513
 10
749.0042614489522
 20
628.2026384955234
 10
748.3351909719267
 20
627.1129977046824
  0
LWPOLYLINE
  5
7BC
330
1F
100
AcDbEntity
  8
HEWI
  6
Continuous
100
AcDbPolyline
 90
        3
 70
     0
 43
0.0
 10
731.0924295746517
 20
669.317508887962
 10
731.0924295746517
 20
632.6175086623747
 10
731.3413350001518
 20
630.4571269050864
  0
LINE
  5
7BD
330
1F
100
AcDbEntity
  8
HEWI
  6
Continuous
100
AcDbLine
 10
749.3840993116264
 20
629.0179896954513
 30
0.0
 11
749.9136647828343
 21
630.7832330541502
 31
0.0
  0
LINE
  5
7BE
330
1F
100
AcDbEntity
  8
HEWI
  6
Continuous
100
AcDbLine
 10
748.3351909719267
 20
627.1129977046824
 30
0.0
 11
749.3840993116264
 21
629.0179896954513
 31
0.0
  0
LWPOLYLINE
  5
7BF
330
1F
100
AcDbEntity
  8
HEWI
  6
Continuous
100
AcDbPolyline
 90
        3
 70
     0
 43
0.0
 10
748.3351909719267
 20
627.1129977046824
 10
747.7032813397028
 20
626.317843362804
 10
746.8805530725092
 20
625.4964483813567
  0
LINE
  5
7C0
330
1F
100
AcDbEntity
  8
HEWI
  6
Continuous
100
AcDbLine
 10
746.8805530725092
 20
625.4964483813567
 30
0.0
 11
748.3351909719267
 21
627.1129977046824
 31
0.0
  0
LWPOLYLINE
  5
7C1
330
1F
100
AcDbEntity
  8
HEWI
  6
Continuous
100
AcDbPolyline
 90
        3
 70
     0
 43
0.0
 10
746.8805530725092
 20
625.4964483813567
 10
745.9890443613775
 20
624.7991618789442
 10
745.0964103023816
 20
624.2530507582023
  0
LINE
  5
7C2
330
1F
100
AcDbEntity
  8
HEWI
  6
Continuous
100
AcDbLine
 10
745.0964103023816
 20
624.2530507582023
 30
0.0
 11
746.8805530725092
 21
625.4964483813567
 31
0.0
  0
LWPOLYLINE
  5
7C3
330
1F
100
AcDbEntity
  8
HEWI
  6
Continuous
100
AcDbPolyline
 90
        3
 70
     0
 43
0.0
 10
745.0964103023816
 20
624.2530507582023
 10
743.9611757361581
 20
623.7348542916038
 10
743.076253782492
 20
623.4479602922392
  0
LINE
  5
7C4
330
1F
100
AcDbEntity
  8
HEWI
  6
Continuous
100
AcDbLine
 10
743.076253782492
 20
623.4479602922392
 30
0.0
 11
745.0964103023816
 21
624.2530507582023
 31
0.0
  0
LWPOLYLINE
  5
7C5
330
1F
100
AcDbEntity
  8
HEWI
  6
Continuous
100
AcDbPolyline
 90
        3
 70
     0
 43
0.0
 10
743.076253782492
 20
623.4479602922392
 10
741.7375278175386
 20
623.1867742891567
 10
740.9259420241113
 20
623.1233646443357
  0
LINE
  5
7C6
330
1F
100
AcDbEntity
  8
HEWI
  6
Continuous
100
AcDbLine
 10
740.9259420241113
 20
623.1233646443357
 30
0.0
 11
743.076253782492
 21
623.4479602922392
 31
0.0
  0
LWPOLYLINE
  5
7C7
330
1F
100
AcDbEntity
  8
HEWI
  6
Continuous
100
AcDbPolyline
 90
       12
 70
     0
 43
0.0
 10
910.1922991240472
 20
639.616018450346
 10
910.1922991240472
 20
636.6260199226576
 10
910.1922991240472
 20
633.1124850735013
 10
910.1922991240472
 20
629.5701839944968
 10
910.1922991240472
 20
626.2049823486147
 10
910.1922991240472
 20
623.2124534235031
 10
910.1922991240472
 20
620.7665121228902
 10
910.1922991240472
 20
619.0093076645324
 10
910.1922991240472
 20
618.0429623843714
 10
910.1922991240472
 20
617.9236367575672
 10
917.2015805655583
 20
617.8740467393156
 10
917.5886758975577
 20
617.9607991721817
  0
LWPOLYLINE
  5
7C8
330
1F
100
AcDbEntity
  8
HEWI
  6
Continuous
100
AcDbPolyline
 90
       11
 70
     0
 43
0.0
 10
932.9486678757884
 20
617.8773435778074
 10
939.992298509469
 20
617.9236367575672
 10
939.992298509469
 20
618.0429623843714
 10
939.992298509469
 20
619.0093076645324
 10
939.992298509469
 20
620.7665121228902
 10
939.992298509469
 20
623.2124534235031
 10
939.992298509469
 20
626.2049823486147
 10
939.992298509469
 20
629.5701839944968
 10
939.992298509469
 20
633.1124850735013
 10
939.992298509469
 20
636.6260199226576
 10
939.992298509469
 20
639.6175087149018
  0
LWPOLYLINE
  5
7C9
330
1F
100
AcDbEntity
  8
HEWI
  6
Continuous
100
AcDbPolyline
 90
        6
 70
     0
 43
0.0
 10
931.7046178843847
 20
618.2471810397563
 10
930.699159489194
 20
618.582081352044
 10
929.4755394451533
 20
618.9478503781661
 10
928.0722193323537
 20
619.2778558726659
 10
926.5395833625197
 20
619.5115025254381
 10
924.9284005577202
 20
619.5882026635403
  0
LWPOLYLINE
  5
7CA
330
1F
100
AcDbEntity
  8
HEWI
  6
Continuous
100
AcDbPolyline
 90
        5
 70
     0
 43
0.0
 10
923.3246218935491
 20
619.4734157808231
 10
921.8058287598433
 20
619.213281501276
 10
920.4280407379563
 20
618.869408853795
 10
919.2467762459328
 20
618.5036860696303
 10
918.2918048745833
 20
618.1845917944285
  0
LWPOLYLINE
  5
7CB
330
1F
100
AcDbEntity
  8
HEWI
  6
Continuous
100
AcDbPolyline
 90
       16
 70
     0
 43
0.0
 10
920.0922989198751
 20
99.63590366113528
 10
920.0922989198751
 20
80.22754451217219
 10
920.2375898297496
 20
80.12325583904605
 10
920.6650187797986
 20
80.02502804452712
 10
921.3497451530876
 20
79.93856977099112
 10
922.2519751416802
 20
79.86890565903109
 10
923.3192744181115
 20
79.82008433361722
 10
924.4896154279112
 20
79.79494311272326
 10
925.6949822056055
 20
79.79494311272326
 10
926.8653232154056
 20
79.82008433361722
 10
927.9326224918367
 20
79.86890565903109
 10
928.8348524804296
 20
79.93856977099112
 10
929.5195788537183
 20
80.02502804452712
 10
929.9470078037677
 20
80.12325583904605
 10
930.0922987136418
 20
80.22754451217219
 10
930.0922987136418
 20
99.63590366113528
  0
LWPOLYLINE
  5
7CC
330
1F
100
AcDbEntity
  8
HEWI
  6
Continuous
100
AcDbPolyline
 90
       15
 70
     0
 43
0.0
 10
931.5449063653213
 20
80.29583002799819
 10
931.5449063653213
 20
80.15925899634732
 10
931.1699042688724
 20
80.02665647066834
 10
930.4416938347447
 20
79.90572882776231
 10
929.402596006431
 20
79.80350394268322
 10
928.1129993727462
 20
79.72592275417723
 10
926.6478506025466
 20
79.67749399892507
 10
925.0922988167586
 20
79.66103218015001
 10
923.5367470309704
 20
79.67749399892507
 10
922.0715982607716
 20
79.72592275417723
 10
920.782001627086
 20
79.80350394268322
 10
919.7429037987722
 20
79.90572882776231
 10
919.0146933646447
 20
80.02665647066834
 10
918.6396912681967
 20
80.15925899634732
 10
918.6396912681967
 20
80.29583002799819
  0
LWPOLYLINE
  5
7CD
330
1F
100
AcDbEntity
  8
HEWI
  6
Continuous
100
AcDbPolyline
 90
        3
 70
     0
 43
0.0
 10
733.2550042953343
 20
626.5832571379535
 10
732.1805973085036
 20
628.2026384955234
 10
732.0750083477859
 20
628.4099516218263
  0
LINE
  5
7CE
330
1F
100
AcDbEntity
  8
HEWI
  6
Continuous
100
AcDbLine
 10
733.2550042953343
 20
626.5832571379535
 30
0.0
 11
734.8194897060684
 21
625.0727643328689
 31
0.0
  0
LWPOLYLINE
  5
7CF
330
1F
100
AcDbEntity
  8
HEWI
  6
Continuous
100
AcDbPolyline
 90
        4
 70
     0
 43
0.0
 10
930.0922987309176
 20
80.58373316259491
 10
930.4416938347447
 20
80.54936019658322
 10
931.1699042688724
 20
80.42843255367717
 10
931.5449063653213
 20
80.29583002799819
  0
LINE
  5
7D0
330
1F
100
AcDbEntity
  8
HEWI
  6
Continuous
100
AcDbLine
 10
731.3413350001518
 20
630.4571269050864
 30
0.0
 11
732.0750083477859
 21
628.4099516218263
 31
0.0
  0
LWPOLYLINE
  5
7D1
330
1F
100
AcDbEntity
  8
HEWI
  6
Continuous
100
AcDbPolyline
 90
        3
 70
     0
 43
0.0
 10
738.7581538218093
 20
623.2962729975511
 10
737.2236830212996
 20
623.7348542916038
 10
736.6864837558014
 20
623.9576247564905
  0
LWPOLYLINE
  5
7D2
330
1F
100
AcDbEntity
  8
HEWI
  6
Continuous
100
AcDbPolyline
 90
        3
 70
     0
 43
0.0
 10
734.8194897060684
 20
625.0727643328689
 10
733.4815774177533
 20
626.317843362804
 10
733.2550042953343
 20
626.5832571379535
  0
LINE
  5
7D3
330
1F
100
AcDbEntity
  8
HEWI
  6
Continuous
100
AcDbLine
 10
732.0750083477859
 20
628.4099516218263
 30
0.0
 11
733.2550042953343
 21
626.5832571379535
 31
0.0
  0
LINE
  5
7D4
330
1F
100
AcDbEntity
  8
HEWI
  6
Continuous
100
AcDbLine
 10
736.6864837558014
 20
623.9576247564905
 30
0.0
 11
738.7581538218093
 21
623.2962729975511
 31
0.0
  0
LWPOLYLINE
  5
7D5
330
1F
100
AcDbEntity
  8
HEWI
  6
Continuous
100
AcDbPolyline
 90
        3
 70
     0
 43
0.0
 10
731.3413350001518
 20
630.4571269050864
 10
731.3684823034109
 20
630.3440098349397
 10
731.6118796260707
 20
629.7022238224099
  0
LINE
  5
7D6
330
1F
100
AcDbEntity
  8
HEWI
  6
Continuous
100
AcDbLine
 10
734.8194897060684
 20
625.0727643328689
 30
0.0
 11
736.6864837558014
 21
623.9576247564905
 31
0.0
  0
LWPOLYLINE
  5
7D7
330
1F
100
AcDbEntity
  8
HEWI
  6
Continuous
100
AcDbPolyline
 90
        4
 70
     0
 43
0.0
 10
918.6396912681967
 20
80.29583002799819
 10
919.0146933646447
 20
80.42843255367717
 10
919.7429037987722
 20
80.54936019658322
 10
920.0922989335667
 20
80.58373316564217
  0
LWPOLYLINE
  5
7D8
330
1F
100
AcDbEntity
  8
HEWI
  6
Continuous
100
AcDbPolyline
 90
        3
 70
     0
 43
0.0
 10
736.6864837558014
 20
623.9576247564905
 10
735.1958143960793
 20
624.7991618789442
 10
734.8194897060684
 20
625.0727643328689
  0
LWPOLYLINE
  5
7D9
330
1F
100
AcDbEntity
  8
HEWI
  6
Continuous
100
AcDbPolyline
 90
       26
 70
     1
 43
0.0
 10
741.0745760898062
 20
636.5883441879398
 10
742.0108488976466
 20
636.3575736605938
 10
742.8646883187921
 20
635.9094441501345
 10
743.5864723096656
 20
635.2699993148253
 10
744.1342534082977
 20
634.476401364207
 10
744.4761965683365
 20
633.5747713265574
 10
744.5924292962352
 20
632.6175086623747
 10
744.4761965683365
 20
631.6602459981916
 10
744.1342534082977
 20
630.7586159605425
 10
743.5864723096656
 20
629.9650180099238
 10
742.8646883187921
 20
629.3255731746143
 10
742.0108488976466
 20
628.8774436641553
 10
741.0745760898062
 20
628.6466731368091
 10
740.1102826676506
 20
628.6466731368091
 10
739.1740098598111
 20
628.8774436641553
 10
738.3201704386656
 20
629.3255731746143
 10
737.598386447792
 20
629.9650180099238
 10
737.0506053491598
 20
630.7586159605425
 10
736.7086621891212
 20
631.6602459981916
 10
736.5924294612222
 20
632.6175086623747
 10
736.7086621891212
 20
633.5747713265574
 10
737.0506053491598
 20
634.476401364207
 10
737.598386447792
 20
635.2699993148253
 10
738.3201704386656
 20
635.9094441501345
 10
739.1740098598111
 20
636.3575736605938
 10
740.1102826676506
 20
636.5883441879398
  0
LWPOLYLINE
  5
7DA
330
1F
100
AcDbEntity
  8
HEWI
  6
Continuous
100
AcDbPolyline
 90
       29
 70
     0
 43
0.0
 10
739.7562429644031
 20
631.6569058740781
 10
740.0390438058766
 20
631.4936302971846
 10
740.2274267908551
 20
631.3848676546172
 10
740.5924305443541
 20
631.1741336517708
 10
740.957432832226
 20
631.3848678268223
 10
741.1458150029512
 20
631.4936303268432
 10
741.4097312885096
 20
631.6460024696158
 10
741.6310394910333
 20
631.7737748234898
 10
741.8424281873231
 20
631.8958201476108
 10
741.8424293529487
 20
632.3190447881787
 10
741.8424293529487
 20
632.6127199551254
 10
741.8424293529487
 20
632.9486193788957
 10
741.8424291800612
 20
633.1478924800968
 10
741.8424281873231
 20
633.3391971771382
 10
741.4774254303575
 20
633.5499316230222
 10
741.2890432469585
 20
633.6586941303599
 10
741.0251266406647
 20
633.8110664583086
 10
740.8038179103397
 20
633.9388388455443
 10
740.5924282131027
 20
634.0608836729783
 10
740.3810394257771
 20
633.9388382962987
 10
740.1597311198802
 20
633.8110658827409
 10
739.8958144988381
 20
633.6586935462774
 10
739.7074318101259
 20
633.5499304196319
 10
739.342429404508
 20
633.3391951582147
 10
739.342429404508
 20
633.1478912139496
 10
739.342429404508
 20
632.9486186103102
 10
739.342429404508
 20
632.6127199507364
 10
739.342429404508
 20
632.3190454586693
 10
739.342429404508
 20
631.8958221665345
  0
LWPOLYLINE
  5
7DB
330
1F
100
AcDbEntity
  8
HEWI
  6
Continuous
100
AcDbPolyline
 90
       16
 70
     0
 43
0.0
 10
906.5922991982924
 20
669.3175089320042
 10
906.5922991982924
 20
632.6175086623747
 10
906.5922991982924
 20
629.027773671688
 10
906.5922991982924
 20
625.6466610305042
 10
906.5922991982924
 20
622.6706687156847
 10
906.5922991982924
 20
620.2727505832744
 10
906.5922991982924
 20
618.5922649190517
 10
906.5922991982924
 20
617.7268754415043
 10
909.6922991343587
 20
617.7268754415043
 10
909.6922991343587
 20
618.5922649190517
 10
909.6922991343587
 20
620.2727505832744
 10
909.6922991343587
 20
622.6706687156847
 10
909.6922991343587
 20
625.6466610305042
 10
909.6922991343587
 20
629.027773671688
 10
909.6922991343587
 20
632.6175086623747
 10
909.6922991343587
 20
639.6175087138026
  0
LWPOLYLINE
  5
7DC
330
1F
100
AcDbEntity
  8
HEWI
  6
Continuous
100
AcDbPolyline
 90
       21
 70
     0
 43
0.0
 10
925.3422988116026
 20
652.6194032476865
 10
925.3422988116026
 20
640.6136015169803
 10
926.597593581142
 20
640.4746129945034
 10
927.8153716344867
 20
640.1398005308773
 10
928.9652820830923
 20
639.6175087138026
 10
940.492298499158
 20
639.6175087138026
 10
940.492298499158
 20
632.6175086623747
 10
940.492298499158
 20
629.027773671688
 10
940.492298499158
 20
625.6466610305042
 10
940.492298499158
 20
622.6706687156847
 10
940.492298499158
 20
620.2727505832744
 10
940.492298499158
 20
618.5922649190517
 10
940.492298499158
 20
617.7268754415043
 10
943.5922984352243
 20
617.7268754415043
 10
943.5922984352243
 20
618.5922649190517
 10
943.5922984352243
 20
620.2727505832744
 10
943.5922984352243
 20
622.6706687156847
 10
943.5922984352243
 20
625.6466610305042
 10
943.5922984352243
 20
629.027773671688
 10
943.5922984352243
 20
632.6175086623747
 10
943.5922984352243
 20
669.3175089320042
  0
LWPOLYLINE
  5
7DD
330
1F
100
AcDbEntity
  8
HEWI
  6
Continuous
100
AcDbPolyline
 90
       18
 70
     0
 43
0.0
 10
917.0922989817453
 20
617.8748194197313
 10
917.0922989817453
 20
100.3506775614681
 10
917.2922989776207
 20
100.1514386203858
 10
917.5189527970232
 20
99.98874829030823
 10
918.1857419590995
 20
99.83551293085845
 10
919.2539151014315
 20
99.70063802414239
 10
920.6613938836364
 20
99.59196200948515
 10
922.3263807548692
 20
99.51580074183931
 10
924.1521127301567
 20
99.4765804372451
 10
926.0324849033604
 20
99.4765804372451
 10
927.858216878648
 20
99.51580074183931
 10
929.5232037498806
 20
99.59196200948515
 10
930.9306825320854
 20
99.70063802414239
 10
931.9988556744164
 20
99.83551293085845
 10
932.6656448364927
 20
99.98874829030823
 10
932.8922986558957
 20
100.1514386203858
 10
933.0922986517707
 20
100.3506775614681
 10
933.0922986517707
 20
617.8782873184659
  0
LWPOLYLINE
  5
7DE
330
1F
100
AcDbEntity
  8
HEWI
  6
Continuous
100
AcDbPolyline
 90
        8
 70
     0
 43
0.0
 10
941.7922984723473
 20
669.3175089320042
 10
941.4791867683195
 20
666.1217594567552
 10
940.5647171993603
 20
663.0545350953599
 10
939.0054083599943
 20
660.088855083615
 10
936.6019650204226
 20
657.2173755515125
 10
933.2629395989707
 20
654.7598856755002
 10
929.4415685320707
 20
653.1998164835945
 10
925.3422988116026
 20
652.6194032476865
  0
LINE
  5
7DF
330
1F
100
AcDbEntity
  8
HEWI
  6
Continuous
100
AcDbLine
 10
740.0903176820648
 20
631.4640273992927
 30
0.0
 11
739.7562429644031
 21
631.6569058740781
 31
0.0
  0
LINE
  5
7E0
330
1F
100
AcDbEntity
  8
HEWI
  6
Continuous
100
AcDbLine
 10
739.342429404508
 20
631.8958221665345
 30
0.0
 11
739.5538182669397
 21
631.7737756719075
 31
0.0
  0
LINE
  5
7E1
330
1F
100
AcDbEntity
  8
HEWI
  6
Continuous
100
AcDbLine
 10
924.8422988219143
 20
640.6136015169803
 30
0.0
 11
924.8422988219143
 21
652.6194032476865
 31
0.0
  0
LINE
  5
7E2
330
1F
100
AcDbEntity
  8
HEWI
  6
Continuous
100
AcDbLine
 10
739.7562429644031
 20
631.6569058740781
 30
0.0
 11
739.342429404508
 21
631.8958221665345
 31
0.0
  0
LINE
  5
7E3
330
1F
100
AcDbEntity
  8
HEWI
  6
Continuous
100
AcDbLine
 10
792.121829400262
 20
100.5840400198352
 30
0.0
 11
793.8649442192662
 21
80.66014591162224
 31
0.0
  0
LINE
  5
7E4
330
1F
100
AcDbEntity
  8
HEWI
  6
Continuous
100
AcDbLine
 10
783.9756312519676
 20
79.79494311272326
 30
0.0
 11
782.232516432963
 21
99.71883722093577
 31
0.0
  0
LWPOLYLINE
  5
7E5
330
1F
100
AcDbEntity
  8
HEWI
  6
Continuous
100
AcDbPolyline
 90
       14
 70
     0
 43
0.0
 10
941.7922984723473
 20
669.3175089320042
 10
941.3070268333695
 20
673.3140805549685
 10
939.8794141402056
 20
677.0783859621531
 10
937.5924280534199
 20
680.3916574059854
 10
934.5789798915212
 20
683.0613395934022
 10
931.0142003082393
 20
684.93228029957
 10
927.1052613355085
 20
685.8957472512392
 10
923.0793362980085
 20
685.8957472512392
 10
919.170397325278
 20
684.93228029957
 10
915.6056177419959
 20
683.0613395934022
 10
912.592169580097
 20
680.3916574059854
 10
910.3051834933113
 20
677.0783859621531
 10
908.8775708001476
 20
673.3140805549685
 10
908.3922991611697
 20
669.3175089320042
  0
LWPOLYLINE
  5
7E6
330
1F
100
AcDbEntity
  8
HEWI
  6
Continuous
100
AcDbPolyline
 90
       14
 70
     0
 43
0.0
 10
906.5922991982924
 20
669.3175089320042
 10
907.1298755648241
 20
673.7448487538511
 10
908.7113626800057
 20
677.9148876779777
 10
911.244850261176
 20
681.5852781995886
 10
914.5831012189685
 20
684.5427105628941
 10
918.5321085417653
 20
686.6153095487684
 10
922.862370278024
 20
687.6826232377441
 10
927.322227355493
 20
687.6826232377441
 10
931.6524890917516
 20
686.6153095487684
 10
935.6014964145495
 20
684.5427105628941
 10
938.939747372342
 20
681.5852781995886
 10
941.4732349535116
 20
677.9148876779777
 10
943.0547220686939
 20
673.7448487538511
 10
943.5922984352243
 20
669.3175089320042
  0
LWPOLYLINE
  5
7E7
330
1F
100
AcDbEntity
  8
HEWI
  6
Continuous
100
AcDbPolyline
 90
        8
 70
     0
 43
0.0
 10
908.3922991611697
 20
669.3175089320042
 10
908.7796127634192
 20
665.7795699369217
 10
909.8986453190025
 20
662.4175380077764
 10
911.8205906885222
 20
659.1874307889997
 10
914.4182231319916
 20
656.4748439682992
 10
917.5680541288684
 20
654.4091246320597
 10
921.0992429036675
 20
653.1013876945535
 10
924.8422988219143
 20
652.6194032476865
  0
LWPOLYLINE
  5
7E8
330
1F
100
AcDbEntity
  8
HEWI
  6
Continuous
100
AcDbPolyline
 90
        3
 70
     0
 43
0.0
 10
923.5870040523739
 20
640.4746129945034
 10
922.3692259990302
 20
640.1398005308773
 10
921.2193155504246
 20
639.6175087138026
  0
LINE
  5
7E9
330
1F
100
AcDbEntity
  8
HEWI
  6
Continuous
100
AcDbLine
 10
921.2193155504246
 20
639.6175087138026
 30
0.0
 11
909.6922991343587
 21
639.6175087138026
 31
0.0
  0
LINE
  5
7EA
330
1F
100
AcDbEntity
  8
HEWI
  6
Continuous
100
AcDbLine
 10
921.2193155504246
 20
639.6175087138026
 30
0.0
 11
918.3353645141394
 21
639.6169241248871
 31
0.0
  0
LWPOLYLINE
  5
7EB
330
1F
100
AcDbEntity
  8
HEWI
  6
Continuous
100
AcDbPolyline
 90
        7
 70
     0
 43
0.0
 10
921.2279504233755
 20
639.6214306917539
 10
921.2023193006453
 20
639.6082748585127
 10
918.3395972383303
 20
639.6150134038075
 10
916.8933889959973
 20
639.6167618055519
 10
914.0116348919802
 20
639.616761813199
 10
912.5718563061072
 20
639.6149063417457
 10
911.9323296013279
 20
639.6169050810413
  0
LWPOLYLINE
  5
7EC
330
1F
100
AcDbEntity
  8
HEWI
  6
Continuous
100
AcDbPolyline
 90
        3
 70
     0
 43
0.0
 10
912.5718563061072
 20
639.6169241198349
 10
910.4121884272965
 20
639.6168598261537
 10
909.6922991343587
 20
639.6175087138026
  0
LWPOLYLINE
  5
7ED
330
1F
100
AcDbEntity
  8
HEWI
  6
Continuous
100
AcDbPolyline
 90
       10
 70
     0
 43
0.0
 10
906.5922991982924
 20
623.1867742891567
 10
905.5924259758594
 20
623.1233646443357
 10
905.5994519985096
 20
623.4479602922392
 10
905.6168785533216
 20
624.2530507582023
 10
905.643792468898
 20
625.4964483813567
 10
905.678783425292
 20
627.1129977046824
 10
905.7200178563851
 20
629.0179896954513
 10
905.7582273638207
 20
630.7832330541502
 10
905.7979311061664
 20
632.6175086623747
 10
906.5922991960016
 20
669.3171326396002
  0
LINE
  5
7EE
330
1F
100
AcDbEntity
  8
HEWI
  6
Continuous
100
AcDbLine
 10
924.8422988219143
 20
640.6136015169803
 30
0.0
 11
923.5870040523739
 21
640.4746129945034
 31
0.0
  0
LINE
  5
7EF
330
1F
100
AcDbEntity
  8
HEWI
  6
Continuous
100
AcDbLine
 10
940.6453167154433
 20
663.604379725135
 30
0.0
 11
939.927172753889
 21
661.8419768467007
 31
0.0
  0
LINE
  5
7F0
330
1F
100
AcDbEntity
  8
HEWI
  6
Continuous
100
AcDbLine
 10
914.6074457813035
 20
656.3507481417722
 30
0.0
 11
913.2742301772031
 21
657.6694626382764
 31
0.0
  0
LINE
  5
7F1
330
1F
100
AcDbEntity
  8
HEWI
  6
Continuous
100
AcDbLine
 10
917.4475358249038
 20
654.5451968308205
 30
0.0
 11
919.7400426940728
 21
653.6092842287176
 31
0.0
  0
LINE
  5
7F2
330
1F
100
AcDbEntity
  8
HEWI
  6
Continuous
100
AcDbLine
 10
921.01863073634
 20
653.1607942070336
 30
0.0
 11
924.8422988219143
 21
652.6194032476865
 31
0.0
  0
LINE
  5
7F3
330
1F
100
AcDbEntity
  8
HEWI
  6
Continuous
100
AcDbLine
 10
933.4060744602613
 20
654.9346076160312
 30
0.0
 11
931.709181992138
 21
654.1255663931842
 31
0.0
  0
LWPOLYLINE
  5
7F4
330
1F
100
AcDbEntity
  8
HEWI
  6
Continuous
100
AcDbPolyline
 90
       10
 70
     0
 43
0.0
 10
943.5922984352256
 20
669.3171327454098
 10
944.38666652735
 20
632.6175086623747
 10
944.4263702696963
 20
630.7832330541502
 10
944.4645797771327
 20
629.0179896954513
 10
944.5058142082253
 20
627.1129977046824
 10
944.5408051646198
 20
625.4964483813567
 10
944.5677190801953
 20
624.2530507582023
 10
944.5851456350073
 20
623.4479602922392
 10
944.5921716576576
 20
623.1233646443357
 10
943.5922984352243
 20
623.1867742891567
  0
LINE
  5
7F5
330
1F
100
AcDbEntity
  8
HEWI
  6
Continuous
100
AcDbLine
 10
939.0484568130169
 20
660.3377478035456
 30
0.0
 11
939.8032554827512
 21
661.606296155908
 31
0.0
  0
LINE
  5
7F6
330
1F
100
AcDbEntity
  8
HEWI
  6
Continuous
100
AcDbLine
 10
909.6922991343587
 20
623.2515010508102
 30
0.0
 11
910.1922991240479
 21
623.2515010508102
 31
0.0
  0
LINE
  5
7F7
330
1F
100
AcDbEntity
  8
HEWI
  6
Continuous
100
AcDbLine
 10
936.5799602682407
 20
657.3142405447773
 30
0.0
 11
935.2749529393813
 21
656.2407077146595
 31
0.0
  0
LINE
  5
7F8
330
1F
100
AcDbEntity
  8
HEWI
  6
Continuous
100
AcDbLine
 10
938.2831591860847
 20
659.2259582246242
 30
0.0
 11
939.3822863786244
 21
660.8056467538183
 31
0.0
  0
LINE
  5
7F9
330
1F
100
AcDbEntity
  8
HEWI
  6
Continuous
100
AcDbLine
 10
914.1635092789655
 20
656.7898560374594
 30
0.0
 11
915.9950674224637
 21
655.4418472544008
 31
0.0
  0
LINE
  5
7FA
330
1F
100
AcDbEntity
  8
HEWI
  6
Continuous
100
AcDbLine
 10
936.5339677155615
 20
657.2764058833768
 30
0.0
 11
937.4660990156263
 21
658.2497872738318
 31
0.0
  0
LINE
  5
7FB
330
1F
100
AcDbEntity
  8
HEWI
  6
Continuous
100
AcDbLine
 10
921.2394676764743
 20
653.0833312831788
 30
0.0
 11
919.5084707297127
 21
653.6905126792908
 31
0.0
  0
LINE
  5
7FC
330
1F
100
AcDbEntity
  8
HEWI
  6
Continuous
100
AcDbLine
 10
935.9832287493345
 20
656.7619917370616
 30
0.0
 11
937.0373096685126
 21
657.7374973233229
 31
0.0
  0
LWPOLYLINE
  5
7FD
330
1F
100
AcDbEntity
  8
HEWI
  6
Continuous
100
AcDbPolyline
 90
        3
 70
     0
 43
0.0
 10
910.693480978387
 20
639.6168682002799
 10
910.4121884272965
 20
639.6151596115346
 10
909.8462853634556
 20
639.6173699150149
  0
LINE
  5
7FE
330
1F
100
AcDbEntity
  8
HEWI
  6
Continuous
100
AcDbLine
 10
929.4183231449403
 20
653.1965251824393
 30
0.0
 11
929.5744271036763
 21
653.2540558023795
 31
0.0
  0
LINE
  5
7FF
330
1F
100
AcDbEntity
  8
HEWI
  6
Continuous
100
AcDbLine
 10
940.492298499158
 20
623.2515010508102
 30
0.0
 11
939.9922985094701
 21
623.2515010508102
 31
0.0
  0
LINE
  5
800
330
1F
100
AcDbEntity
  8
HEWI
  6
Continuous
100
AcDbLine
 10
908.7851436528897
 20
665.8543275409079
 30
0.0
 11
909.0464434748593
 21
664.9779012422355
 31
0.0
  0
LINE
  5
801
330
1F
100
AcDbEntity
  8
HEWI
  6
Continuous
100
AcDbLine
 10
940.8844682123536
 20
664.2157247974232
 30
0.0
 11
941.1381541688532
 21
664.9779012698339
 31
0.0
  0
LINE
  5
802
330
1F
100
AcDbEntity
  8
HEWI
  6
Continuous
100
AcDbLine
 10
908.8008674205147
 20
665.7157122441532
 30
0.0
 11
908.3922991611697
 21
669.3175089320042
 31
0.0
  0
LWPOLYLINE
  5
803
330
1F
100
AcDbEntity
  8
HEWI
  6
Continuous
100
AcDbPolyline
 90
        3
 70
     0
 43
0.0
 10
939.5417659876184
 20
639.6175087137833
 10
928.9747649406081
 20
639.612365573392
 10
927.8084678328667
 20
640.1416986425942
  0
LINE
  5
804
330
1F
100
AcDbEntity
  8
HEWI
  6
Continuous
100
AcDbLine
 10
909.9765280312324
 20
662.2866448385893
 30
0.0
 11
909.3708461562691
 21
664.003262768721
 31
0.0
  0
LINE
  5
805
330
1F
100
AcDbEntity
  8
HEWI
  6
Continuous
100
AcDbLine
 10
923.4528499339377
 20
640.4261235066488
 30
0.0
 11
924.8422988219143
 21
640.6136015169803
 31
0.0
  0
LINE
  5
806
330
1F
100
AcDbEntity
  8
HEWI
  6
Continuous
100
AcDbLine
 10
929.9176481717577
 20
653.3941753040807
 30
0.0
 11
927.8838379218859
 21
652.9792583111871
 31
0.0
  0
LINE
  5
807
330
1F
100
AcDbEntity
  8
HEWI
  6
Continuous
100
AcDbLine
 10
911.9584085250526
 20
659.0435140285998
 30
0.0
 11
911.1018726953805
 21
660.3953403438853
 31
0.0
  0
LINE
  5
808
330
1F
100
AcDbEntity
  8
HEWI
  6
Continuous
100
AcDbLine
 10
929.8248015437756
 20
653.375233691911
 30
0.0
 11
930.3250156609127
 21
653.5604824903638
 31
0.0
  0
LINE
  5
809
330
1F
100
AcDbEntity
  8
HEWI
  6
Continuous
100
AcDbLine
 10
933.557341715219
 20
655.0261180698027
 30
0.0
 11
934.1754616648177
 21
655.4314929401588
 31
0.0
  0
LINE
  5
80A
330
1F
100
AcDbEntity
  8
HEWI
  6
Continuous
100
AcDbLine
 10
926.581164115003
 20
640.4764320951407
 30
0.0
 11
926.6032643883127
 21
640.4730538800211
 31
0.0
  0
LINE
  5
80B
330
1F
100
AcDbEntity
  8
HEWI
  6
Continuous
100
AcDbLine
 10
921.233464294397
 20
639.6239351039574
 30
0.0
 11
923.5870040523739
 21
640.4746129945034
 31
0.0
  0
LINE
  5
80C
330
1F
100
AcDbEntity
  8
HEWI
  6
Continuous
100
AcDbLine
 10
925.3422988116026
 20
652.6193862419817
 30
0.0
 11
924.8422988219143
 21
652.6193919105502
 31
0.0
  0
LWPOLYLINE
  5
80D
330
1F
100
AcDbEntity
  8
HEWI
  6
Continuous
100
AcDbPolyline
 90
       33
 70
     0
 43
0.0
 10
918.6396912681956
 20
80.29583002799819
 10
917.1506279877583
 20
78.81729616584227
 10
917.1506279877583
 20
78.64920874227237
 10
917.1506279877583
 20
64.70248286652228
 10
917.2054852370548
 20
64.2379493291824
 10
917.3670255646102
 20
63.80024705629494
 10
917.6263222262075
 20
63.41356354514396
 10
917.9690464470461
 20
63.09926698811825
 10
918.3762592321189
 20
62.87472546299506
 10
918.7665710409692
 20
62.73670935016326
 10
919.1173762441176
 20
62.63492639066004
 10
919.8332833550328
 20
62.51604185481022
 10
920.85482532884
 20
62.41554408835208
 10
922.1226338591748
 20
62.33927365617915
 10
922.3039598420019
 20
62.33110169856814
 10
923.656404860646
 20
62.28639823218106
 10
925.0922988167586
 20
62.27120270715936
 10
926.5281927728702
 20
62.28639823218106
 10
927.8806377915159
 20
62.33110169856814
 10
928.0619637743413
 20
62.33927365617915
 10
929.3297723046762
 20
62.41554408835208
 10
930.3513142784833
 20
62.51604185481022
 10
931.0672213893983
 20
62.63492639066004
 10
931.4180265925481
 20
62.73670935016326
 10
931.8083384013972
 20
62.87472546299506
 10
932.2155511864703
 20
63.09926698811825
 10
932.5582754073094
 20
63.41356354514396
 10
932.8175720689067
 20
63.80024705629494
 10
932.9791123964623
 20
64.2379493291824
 10
933.0339696457583
 20
64.70248286652228
 10
933.0339696457583
 20
78.64920874227237
 10
933.0339696457583
 20
78.81729616584227
 10
931.5449063653213
 20
80.29583002799819
  0
LINE
  5
80E
330
1F
100
AcDbEntity
  8
HEWI
  6
Continuous
100
AcDbLine
 10
909.8804452357326
 20
662.5589617975703
 30
0.0
 11
910.3813420982517
 21
661.6062962475425
 31
0.0
  0
LINE
  5
80F
330
1F
100
AcDbEntity
  8
HEWI
  6
Continuous
100
AcDbLine
 10
911.6601654641671
 20
659.5142156635272
 30
0.0
 11
912.7184986292585
 21
658.249787261298
 31
0.0
  0
LINE
  5
810
330
1F
100
AcDbEntity
  8
HEWI
  6
Continuous
100
AcDbLine
 10
932.8149138532854
 20
654.5769798178064
 30
0.0
 11
933.9355361229152
 21
655.2549100976671
 31
0.0
  0
LINE
  5
811
330
1F
100
AcDbEntity
  8
HEWI
  6
Continuous
100
AcDbLine
 10
941.321921134614
 20
665.5942744479959
 30
0.0
 11
941.7922984723473
 21
669.3175089320042
 31
0.0
  0
LINE
  5
812
330
1F
100
AcDbEntity
  8
HEWI
  6
Continuous
100
AcDbLine
 10
917.817751960136
 20
654.3166517866152
 30
0.0
 11
915.9657640575495
 21
655.4599370678381
 31
0.0
  0
LINE
  5
813
330
1F
100
AcDbEntity
  8
HEWI
  6
Continuous
100
AcDbLine
 10
940.0393304770469
 20
662.0552917951613
 30
0.0
 11
940.9956651030087
 21
664.4999783796911
 31
0.0
  0
LINE
  5
814
330
1F
100
AcDbEntity
  8
HEWI
  6
Continuous
100
AcDbLine
 10
939.2268524850059
 20
660.5822539197247
 30
0.0
 11
937.9255457979496
 21
658.7987047536397
 31
0.0
  0
LINE
  5
815
330
1F
100
AcDbEntity
  8
HEWI
  6
Continuous
100
AcDbLine
 10
925.3422988116026
 20
644.1589166121732
 30
0.0
 11
924.8422988219143
 21
644.1589166121732
 31
0.0
  0
LWPOLYLINE
  5
825
330
1F
100
AcDbEntity
  8
HEWI
  6
Continuous
100
AcDbPolyline
 90
        5
 70
     0
 43
0.0
 10
731.425942454291
 20
-2.090946465530578
 10
729.69828132872
 20
-2.090946465530578
 10
727.6441022645952
 20
-2.090946465530578
 10
726.3618154492437
 20
-2.090946465530578
 10
725.9259427314522
 20
-2.090946465530578
  0
LINE
  5
826
330
1F
100
AcDbEntity
  8
HEWI
  6
Continuous
100
AcDbLine
 10
725.9259427314522
 20
-2.090946465530578
 30
0.0
 11
731.4259424687747
 21
-2.090954607183561
 31
0.0
  0
LWPOLYLINE
  5
827
330
1F
100
AcDbEntity
  8
HEWI
  6
Continuous
100
AcDbPolyline
 90
        5
 70
     0
 43
0.0
 10
755.9259412986697
 20
-2.090946465530578
 10
755.4900685808775
 20
-2.090946465530578
 10
754.2077817655258
 20
-2.090946465530578
 10
752.1536027014002
 20
-2.090946465530578
 10
750.42594157583
 20
-2.090946465530578
  0
LINE
  5
828
330
1F
100
AcDbEntity
  8
HEWI
  6
Continuous
100
AcDbLine
 10
750.4259415613455
 20
-2.090954607183561
 30
0.0
 11
755.9259412986697
 21
-2.090946465530578
 31
0.0
  0
LWPOLYLINE
  5
829
330
1F
100
AcDbEntity
  8
HEWI
  6
Continuous
100
AcDbPolyline
 90
       26
 70
     1
 43
0.0
 10
733.2595461256082
 20
-1.353173573876119
 10
734.1377711114931
 20
-1.392237435502579
 10
735.4327708345457
 20
-1.425428097984536
 10
737.065035928123
 20
-1.450707747333581
 10
738.9343498736621
 20
-1.466524283673379
 10
740.9259420150606
 20
-1.471906615842499
 10
742.5706353853915
 20
-1.468254294723691
 10
744.1468064421172
 20
-1.45744949680943
 10
745.8753009398627
 20
-1.435369245008473
 10
747.2999186209612
 20
-1.404767621406334
 10
748.3331919381092
 20
-1.367523480238445
 10
748.9116807951045
 20
-1.3259235077644
 10
748.9998675915845
 20
-1.282521826125389
 10
748.592337904513
 20
-1.239983177370504
 10
747.7141129186279
 20
-1.200919315744613
 10
746.4191131955754
 20
-1.167728653261292
 10
744.786848101998
 20
-1.142449003912587
 10
742.9175341564591
 20
-1.126632467572561
 10
740.9259420150606
 20
-1.121250135404125
 10
739.2812486447305
 20
-1.124902456523499
 10
737.7050775880037
 20
-1.135707254436055
 10
735.9765830902581
 20
-1.157787506238718
 10
734.5519654091598
 20
-1.188389129839379
 10
733.5186920920119
 20
-1.225633271009654
 10
732.9402032350166
 20
-1.26723324348336
 10
732.8520164385366
 20
-1.310634925122711
  0
LWPOLYLINE
  5
82A
330
1F
100
AcDbEntity
  8
HEWI
  6
Continuous
100
AcDbPolyline
 90
       45
 70
     0
 43
0.0
 10
755.9259412986697
 20
-2.090946465530578
 10
755.9259412986697
 20
-2.628522830559176
 10
755.9259412986697
 20
-4.210009941321458
 10
755.9259412986697
 20
-6.74349751541149
 10
755.9259412986697
 20
-10.0817484638751
 10
755.9259412986697
 20
-14.03075577563766
 10
755.9259412986697
 20
-18.36101749979525
 10
755.9259412986697
 20
-22.8208745648011
 10
755.9259412986697
 20
-27.15113628896052
 10
755.9259412986697
 20
-31.1001436007216
 10
755.9259412986697
 20
-34.43839454918521
 10
755.9259412986697
 20
-36.97188212327615
 10
755.9259412986697
 20
-38.55336923403866
 10
755.9259412986697
 20
-39.09094559906725
 10
750.4259415613455
 20
-39.09093745741428
 10
750.4259415613455
 20
-39.88531368897339
 10
750.1770361426
 20
-39.93207614933432
 10
749.4433628148748
 20
-39.9763882033094
 10
748.2633668993464
 20
-40.01592784860849
 10
746.6988815310664
 20
-40.04862316261255
 10
744.831887531996
 20
-40.07276087348645
 10
742.760217522205
 20
-40.08707613758633
 10
740.5924293787278
 20
-40.0908188187061
 10
738.4421176786978
 20
-40.0837927960755
 10
736.4219612136271
 20
-40.06636624131352
 10
734.6378184919134
 20
-40.03945232581155
 10
733.18318063197
 20
-40.0044613695145
 10
732.1342723207339
 20
-39.96322693853631
 10
731.6047068638956
 20
-39.92501743120739
 10
731.4259424687747
 20
-39.88531368897339
 10
731.4259424687747
 20
-39.09094559906725
 10
725.9259427314522
 20
-39.09094559906725
 10
725.9259427314522
 20
-38.55336923403866
 10
725.9259427314522
 20
-36.97188212327615
 10
725.9259427314522
 20
-34.43839454918521
 10
725.9259427314522
 20
-31.1001436007216
 10
725.9259427314522
 20
-27.15113628896052
 10
725.9259427314522
 20
-22.8208745648011
 10
725.9259427314522
 20
-18.36101749979525
 10
725.9259427314522
 20
-14.03075577563766
 10
725.9259427314522
 20
-10.0817484638751
 10
725.9259427314522
 20
-6.74349751541149
 10
725.9259427314522
 20
-4.210009941321458
 10
725.9259427314522
 20
-2.628522830559176
 10
725.9259427314522
 20
-2.090946465530578
  0
LWPOLYLINE
  5
82B
330
1F
100
AcDbEntity
  8
HEWI
  6
Continuous
100
AcDbPolyline
 90
       28
 70
     1
 43
0.0
 10
740.9259420150606
 20
-39.79656729577653
 10
740.2590574350803
 20
-39.79774912794346
 10
739.6099346056383
 20
-39.80126314762129
 10
738.762497524602
 20
-39.80992808157123
 10
738.028110291952
 20
-39.82253225756108
 10
737.4451479922648
 20
-39.83841704987117
 10
737.044073066287
 20
-39.85675240560546
 10
736.8458435093685
 20
-39.87658021874734
 10
736.8608177205592
 20
-39.89686439556614
 10
737.0882132289839
 20
-39.9165449952493
 10
737.5161475815144
 20
-39.93459361664361
 10
738.1222592551807
 20
-39.9500671369084
 10
738.8748761487955
 20
-39.96215699398863
 10
739.7346705947943
 20
-39.97023143767638
 10
740.6567144093537
 20
-39.97386854143839
 10
741.5928265950401
 20
-39.97287825000353
 10
742.4940910178253
 20
-39.96731231061756
 10
743.3134124983301
 20
-39.9574615690151
 10
744.0079777498927
 20
-39.9438407714074
 10
744.5414925681883
 20
-39.92716166662957
 10
744.8860783690503
 20
-39.90829581402761
 10
745.0237289717247
 20
-39.88822904050449
 10
744.9472515039973
 20
-39.86800992655775
 10
744.660642262595
 20
-39.84869501316962
 10
744.178877888437
 20
-39.83129359271868
 10
743.5271327688
 20
-39.81671496883746
 10
742.7394635606901
 20
-39.80572094116246
 10
741.8570295750791
 20
-39.7988859978134
  0
LWPOLYLINE
  5
82C
330
1F
100
AcDbEntity
  8
HEWI
  6
Continuous
100
AcDbPolyline
 90
       16
 70
     0
 43
0.0
 10
755.9259414935954
 20
-28.59094584495563
 10
787.4932531411062
 20
-28.59094584495563
 10
789.4004930174872
 20
-28.35848038980839
 10
791.1968910447861
 20
-27.67459407164051
 10
792.7780470992997
 20
-26.57903187743966
 10
794.0520701384079
 20
-25.13546389972431
 10
794.9449185739625
 20
-23.42778506220623
 10
795.4047033002612
 20
-21.55523945176026
 10
795.4047033002612
 20
-19.62665261283757
 10
794.9449185739625
 20
-17.75410700239104
 10
794.0520701384079
 20
-16.04642816487239
 10
792.7780470992997
 20
-14.60286018715874
 10
791.1968910447852
 20
-13.50729799295732
 10
789.4004930174872
 20
-12.82341167478944
 10
787.4932531411062
 20
-12.59094621964107
 10
755.9259417970156
 20
-12.59094621964107
  0
LWPOLYLINE
  5
82D
330
1F
100
AcDbEntity
  8
HEWI
  6
Continuous
100
AcDbPolyline
 90
       19
 70
     0
 43
0.0
 10
788.2746968989472
 20
-28.49569894864931
 10
788.4239086999155
 20
-28.53261683910523
 10
790.3451566368927
 20
-28.53261683910523
 10
791.5653369770848
 20
-28.53261683910523
 10
793.4307569407398
 20
-28.07107579861348
 10
795.1319375033095
 20
-27.17481680526748
 10
796.5700122340381
 20
-25.89592717399467
 10
797.6614054567656
 20
-24.30873132158627
 10
798.3426893644386
 20
-22.5054713017654
 10
798.5742702127086
 20
-20.59094603229949
 10
798.3426893644386
 20
-18.67642076283357
 10
797.6614054567656
 20
-16.87316074301111
 10
796.5700122340381
 20
-15.28596489060464
 10
795.1319375033095
 20
-14.00707525932921
 10
793.4307569407398
 20
-13.11081626598434
 10
791.5653369770848
 20
-12.64927522549033
 10
790.3451566368927
 20
-12.64927522549033
 10
788.4239086999155
 20
-12.64927522549033
 10
788.2746969267441
 20
-12.68619310906933
  0
LWPOLYLINE
  5
82E
330
1F
100
AcDbEntity
  8
HEWI
  6
Continuous
100
AcDbPolyline
 90
        7
 70
     0
 43
0.0
 10
794.4090966332447
 20
-24.4526082572877
 10
794.987361674664
 20
-23.61164657984557
 10
795.5409048496481
 20
-22.14649781374033
 10
795.7290642888679
 20
-20.59094603229949
 10
795.5409048496481
 20
-19.03539425085842
 10
794.987361674664
 20
-17.5702454847534
 10
794.4090966332447
 20
-16.72928380731014
  0
LWPOLYLINE
  5
82F
330
1F
100
AcDbEntity
  8
HEWI
  6
Continuous
100
AcDbPolyline
 90
       17
 70
     0
 43
0.0
 10
731.4259424687747
 20
-2.090954607183561
 10
731.4259424687747
 20
-1.296578375623312
 10
731.6047068638956
 20
-1.256874633389315
 10
732.1342723207339
 20
-1.218665126059249
 10
733.18318063197
 20
-1.17743069508242
 10
734.6378184919134
 20
-1.142439738786265
 10
736.4219612136271
 20
-1.115525823284541
 10
738.4421176786978
 20
-1.098099268522672
 10
740.5924293787278
 20
-1.091073245890584
 10
742.760217522205
 20
-1.094815927010357
 10
744.831887531996
 20
-1.109131191110235
 10
746.6988815310664
 20
-1.133268901985274
 10
748.2633668993464
 20
-1.165964215988537
 10
749.4433628148748
 20
-1.205503861287524
 10
750.1770361426
 20
-1.249815915263524
 10
750.4259415613455
 20
-1.296578375623312
 10
750.4259415613455
 20
-2.090954607183561
  0
ARC
  5
874
330
1F
100
AcDbEntity
  8
VD
100
AcDbCircle
 10
761.2625360756681
 20
737.7356360924436
 30
0.000000000000113
 40
85.0
100
AcDbArc
 50
270.0
 51
90.0
  0
ARC
  5
875
330
1F
100
AcDbEntity
  8
VD
100
AcDbCircle
 10
761.2625360756681
 20
737.7356360924436
 30
0.000000000000113
 40
52.0
100
AcDbArc
 50
270.0
 51
90.0
  0
LINE
  5
876
330
1F
100
AcDbEntity
  8
VD
100
AcDbLine
 10
202.9249911833431
 20
822.7356360924437
 30
0.0000000000000104
 11
761.2625360756681
 21
822.7356360924437
 31
0.000000000000113
210
0.0
220
1.0
230
0.0
  0
LINE
  5
877
330
1F
100
AcDbEntity
  8
VD
100
AcDbLine
 10
202.9249911833431
 20
789.7356360924436
 30
0.0000000000000104
 11
379.7625360756683
 21
789.7356360924436
 31
0.0000000000000429
210
0.0
220
1.0
230
0.0
  0
LINE
  5
878
330
1F
100
AcDbEntity
  8
VD
100
AcDbLine
 10
412.7625360756683
 20
789.7356360924436
 30
0.000000000000049
 11
761.2625360756681
 21
789.7356360924436
 31
0.000000000000113
210
0.0
220
1.0
230
0.0
  0
LINE
  5
879
330
1F
100
AcDbEntity
  8
VD
100
AcDbLine
 10
761.2625360756681
 20
652.7356360924436
 30
0.000000000000113
 11
162.7625360756683
 21
652.7356360924436
 31
0.000000000000003
210
0.0
220
1.0
230
0.0
  0
LINE
  5
87A
330
1F
100
AcDbEntity
  8
VD
100
AcDbLine
 10
761.2625360756681
 20
685.7356360924436
 30
0.000000000000113
 11
412.7625360756683
 21
685.7356360924436
 31
0.000000000000049
210
0.0
220
1.0
230
0.0
  0
LINE
  5
87B
330
1F
100
AcDbEntity
  8
VD
100
AcDbLine
 10
379.7625360756683
 20
685.7356360924436
 30
0.0000000000000429
 11
162.7625360756683
 21
685.7356360924436
 31
0.000000000000003
210
0.0
220
1.0
230
0.0
  0
LINE
  5
87C
330
1F
100
AcDbEntity
  8
VD
100
AcDbLine
 10
412.7625360756683
 20
789.7356360924436
 30
0.000000000000049
 11
412.7625360756683
 21
685.7356360924436
 31
0.000000000000049
210
0.0
220
1.0
230
0.0
  0
LINE
  5
87D
330
1F
100
AcDbEntity
  8
VD
100
AcDbLine
 10
379.7625360756683
 20
789.7356360924436
 30
0.0000000000000429
 11
379.7625360756683
 21
685.7356360924436
 31
0.0000000000000429
210
0.0
220
1.0
230
0.0
  0
LINE
  5
87E
330
1F
100
AcDbEntity
  8
VD
100
AcDbLine
 10
162.7625360756683
 20
621.2356360924436
 30
0.000000000000003
 11
162.7625360756683
 21
854.2356360924436
 31
0.000000000000003
210
0.0
220
1.0
230
0.0
  0
LINE
  5
87F
330
1F
100
AcDbEntity
  8
VD
100
AcDbLine
 10
146.2625360756683
 20
609.7356360924436
 30
0.0
 11
151.2625360756683
 21
609.7356360924436
 31
0.0000000000000009
210
0.0
220
1.0
230
0.0
  0
ARC
  5
880
330
1F
100
AcDbEntity
  8
VD
100
AcDbCircle
 10
151.2625360756683
 20
621.2356360924436
 30
0.0000000000000009
 40
11.5
100
AcDbArc
 50
270.0
 51
0.0
  0
ARC
  5
881
330
1F
100
AcDbEntity
  8
VD
100
AcDbCircle
 10
151.2625360756683
 20
854.2356360924436
 30
0.0000000000000009
 40
11.5
100
AcDbArc
 50
0.0
 51
90.0
  0
LINE
  5
882
330
1F
100
AcDbEntity
  8
VD
100
AcDbLine
 10
151.2625360756683
 20
865.7356360924437
 30
0.0000000000000009
 11
146.2625360756683
 21
865.7356360924437
 31
0.0
210
0.0
220
1.0
230
0.0
  0
LINE
  5
883
330
1F
100
AcDbEntity
  8
VD
100
AcDbLine
 10
146.2625360756683
 20
611.2356360924438
 30
0.0
 11
146.2625360756683
 21
609.7356360924436
 31
0.0
210
0.0
220
1.0
230
0.0
  0
LINE
  5
884
330
1F
100
AcDbEntity
  8
VD
100
AcDbLine
 10
146.2625360756683
 20
865.7356360924437
 30
0.0
 11
146.2625360756683
 21
864.2356360924436
 31
0.0
210
0.0
220
1.0
230
0.0
  0
LINE
  5
885
330
1F
100
AcDbEntity
  8
VD
100
AcDbLine
 10
146.2625360756683
 20
611.2356360924438
 30
0.0
 11
146.2625360756683
 21
864.2356360924436
 31
0.0
210
0.0
220
1.0
230
0.0
  0
ARC
  5
886
330
1F
100
AcDbEntity
  8
VD
100
AcDbCircle
 10
187.2625360756683
 20
806.2356360924436
 30
0.0000000000000075
 40
22.74999999999999
100
AcDbArc
 50
270.0
 51
90.0
  0
LINE
  5
887
330
1F
100
AcDbEntity
  8
VD
100
AcDbLine
 10
187.2625360756683
 20
783.4856360924436
 30
0.0000000000000075
 11
162.7625360756683
 21
783.4856360924436
 31
0.000000000000003
210
0.0
220
1.0
230
0.0
  0
LINE
  5
888
330
1F
100
AcDbEntity
  8
VD
100
AcDbLine
 10
162.7625360756683
 20
828.9856360924437
 30
0.000000000000003
 11
187.2625360756683
 21
828.9856360924437
 31
0.0000000000000075
210
0.0
220
1.0
230
0.0
  0
LINE
  5
889
330
1F
100
AcDbEntity
  8
VD
100
AcDbLine
 10
396.2625360756683
 20
669.2356360924436
 30
0.0000000000000459
 11
379.7625360756683
 21
685.7356360924436
 31
0.0000000000000429
210
0.0
220
1.0
230
0.0
  0
LINE
  5
88A
330
1F
100
AcDbEntity
  8
VD
100
AcDbLine
 10
412.7625360756683
 20
685.7356360924436
 30
0.000000000000049
 11
396.2625360756683
 21
669.2356360924436
 31
0.0000000000000459
210
0.0
220
1.0
230
0.0
  0
LINE
  5
88B
330
1F
100
AcDbEntity
  8
VD
100
AcDbLine
 10
379.7625360756683
 20
789.7356360924436
 30
0.0000000000000429
 11
396.2625360756683
 21
806.2356360924436
 31
0.0000000000000459
210
0.0
220
1.0
230
0.0
  0
LINE
  5
88C
330
1F
100
AcDbEntity
  8
VD
100
AcDbLine
 10
396.2625360756683
 20
806.2356360924436
 30
0.0000000000000459
 11
412.7625360756683
 21
789.7356360924436
 31
0.000000000000049
210
0.0
220
1.0
230
0.0
  0
TEXT
  5
89E
330
1F
100
AcDbEntity
  8
0
100
AcDbText
 10
249.3118312891265
 20
599.2890927739712
 30
0.0
 40
25.0
  1
805.50...
100
AcDbText
  0
LINE
  5
8B3
330
1F
100
AcDbEntity
  8
0
100
AcDbLine
 10
870.8689824159991
 20
62.79413716748678
 30
0.0
 11
12.71910588966057
 21
62.79413716748678
 31
0.0
  0
DIMENSION
  5
8EB
330
1F
100
AcDbEntity
  8
0
100
AcDbDimension
280
     0
  2
*D10
 10
70.8647787796782
 20
62.79413716748678
 30
0.0
 11
35.44185927081057
 21
442.7648866299652
 31
0.0
 70
    32
 71
     5
 42
759.9414989249571
 73
     0
 74
     0
 75
     0
  3
ISO-25
100
AcDbAlignedDimension
 13
229.261598756213
 23
822.7356360924437
 33
0.0000000000000152
 14
229.261598756213
 24
62.79413716748678
 34
0.0
 50
90.0
100
AcDbRotatedDimension
1001
ACAD
1000
DSTYLE
1002
{
1070
   271
1070
     0
1070
    41
1040
18.0
1070
   140
1040
40.0
1070
   147
1040
15.0
1070
   173
1070
     1
1070
   340
1005
8CB
1070
   343
1005
8BA
1070
   344
1005
8BA
1002
}
  0
ENDSEC
  0
SECTION
  2
OBJECTS
  0
DICTIONARY
  5
C
330
0
100
AcDbDictionary
281
     1
  3
ACAD_CIP_PREVIOUS_PRODUCT_INFO
350
738
  3
ACAD_COLOR
350
6DD
  3
ACAD_DETAILVIEWSTYLE
350
734
  3
ACAD_GROUP
350
D
  3
ACAD_LAYOUT
350
1A
  3
ACAD_MATERIAL
350
6D9
  3
ACAD_MLEADERSTYLE
350
6D3
  3
ACAD_MLINESTYLE
350
17
  3
ACAD_PLOTSETTINGS
350
19
  3
ACAD_PLOTSTYLENAME
350
E
  3
ACAD_SCALELIST
350
71F
  3
ACAD_SECTIONVIEWSTYLE
350
732
  3
ACAD_TABLESTYLE
350
6D2
  3
ACAD_VISUALSTYLE
350
2A
  3
ACDB_RECOMPOSE_DATA
350
915
  3
AcDbVariableDictionary
350
6E1
  0
DICTIONARY
  5
843
330
2
100
AcDbDictionary
280
     1
281
     1
  3
ACAD_LAYERSTATES
360
844
  0
DICTIONARY
  5
739
330
10
100
AcDbDictionary
280
     1
281
     1
  3
ADSK_XREC_LAYER_RECONCILED
360
73A
  0
DICTIONARY
  5
73B
330
42
100
AcDbDictionary
280
     1
281
     1
  3
ADSK_XREC_LAYER_RECONCILED
360
73C
  0
DICTIONARY
  5
73D
330
6BD
100
AcDbDictionary
280
     1
281
     1
  3
ADSK_XREC_LAYER_RECONCILED
360
73E
  0
XRECORD
  5
738
102
{ACAD_REACTORS
330
C
102
}
330
C
100
AcDbXrecord
280
     1
300
ACDLT
300
2021
300
ACDLT_F_S
  0
DICTIONARY
  5
6DD
102
{ACAD_REACTORS
330
C
102
}
330
C
100
AcDbDictionary
281
     1
  0
DICTIONARY
  5
734
102
{ACAD_REACTORS
330
C
102
}
330
C
100
AcDbDictionary
281
     1
  3
Imperial24
350
8CD
  3
Metric50
350
735
  0
DICTIONARY
  5
D
102
{ACAD_REACTORS
330
C
102
}
330
C
100
AcDbDictionary
281
     1
  0
DICTIONARY
  5
1A
102
{ACAD_REACTORS
330
C
102
}
330
C
100
AcDbDictionary
281
     1
  3
Layout1
350
1E
  3
Layout2
350
26
  3
Model
350
22
  0
DICTIONARY
  5
6D9
102
{ACAD_REACTORS
330
C
102
}
330
C
100
AcDbDictionary
281
     1
  3
ByBlock
350
6DB
  3
ByLayer
350
6DA
  3
Global
350
6DC
  0
DICTIONARY
  5
6D3
102
{ACAD_REACTORS
330
C
102
}
330
C
100
AcDbDictionary
281
     1
  3
Standard
350
731
  0
DICTIONARY
  5
17
102
{ACAD_REACTORS
330
C
102
}
330
C
100
AcDbDictionary
281
     1
  3
Standard
350
18
  0
DICTIONARY
  5
19
102
{ACAD_REACTORS
330
C
102
}
330
C
100
AcDbDictionary
281
     1
  0
ACDBDICTIONARYWDFLT
  5
E
102
{ACAD_REACTORS
330
C
102
}
330
C
100
AcDbDictionary
281
     1
  3
Normal
350
F
100
AcDbDictionaryWithDefault
340
F
  0
DICTIONARY
  5
71F
102
{ACAD_REACTORS
330
C
102
}
330
C
100
AcDbDictionary
281
     1
  3
A0
350
720
  3
A1
350
721
  3
A2
350
722
  3
A3
350
723
  3
A4
350
724
  3
A5
350
725
  3
A6
350
726
  3
A7
350
727
  3
A8
350
728
  3
A9
350
729
  3
B0
350
72A
  3
B1
350
72B
  3
B2
350
72C
  3
B3
350
72D
  3
B4
350
72E
  3
B5
350
72F
  3
B6
350
730
  0
DICTIONARY
  5
732
102
{ACAD_REACTORS
330
C
102
}
330
C
100
AcDbDictionary
281
     1
  3
Imperial24
350
8CC
  3
Metric50
350
733
  0
DICTIONARY
  5
6D2
102
{ACAD_REACTORS
330
C
102
}
330
C
100
AcDbDictionary
281
     1
  3
Standard
350
6DE
  0
DICTIONARY
  5
2A
102
{ACAD_REACTORS
330
C
102
}
330
C
100
AcDbDictionary
281
     1
  3
2dWireframe
350
2F
  3
3D Hidden
350
31
  3
3dWireframe
350
30
  3
Basic
350
32
  3
Brighten
350
36
  3
ColorChange
350
3A
  3
Conceptual
350
34
  3
Dim
350
35
  3
EdgeColorOff
350
71E
  3
Facepattern
350
39
  3
Flat
350
2B
  3
FlatWithEdges
350
2C
  3
Gouraud
350
2D
  3
GouraudWithEdges
350
2E
  3
Hidden
350
716
  3
JitterOff
350
71C
  3
Linepattern
350
38
  3
OverhangOff
350
71D
  3
Realistic
350
33
  3
Shaded
350
71B
  3
Shaded with edges
350
71A
  3
Shades of Gray
350
717
  3
Sketchy
350
718
  3
Thicken
350
37
  3
Wireframe
350
715
  3
X-Ray
350
719
  0
XRECORD
  5
915
102
{ACAD_REACTORS
330
C
102
}
330
C
100
AcDbXrecord
280
     1
 90
        1
330
6DE
  0
DICTIONARY
  5
6E1
102
{ACAD_REACTORS
330
C
102
}
330
C
100
AcDbDictionary
281
     1
  3
CANNOSCALE
350
8A3
  3
CMLEADERSTYLE
350
89F
  3
CTABLESTYLE
350
6E2
  3
CVIEWDETAILSTYLE
350
8A0
  3
CVIEWSECTIONSTYLE
350
8A1
  3
DIMASSOC
350
703
  3
INDEXCTL
350
702
  3
LAYEREVAL
350
8A5
  3
LAYERNOTIFY
350
8A6
  3
LIGHTINGUNITS
350
8A4
  3
MSLTSCALE
350
8A2
  3
SORTENTS
350
701
  0
DICTIONARY
  5
844
102
{ACAD_REACTORS
330
843
102
}
330
843
100
AcDbDictionary
281
     1
  0
XRECORD
  5
73A
102
{ACAD_REACTORS
330
739
102
}
330
739
100
AcDbXrecord
280
     1
290
     1
  0
XRECORD
  5
73C
102
{ACAD_REACTORS
330
73B
102
}
330
73B
100
AcDbXrecord
280
     1
290
     1
  0
XRECORD
  5
73E
102
{ACAD_REACTORS
330
73D
102
}
330
73D
100
AcDbXrecord
280
     1
290
     1
  0
ACDBDETAILVIEWSTYLE
  5
8CD
102
{ACAD_XDICTIONARY
360
91C
102
}
102
{ACAD_REACTORS
330
734
102
}
330
734
100
AcDbModelDocViewStyle
 70
     0
  3
Imperial24
290
     0
100
AcDbDetailViewStyle
 70
     0
 71
     0
 90
        3
 71
     1
340
11
 62
   256
 40
0.24
340
0
 62
   256
 40
0.24
300

 40
0.36
280
     3
 71
     2
340
16
 90
       25
 62
   256
 71
     3
340
11
 62
   256
 40
0.24
 90
        1
 40
0.75
 90
        1
300
%<\AcVar ViewType \f "%tc1">% %<\AcVar ViewDetailId>%\PVARIA %<\AcVar ViewScale \f "%sn">%
 71
     4
340
16
 90
       25
 62
   256
340
16
 90
       25
 62
   256
280
     0
  0
ACDBDETAILVIEWSTYLE
  5
735
102
{ACAD_XDICTIONARY
360
918
102
}
102
{ACAD_REACTORS
330
734
102
}
330
734
100
AcDbModelDocViewStyle
 70
     0
  3
Metric50
290
     0
100
AcDbDetailViewStyle
 70
     0
 71
     0
 90
        3
 71
     1
340
11
 62
   256
 40
5.0
340
0
 62
   256
 40
5.0
300

 40
0.0
280
     1
 71
     2
340
16
 90
       25
 62
   256
 71
     3
340
11
 62
   256
 40
5.0
 90
        0
 40
15.0
 90
        1
300
%<\AcVar ViewDetailId>% (%<\AcVar ViewScale \f "%sn">%)
 71
     4
340
16
 90
       25
 62
   256
340
16
 90
       25
 62
   256
280
     0
  0
LAYOUT
  5
1E
102
{ACAD_REACTORS
330
1A
102
}
330
1A
100
AcDbPlotSettings
  1

  2
none_device
  4

  6

 40
0.0
 41
0.0
 42
0.0
 43
0.0
 44
0.0
 45
0.0
 46
0.0
 47
0.0
 48
0.0
 49
0.0
140
0.0
141
0.0
142
1.0
143
1.0
 70
   688
 72
     0
 73
     0
 74
     5
  7

 75
    16
147
1.0
 76
     0
 77
     2
 78
   300
148
0.0
149
0.0
100
AcDbLayout
  1
Layout1
 70
     1
 71
     1
 10
-0.5
 20
-0.5
 11
5.0
 21
5.0
 12
0.0
 22
0.0
 32
0.0
 14
-0.5
 24
-0.5
 34
-0.5
 15
5.0
 25
5.0
 35
5.0
146
0.0
 13
0.0
 23
0.0
 33
0.0
 16
1.0
 26
0.0
 36
0.0
 17
0.0
 27
1.0
 37
0.0
 76
     0
330
1B
  0
LAYOUT
  5
26
102
{ACAD_REACTORS
330
1A
102
}
330
1A
100
AcDbPlotSettings
  1

  2
none_device
  4

  6

 40
0.0
 41
0.0
 42
0.0
 43
0.0
 44
0.0
 45
0.0
 46
0.0
 47
0.0
 48
0.0
 49
0.0
140
0.0
141
0.0
142
1.0
143
1.0
 70
   688
 72
     0
 73
     0
 74
     5
  7

 75
    16
147
1.0
 76
     0
 77
     2
 78
   300
148
0.0
149
0.0
100
AcDbLayout
  1
Layout2
 70
     1
 71
     2
 10
0.0
 20
0.0
 11
0.0
 21
0.0
 12
0.0
 22
0.0
 32
0.0
 14
0.0
 24
0.0
 34
0.0
 15
0.0
 25
0.0
 35
0.0
146
0.0
 13
0.0
 23
0.0
 33
0.0
 16
1.0
 26
0.0
 36
0.0
 17
0.0
 27
1.0
 37
0.0
 76
     0
330
23
  0
LAYOUT
  5
22
102
{ACAD_REACTORS
330
1A
102
}
330
1A
100
AcDbPlotSettings
  1

  2
none_device
  4

  6

 40
0.0
 41
0.0
 42
0.0
 43
0.0
 44
0.0
 45
0.0
 46
0.0
 47
0.0
 48
0.0
 49
0.0
140
0.0
141
0.0
142
1.0
143
1.0
 70
  1712
 72
     0
 73
     0
 74
     0
  7

 75
     0
147
1.0
 76
     0
 77
     2
 78
   300
148
0.0
149
0.0
100
AcDbLayout
  1
Model
 70
     1
 71
     0
 10
-0.5
 20
-0.5
 11
5.0
 21
5.0
 12
0.0
 22
0.0
 32
0.0
 14
-0.5
 24
-0.5
 34
-0.5
 15
5.0
 25
5.0
 35
5.0
146
0.0
 13
0.0
 23
0.0
 33
0.0
 16
1.0
 26
0.0
 36
0.0
 17
0.0
 27
1.0
 37
0.0
 76
     0
330
1F
331
6C2
  0
MATERIAL
  5
6DB
102
{ACAD_XDICTIONARY
360
70D
102
}
102
{ACAD_REACTORS
330
6D9
102
}
330
6D9
100
AcDbMaterial
  1
ByBlock
  0
MATERIAL
  5
6DA
102
{ACAD_XDICTIONARY
360
70B
102
}
102
{ACAD_REACTORS
330
6D9
102
}
330
6D9
100
AcDbMaterial
  1
ByLayer
  0
MATERIAL
  5
6DC
102
{ACAD_XDICTIONARY
360
70F
102
}
102
{ACAD_REACTORS
330
6D9
102
}
330
6D9
100
AcDbMaterial
  1
Global
  0
MLEADERSTYLE
  5
731
102
{ACAD_REACTORS
330
6D3
102
}
330
6D3
100
AcDbMLeaderStyle
179
     2
170
     2
171
     1
172
     0
 90
        2
 40
0.0
 41
0.0
173
     1
 91
-1056964608
340
14
 92
       -2
290
     1
 42
2.0
291
     1
 43
0.36
  3
Standard
 44
4.0
300

342
11
174
     1
178
     6
175
     1
176
     0
 93
-1056964608
 45
4.0
292
     0
297
     0
 46
4.0
 94
-1056964608
 47
1.0
 49
1.0
140
1.0
293
     1
141
0.0
294
     1
177
     0
142
1.0
295
     0
296
     0
143
0.125
271
     0
272
     9
273
     9
298
     0
  0
MLINESTYLE
  5
18
102
{ACAD_REACTORS
330
17
102
}
330
17
100
AcDbMlineStyle
  2
STANDARD
 70
     0
  3

 62
   256
 51
90.0
 52
90.0
 71
     2
 49
0.5
 62
   256
  6
BYLAYER
 49
-0.5
 62
   256
  6
BYLAYER
  0
ACDBPLACEHOLDER
  5
F
102
{ACAD_REACTORS
330
E
102
}
330
E
  0
SCALE
  5
720
102
{ACAD_REACTORS
330
71F
102
}
330
71F
100
AcDbScale
 70
     0
300
1:1
140
1.0
141
1.0
290
     1
  0
SCALE
  5
721
102
{ACAD_REACTORS
330
71F
102
}
330
71F
100
AcDbScale
 70
     0
300
1:2
140
1.0
141
2.0
290
     0
  0
SCALE
  5
722
102
{ACAD_REACTORS
330
71F
102
}
330
71F
100
AcDbScale
 70
     0
300
1:4
140
1.0
141
4.0
290
     0
  0
SCALE
  5
723
102
{ACAD_REACTORS
330
71F
102
}
330
71F
100
AcDbScale
 70
     0
300
1:5
140
1.0
141
5.0
290
     0
  0
SCALE
  5
724
102
{ACAD_REACTORS
330
71F
102
}
330
71F
100
AcDbScale
 70
     0
300
1:8
140
1.0
141
8.0
290
     0
  0
SCALE
  5
725
102
{ACAD_REACTORS
330
71F
102
}
330
71F
100
AcDbScale
 70
     0
300
1:10
140
1.0
141
10.0
290
     0
  0
SCALE
  5
726
102
{ACAD_REACTORS
330
71F
102
}
330
71F
100
AcDbScale
 70
     0
300
1:16
140
1.0
141
16.0
290
     0
  0
SCALE
  5
727
102
{ACAD_REACTORS
330
71F
102
}
330
71F
100
AcDbScale
 70
     0
300
1:20
140
1.0
141
20.0
290
     0
  0
SCALE
  5
728
102
{ACAD_REACTORS
330
71F
102
}
330
71F
100
AcDbScale
 70
     0
300
1:30
140
1.0
141
30.0
290
     0
  0
SCALE
  5
729
102
{ACAD_REACTORS
330
71F
102
}
330
71F
100
AcDbScale
 70
     0
300
1:40
140
1.0
141
40.0
290
     0
  0
SCALE
  5
72A
102
{ACAD_REACTORS
330
71F
102
}
330
71F
100
AcDbScale
 70
     0
300
1:50
140
1.0
141
50.0
290
     0
  0
SCALE
  5
72B
102
{ACAD_REACTORS
330
71F
102
}
330
71F
100
AcDbScale
 70
     0
300
1:100
140
1.0
141
100.0
290
     0
  0
SCALE
  5
72C
102
{ACAD_REACTORS
330
71F
102
}
330
71F
100
AcDbScale
 70
     0
300
2:1
140
2.0
141
1.0
290
     0
  0
SCALE
  5
72D
102
{ACAD_REACTORS
330
71F
102
}
330
71F
100
AcDbScale
 70
     0
300
4:1
140
4.0
141
1.0
290
     0
  0
SCALE
  5
72E
102
{ACAD_REACTORS
330
71F
102
}
330
71F
100
AcDbScale
 70
     0
300
8:1
140
8.0
141
1.0
290
     0
  0
SCALE
  5
72F
102
{ACAD_REACTORS
330
71F
102
}
330
71F
100
AcDbScale
 70
     0
300
10:1
140
10.0
141
1.0
290
     0
  0
SCALE
  5
730
102
{ACAD_REACTORS
330
71F
102
}
330
71F
100
AcDbScale
 70
     0
300
100:1
140
100.0
141
1.0
290
     0
  0
ACDBSECTIONVIEWSTYLE
  5
8CC
102
{ACAD_XDICTIONARY
360
91A
102
}
102
{ACAD_REACTORS
330
732
102
}
330
732
100
AcDbModelDocViewStyle
 70
     0
  3
Imperial24
290
     0
100
AcDbSectionViewStyle
 70
     0
 71
     0
 90
       78
 71
     1
340
11
 62
   256
 40
0.24
340
0
340
0
 62
   256
 40
0.24
300
I, O, Q, S, X, Z
 40
0.48
 90
        3
 40
0.18
 90
        1
 71
     2
340
16
 90
       25
 62
   256
340
16
 90
       50
 62
   256
 40
0.24
 40
0.0
 40
0.24
 71
     3
340
11
 62
   256
 40
0.24
 90
        1
 40
0.75
 90
        1
300
%<\AcVar ViewType \f "%tc1">% %<\AcVar ViewSectionStartId>%-%<\AcVar ViewSectionEndId>%\PVARIA %<\AcVar ViewScale \f "%sn">%
 71
     4
 62
   256
 62
   257
300
ANSI31
 40
1.0
 90
        0
290
     0
290
     0
 90
        6
 40
0.0
 40
1.570796326794896
 40
0.2617993877991494
 40
1.308996938995747
 40
-0.2617993877991494
 40
1.832595714594046
  0
ACDBSECTIONVIEWSTYLE
  5
733
102
{ACAD_XDICTIONARY
360
916
102
}
102
{ACAD_REACTORS
330
732
102
}
330
732
100
AcDbModelDocViewStyle
 70
     0
  3
Metric50
290
     0
100
AcDbSectionViewStyle
 70
     0
 71
     0
 90
      102
 71
     1
340
11
 62
   256
 40
5.0
340
0
340
0
 62
   256
 40
5.0
300
I, O, Q, S, X, Z
 40
10.0
 90
        0
 40
2.5
 90
        0
 71
     2
340
16
 90
       25
 62
   256
340
16
 90
       50
 62
   256
 40
5.0
 40
2.5
 40
5.0
 71
     3
340
11
 62
   256
 40
5.0
 90
        0
 40
15.0
 90
        1
300
%<\AcVar ViewSectionStartId>%-%<\AcVar ViewSectionEndId>% (%<\AcVar ViewScale \f "%sn">%)
 71
     4
 62
   256
 62
   257
300
ANSI31
 40
1.0
 90
        0
290
     0
290
     0
 90
        6
 40
0.0
 40
1.570796326794896
 40
0.2617993877991494
 40
1.308996938995747
 40
-0.2617993877991494
 40
1.832595714594045
  0
TABLESTYLE
  5
6DE
102
{ACAD_XDICTIONARY
360
8A7
102
}
102
{ACAD_REACTORS
330
6D2
102
}
330
6D2
100
AcDbTableStyle
280
     0
  3
Standard
 70
     0
 71
     0
 40
1.5
 41
1.5
280
     0
281
     0
  7
Standard
140
4.5
170
     2
 62
     0
 63
     7
283
     0
 90
      512
 91
        0
  1

274
    -2
284
     1
 64
     0
275
    -2
285
     1
 65
     0
276
    -2
286
     1
 66
     0
277
    -2
287
     1
 67
     0
278
    -2
288
     1
 68
     0
279
    -2
289
     1
 69
     0
  7
Standard
140
6.0
170
     5
 62
     0
 63
     7
283
     0
 90
      512
 91
        0
  1

274
    -2
284
     1
 64
     0
275
    -2
285
     1
 65
     0
276
    -2
286
     1
 66
     0
277
    -2
287
     1
 67
     0
278
    -2
288
     1
 68
     0
279
    -2
289
     1
 69
     0
  7
Standard
140
4.5
170
     5
 62
     0
 63
     7
283
     0
 90
      512
 91
        0
  1

274
    -2
284
     1
 64
     0
275
    -2
285
     1
 65
     0
276
    -2
286
     1
 66
     0
277
    -2
287
     1
 67
     0
278
    -2
288
     1
 68
     0
279
    -2
289
     1
 69
     0
  0
VISUALSTYLE
  5
2F
102
{ACAD_REACTORS
330
2A
102
}
330
2A
100
AcDbVisualStyle
  2

 70
     4
177
     3
291
     0
 70
    58
 90
        0
176
     1
 90
        2
176
     1
 90
        0
176
     1
 90
        0
176
     1
 40
0.6
176
     1
 40
30.0
176
     1
 62
     7
176
     1
 90
        1
176
     1
 90
        4
176
     1
 62
     7
176
     1
 62
   257
176
     1
 90
        1
176
     1
 90
        1
176
     1
 40
1.0
176
     1
 90
        0
176
     1
 62
   257
176
     1
 40
1.0
176
     1
 90
        1
176
     1
 90
        6
176
     1
 90
        2
176
     1
 62
     7
176
     1
 90
        5
176
     1
 90
        0
176
     1
 90
        0
176
     1
290
     0
176
     1
 90
        1
176
     1
 40
0.0
176
     1
 90
        0
176
     1
290
     1
176
     1
290
     1
176
     1
290
     0
176
     1
290
     0
176
     1
290
     0
176
     1
290
     0
176
     1
290
     0
176
     1
290
     0
176
     1
290
     0
176
     1
 90
       50
176
     1
 40
0.0
176
     1
 40
1.0
176
     1
 90
        0
176
     1
 62
    18
176
     1
 90
       50
176
     1
 90
        3
176
     1
 62
     5
420
      255
176
     1
290
     0
176
     1
 90
       50
176
     1
 90
       50
176
     1
 90
       50
176
     1
290
     0
176
     1
 90
       50
176
     1
 62
   256
176
     0
 40
1.0
176
     0
 90
        2
176
     1
  1
strokes_ogs.tif
176
     1
290
     0
176
     1
 40
1.0
176
     1
 40
1.0
176
     1
1001
ACAD
1000
AcDbSavedByObjectVersion
1070
     0
  0
VISUALSTYLE
  5
31
102
{ACAD_REACTORS
330
2A
102
}
330
2A
100
AcDbVisualStyle
  2

 70
     6
177
     3
291
     0
 70
    58
 90
        1
176
     1
 90
        2
176
     1
 90
        2
176
     1
 90
        0
176
     1
 40
0.6
176
     1
 40
30.0
176
     1
 62
     7
176
     1
 90
        2
176
     1
 90
        2
176
     1
 62
     7
176
     1
 62
   257
176
     1
 90
        2
176
     1
 90
        1
176
     1
 40
40.0
176
     1
 90
        0
176
     1
 62
   257
176
     1
 40
1.0
176
     1
 90
        1
176
     1
 90
        6
176
     1
 90
        2
176
     1
 62
     7
176
     1
 90
        3
176
     1
 90
        0
176
     1
 90
        0
176
     1
290
     0
176
     1
 90
        1
176
     1
 40
0.0
176
     1
 90
        0
176
     1
290
     0
176
     1
290
     1
176
     1
290
     1
176
     1
290
     0
176
     1
290
     0
176
     1
290
     0
176
     1
290
     0
176
     1
290
     0
176
     1
290
     0
176
     1
 90
       50
176
     1
 40
0.0
176
     1
 40
1.0
176
     1
 90
        0
176
     1
 62
    18
176
     1
 90
       50
176
     1
 90
        3
176
     1
 62
     5
420
      255
176
     1
290
     0
176
     1
 90
       50
176
     1
 90
       50
176
     1
 90
       50
176
     1
290
     0
176
     1
 90
       50
176
     1
 62
   256
176
     0
 40
1.0
176
     0
 90
        2
176
     1
  1
strokes_ogs.tif
176
     1
290
     0
176
     1
 40
1.0
176
     1
 40
1.0
176
     1
1001
ACAD
1000
AcDbSavedByObjectVersion
1070
     0
  0
VISUALSTYLE
  5
30
102
{ACAD_REACTORS
330
2A
102
}
330
2A
100
AcDbVisualStyle
  2

 70
     5
177
     3
291
     0
 70
    58
 90
        0
176
     1
 90
        2
176
     1
 90
        0
176
     1
 90
        0
176
     1
 40
0.6
176
     1
 40
30.0
176
     1
 62
     7
176
     1
 90
        1
176
     1
 90
        4
176
     1
 62
     7
176
     1
 62
   257
176
     1
 90
        1
176
     1
 90
        1
176
     1
 40
1.0
176
     1
 90
        0
176
     1
 62
   257
176
     1
 40
1.0
176
     1
 90
        1
176
     1
 90
        6
176
     1
 90
        2
176
     1
 62
     7
176
     1
 90
        5
176
     1
 90
        0
176
     1
 90
        0
176
     1
290
     0
176
     1
 90
        1
176
     1
 40
0.0
176
     1
 90
        0
176
     1
290
     0
176
     1
290
     1
176
     1
290
     1
176
     1
290
     0
176
     1
290
     0
176
     1
290
     0
176
     1
290
     0
176
     1
290
     0
176
     1
290
     0
176
     1
 90
       50
176
     1
 40
0.0
176
     1
 40
1.0
176
     1
 90
        0
176
     1
 62
    18
176
     1
 90
       50
176
     1
 90
        3
176
     1
 62
     5
420
      255
176
     1
290
     0
176
     1
 90
       50
176
     1
 90
       50
176
     1
 90
       50
176
     1
290
     0
176
     1
 90
       50
176
     1
 62
   256
176
     0
 40
1.0
176
     0
 90
        2
176
     1
  1
strokes_ogs.tif
176
     1
290
     0
176
     1
 40
1.0
176
     1
 40
1.0
176
     1
1001
ACAD
1000
AcDbSavedByObjectVersion
1070
     0
  0
VISUALSTYLE
  5
32
102
{ACAD_REACTORS
330
2A
102
}
330
2A
100
AcDbVisualStyle
  2

 70
     7
177
     3
291
     1
 70
    58
 90
        1
176
     1
 90
        0
176
     1
 90
        1
176
     1
 90
        0
176
     1
 40
0.6
176
     1
 40
30.0
176
     1
 62
     7
176
     1
 90
        0
176
     1
 90
        4
176
     1
 62
     7
176
     1
 62
   257
176
     1
 90
        1
176
     1
 90
        1
176
     1
 40
1.0
176
     1
 90
        8
176
     1
 62
     7
176
     1
 40
1.0
176
     1
 90
        1
176
     1
 90
        6
176
     1
 90
        2
176
     1
 62
     7
176
     1
 90
        5
176
     1
 90
        0
176
     1
 90
        0
176
     1
290
     0
176
     1
 90
        1
176
     1
 40
0.0
176
     1
 90
        0
176
     1
290
     0
176
     1
290
     1
176
     1
290
     1
176
     1
290
     0
176
     1
290
     0
176
     1
290
     0
176
     1
290
     0
176
     1
290
     0
176
     1
290
     0
176
     1
 90
       50
176
     1
 40
0.0
176
     1
 40
1.0
176
     1
 90
        0
176
     1
 62
    18
176
     1
 90
       50
176
     1
 90
        3
176
     1
 62
     5
420
      255
176
     1
290
     0
176
     1
 90
       50
176
     1
 90
       50
176
     1
 90
       50
176
     1
290
     0
176
     1
 90
       50
176
     1
 62
   256
176
     0
 40
1.0
176
     0
 90
        2
176
     1
  1
strokes_ogs.tif
176
     1
290
     0
176
     1
 40
1.0
176
     1
 40
1.0
176
     1
1001
ACAD
1000
AcDbSavedByObjectVersion
1070
     0
  0
VISUALSTYLE
  5
36
102
{ACAD_REACTORS
330
2A
102
}
330
2A
100
AcDbVisualStyle
  2

 70
    12
177
     3
291
     1
 70
    58
 90
        2
176
     1
 90
        2
176
     1
 90
        0
176
     1
 90
        0
176
     1
 40
0.6
176
     1
 40
30.0
176
     1
 62
     7
176
     1
 90
        1
176
     1
 90
        4
176
     1
 62
     7
176
     1
 62
   257
176
     1
 90
        1
176
     1
 90
        1
176
     1
 40
1.0
176
     1
 90
        8
176
     1
 62
     7
176
     1
 40
1.0
176
     1
 90
        1
176
     1
 90
        6
176
     1
 90
        2
176
     1
 62
     7
176
     1
 90
        5
176
     1
 90
        0
176
     1
 90
        0
176
     1
290
     0
176
     1
 90
        1
176
     1
 40
50.0
176
     1
 90
        0
176
     1
290
     0
176
     1
290
     1
176
     1
290
     1
176
     1
290
     0
176
     1
290
     0
176
     1
290
     0
176
     1
290
     0
176
     1
290
     0
176
     1
290
     0
176
     1
 90
       50
176
     1
 40
0.0
176
     1
 40
1.0
176
     1
 90
        0
176
     1
 62
    18
176
     1
 90
       50
176
     1
 90
        3
176
     1
 62
     5
420
      255
176
     1
290
     0
176
     1
 90
       50
176
     1
 90
       50
176
     1
 90
       50
176
     1
290
     0
176
     1
 90
       50
176
     1
 62
   256
176
     0
 40
1.0
176
     0
 90
        2
176
     1
  1
strokes_ogs.tif
176
     1
290
     0
176
     1
 40
1.0
176
     1
 40
1.0
176
     1
1001
ACAD
1000
AcDbSavedByObjectVersion
1070
     0
  0
VISUALSTYLE
  5
3A
102
{ACAD_REACTORS
330
2A
102
}
330
2A
100
AcDbVisualStyle
  2

 70
    16
177
     3
291
     1
 70
    58
 90
        2
176
     1
 90
        2
176
     1
 90
        3
176
     1
 90
        0
176
     1
 40
0.6
176
     1
 40
30.0
176
     1
 62
     8
176
     1
 90
        1
176
     1
 90
        4
176
     1
 62
     7
176
     1
 62
   257
176
     1
 90
        1
176
     1
 90
        1
176
     1
 40
1.0
176
     1
 90
        8
176
     1
 62
     8
176
     1
 40
1.0
176
     1
 90
        1
176
     1
 90
        6
176
     1
 90
        2
176
     1
 62
     7
176
     1
 90
        5
176
     1
 90
        0
176
     1
 90
        0
176
     1
290
     0
176
     1
 90
        1
176
     1
 40
0.0
176
     1
 90
        0
176
     1
290
     0
176
     1
290
     1
176
     1
290
     1
176
     1
290
     0
176
     1
290
     0
176
     1
290
     0
176
     1
290
     0
176
     1
290
     0
176
     1
290
     0
176
     1
 90
       50
176
     1
 40
0.0
176
     1
 40
1.0
176
     1
 90
        0
176
     1
 62
    18
176
     1
 90
       50
176
     1
 90
        3
176
     1
 62
     5
420
      255
176
     1
290
     0
176
     1
 90
       50
176
     1
 90
       50
176
     1
 90
       50
176
     1
290
     0
176
     1
 90
       50
176
     1
 62
   256
176
     0
 40
1.0
176
     0
 90
        2
176
     1
  1
strokes_ogs.tif
176
     1
290
     0
176
     1
 40
1.0
176
     1
 40
1.0
176
     1
1001
ACAD
1000
AcDbSavedByObjectVersion
1070
     0
  0
VISUALSTYLE
  5
34
102
{ACAD_REACTORS
330
2A
102
}
330
2A
100
AcDbVisualStyle
  2

 70
     9
177
     3
291
     0
 70
    58
 90
        3
176
     1
 90
        2
176
     1
 90
        0
176
     1
 90
        0
176
     1
 40
0.6
176
     1
 40
30.0
176
     1
 62
     7
176
     1
 90
        2
176
     1
 90
        2
176
     1
 62
     7
176
     1
 62
   257
176
     1
 90
        1
176
     1
 90
        1
176
     1
 40
40.0
176
     1
 90
        8
176
     1
 62
     7
176
     1
 40
1.0
176
     1
 90
        1
176
     1
 90
        6
176
     1
 90
        2
176
     1
 62
     7
176
     1
 90
        3
176
     1
 90
        0
176
     1
 90
        0
176
     1
290
     0
176
     1
 90
        1
176
     1
 40
0.0
176
     1
 90
        0
176
     1
290
     0
176
     1
290
     1
176
     1
290
     1
176
     1
290
     0
176
     1
290
     0
176
     1
290
     0
176
     1
290
     0
176
     1
290
     0
176
     1
290
     0
176
     1
 90
       50
176
     1
 40
0.0
176
     1
 40
1.0
176
     1
 90
        0
176
     1
 62
    18
176
     1
 90
       50
176
     1
 90
        3
176
     1
 62
     5
420
      255
176
     1
290
     0
176
     1
 90
       50
176
     1
 90
       50
176
     1
 90
       50
176
     1
290
     0
176
     1
 90
       50
176
     1
 62
   256
176
     0
 40
1.0
176
     0
 90
        2
176
     1
  1
strokes_ogs.tif
176
     1
290
     0
176
     1
 40
1.0
176
     1
 40
1.0
176
     1
1001
ACAD
1000
AcDbSavedByObjectVersion
1070
     0
  0
VISUALSTYLE
  5
35
102
{ACAD_REACTORS
330
2A
102
}
330
2A
100
AcDbVisualStyle
  2

 70
    11
177
     3
291
     1
 70
    58
 90
        2
176
     1
 90
        2
176
     1
 90
        0
176
     1
 90
        0
176
     1
 40
0.6
176
     1
 40
30.0
176
     1
 62
     7
176
     1
 90
        1
176
     1
 90
        4
176
     1
 62
     7
176
     1
 62
   257
176
     1
 90
        1
176
     1
 90
        1
176
     1
 40
1.0
176
     1
 90
        8
176
     1
 62
     7
176
     1
 40
1.0
176
     1
 90
        1
176
     1
 90
        6
176
     1
 90
        2
176
     1
 62
     7
176
     1
 90
        5
176
     1
 90
        0
176
     1
 90
        0
176
     1
290
     0
176
     1
 90
        1
176
     1
 40
-50.0
176
     1
 90
        0
176
     1
290
     0
176
     1
290
     1
176
     1
290
     1
176
     1
290
     0
176
     1
290
     0
176
     1
290
     0
176
     1
290
     0
176
     1
290
     0
176
     1
290
     0
176
     1
 90
       50
176
     1
 40
0.0
176
     1
 40
1.0
176
     1
 90
        0
176
     1
 62
    18
176
     1
 90
       50
176
     1
 90
        3
176
     1
 62
     5
420
      255
176
     1
290
     0
176
     1
 90
       50
176
     1
 90
       50
176
     1
 90
       50
176
     1
290
     0
176
     1
 90
       50
176
     1
 62
   256
176
     0
 40
1.0
176
     0
 90
        2
176
     1
  1
strokes_ogs.tif
176
     1
290
     0
176
     1
 40
1.0
176
     1
 40
1.0
176
     1
1001
ACAD
1000
AcDbSavedByObjectVersion
1070
     0
  0
VISUALSTYLE
  5
71E
102
{ACAD_REACTORS
330
2A
102
}
330
2A
100
AcDbVisualStyle
  2
EdgeColorOff
 70
    22
177
     3
291
     1
 70
    58
 90
        2
176
     0
 90
        2
176
     0
 90
        0
176
     0
 90
        0
176
     0
 40
0.6
176
     0
 40
30.0
176
     0
 62
     7
420
 16777215
176
     0
 90
        1
176
     0
 90
        4
176
     0
 62
     7
176
     0
 62
   257
176
     0
 90
        1
176
     0
 90
        1
176
     0
 40
1.0
176
     0
 90
        8
176
     2
 62
     7
176
     0
 40
1.0
176
     0
 90
        1
176
     0
 90
        6
176
     0
 90
        2
176
     0
 62
     7
176
     0
 90
        5
176
     0
 90
        0
176
     0
 90
        0
176
     0
290
     0
176
     0
 90
        1
176
     0
 40
0.0
176
     0
 90
        0
176
     0
290
     0
176
     1
290
     1
176
     1
290
     1
176
     1
290
     0
176
     1
290
     0
176
     1
290
     0
176
     1
290
     0
176
     1
290
     0
176
     1
290
     0
176
     1
 90
       50
176
     0
 40
0.0
176
     0
 40
1.0
176
     0
 90
        0
176
     0
 62
    18
176
     0
 90
       50
176
     0
 90
        3
176
     0
 62
     5
420
      255
176
     0
290
     0
176
     1
 90
       50
176
     0
 90
       50
176
     0
 90
       50
176
     0
290
     0
176
     1
 90
       50
176
     0
 62
   256
176
     0
 40
1.0
176
     0
 90
        2
176
     0
  1
strokes_ogs.tif
176
     0
290
     0
176
     1
 40
1.0
176
     0
 40
1.0
176
     0
1001
ACAD
1000
AcDbSavedByObjectVersion
1070
     0
  0
VISUALSTYLE
  5
39
102
{ACAD_REACTORS
330
2A
102
}
330
2A
100
AcDbVisualStyle
  2

 70
    15
177
     3
291
     1
 70
    58
 90
        2
176
     1
 90
        2
176
     1
 90
        0
176
     1
 90
        0
176
     1
 40
0.6
176
     1
 40
30.0
176
     1
 62
     7
176
     1
 90
        1
176
     1
 90
        4
176
     1
 62
     7
176
     1
 62
   257
176
     1
 90
        1
176
     1
 90
        1
176
     1
 40
1.0
176
     1
 90
        8
176
     1
 62
     7
176
     1
 40
1.0
176
     1
 90
        1
176
     1
 90
        6
176
     1
 90
        2
176
     1
 62
     7
176
     1
 90
        5
176
     1
 90
        0
176
     1
 90
        0
176
     1
290
     0
176
     1
 90
        1
176
     1
 40
0.0
176
     1
 90
        0
176
     1
290
     0
176
     1
290
     1
176
     1
290
     1
176
     1
290
     0
176
     1
290
     0
176
     1
290
     0
176
     1
290
     0
176
     1
290
     0
176
     1
290
     0
176
     1
 90
       50
176
     1
 40
0.0
176
     1
 40
1.0
176
     1
 90
        0
176
     1
 62
    18
176
     1
 90
       50
176
     1
 90
        3
176
     1
 62
     5
420
      255
176
     1
290
     0
176
     1
 90
       50
176
     1
 90
       50
176
     1
 90
       50
176
     1
290
     0
176
     1
 90
       50
176
     1
 62
   256
176
     0
 40
1.0
176
     0
 90
        2
176
     1
  1
strokes_ogs.tif
176
     1
290
     0
176
     1
 40
1.0
176
     1
 40
1.0
176
     1
1001
ACAD
1000
AcDbSavedByObjectVersion
1070
     0
  0
VISUALSTYLE
  5
2B
102
{ACAD_REACTORS
330
2A
102
}
330
2A
100
AcDbVisualStyle
  2

 70
     0
177
     3
291
     1
 70
    58
 90
        2
176
     1
 90
        1
176
     1
 90
        1
176
     1
 90
        2
176
     1
 40
0.6
176
     1
 40
30.0
176
     1
 62
     7
176
     1
 90
        0
176
     1
 90
        4
176
     1
 62
     7
176
     1
 62
   257
176
     1
 90
        1
176
     1
 90
        1
176
     1
 40
1.0
176
     1
 90
        8
176
     1
 62
     7
176
     1
 40
1.0
176
     1
 90
        1
176
     1
 90
        6
176
     1
 90
        2
176
     1
 62
     7
176
     1
 90
        5
176
     1
 90
        0
176
     1
 90
        0
176
     1
290
     0
176
     1
 90
       13
176
     1
 40
0.0
176
     1
 90
        0
176
     1
290
     0
176
     1
290
     1
176
     1
290
     1
176
     1
290
     0
176
     1
290
     0
176
     1
290
     0
176
     1
290
     0
176
     1
290
     0
176
     1
290
     0
176
     1
 90
       50
176
     1
 40
0.0
176
     1
 40
1.0
176
     1
 90
        0
176
     1
 62
    18
176
     1
 90
       50
176
     1
 90
        3
176
     1
 62
     5
420
      255
176
     1
290
     0
176
     1
 90
       50
176
     1
 90
       50
176
     1
 90
       50
176
     1
290
     0
176
     1
 90
       50
176
     1
 62
   256
176
     0
 40
1.0
176
     0
 90
        2
176
     1
  1
strokes_ogs.tif
176
     1
290
     0
176
     1
 40
1.0
176
     1
 40
1.0
176
     1
1001
ACAD
1000
AcDbSavedByObjectVersion
1070
     0
  0
VISUALSTYLE
  5
2C
102
{ACAD_REACTORS
330
2A
102
}
330
2A
100
AcDbVisualStyle
  2

 70
     1
177
     3
291
     1
 70
    58
 90
        2
176
     1
 90
        1
176
     1
 90
        1
176
     1
 90
        2
176
     1
 40
0.6
176
     1
 40
30.0
176
     1
 62
     7
176
     1
 90
        1
176
     1
 90
        4
176
     1
 62
     7
176
     1
 62
   257
176
     1
 90
        1
176
     1
 90
        1
176
     1
 40
1.0
176
     1
 90
        0
176
     1
 62
   257
176
     1
 40
1.0
176
     1
 90
        1
176
     1
 90
        6
176
     1
 90
        2
176
     1
 62
     7
176
     1
 90
        5
176
     1
 90
        0
176
     1
 90
        0
176
     1
290
     0
176
     1
 90
       13
176
     1
 40
0.0
176
     1
 90
        0
176
     1
290
     0
176
     1
290
     1
176
     1
290
     1
176
     1
290
     0
176
     1
290
     0
176
     1
290
     0
176
     1
290
     0
176
     1
290
     0
176
     1
290
     0
176
     1
 90
       50
176
     1
 40
0.0
176
     1
 40
1.0
176
     1
 90
        0
176
     1
 62
    18
176
     1
 90
       50
176
     1
 90
        3
176
     1
 62
     5
420
      255
176
     1
290
     0
176
     1
 90
       50
176
     1
 90
       50
176
     1
 90
       50
176
     1
290
     0
176
     1
 90
       50
176
     1
 62
   256
176
     0
 40
1.0
176
     0
 90
        2
176
     1
  1
strokes_ogs.tif
176
     1
290
     0
176
     1
 40
1.0
176
     1
 40
1.0
176
     1
1001
ACAD
1000
AcDbSavedByObjectVersion
1070
     0
  0
VISUALSTYLE
  5
2D
102
{ACAD_REACTORS
330
2A
102
}
330
2A
100
AcDbVisualStyle
  2

 70
     2
177
     3
291
     1
 70
    58
 90
        2
176
     1
 90
        2
176
     1
 90
        1
176
     1
 90
        2
176
     1
 40
0.6
176
     1
 40
30.0
176
     1
 62
     7
176
     1
 90
        0
176
     1
 90
        4
176
     1
 62
     7
176
     1
 62
   257
176
     1
 90
        1
176
     1
 90
        1
176
     1
 40
1.0
176
     1
 90
        0
176
     1
 62
     7
176
     1
 40
1.0
176
     1
 90
        1
176
     1
 90
        6
176
     1
 90
        2
176
     1
 62
     7
176
     1
 90
        5
176
     1
 90
        0
176
     1
 90
        0
176
     1
290
     0
176
     1
 90
       13
176
     1
 40
0.0
176
     1
 90
        0
176
     1
290
     0
176
     1
290
     1
176
     1
290
     1
176
     1
290
     0
176
     1
290
     0
176
     1
290
     0
176
     1
290
     0
176
     1
290
     0
176
     1
290
     0
176
     1
 90
       50
176
     1
 40
0.0
176
     1
 40
1.0
176
     1
 90
        0
176
     1
 62
    18
176
     1
 90
       50
176
     1
 90
        3
176
     1
 62
     5
420
      255
176
     1
290
     0
176
     1
 90
       50
176
     1
 90
       50
176
     1
 90
       50
176
     1
290
     0
176
     1
 90
       50
176
     1
 62
   256
176
     0
 40
1.0
176
     0
 90
        2
176
     1
  1
strokes_ogs.tif
176
     1
290
     0
176
     1
 40
1.0
176
     1
 40
1.0
176
     1
1001
ACAD
1000
AcDbSavedByObjectVersion
1070
     0
  0
VISUALSTYLE
  5
2E
102
{ACAD_REACTORS
330
2A
102
}
330
2A
100
AcDbVisualStyle
  2

 70
     3
177
     3
291
     1
 70
    58
 90
        2
176
     1
 90
        2
176
     1
 90
        1
176
     1
 90
        2
176
     1
 40
0.6
176
     1
 40
30.0
176
     1
 62
     7
176
     1
 90
        1
176
     1
 90
        4
176
     1
 62
     7
176
     1
 62
   257
176
     1
 90
        1
176
     1
 90
        1
176
     1
 40
1.0
176
     1
 90
        0
176
     1
 62
   257
176
     1
 40
1.0
176
     1
 90
        1
176
     1
 90
        6
176
     1
 90
        2
176
     1
 62
     7
176
     1
 90
        5
176
     1
 90
        0
176
     1
 90
        0
176
     1
290
     0
176
     1
 90
       13
176
     1
 40
0.0
176
     1
 90
        0
176
     1
290
     0
176
     1
290
     1
176
     1
290
     1
176
     1
290
     0
176
     1
290
     0
176
     1
290
     0
176
     1
290
     0
176
     1
290
     0
176
     1
290
     0
176
     1
 90
       50
176
     1
 40
0.0
176
     1
 40
1.0
176
     1
 90
        0
176
     1
 62
    18
176
     1
 90
       50
176
     1
 90
        3
176
     1
 62
     5
420
      255
176
     1
290
     0
176
     1
 90
       50
176
     1
 90
       50
176
     1
 90
       50
176
     1
290
     0
176
     1
 90
       50
176
     1
 62
   256
176
     0
 40
1.0
176
     0
 90
        2
176
     1
  1
strokes_ogs.tif
176
     1
290
     0
176
     1
 40
1.0
176
     1
 40
1.0
176
     1
1001
ACAD
1000
AcDbSavedByObjectVersion
1070
     0
  0
VISUALSTYLE
  5
716
102
{ACAD_REACTORS
330
2A
102
}
330
2A
100
AcDbVisualStyle
  2
Hidden
 70
     6
177
     3
291
     0
 70
    58
 90
        1
176
     1
 90
        2
176
     1
 90
        2
176
     1
 90
        0
176
     1
 40
0.6
176
     1
 40
30.0
176
     1
 62
     7
420
 16777215
176
     1
 90
        2
176
     1
 90
        2
176
     1
 62
     7
176
     1
 62
   257
176
     1
 90
        2
176
     1
 90
        1
176
     1
 40
40.0
176
     1
 90
        0
176
     1
 62
   257
176
     1
 40
1.0
176
     1
 90
        1
176
     1
 90
        6
176
     1
 90
        2
176
     1
 62
     7
176
     1
 90
        3
176
     1
 90
        0
176
     1
 90
        0
176
     1
290
     0
176
     1
 90
        1
176
     1
 40
0.0
176
     1
 90
        0
176
     1
290
     0
176
     1
290
     1
176
     1
290
     1
176
     1
290
     0
176
     1
290
     0
176
     1
290
     0
176
     1
290
     0
176
     1
290
     0
176
     1
290
     0
176
     1
 90
       50
176
     1
 40
0.0
176
     1
 40
1.0
176
     1
 90
        0
176
     1
 62
    18
176
     1
 90
       50
176
     1
 90
        3
176
     1
 62
     5
420
      255
176
     1
290
     0
176
     1
 90
       50
176
     1
 90
       50
176
     1
 90
       50
176
     1
290
     0
176
     1
 90
       50
176
     1
 62
   256
176
     0
 40
1.0
176
     0
 90
        2
176
     1
  1
strokes_ogs.tif
176
     1
290
     0
176
     1
 40
1.0
176
     1
 40
1.0
176
     1
1001
ACAD
1000
AcDbSavedByObjectVersion
1070
     0
  0
VISUALSTYLE
  5
71C
102
{ACAD_REACTORS
330
2A
102
}
330
2A
100
AcDbVisualStyle
  2
JitterOff
 70
    20
177
     3
291
     1
 70
    58
 90
        2
176
     0
 90
        2
176
     0
 90
        0
176
     0
 90
        0
176
     0
 40
0.6
176
     0
 40
30.0
176
     0
 62
     7
420
 16777215
176
     0
 90
        1
176
     0
 90
        4
176
     0
 62
     7
176
     0
 62
   257
176
     0
 90
        1
176
     0
 90
        1
176
     0
 40
1.0
176
     0
 90
       10
176
     2
 62
     7
176
     0
 40
1.0
176
     0
 90
        1
176
     0
 90
        6
176
     0
 90
        2
176
     0
 62
     7
176
     0
 90
        5
176
     0
 90
        0
176
     0
 90
        0
176
     0
290
     0
176
     0
 90
        1
176
     0
 40
0.0
176
     0
 90
        0
176
     0
290
     0
176
     1
290
     1
176
     1
290
     1
176
     1
290
     0
176
     1
290
     0
176
     1
290
     0
176
     1
290
     0
176
     1
290
     0
176
     1
290
     0
176
     1
 90
       50
176
     0
 40
0.0
176
     0
 40
1.0
176
     0
 90
        0
176
     0
 62
    18
176
     0
 90
       50
176
     0
 90
        3
176
     0
 62
     5
420
      255
176
     0
290
     0
176
     1
 90
       50
176
     0
 90
       50
176
     0
 90
       50
176
     0
290
     0
176
     1
 90
       50
176
     0
 62
   256
176
     0
 40
1.0
176
     0
 90
        2
176
     0
  1
strokes_ogs.tif
176
     0
290
     0
176
     1
 40
1.0
176
     0
 40
1.0
176
     0
1001
ACAD
1000
AcDbSavedByObjectVersion
1070
     0
  0
VISUALSTYLE
  5
38
102
{ACAD_REACTORS
330
2A
102
}
330
2A
100
AcDbVisualStyle
  2

 70
    14
177
     3
291
     1
 70
    58
 90
        2
176
     1
 90
        2
176
     1
 90
        0
176
     1
 90
        0
176
     1
 40
0.6
176
     1
 40
30.0
176
     1
 62
     7
176
     1
 90
        1
176
     1
 90
        4
176
     1
 62
     7
176
     1
 62
   257
176
     1
 90
        7
176
     1
 90
        7
176
     1
 40
1.0
176
     1
 90
        8
176
     1
 62
     7
176
     1
 40
1.0
176
     1
 90
        1
176
     1
 90
        6
176
     1
 90
        2
176
     1
 62
     7
176
     1
 90
        5
176
     1
 90
        0
176
     1
 90
        0
176
     1
290
     0
176
     1
 90
        1
176
     1
 40
0.0
176
     1
 90
        0
176
     1
290
     0
176
     1
290
     1
176
     1
290
     1
176
     1
290
     0
176
     1
290
     0
176
     1
290
     0
176
     1
290
     0
176
     1
290
     0
176
     1
290
     0
176
     1
 90
       50
176
     1
 40
0.0
176
     1
 40
1.0
176
     1
 90
        0
176
     1
 62
    18
176
     1
 90
       50
176
     1
 90
        3
176
     1
 62
     5
420
      255
176
     1
290
     0
176
     1
 90
       50
176
     1
 90
       50
176
     1
 90
       50
176
     1
290
     0
176
     1
 90
       50
176
     1
 62
   256
176
     0
 40
1.0
176
     0
 90
        2
176
     1
  1
strokes_ogs.tif
176
     1
290
     0
176
     1
 40
1.0
176
     1
 40
1.0
176
     1
1001
ACAD
1000
AcDbSavedByObjectVersion
1070
     0
  0
VISUALSTYLE
  5
71D
102
{ACAD_REACTORS
330
2A
102
}
330
2A
100
AcDbVisualStyle
  2
OverhangOff
 70
    21
177
     3
291
     1
 70
    58
 90
        2
176
     0
 90
        2
176
     0
 90
        0
176
     0
 90
        0
176
     0
 40
0.6
176
     0
 40
30.0
176
     0
 62
     7
420
 16777215
176
     0
 90
        1
176
     0
 90
        4
176
     0
 62
     7
176
     0
 62
   257
176
     0
 90
        1
176
     0
 90
        1
176
     0
 40
1.0
176
     0
 90
        9
176
     2
 62
     7
176
     0
 40
1.0
176
     0
 90
        1
176
     0
 90
        6
176
     0
 90
        2
176
     0
 62
     7
176
     0
 90
        5
176
     0
 90
        0
176
     0
 90
        0
176
     0
290
     0
176
     0
 90
        1
176
     0
 40
0.0
176
     0
 90
        0
176
     0
290
     0
176
     1
290
     1
176
     1
290
     1
176
     1
290
     0
176
     1
290
     0
176
     1
290
     0
176
     1
290
     0
176
     1
290
     0
176
     1
290
     0
176
     1
 90
       50
176
     0
 40
0.0
176
     0
 40
1.0
176
     0
 90
        0
176
     0
 62
    18
176
     0
 90
       50
176
     0
 90
        3
176
     0
 62
     5
420
      255
176
     0
290
     0
176
     1
 90
       50
176
     0
 90
       50
176
     0
 90
       50
176
     0
290
     0
176
     1
 90
       50
176
     0
 62
   256
176
     0
 40
1.0
176
     0
 90
        2
176
     0
  1
strokes_ogs.tif
176
     0
290
     0
176
     1
 40
1.0
176
     0
 40
1.0
176
     0
1001
ACAD
1000
AcDbSavedByObjectVersion
1070
     0
  0
VISUALSTYLE
  5
33
102
{ACAD_REACTORS
330
2A
102
}
330
2A
100
AcDbVisualStyle
  2

 70
     8
177
     3
291
     0
 70
    58
 90
        2
176
     1
 90
        2
176
     1
 90
        0
176
     1
 90
        0
176
     1
 40
0.6
176
     1
 40
30.0
176
     1
 62
     7
176
     1
 90
        1
176
     1
 90
        0
176
     1
 62
     7
176
     1
 62
   257
176
     1
 90
        1
176
     1
 90
        1
176
     1
 40
1.0
176
     1
 90
        8
176
     1
 62
     8
176
     1
 40
1.0
176
     1
 90
        1
176
     1
 90
        6
176
     1
 90
        2
176
     1
 62
     7
176
     1
 90
        5
176
     1
 90
        0
176
     1
 90
        0
176
     1
290
     0
176
     1
 90
       13
176
     1
 40
0.0
176
     1
 90
        0
176
     1
290
     0
176
     1
290
     1
176
     1
290
     1
176
     1
290
     0
176
     1
290
     0
176
     1
290
     0
176
     1
290
     0
176
     1
290
     0
176
     1
290
     0
176
     1
 90
       50
176
     1
 40
0.0
176
     1
 40
1.0
176
     1
 90
        0
176
     1
 62
    18
176
     1
 90
       50
176
     1
 90
        3
176
     1
 62
     5
420
      255
176
     1
290
     0
176
     1
 90
       50
176
     1
 90
       50
176
     1
 90
       50
176
     1
290
     0
176
     1
 90
       50
176
     1
 62
   256
176
     0
 40
1.0
176
     0
 90
        2
176
     1
  1
strokes_ogs.tif
176
     1
290
     0
176
     1
 40
1.0
176
     1
 40
1.0
176
     1
1001
ACAD
1000
AcDbSavedByObjectVersion
1070
     0
  0
VISUALSTYLE
  5
71B
102
{ACAD_REACTORS
330
2A
102
}
330
2A
100
AcDbVisualStyle
  2
Shaded
 70
    27
177
     3
291
     0
 70
    58
 90
        2
176
     1
 90
        2
176
     1
 90
        1
176
     1
 90
        2
176
     1
 40
0.6
176
     1
 40
30.0
176
     1
 62
     7
420
 16777215
176
     1
 90
        0
176
     1
 90
        4
176
     1
 62
     7
176
     1
 62
   257
176
     1
 90
        1
176
     1
 90
        1
176
     1
 40
1.0
176
     1
 90
        8
176
     1
 62
   257
176
     1
 40
1.0
176
     1
 90
        1
176
     1
 90
        6
176
     1
 90
        2
176
     1
 62
     8
420
  7895160
176
     1
 90
        3
176
     1
 90
        0
176
     1
 90
        0
176
     1
290
     0
176
     1
 90
        5
176
     1
 40
0.0
176
     1
 90
        0
176
     1
290
     0
176
     1
290
     1
176
     1
290
     1
176
     1
290
     0
176
     1
290
     0
176
     1
290
     0
176
     1
290
     0
176
     1
290
     0
176
     1
290
     0
176
     1
 90
       50
176
     1
 40
0.0
176
     1
 40
1.0
176
     1
 90
        0
176
     1
 62
    18
176
     1
 90
       50
176
     1
 90
        3
176
     1
 62
     5
420
      255
176
     1
290
     0
176
     1
 90
       50
176
     1
 90
       50
176
     1
 90
       50
176
     1
290
     0
176
     1
 90
       50
176
     1
 62
   256
176
     0
 40
1.0
176
     0
 90
        2
176
     1
  1
strokes_ogs.tif
176
     1
290
     0
176
     1
 40
1.0
176
     1
 40
1.0
176
     1
1001
ACAD
1000
AcDbSavedByObjectVersion
1070
     0
  0
VISUALSTYLE
  5
71A
102
{ACAD_REACTORS
330
2A
102
}
330
2A
100
AcDbVisualStyle
  2
Shaded with edges
 70
    26
177
     3
291
     0
 70
    58
 90
        2
176
     1
 90
        2
176
     1
 90
        1
176
     1
 90
        2
176
     1
 40
0.6
176
     1
 40
30.0
176
     1
 62
     7
420
 16777215
176
     1
 90
        1
176
     1
 90
        2
176
     1
 62
     7
176
     1
 62
   257
176
     1
 90
        2
176
     1
 90
        1
176
     1
 40
1.0
176
     1
 90
        8
176
     1
 62
   257
176
     1
 40
1.0
176
     1
 90
        1
176
     1
 90
        6
176
     1
 90
        2
176
     1
 62
     7
176
     1
 90
        3
176
     1
 90
        0
176
     1
 90
        0
176
     1
290
     0
176
     1
 90
        5
176
     1
 40
0.0
176
     1
 90
        0
176
     1
290
     0
176
     1
290
     1
176
     1
290
     1
176
     1
290
     0
176
     1
290
     0
176
     1
290
     0
176
     1
290
     0
176
     1
290
     0
176
     1
290
     0
176
     1
 90
       50
176
     1
 40
0.0
176
     1
 40
1.0
176
     1
 90
        0
176
     1
 62
    18
176
     1
 90
       50
176
     1
 90
        3
176
     1
 62
     5
420
      255
176
     1
290
     0
176
     1
 90
       50
176
     1
 90
       50
176
     1
 90
       50
176
     1
290
     0
176
     1
 90
       50
176
     1
 62
   256
176
     0
 40
1.0
176
     0
 90
        2
176
     1
  1
strokes_ogs.tif
176
     1
290
     0
176
     1
 40
1.0
176
     1
 40
1.0
176
     1
1001
ACAD
1000
AcDbSavedByObjectVersion
1070
     0
  0
VISUALSTYLE
  5
717
102
{ACAD_REACTORS
330
2A
102
}
330
2A
100
AcDbVisualStyle
  2
Shades of Gray
 70
    23
177
     3
291
     0
 70
    58
 90
        2
176
     1
 90
        2
176
     1
 90
        3
176
     1
 90
        0
176
     1
 40
0.6
176
     1
 40
30.0
176
     1
 62
     7
420
 16777215
176
     1
 90
        2
176
     1
 90
        2
176
     1
 62
     7
176
     1
 62
     7
176
     1
 90
        1
176
     1
 90
        1
176
     1
 40
40.0
176
     1
 90
        8
176
     1
 62
     7
176
     1
 40
1.0
176
     1
 90
        1
176
     1
 90
        6
176
     1
 90
        2
176
     1
 62
     7
176
     1
 90
        3
176
     1
 90
        0
176
     1
 90
        0
176
     1
290
     0
176
     1
 90
        1
176
     1
 40
0.0
176
     1
 90
        0
176
     1
290
     0
176
     1
290
     1
176
     1
290
     1
176
     1
290
     0
176
     1
290
     0
176
     1
290
     0
176
     1
290
     0
176
     1
290
     0
176
     1
290
     0
176
     1
 90
       50
176
     1
 40
0.0
176
     1
 40
1.0
176
     1
 90
        0
176
     1
 62
    18
176
     1
 90
       50
176
     1
 90
        3
176
     1
 62
     5
420
      255
176
     1
290
     0
176
     1
 90
       50
176
     1
 90
       50
176
     1
 90
       50
176
     1
290
     0
176
     1
 90
       50
176
     1
 62
   256
176
     0
 40
1.0
176
     0
 90
        2
176
     1
  1
strokes_ogs.tif
176
     1
290
     0
176
     1
 40
1.0
176
     1
 40
1.0
176
     1
1001
ACAD
1000
AcDbSavedByObjectVersion
1070
     0
  0
VISUALSTYLE
  5
718
102
{ACAD_REACTORS
330
2A
102
}
330
2A
100
AcDbVisualStyle
  2
Sketchy
 70
    24
177
     3
291
     0
 70
    58
 90
        1
176
     1
 90
        2
176
     1
 90
        2
176
     1
 90
        0
176
     1
 40
0.6
176
     1
 40
30.0
176
     1
 62
     7
420
 16777215
176
     1
 90
        2
176
     1
 90
        2
176
     1
 62
     7
176
     1
 62
     7
176
     1
 90
        1
176
     1
 90
        1
176
     1
 40
40.0
176
     1
 90
       11
176
     1
 62
     7
176
     1
 40
1.0
176
     1
 90
        1
176
     1
 90
        6
176
     1
 90
        2
176
     1
 62
     7
176
     1
 90
        6
176
     1
 90
        0
176
     1
 90
        0
176
     1
290
     0
176
     1
 90
        1
176
     1
 40
0.0
176
     1
 90
        0
176
     1
290
     0
176
     1
290
     1
176
     1
290
     1
176
     1
290
     0
176
     1
290
     0
176
     1
290
     0
176
     1
290
     0
176
     1
290
     0
176
     1
290
     0
176
     1
 90
       50
176
     1
 40
0.0
176
     1
 40
1.0
176
     1
 90
        0
176
     1
 62
    18
176
     1
 90
       50
176
     1
 90
        3
176
     1
 62
     5
420
      255
176
     1
290
     0
176
     1
 90
       50
176
     1
 90
       50
176
     1
 90
       50
176
     1
290
     0
176
     1
 90
       50
176
     1
 62
   256
176
     0
 40
1.0
176
     0
 90
        2
176
     1
  1
strokes_ogs.tif
176
     1
290
     0
176
     1
 40
1.0
176
     1
 40
1.0
176
     1
1001
ACAD
1000
AcDbSavedByObjectVersion
1070
     0
  0
VISUALSTYLE
  5
37
102
{ACAD_REACTORS
330
2A
102
}
330
2A
100
AcDbVisualStyle
  2

 70
    13
177
     3
291
     1
 70
    58
 90
        2
176
     1
 90
        2
176
     1
 90
        0
176
     1
 90
        0
176
     1
 40
0.6
176
     1
 40
30.0
176
     1
 62
     7
176
     1
 90
        1
176
     1
 90
        4
176
     1
 62
     7
176
     1
 62
   257
176
     1
 90
        1
176
     1
 90
        1
176
     1
 40
1.0
176
     1
 90
       12
176
     1
 62
     7
176
     1
 40
1.0
176
     1
 90
        1
176
     1
 90
        6
176
     1
 90
        2
176
     1
 62
     7
176
     1
 90
        5
176
     1
 90
        0
176
     1
 90
        0
176
     1
290
     0
176
     1
 90
        1
176
     1
 40
0.0
176
     1
 90
        0
176
     1
290
     0
176
     1
290
     1
176
     1
290
     1
176
     1
290
     0
176
     1
290
     0
176
     1
290
     0
176
     1
290
     0
176
     1
290
     0
176
     1
290
     0
176
     1
 90
       50
176
     1
 40
0.0
176
     1
 40
1.0
176
     1
 90
        0
176
     1
 62
    18
176
     1
 90
       50
176
     1
 90
        3
176
     1
 62
     5
420
      255
176
     1
290
     0
176
     1
 90
       50
176
     1
 90
       50
176
     1
 90
       50
176
     1
290
     0
176
     1
 90
       50
176
     1
 62
   256
176
     0
 40
1.0
176
     0
 90
        2
176
     1
  1
strokes_ogs.tif
176
     1
290
     0
176
     1
 40
1.0
176
     1
 40
1.0
176
     1
1001
ACAD
1000
AcDbSavedByObjectVersion
1070
     0
  0
VISUALSTYLE
  5
715
102
{ACAD_REACTORS
330
2A
102
}
330
2A
100
AcDbVisualStyle
  2
Wireframe
 70
     5
177
     3
291
     0
 70
    58
 90
        0
176
     1
 90
        2
176
     1
 90
        0
176
     1
 90
        0
176
     1
 40
0.6
176
     1
 40
30.0
176
     1
 62
     7
420
 16777215
176
     1
 90
        1
176
     1
 90
        4
176
     1
 62
     7
176
     1
 62
   257
176
     1
 90
        1
176
     1
 90
        1
176
     1
 40
1.0
176
     1
 90
        0
176
     1
 62
   257
176
     1
 40
1.0
176
     1
 90
        1
176
     1
 90
        6
176
     1
 90
        2
176
     1
 62
     7
176
     1
 90
        3
176
     1
 90
        0
176
     1
 90
        0
176
     1
290
     0
176
     1
 90
        1
176
     1
 40
0.0
176
     1
 90
        0
176
     1
290
     0
176
     1
290
     1
176
     1
290
     1
176
     1
290
     0
176
     1
290
     0
176
     1
290
     0
176
     1
290
     0
176
     1
290
     0
176
     1
290
     0
176
     1
 90
       50
176
     1
 40
0.0
176
     1
 40
1.0
176
     1
 90
        0
176
     1
 62
    18
176
     1
 90
       50
176
     1
 90
        3
176
     1
 62
     5
420
      255
176
     1
290
     0
176
     1
 90
       50
176
     1
 90
       50
176
     1
 90
       50
176
     1
290
     0
176
     1
 90
       50
176
     1
 62
   256
176
     0
 40
1.0
176
     0
 90
        2
176
     1
  1
strokes_ogs.tif
176
     1
290
     0
176
     1
 40
1.0
176
     1
 40
1.0
176
     1
1001
ACAD
1000
AcDbSavedByObjectVersion
1070
     0
  0
VISUALSTYLE
  5
719
102
{ACAD_REACTORS
330
2A
102
}
330
2A
100
AcDbVisualStyle
  2
X-Ray
 70
    25
177
     3
291
     0
 70
    58
 90
        2
176
     1
 90
        2
176
     1
 90
        1
176
     1
 90
        1
176
     1
 40
0.5
176
     1
 40
30.0
176
     1
 62
     7
420
 16777215
176
     1
 90
        1
176
     1
 90
        0
176
     1
 62
     7
176
     1
 62
   257
176
     1
 90
        1
176
     1
 90
        1
176
     1
 40
1.0
176
     1
 90
        8
176
     1
 62
     7
176
     1
 40
1.0
176
     1
 90
        1
176
     1
 90
        6
176
     1
 90
        2
176
     1
 62
     7
176
     1
 90
        3
176
     1
 90
        0
176
     1
 90
        0
176
     1
290
     0
176
     1
 90
       13
176
     1
 40
0.0
176
     1
 90
        0
176
     1
290
     0
176
     1
290
     1
176
     1
290
     1
176
     1
290
     0
176
     1
290
     0
176
     1
290
     0
176
     1
290
     0
176
     1
290
     0
176
     1
290
     0
176
     1
 90
       50
176
     1
 40
0.0
176
     1
 40
1.0
176
     1
 90
        0
176
     1
 62
    18
176
     1
 90
       50
176
     1
 90
        3
176
     1
 62
     5
420
      255
176
     1
290
     0
176
     1
 90
       50
176
     1
 90
       50
176
     1
 90
       50
176
     1
290
     0
176
     1
 90
       50
176
     1
 62
   256
176
     0
 40
1.0
176
     0
 90
        2
176
     1
  1
strokes_ogs.tif
176
     1
290
     0
176
     1
 40
1.0
176
     1
 40
1.0
176
     1
1001
ACAD
1000
AcDbSavedByObjectVersion
1070
     0
  0
DICTIONARYVAR
  5
8A3
102
{ACAD_REACTORS
330
6E1
102
}
330
6E1
100
DictionaryVariables
280
     0
  1
1:1
  0
DICTIONARYVAR
  5
89F
102
{ACAD_REACTORS
330
6E1
102
}
330
6E1
100
DictionaryVariables
280
     0
  1
STANDARD
  0
DICTIONARYVAR
  5
6E2
102
{ACAD_REACTORS
330
6E1
102
}
330
6E1
100
DictionaryVariables
280
     0
  1
STANDARD
  0
DICTIONARYVAR
  5
8A0
102
{ACAD_REACTORS
330
6E1
102
}
330
6E1
100
DictionaryVariables
280
     0
  1
Metric50
  0
DICTIONARYVAR
  5
8A1
102
{ACAD_REACTORS
330
6E1
102
}
330
6E1
100
DictionaryVariables
280
     0
  1
Metric50
  0
DICTIONARYVAR
  5
703
102
{ACAD_REACTORS
330
6E1
102
}
330
6E1
100
DictionaryVariables
280
     0
  1
1
  0
DICTIONARYVAR
  5
702
102
{ACAD_REACTORS
330
6E1
102
}
330
6E1
100
DictionaryVariables
280
     0
  1
0
  0
DICTIONARYVAR
  5
8A5
102
{ACAD_REACTORS
330
6E1
102
}
330
6E1
100
DictionaryVariables
280
     0
  1
1
  0
DICTIONARYVAR
  5
8A6
102
{ACAD_REACTORS
330
6E1
102
}
330
6E1
100
DictionaryVariables
280
     0
  1
15
  0
DICTIONARYVAR
  5
8A4
102
{ACAD_REACTORS
330
6E1
102
}
330
6E1
100
DictionaryVariables
280
     0
  1
0
  0
DICTIONARYVAR
  5
8A2
102
{ACAD_REACTORS
330
6E1
102
}
330
6E1
100
DictionaryVariables
280
     0
  1
0
  0
DICTIONARYVAR
  5
701
102
{ACAD_REACTORS
330
6E1
102
}
330
6E1
100
DictionaryVariables
280
     0
  1
127
  0
DICTIONARY
  5
91C
330
8CD
100
AcDbDictionary
280
     1
281
     1
  3
ACAD_XREC_ROUNDTRIP
360
91D
  0
DICTIONARY
  5
918
330
735
100
AcDbDictionary
280
     1
281
     1
  3
ACAD_XREC_ROUNDTRIP
360
919
  0
DICTIONARY
  5
70D
330
6DB
100
AcDbDictionary
280
     1
281
     1
  3
ACAD_XREC_ROUNDTRIP
360
70E
  0
DICTIONARY
  5
70B
330
6DA
100
AcDbDictionary
280
     1
281
     1
  3
ACAD_XREC_ROUNDTRIP
360
70C
  0
DICTIONARY
  5
70F
330
6DC
100
AcDbDictionary
280
     1
281
     1
  3
ACAD_XREC_ROUNDTRIP
360
710
  0
DICTIONARY
  5
91A
330
8CC
100
AcDbDictionary
280
     1
281
     1
  3
ACAD_XREC_ROUNDTRIP
360
91B
  0
DICTIONARY
  5
916
330
733
100
AcDbDictionary
280
     1
281
     1
  3
ACAD_XREC_ROUNDTRIP
360
917
  0
DICTIONARY
  5
8A7
330
6DE
100
AcDbDictionary
280
     1
281
     1
  3
ACAD_ROUNDTRIP_2008_TABLESTYLE_CELLSTYLEMAP
360
914
  0
XRECORD
  5
91D
102
{ACAD_REACTORS
330
91C
102
}
330
91C
100
AcDbXrecord
280
     1
102
DISPLAYNAME
  1
Imperial24
102
FLAGS
 90
        0
  0
XRECORD
  5
919
102
{ACAD_REACTORS
330
918
102
}
330
918
100
AcDbXrecord
280
     1
102
DISPLAYNAME
  1
Metric50
102
FLAGS
 90
        0
  0
XRECORD
  5
70E
102
{ACAD_REACTORS
330
70D
102
}
330
70D
100
AcDbXrecord
280
     1
102
MATERIAL
148
0.0
149
0.0
149
0.0
 93
        0
 94
       63
282
     0
 72
     1
 77
     1
171
     1
175
     1
179
     1
273
     0
  0
XRECORD
  5
70C
102
{ACAD_REACTORS
330
70B
102
}
330
70B
100
AcDbXrecord
280
     1
102
MATERIAL
148
0.0
149
0.0
149
0.0
 93
        0
 94
       63
282
     0
 72
     1
 77
     1
171
     1
175
     1
179
     1
273
     0
  0
XRECORD
  5
710
102
{ACAD_REACTORS
330
70F
102
}
330
70F
100
AcDbXrecord
280
     1
102
MATERIAL
148
0.0
149
0.0
149
0.0
 93
        0
 94
       63
282
     0
 72
     1
 77
     1
171
     1
175
     1
179
     1
273
     0
  0
XRECORD
  5
91B
102
{ACAD_REACTORS
330
91A
102
}
330
91A
100
AcDbXrecord
280
     1
102
DISPLAYNAME
  1
Imperial24
102
FLAGS
 90
        0
  0
XRECORD
  5
917
102
{ACAD_REACTORS
330
916
102
}
330
916
100
AcDbXrecord
280
     1
102
DISPLAYNAME
  1
Metric50
102
FLAGS
 90
        0
  0
CELLSTYLEMAP
  5
914
102
{ACAD_REACTORS
330
8A7
102
}
330
8A7
100
AcDbCellStyleMap
 90
        3
300
CELLSTYLE
  1
TABLEFORMAT_BEGIN
 90
        5
170
     1
 91
        0
 92
    32768
 62
   257
 93
        1
300
CONTENTFORMAT
  1
CONTENTFORMAT_BEGIN
 90
        0
 91
        0
 92
      512
 93
        0
300

 40
0.0
140
1.0
 94
        5
 62
     0
340
11
144
6.0
309
CONTENTFORMAT_END
171
     1
301
MARGIN
  1
CELLMARGIN_BEGIN
 40
1.5
 40
1.5
 40
1.5
 40
1.5
 40
0.18
 40
0.18
309
CELLMARGIN_END
 94
        6
 95
        1
302
GRIDFORMAT
  1
GRIDFORMAT_BEGIN
 90
        0
 91
        1
 62
     0
 92
       -2
340
0
 93
        0
 40
0.045
309
GRIDFORMAT_END
 95
        2
302
GRIDFORMAT
  1
GRIDFORMAT_BEGIN
 90
        0
 91
        1
 62
     0
 92
       -2
340
0
 93
        0
 40
0.045
309
GRIDFORMAT_END
 95
        4
302
GRIDFORMAT
  1
GRIDFORMAT_BEGIN
 90
        0
 91
        1
 62
     0
 92
       -2
340
0
 93
        0
 40
0.045
309
GRIDFORMAT_END
 95
        8
302
GRIDFORMAT
  1
GRIDFORMAT_BEGIN
 90
        0
 91
        1
 62
     0
 92
       -2
340
0
 93
        0
 40
0.045
309
GRIDFORMAT_END
 95
       16
302
GRIDFORMAT
  1
GRIDFORMAT_BEGIN
 90
        0
 91
        1
 62
     0
 92
       -2
340
0
 93
        0
 40
0.045
309
GRIDFORMAT_END
 95
       32
302
GRIDFORMAT
  1
GRIDFORMAT_BEGIN
 90
        0
 91
        1
 62
     0
 92
       -2
340
0
 93
        0
 40
0.045
309
GRIDFORMAT_END
309
TABLEFORMAT_END
  1
CELLSTYLE_BEGIN
 90
        1
 91
        1
300
_TITLE
309
CELLSTYLE_END
300
CELLSTYLE
  1
TABLEFORMAT_BEGIN
 90
        5
170
     1
 91
        0
 92
        0
 62
   257
 93
        1
300
CONTENTFORMAT
  1
CONTENTFORMAT_BEGIN
 90
        0
 91
        0
 92
      512
 93
        0
300

 40
0.0
140
1.0
 94
        5
 62
     0
340
11
144
4.5
309
CONTENTFORMAT_END
171
     1
301
MARGIN
  1
CELLMARGIN_BEGIN
 40
1.5
 40
1.5
 40
1.5
 40
1.5
 40
0.18
 40
0.18
309
CELLMARGIN_END
 94
        6
 95
        1
302
GRIDFORMAT
  1
GRIDFORMAT_BEGIN
 90
        0
 91
        1
 62
     0
 92
       -2
340
0
 93
        0
 40
0.045
309
GRIDFORMAT_END
 95
        2
302
GRIDFORMAT
  1
GRIDFORMAT_BEGIN
 90
        0
 91
        1
 62
     0
 92
       -2
340
0
 93
        0
 40
0.045
309
GRIDFORMAT_END
 95
        4
302
GRIDFORMAT
  1
GRIDFORMAT_BEGIN
 90
        0
 91
        1
 62
     0
 92
       -2
340
0
 93
        0
 40
0.045
309
GRIDFORMAT_END
 95
        8
302
GRIDFORMAT
  1
GRIDFORMAT_BEGIN
 90
        0
 91
        1
 62
     0
 92
       -2
340
0
 93
        0
 40
0.045
309
GRIDFORMAT_END
 95
       16
302
GRIDFORMAT
  1
GRIDFORMAT_BEGIN
 90
        0
 91
        1
 62
     0
 92
       -2
340
0
 93
        0
 40
0.045
309
GRIDFORMAT_END
 95
       32
302
GRIDFORMAT
  1
GRIDFORMAT_BEGIN
 90
        0
 91
        1
 62
     0
 92
       -2
340
0
 93
        0
 40
0.045
309
GRIDFORMAT_END
309
TABLEFORMAT_END
  1
CELLSTYLE_BEGIN
 90
        2
 91
        1
300
_HEADER
309
CELLSTYLE_END
300
CELLSTYLE
  1
TABLEFORMAT_BEGIN
 90
        5
170
     1
 91
        0
 92
        0
 62
   257
 93
        1
300
CONTENTFORMAT
  1
CONTENTFORMAT_BEGIN
 90
        0
 91
        0
 92
      512
 93
        0
300

 40
0.0
140
1.0
 94
        2
 62
     0
340
11
144
4.5
309
CONTENTFORMAT_END
171
     1
301
MARGIN
  1
CELLMARGIN_BEGIN
 40
1.5
 40
1.5
 40
1.5
 40
1.5
 40
0.18
 40
0.18
309
CELLMARGIN_END
 94
        6
 95
        1
302
GRIDFORMAT
  1
GRIDFORMAT_BEGIN
 90
        0
 91
        1
 62
     0
 92
       -2
340
0
 93
        0
 40
0.045
309
GRIDFORMAT_END
 95
        2
302
GRIDFORMAT
  1
GRIDFORMAT_BEGIN
 90
        0
 91
        1
 62
     0
 92
       -2
340
0
 93
        0
 40
0.045
309
GRIDFORMAT_END
 95
        4
302
GRIDFORMAT
  1
GRIDFORMAT_BEGIN
 90
        0
 91
        1
 62
     0
 92
       -2
340
0
 93
        0
 40
0.045
309
GRIDFORMAT_END
 95
        8
302
GRIDFORMAT
  1
GRIDFORMAT_BEGIN
 90
        0
 91
        1
 62
     0
 92
       -2
340
0
 93
        0
 40
0.045
309
GRIDFORMAT_END
 95
       16
302
GRIDFORMAT
  1
GRIDFORMAT_BEGIN
 90
        0
 91
        1
 62
     0
 92
       -2
340
0
 93
        0
 40
0.045
309
GRIDFORMAT_END
 95
       32
302
GRIDFORMAT
  1
GRIDFORMAT_BEGIN
 90
        0
 91
        1
 62
     0
 92
       -2
340
0
 93
        0
 40
0.045
309
GRIDFORMAT_END
309
TABLEFORMAT_END
  1
CELLSTYLE_BEGIN
 90
        3
 91
        2
300
_DATA
309
CELLSTYLE_END
  0
ENDSEC
  0
EOF
