  0
SECTION
  2
HEADER
  9
$ACADVER
  1
AC1027
  9
$ACADMAINTVER
 70
   125
  9
$DWGCODEPAGE
  3
ANSI_1252
  9
$LASTSAVEDBY
  1
kaschu
  9
$REQUIREDVERSIONS
160
                 0
  9
$INSBASE
 10
0.0
 20
0.0
 30
0.0
  9
$EXTMIN
 10
0.6889678867264593
 20
-138.8862800477809
 30
-0.0000000000000915
  9
$EXTMAX
 10
1662.853099926209
 20
1099.743968984839
 30
0.000000000000113
  9
$LIMMIN
 10
-0.5
 20
-0.5
  9
$LIMMAX
 10
5.0
 20
5.0
  9
$ORTHOMODE
 70
     1
  9
$REGENMODE
 70
     1
  9
$FILLMODE
 70
     1
  9
$QTEXTMODE
 70
     0
  9
$MIRRTEXT
 70
     1
  9
$LTSCALE
 40
1.0
  9
$ATTMODE
 70
     1
  9
$TEXTSIZE
 40
25.0
  9
$TRACEWID
 40
0.05
  9
$TEXTSTYLE
  7
Standard
  9
$CLAYER
  8
0
  9
$CELTYPE
  6
BYLAYER
  9
$CECOLOR
 62
   256
  9
$CELTSCALE
 40
1.0
  9
$DISPSILH
 70
     0
  9
$DIMSCALE
 40
1.0
  9
$DIMASZ
 40
0.18
  9
$DIMEXO
 40
0.0625
  9
$DIMDLI
 40
0.38
  9
$DIMRND
 40
0.0
  9
$DIMDLE
 40
0.0
  9
$DIMEXE
 40
0.18
  9
$DIMTP
 40
0.0
  9
$DIMTM
 40
0.0
  9
$DIMTXT
 40
0.18
  9
$DIMCEN
 40
0.09
  9
$DIMTSZ
 40
0.0
  9
$DIMTOL
 70
     0
  9
$DIMLIM
 70
     0
  9
$DIMTIH
 70
     1
  9
$DIMTOH
 70
     1
  9
$DIMSE1
 70
     0
  9
$DIMSE2
 70
     0
  9
$DIMTAD
 70
     0
  9
$DIMZIN
 70
     0
  9
$DIMBLK
  1

  9
$DIMASO
 70
     1
  9
$DIMSHO
 70
     1
  9
$DIMPOST
  1

  9
$DIMAPOST
  1

  9
$DIMALT
 70
     0
  9
$DIMALTD
 70
     2
  9
$DIMALTF
 40
25.4
  9
$DIMLFAC
 40
1.0
  9
$DIMTOFL
 70
     0
  9
$DIMTVP
 40
0.0
  9
$DIMTIX
 70
     0
  9
$DIMSOXD
 70
     0
  9
$DIMSAH
 70
     0
  9
$DIMBLK1
  1

  9
$DIMBLK2
  1

  9
$DIMSTYLE
  2
Standard
  9
$DIMCLRD
 70
     0
  9
$DIMCLRE
 70
     0
  9
$DIMCLRT
 70
     0
  9
$DIMTFAC
 40
1.0
  9
$DIMGAP
 40
0.09
  9
$DIMJUST
 70
     0
  9
$DIMSD1
 70
     0
  9
$DIMSD2
 70
     0
  9
$DIMTOLJ
 70
     1
  9
$DIMTZIN
 70
     0
  9
$DIMALTZ
 70
     0
  9
$DIMALTTZ
 70
     0
  9
$DIMUPT
 70
     0
  9
$DIMDEC
 70
     4
  9
$DIMTDEC
 70
     4
  9
$DIMALTU
 70
     2
  9
$DIMALTTD
 70
     2
  9
$DIMTXSTY
  7
Standard
  9
$DIMAUNIT
 70
     0
  9
$DIMADEC
 70
     0
  9
$DIMALTRND
 40
0.0
  9
$DIMAZIN
 70
     0
  9
$DIMDSEP
 70
    46
  9
$DIMATFIT
 70
     3
  9
$DIMFRAC
 70
     0
  9
$DIMLDRBLK
  1

  9
$DIMLUNIT
 70
     2
  9
$DIMLWD
 70
    -2
  9
$DIMLWE
 70
    -2
  9
$DIMTMOVE
 70
     0
  9
$DIMFXL
 40
1.0
  9
$DIMFXLON
 70
     0
  9
$DIMJOGANG
 40
0.7853981633974483
  9
$DIMTFILL
 70
     0
  9
$DIMTFILLCLR
 70
     0
  9
$DIMARCSYM
 70
     0
  9
$DIMLTYPE
  6

  9
$DIMLTEX1
  6

  9
$DIMLTEX2
  6

  9
$DIMTXTDIRECTION
 70
     0
  9
$LUNITS
 70
     2
  9
$LUPREC
 70
     4
  9
$SKETCHINC
 40
0.1
  9
$FILLETRAD
 40
0.5
  9
$AUNITS
 70
     0
  9
$AUPREC
 70
     0
  9
$MENU
  1
.
  9
$ELEVATION
 40
0.0
  9
$PELEVATION
 40
0.0
  9
$THICKNESS
 40
0.0
  9
$LIMCHECK
 70
     0
  9
$CHAMFERA
 40
0.5
  9
$CHAMFERB
 40
0.5
  9
$CHAMFERC
 40
1.0
  9
$CHAMFERD
 40
0.0
  9
$SKPOLY
 70
     0
  9
$TDCREATE
 40
2455694.560428241
  9
$TDUCREATE
 40
2455694.477100590
  9
$TDUPDATE
 40
2459478.671944445
  9
$TDUUPDATE
 40
2459478.588611111
  9
$TDINDWG
 40
0.0191235880
  9
$TDUSRTIMER
 40
0.0191235880
  9
$USRTIMER
 70
     1
  9
$ANGBASE
 50
0.0
  9
$ANGDIR
 70
     0
  9
$PDMODE
 70
     0
  9
$PDSIZE
 40
0.0
  9
$PLINEWID
 40
0.0
  9
$SPLFRAME
 70
     0
  9
$SPLINETYPE
 70
     6
  9
$SPLINESEGS
 70
     8
  9
$HANDSEED
  5
95D
  9
$SURFTAB1
 70
     6
  9
$SURFTAB2
 70
     6
  9
$SURFTYPE
 70
     6
  9
$SURFU
 70
     6
  9
$SURFV
 70
     6
  9
$UCSBASE
  2

  9
$UCSNAME
  2

  9
$UCSORG
 10
0.0
 20
0.0
 30
0.0
  9
$UCSXDIR
 10
1.0
 20
0.0
 30
0.0
  9
$UCSYDIR
 10
0.0
 20
1.0
 30
0.0
  9
$UCSORTHOREF
  2

  9
$UCSORTHOVIEW
 70
     0
  9
$UCSORGTOP
 10
0.0
 20
0.0
 30
0.0
  9
$UCSORGBOTTOM
 10
0.0
 20
0.0
 30
0.0
  9
$UCSORGLEFT
 10
0.0
 20
0.0
 30
0.0
  9
$UCSORGRIGHT
 10
0.0
 20
0.0
 30
0.0
  9
$UCSORGFRONT
 10
0.0
 20
0.0
 30
0.0
  9
$UCSORGBACK
 10
0.0
 20
0.0
 30
0.0
  9
$PUCSBASE
  2

  9
$PUCSNAME
  2

  9
$PUCSORG
 10
0.0
 20
0.0
 30
0.0
  9
$PUCSXDIR
 10
1.0
 20
0.0
 30
0.0
  9
$PUCSYDIR
 10
0.0
 20
1.0
 30
0.0
  9
$PUCSORTHOREF
  2

  9
$PUCSORTHOVIEW
 70
     0
  9
$PUCSORGTOP
 10
0.0
 20
0.0
 30
0.0
  9
$PUCSORGBOTTOM
 10
0.0
 20
0.0
 30
0.0
  9
$PUCSORGLEFT
 10
0.0
 20
0.0
 30
0.0
  9
$PUCSORGRIGHT
 10
0.0
 20
0.0
 30
0.0
  9
$PUCSORGFRONT
 10
0.0
 20
0.0
 30
0.0
  9
$PUCSORGBACK
 10
0.0
 20
0.0
 30
0.0
  9
$USERI1
 70
     0
  9
$USERI2
 70
     0
  9
$USERI3
 70
     0
  9
$USERI4
 70
     0
  9
$USERI5
 70
     0
  9
$USERR1
 40
0.0
  9
$USERR2
 40
0.0
  9
$USERR3
 40
0.0
  9
$USERR4
 40
0.0
  9
$USERR5
 40
0.0
  9
$WORLDVIEW
 70
     1
  9
$SHADEDGE
 70
     3
  9
$SHADEDIF
 70
    70
  9
$TILEMODE
 70
     1
  9
$MAXACTVP
 70
    64
  9
$PINSBASE
 10
0.0
 20
0.0
 30
0.0
  9
$PLIMCHECK
 70
     0
  9
$PEXTMIN
 10
-0.5
 20
-0.5
 30
-0.5
  9
$PEXTMAX
 10
5.0
 20
5.0
 30
5.0
  9
$PLIMMIN
 10
-0.5
 20
-0.5
  9
$PLIMMAX
 10
5.0
 20
5.0
  9
$UNITMODE
 70
     0
  9
$VISRETAIN
 70
     1
  9
$PLINEGEN
 70
     0
  9
$PSLTSCALE
 70
     1
  9
$TREEDEPTH
 70
  3020
  9
$CMLSTYLE
  2
Standard
  9
$CMLJUST
 70
     0
  9
$CMLSCALE
 40
1.0
  9
$PROXYGRAPHICS
 70
     1
  9
$MEASUREMENT
 70
     1
  9
$CELWEIGHT
370
    -1
  9
$ENDCAPS
280
     0
  9
$JOINSTYLE
280
     0
  9
$LWDISPLAY
290
     0
  9
$INSUNITS
 70
     4
  9
$HYPERLINKBASE
  1

  9
$STYLESHEET
  1

  9
$XEDIT
290
     1
  9
$CEPSNTYPE
380
     0
  9
$PSTYLEMODE
290
     1
  9
$FINGERPRINTGUID
  2
{F00BE011-E78A-4A73-80CF-EFD0DEF1625D}
  9
$VERSIONGUID
  2
{87DC9A30-8701-7948-A0C0-882C3A8552ED}
  9
$EXTNAMES
290
     1
  9
$PSVPSCALE
 40
0.0
  9
$OLESTARTUP
290
     0
  9
$SORTENTS
280
   127
  9
$INDEXCTL
280
     0
  9
$HIDETEXT
280
     0
  9
$XCLIPFRAME
280
     2
  9
$HALOGAP
280
     0
  9
$OBSCOLOR
 70
   257
  9
$OBSLTYPE
280
     0
  9
$INTERSECTIONDISPLAY
280
     0
  9
$INTERSECTIONCOLOR
 70
   257
  9
$DIMASSOC
280
     1
  9
$PROJECTNAME
  1

  9
$CAMERADISPLAY
290
     0
  9
$LENSLENGTH
 40
50.0
  9
$CAMERAHEIGHT
 40
0.0
  9
$STEPSPERSEC
 40
2.0
  9
$STEPSIZE
 40
6.0
  9
$3DDWFPREC
 40
2.0
  9
$PSOLWIDTH
 40
0.25
  9
$PSOLHEIGHT
 40
4.0
  9
$LOFTANG1
 40
1.570796326794896
  9
$LOFTANG2
 40
1.570796326794896
  9
$LOFTMAG1
 40
0.0
  9
$LOFTMAG2
 40
0.0
  9
$LOFTPARAM
 70
     7
  9
$LOFTNORMALS
280
     1
  9
$LATITUDE
 40
37.795
  9
$LONGITUDE
 40
-122.394
  9
$NORTHDIRECTION
 40
0.0
  9
$TIMEZONE
 70
 -8000
  9
$LIGHTGLYPHDISPLAY
280
     1
  9
$TILEMODELIGHTSYNCH
280
     1
  9
$CMATERIAL
347
6DA
  9
$SOLIDHIST
280
     0
  9
$SHOWHIST
280
     1
  9
$DWFFRAME
280
     2
  9
$DGNFRAME
280
     0
  9
$REALWORLDSCALE
290
     1
  9
$INTERFERECOLOR
 62
     1
  9
$INTERFEREOBJVS
345
33
  9
$INTERFEREVPVS
346
715
  9
$CSHADOW
280
     0
  9
$SHADOWPLANELOCATION
 40
0.0
  0
ENDSEC
  0
SECTION
  2
CLASSES
  0
CLASS
  1
ACDBDICTIONARYWDFLT
  2
AcDbDictionaryWithDefault
  3
ObjectDBX Classes
 90
        0
 91
        1
280
     0
281
     0
  0
CLASS
  1
VISUALSTYLE
  2
AcDbVisualStyle
  3
ObjectDBX Classes
 90
     4095
 91
       26
280
     0
281
     0
  0
CLASS
  1
MATERIAL
  2
AcDbMaterial
  3
ObjectDBX Classes
 90
     1153
 91
        3
280
     0
281
     0
  0
CLASS
  1
TABLESTYLE
  2
AcDbTableStyle
  3
ObjectDBX Classes
 90
     4095
 91
        1
280
     0
281
     0
  0
CLASS
  1
DICTIONARYVAR
  2
AcDbDictionaryVar
  3
ObjectDBX Classes
 90
        0
 91
       12
280
     0
281
     0
  0
CLASS
  1
SCALE
  2
AcDbScale
  3
ObjectDBX Classes
 90
     1153
 91
       17
280
     0
281
     0
  0
CLASS
  1
MLEADERSTYLE
  2
AcDbMLeaderStyle
  3
ACDB_MLEADERSTYLE_CLASS
 90
     4095
 91
        1
280
     0
281
     0
  0
CLASS
  1
ACDBSECTIONVIEWSTYLE
  2
AcDbSectionViewStyle
  3
ObjectDBX Classes
 90
     1025
 91
        2
280
     0
281
     0
  0
CLASS
  1
ACDBDETAILVIEWSTYLE
  2
AcDbDetailViewStyle
  3
ObjectDBX Classes
 90
     1025
 91
        2
280
     0
281
     0
  0
CLASS
  1
SORTENTSTABLE
  2
AcDbSortentsTable
  3
ObjectDBX Classes
 90
        0
 91
        2
280
     0
281
     0
  0
CLASS
  1
CELLSTYLEMAP
  2
AcDbCellStyleMap
  3
ObjectDBX Classes
 90
     1152
 91
        2
280
     0
281
     0
  0
ENDSEC
  0
SECTION
  2
TABLES
  0
TABLE
  2
VPORT
  5
8
330
0
100
AcDbSymbolTable
 70
    17
1001
ACAD
1000
DbSaveVer
1071
      224
  0
VPORT
  5
29
330
8
100
AcDbSymbolTableRecord
100
AcDbViewportTableRecord
  2
DUMMY
 70
     0
 10
0.0
 20
0.0
 11
1.0
 21
1.0
 12
10.42990654205607
 22
4.5
 13
0.0
 23
0.0
 14
0.5
 24
0.5
 15
0.5
 25
0.5
 16
0.0
 26
0.0
 36
1.0
 17
0.0
 27
0.0
 37
0.0
 40
9.0
 41
1.972972972850327
 42
50.0
 43
0.0
 44
0.0
 50
0.0
 51
0.0
 71
     0
 72
   100
 73
     1
 74
     3
 75
     0
 76
     0
 77
     0
 78
     0
281
     0
 65
     1
110
0.0
120
0.0
130
0.0
111
1.0
121
0.0
131
0.0
112
0.0
122
1.0
132
0.0
 79
     0
146
0.0
348
2F
 60
     3
 61
     5
292
     1
282
     1
141
0.0
142
0.0
 63
   250
421
  3355443
  0
VPORT
  5
6C2
330
8
100
AcDbSymbolTableRecord
100
AcDbViewportTableRecord
  2
*ACTIVE
 70
     0
 10
0.0
 20
0.0
 11
1.0
 21
1.0
 12
1220.616208340758
 22
413.8800739845342
 13
0.0
 23
0.0
 14
0.5
 24
0.5
 15
0.5
 25
0.5
 16
0.0
 26
0.0
 36
1.0
 17
0.0
 27
0.0
 37
0.0
 40
1576.048912095864
 41
2.14188422247446
 42
50.0
 43
1767.948756937242
 44
-1767.948756937242
 50
0.0
 51
0.0
 71
     0
 72
 10000
 73
     1
 74
     3
 75
     0
 76
     0
 77
     0
 78
     0
281
     0
 65
     1
110
0.0
120
0.0
130
0.0
111
1.0
121
0.0
131
0.0
112
0.0
122
1.0
132
0.0
 79
     0
146
0.0
348
2F
 60
     3
 61
     5
292
     1
282
     1
141
0.0
142
0.0
 63
   250
421
  3355443
1001
ACAD_NAV_VCDISPLAY
1070
     3
  0
VPORT
  5
6C3
330
8
100
AcDbSymbolTableRecord
100
AcDbViewportTableRecord
  2
L1
 70
     0
 10
0.0
 20
0.0
 11
1.0
 21
1.0
 12
460.8737472285888
 22
404.664939769725
 13
0.0
 23
0.0
 14
0.5
 24
0.5
 15
0.5
 25
0.5
 16
0.0
 26
0.0
 36
1.0
 17
0.0
 27
0.0
 37
0.0
 40
254.0
 41
0.069908491163988
 42
50.0
 43
1767.948756937242
 44
-1767.948756937242
 50
0.0
 51
0.0
 71
     0
 72
   100
 73
     1
 74
     3
 75
     0
 76
     0
 77
     0
 78
     0
281
     0
 65
     1
110
0.0
120
0.0
130
0.0
111
1.0
121
0.0
131
0.0
112
0.0
122
1.0
132
0.0
 79
     0
146
0.0
348
2F
 60
     3
 61
     5
292
     1
282
     1
141
0.0
142
0.0
 63
   250
421
  3355443
  0
VPORT
  5
6C4
330
8
100
AcDbSymbolTableRecord
100
AcDbViewportTableRecord
  2
L2
 70
     0
 10
0.0
 20
0.0
 11
0.5
 21
1.0
 12
0.0
 22
0.0
 13
0.0
 23
0.0
 14
0.5
 24
0.5
 15
0.5
 25
0.5
 16
0.0
 26
-1.0
 36
0.0
 17
0.0
 27
0.0
 37
0.0
 40
1319.822715367485
 41
0.0134538953973897
 42
50.0
 43
672.0208330104061
 44
-672.0208330104061
 50
0.0
 51
0.0
 71
     0
 72
   100
 73
     1
 74
     3
 75
     0
 76
     0
 77
     0
 78
     0
281
     0
 65
     1
110
0.0
120
0.0
130
0.0
111
1.0
121
0.0
131
0.0
112
0.0
122
1.0
132
0.0
 79
     0
146
0.0
348
2F
 60
     3
 61
     5
292
     1
282
     1
141
0.0
142
0.0
 63
   250
421
  3355443
  0
VPORT
  5
6C5
330
8
100
AcDbSymbolTableRecord
100
AcDbViewportTableRecord
  2
L2
 70
     0
 10
0.5
 20
0.0
 11
1.0
 21
1.0
 12
0.0
 22
0.0
 13
0.0
 23
0.0
 14
0.5
 24
0.5
 15
0.5
 25
0.5
 16
1.0
 26
0.0
 36
0.0
 17
0.0
 27
0.0
 37
0.0
 40
1319.822715367485
 41
0.0134538953973897
 42
50.0
 43
672.0208330104061
 44
-672.0208330104061
 50
0.0
 51
0.0
 71
     0
 72
   100
 73
     1
 74
     3
 75
     0
 76
     0
 77
     0
 78
     0
281
     0
 65
     1
110
0.0
120
0.0
130
0.0
111
1.0
121
0.0
131
0.0
112
0.0
122
1.0
132
0.0
 79
     0
146
0.0
348
2F
 60
     3
 61
     5
292
     1
282
     1
141
0.0
142
0.0
 63
   250
421
  3355443
  0
VPORT
  5
6C6
330
8
100
AcDbSymbolTableRecord
100
AcDbViewportTableRecord
  2
L3
 70
     0
 10
0.0
 20
0.5
 11
1.0
 21
1.0
 12
460.8737472285888
 22
404.664939769725
 13
0.0
 23
0.0
 14
0.5
 24
0.5
 15
0.5
 25
0.5
 16
0.0
 26
0.0
 36
1.0
 17
0.0
 27
0.0
 37
0.0
 40
254.0
 41
0.069908491163988
 42
50.0
 43
1767.948756937242
 44
-1767.948756937242
 50
0.0
 51
0.0
 71
     0
 72
   100
 73
     1
 74
     3
 75
     0
 76
     0
 77
     0
 78
     0
281
     0
 65
     1
110
0.0
120
0.0
130
0.0
111
1.0
121
0.0
131
0.0
112
0.0
122
1.0
132
0.0
 79
     0
146
0.0
348
2F
 60
     3
 61
     5
292
     1
282
     1
141
0.0
142
0.0
 63
   250
421
  3355443
  0
VPORT
  5
6C7
330
8
100
AcDbSymbolTableRecord
100
AcDbViewportTableRecord
  2
L3
 70
     0
 10
0.0
 20
0.0
 11
1.0
 21
0.5
 12
0.0
 22
0.0
 13
0.0
 23
0.0
 14
0.5
 24
0.5
 15
0.5
 25
0.5
 16
0.0
 26
-1.0
 36
0.0
 17
0.0
 27
0.0
 37
0.0
 40
1319.822715367485
 41
0.0134538953973897
 42
50.0
 43
672.0208330104061
 44
-672.0208330104061
 50
0.0
 51
0.0
 71
     0
 72
   100
 73
     1
 74
     3
 75
     0
 76
     0
 77
     0
 78
     0
281
     0
 65
     1
110
0.0
120
0.0
130
0.0
111
1.0
121
0.0
131
0.0
112
0.0
122
1.0
132
0.0
 79
     0
146
0.0
348
2F
 60
     3
 61
     5
292
     1
282
     1
141
0.0
142
0.0
 63
   250
421
  3355443
  0
VPORT
  5
6C8
330
8
100
AcDbSymbolTableRecord
100
AcDbViewportTableRecord
  2
L4
 70
     0
 10
0.0
 20
0.5
 11
0.5
 21
1.0
 12
460.8737472285888
 22
404.664939769725
 13
0.0
 23
0.0
 14
0.5
 24
0.5
 15
0.5
 25
0.5
 16
0.0
 26
0.0
 36
1.0
 17
0.0
 27
0.0
 37
0.0
 40
254.0
 41
0.069908491163988
 42
50.0
 43
1767.948756937242
 44
-1767.948756937242
 50
0.0
 51
0.0
 71
     0
 72
   100
 73
     1
 74
     3
 75
     0
 76
     0
 77
     0
 78
     0
281
     0
 65
     1
110
0.0
120
0.0
130
0.0
111
1.0
121
0.0
131
0.0
112
0.0
122
1.0
132
0.0
 79
     0
146
0.0
348
2F
 60
     3
 61
     5
292
     1
282
     1
141
0.0
142
0.0
 63
   250
421
  3355443
  0
VPORT
  5
6C9
330
8
100
AcDbSymbolTableRecord
100
AcDbViewportTableRecord
  2
L4
 70
     0
 10
0.0
 20
0.0
 11
0.5
 21
0.5
 12
0.0
 22
0.0
 13
0.0
 23
0.0
 14
0.5
 24
0.5
 15
0.5
 25
0.5
 16
0.0
 26
-1.0
 36
0.0
 17
0.0
 27
0.0
 37
0.0
 40
1319.822715367485
 41
0.0134538953973897
 42
50.0
 43
672.0208330104061
 44
-672.0208330104061
 50
0.0
 51
0.0
 71
     0
 72
   100
 73
     1
 74
     3
 75
     0
 76
     0
 77
     0
 78
     0
281
     0
 65
     1
110
0.0
120
0.0
130
0.0
111
1.0
121
0.0
131
0.0
112
0.0
122
1.0
132
0.0
 79
     0
146
0.0
348
2F
 60
     3
 61
     5
292
     1
282
     1
141
0.0
142
0.0
 63
   250
421
  3355443
  0
VPORT
  5
6CA
330
8
100
AcDbSymbolTableRecord
100
AcDbViewportTableRecord
  2
L4
 70
     0
 10
0.5
 20
0.0
 11
1.0
 21
0.5
 12
0.0
 22
0.0
 13
0.0
 23
0.0
 14
0.5
 24
0.5
 15
0.5
 25
0.5
 16
1.0
 26
0.0
 36
0.0
 17
0.0
 27
0.0
 37
0.0
 40
1319.822715367485
 41
0.0134538953973897
 42
50.0
 43
672.0208330104061
 44
-672.0208330104061
 50
0.0
 51
0.0
 71
     0
 72
   100
 73
     1
 74
     3
 75
     0
 76
     0
 77
     0
 78
     0
281
     0
 65
     1
110
0.0
120
0.0
130
0.0
111
1.0
121
0.0
131
0.0
112
0.0
122
1.0
132
0.0
 79
     0
146
0.0
348
2F
 60
     3
 61
     5
292
     1
282
     1
141
0.0
142
0.0
 63
   250
421
  3355443
  0
VPORT
  5
6CB
330
8
100
AcDbSymbolTableRecord
100
AcDbViewportTableRecord
  2
L4
 70
     0
 10
0.5
 20
0.5
 11
1.0
 21
1.0
 12
0.0
 22
0.0
 13
0.0
 23
0.0
 14
0.5
 24
0.5
 15
0.5
 25
0.5
 16
0.577350269189626
 26
-0.577350269189626
 36
0.577350269189626
 17
0.0
 27
0.0
 37
0.0
 40
1285.020866083941
 41
0.0138182633638986
 42
50.0
 43
667.1414067255757
 44
-667.1414067255757
 50
0.0
 51
0.0
 71
     0
 72
   100
 73
     1
 74
     3
 75
     0
 76
     0
 77
     0
 78
     0
281
     0
 65
     1
110
0.0
120
0.0
130
0.0
111
1.0
121
0.0
131
0.0
112
0.0
122
1.0
132
0.0
 79
     0
146
0.0
348
2F
 60
     3
 61
     5
292
     1
282
     1
141
0.0
142
0.0
 63
   250
421
  3355443
  0
VPORT
  5
6CC
330
8
100
AcDbSymbolTableRecord
100
AcDbViewportTableRecord
  2
L6
 70
     0
 10
0.0
 20
0.5
 11
0.3333333333333334
 21
1.0
 12
0.0
 22
0.0
 13
0.0
 23
0.0
 14
0.5
 24
0.5
 15
0.5
 25
0.5
 16
0.7188730927569436
 26
-0.5850486126764432
 36
0.3754192287502549
 17
0.0
 27
0.0
 37
0.0
 40
1357.434191666423
 41
0.0130811179390246
 42
50.0
 43
701.8394773188865
 44
-701.8394773188865
 50
0.0
 51
0.0
 71
     0
 72
   100
 73
     1
 74
     3
 75
     0
 76
     0
 77
     0
 78
     0
281
     0
 65
     1
110
0.0
120
0.0
130
0.0
111
1.0
121
0.0
131
0.0
112
0.0
122
1.0
132
0.0
 79
     0
146
0.0
348
2F
 60
     3
 61
     5
292
     1
282
     1
141
0.0
142
0.0
 63
   250
421
  3355443
  0
VPORT
  5
6CD
330
8
100
AcDbSymbolTableRecord
100
AcDbViewportTableRecord
  2
L6
 70
     0
 10
0.0
 20
0.0
 11
0.3333333333333334
 21
0.5
 12
0.0
 22
0.0
 13
0.0
 23
0.0
 14
0.5
 24
0.5
 15
0.5
 25
0.5
 16
-1.0
 26
0.0
 36
0.0
 17
0.0
 27
0.0
 37
0.0
 40
1319.822715367485
 41
0.0134538953973897
 42
50.0
 43
672.0208330104061
 44
-672.0208330104061
 50
0.0
 51
0.0
 71
     0
 72
   100
 73
     1
 74
     3
 75
     0
 76
     0
 77
     0
 78
     0
281
     0
 65
     1
110
0.0
120
0.0
130
0.0
111
1.0
121
0.0
131
0.0
112
0.0
122
1.0
132
0.0
 79
     0
146
0.0
348
2F
 60
     3
 61
     5
292
     1
282
     1
141
0.0
142
0.0
 63
   250
421
  3355443
  0
VPORT
  5
6CE
330
8
100
AcDbSymbolTableRecord
100
AcDbViewportTableRecord
  2
L6
 70
     0
 10
0.3333333333333334
 20
0.5
 11
0.6666666666666666
 21
1.0
 12
460.8737472285888
 22
404.664939769725
 13
0.0
 23
0.0
 14
0.5
 24
0.5
 15
0.5
 25
0.5
 16
0.0
 26
0.0
 36
1.0
 17
0.0
 27
0.0
 37
0.0
 40
254.0
 41
0.069908491163988
 42
50.0
 43
1767.948756937242
 44
-1767.948756937242
 50
0.0
 51
0.0
 71
     0
 72
   100
 73
     1
 74
     3
 75
     0
 76
     0
 77
     0
 78
     0
281
     0
 65
     1
110
0.0
120
0.0
130
0.0
111
1.0
121
0.0
131
0.0
112
0.0
122
1.0
132
0.0
 79
     0
146
0.0
348
2F
 60
     3
 61
     5
292
     1
282
     1
141
0.0
142
0.0
 63
   250
421
  3355443
  0
VPORT
  5
6CF
330
8
100
AcDbSymbolTableRecord
100
AcDbViewportTableRecord
  2
L6
 70
     0
 10
0.3333333333333334
 20
0.0
 11
0.6666666666666666
 21
0.5
 12
0.0
 22
0.0
 13
0.0
 23
0.0
 14
0.5
 24
0.5
 15
0.5
 25
0.5
 16
0.0
 26
-1.0
 36
0.0
 17
0.0
 27
0.0
 37
0.0
 40
1319.822715367485
 41
0.0134538953973897
 42
50.0
 43
672.0208330104061
 44
-672.0208330104061
 50
0.0
 51
0.0
 71
     0
 72
   100
 73
     1
 74
     3
 75
     0
 76
     0
 77
     0
 78
     0
281
     0
 65
     1
110
0.0
120
0.0
130
0.0
111
1.0
121
0.0
131
0.0
112
0.0
122
1.0
132
0.0
 79
     0
146
0.0
348
2F
 60
     3
 61
     5
292
     1
282
     1
141
0.0
142
0.0
 63
   250
421
  3355443
  0
VPORT
  5
6D0
330
8
100
AcDbSymbolTableRecord
100
AcDbViewportTableRecord
  2
L6
 70
     0
 10
0.6666666666666666
 20
0.5
 11
1.0
 21
1.0
 12
0.0
 22
0.0
 13
0.0
 23
0.0
 14
0.5
 24
0.5
 15
0.5
 25
0.5
 16
0.577350269189626
 26
-0.577350269189626
 36
0.577350269189626
 17
0.0
 27
0.0
 37
0.0
 40
1285.020866083941
 41
0.0138182633638986
 42
50.0
 43
667.1414067255757
 44
-667.1414067255757
 50
0.0
 51
0.0
 71
     0
 72
   100
 73
     1
 74
     3
 75
     0
 76
     0
 77
     0
 78
     0
281
     0
 65
     1
110
0.0
120
0.0
130
0.0
111
1.0
121
0.0
131
0.0
112
0.0
122
1.0
132
0.0
 79
     0
146
0.0
348
2F
 60
     3
 61
     5
292
     1
282
     1
141
0.0
142
0.0
 63
   250
421
  3355443
  0
VPORT
  5
6D1
330
8
100
AcDbSymbolTableRecord
100
AcDbViewportTableRecord
  2
L6
 70
     0
 10
0.6666666666666666
 20
0.0
 11
1.0
 21
0.5
 12
0.0
 22
0.0
 13
0.0
 23
0.0
 14
0.5
 24
0.5
 15
0.5
 25
0.5
 16
1.0
 26
0.0
 36
0.0
 17
0.0
 27
0.0
 37
0.0
 40
1319.822715367485
 41
0.0134538953973897
 42
50.0
 43
672.0208330104061
 44
-672.0208330104061
 50
0.0
 51
0.0
 71
     0
 72
   100
 73
     1
 74
     3
 75
     0
 76
     0
 77
     0
 78
     0
281
     0
 65
     1
110
0.0
120
0.0
130
0.0
111
1.0
121
0.0
131
0.0
112
0.0
122
1.0
132
0.0
 79
     0
146
0.0
348
2F
 60
     3
 61
     5
292
     1
282
     1
141
0.0
142
0.0
 63
   250
421
  3355443
  0
ENDTAB
  0
TABLE
  2
LTYPE
  5
5
330
0
100
AcDbSymbolTable
 70
     9
  0
LTYPE
  5
14
330
5
100
AcDbSymbolTableRecord
100
AcDbLinetypeTableRecord
  2
BYBLOCK
 70
     0
  3

 72
    65
 73
     0
 40
0.0
  0
LTYPE
  5
15
330
5
100
AcDbSymbolTableRecord
100
AcDbLinetypeTableRecord
  2
BYLAYER
 70
     0
  3

 72
    65
 73
     0
 40
0.0
  0
LTYPE
  5
16
330
5
100
AcDbSymbolTableRecord
100
AcDbLinetypeTableRecord
  2
CONTINUOUS
 70
     0
  3
Solid line
 72
    65
 73
     0
 40
0.0
  0
LTYPE
  5
3B
330
5
100
AcDbSymbolTableRecord
100
AcDbLinetypeTableRecord
  2
DASHED
 70
     0
  3
__ __ __ __ __ __ __ __ __
 72
    65
 73
     2
 40
25.72
 49
12.86
 74
     4
 75
     0
340
0
 46
0.0
 50
0.0
 44
0.0
 45
0.0
 49
-12.86
 74
     4
 75
     0
340
0
 46
0.0
 50
0.0
 44
0.0
 45
0.0
  0
LTYPE
  5
3C
330
5
100
AcDbSymbolTableRecord
100
AcDbLinetypeTableRecord
  2
HIDDEN
 70
     0
  3
_ _ _ _ _ _ _ _ _ _ _ _ _ _ _
 72
    65
 73
     2
 40
0.5
 49
0.25
 74
     4
 75
     0
340
0
 46
0.0
 50
0.0
 44
0.0
 45
0.0
 49
-0.25
 74
     4
 75
     0
340
0
 46
0.0
 50
0.0
 44
0.0
 45
0.0
  0
LTYPE
  5
3D
330
5
100
AcDbSymbolTableRecord
100
AcDbLinetypeTableRecord
  2
PHANTOM
 70
     0
  3
____ _ _ ____ _ _ _____ _ _ ____
 72
    65
 73
     6
 40
50.5
 49
18.0
 74
     4
 75
     0
340
0
 46
0.0
 50
0.0
 44
0.0
 45
0.0
 49
-6.5
 74
     4
 75
     0
340
0
 46
0.0
 50
0.0
 44
0.0
 45
0.0
 49
6.5
 74
     4
 75
     0
340
0
 46
0.0
 50
0.0
 44
0.0
 45
0.0
 49
-6.5
 74
     4
 75
     0
340
0
 46
0.0
 50
0.0
 44
0.0
 45
0.0
 49
6.5
 74
     4
 75
     0
340
0
 46
0.0
 50
0.0
 44
0.0
 45
0.0
 49
-6.5
 74
     4
 75
     0
340
0
 46
0.0
 50
0.0
 44
0.0
 45
0.0
  0
LTYPE
  5
3E
330
5
100
AcDbSymbolTableRecord
100
AcDbLinetypeTableRecord
  2
CENTER
 70
     0
  3
____ _ ____ _ ____ _ ____
 72
    65
 73
     4
 40
47.4
 49
22.0
 74
     4
 75
     0
340
0
 46
0.0
 50
0.0
 44
0.0
 45
0.0
 49
-8.5
 74
     4
 75
     0
340
0
 46
0.0
 50
0.0
 44
0.0
 45
0.0
 49
8.5
 74
     4
 75
     0
340
0
 46
0.0
 50
0.0
 44
0.0
 45
0.0
 49
-8.5
 74
     4
 75
     0
340
0
 46
0.0
 50
0.0
 44
0.0
 45
0.0
  0
LTYPE
  5
3F
330
5
100
AcDbSymbolTableRecord
100
AcDbLinetypeTableRecord
  2
DOT
 70
     0
  3
.........................
 72
    65
 73
     2
 40
10.0
 49
0.0
 74
     4
 75
     0
340
0
 46
0.0
 50
0.0
 44
0.0
 45
0.0
 49
-10.0
 74
     4
 75
     0
340
0
 46
0.0
 50
0.0
 44
0.0
 45
0.0
  0
LTYPE
  5
40
330
5
100
AcDbSymbolTableRecord
100
AcDbLinetypeTableRecord
  2
DASHDOT
 70
     0
  3
_._._._._._._._._._._._._._._._.
 72
    65
 73
     4
 40
70.0
 49
31.0
 74
     4
 75
     0
340
0
 46
0.0
 50
0.0
 44
0.0
 45
0.0
 49
-13.0
 74
     4
 75
     0
340
0
 46
0.0
 50
0.0
 44
0.0
 45
0.0
 49
13.0
 74
     4
 75
     0
340
0
 46
0.0
 50
0.0
 44
0.0
 45
0.0
 49
-13.0
 74
     4
 75
     0
340
0
 46
0.0
 50
0.0
 44
0.0
 45
0.0
  0
LTYPE
  5
748
330
5
100
AcDbSymbolTableRecord
100
AcDbLinetypeTableRecord
  2
CUSTOM
 70
     0
  3

 72
    65
 73
     0
 40
0.0
  0
ENDTAB
  0
TABLE
  2
LAYER
  5
2
102
{ACAD_XDICTIONARY
360
843
102
}
330
0
100
AcDbSymbolTable
 70
     6
  0
LAYER
  5
10
102
{ACAD_XDICTIONARY
360
739
102
}
330
2
100
AcDbSymbolTableRecord
100
AcDbLayerTableRecord
  2
0
 70
     0
 62
     7
  6
CONTINUOUS
370
    -3
390
F
347
6DC
348
0
  0
LAYER
  5
42
102
{ACAD_XDICTIONARY
360
73B
102
}
330
2
100
AcDbSymbolTableRecord
100
AcDbLayerTableRecord
  2
1
 70
     0
 62
     7
  6
CONTINUOUS
370
    -3
390
F
347
6DC
348
0
  0
LAYER
  5
6BD
102
{ACAD_XDICTIONARY
360
73D
102
}
330
2
100
AcDbSymbolTableRecord
100
AcDbLayerTableRecord
  2
TOP
 70
     0
 62
     7
  6
CONTINUOUS
370
    -3
390
F
347
6DC
348
0
  0
LAYER
  5
6E4
330
2
100
AcDbSymbolTableRecord
100
AcDbLayerTableRecord
  2
Defpoints
 70
     0
 62
     7
  6
CONTINUOUS
290
     0
370
    -3
390
F
347
6DC
348
0
  0
LAYER
  5
840
330
2
100
AcDbSymbolTableRecord
100
AcDbLayerTableRecord
  2
HEWI
 70
     0
 62
   250
  6
CONTINUOUS
370
    -3
390
F
347
6DC
348
0
1001
AcAecLayerStandard
1000

1000

1001
AcCmTransparency
1071
        0
  0
LAYER
  5
89B
330
2
100
AcDbSymbolTableRecord
100
AcDbLayerTableRecord
  2
VD
 70
     0
 62
   183
  6
HIDDEN
370
    -3
390
F
347
6DC
348
0
1001
AcAecLayerStandard
1000

1000

1001
AcCmTransparency
1071
        0
  0
ENDTAB
  0
TABLE
  2
STYLE
  5
3
330
0
100
AcDbSymbolTable
 70
     3
  0
STYLE
  5
11
330
3
100
AcDbSymbolTableRecord
100
AcDbTextStyleTableRecord
  2
Standard
 70
     0
 40
0.0
 41
1.0
 50
0.0
 71
     0
 42
25.0
  3
txt
  4

  0
STYLE
  5
852
330
3
100
AcDbSymbolTableRecord
100
AcDbTextStyleTableRecord
  2
HEWI
 70
     0
 40
0.0
 41
1.0
 50
0.0
 71
     0
 42
90.0
  3
arial.ttf
  4

1001
ACAD
1000
Arial
1071
       34
  0
STYLE
  5
918
330
3
100
AcDbSymbolTableRecord
100
AcDbTextStyleTableRecord
  2
ARIAL
 70
     0
 40
0.0
 41
1.0
 50
0.0
 71
     0
 42
0.0
  3
Arial
  4

  0
ENDTAB
  0
TABLE
  2
VIEW
  5
6
330
0
100
AcDbSymbolTable
 70
     0
  0
ENDTAB
  0
TABLE
  2
UCS
  5
7
330
0
100
AcDbSymbolTable
 70
     0
  0
ENDTAB
  0
TABLE
  2
APPID
  5
9
330
0
100
AcDbSymbolTable
 70
     6
  0
APPID
  5
12
330
9
100
AcDbSymbolTableRecord
100
AcDbRegAppTableRecord
  2
ACAD
 70
     0
  0
APPID
  5
73F
330
9
100
AcDbSymbolTableRecord
100
AcDbRegAppTableRecord
  2
ACAD_NAV_VCDISPLAY
 70
     0
  0
APPID
  5
841
330
9
100
AcDbSymbolTableRecord
100
AcDbRegAppTableRecord
  2
AcAecLayerStandard
 70
     0
  0
APPID
  5
842
330
9
100
AcDbSymbolTableRecord
100
AcDbRegAppTableRecord
  2
AcCmTransparency
 70
     0
  0
APPID
  5
853
330
9
100
AcDbSymbolTableRecord
100
AcDbRegAppTableRecord
  2
ACAD_PSEXT
 70
     0
  0
APPID
  5
89C
330
9
100
AcDbSymbolTableRecord
100
AcDbRegAppTableRecord
  2
ACAD_EXEMPT_FROM_CAD_STANDARDS
 70
     0
  0
ENDTAB
  0
TABLE
  2
DIMSTYLE
  5
A
330
0
100
AcDbSymbolTable
 70
     3
100
AcDbDimStyleTable
 71
     2
340
749
340
27
  0
DIMSTYLE
105
27
330
A
100
AcDbSymbolTableRecord
100
AcDbDimStyleTableRecord
  2
Standard
 70
     0
340
11
  0
DIMSTYLE
105
749
102
{ACAD_REACTORS
330
8E5
102
}
330
A
100
AcDbSymbolTableRecord
100
AcDbDimStyleTableRecord
  2
ISO-25
 70
     0
 41
2.5
 42
0.625
 43
3.75
 44
1.25
 73
     0
 74
     0
 77
     1
 78
     8
140
2.5
141
2.5
143
0.03937007874016
147
0.625
171
     3
172
     1
271
     2
272
     2
274
     3
278
    44
283
     0
284
     8
340
11
  0
ENDTAB
  0
TABLE
  2
BLOCK_RECORD
  5
1
330
0
100
AcDbSymbolTable
 70
    11
  0
BLOCK_RECORD
  5
1F
102
{ACAD_XDICTIONARY
360
8B6
102
}
330
1
100
AcDbSymbolTableRecord
100
AcDbBlockTableRecord
  2
*Model_Space
340
22
 70
     0
280
     1
281
     0
  0
BLOCK_RECORD
  5
1B
330
1
100
AcDbSymbolTableRecord
100
AcDbBlockTableRecord
  2
*Paper_Space
340
1E
 70
     0
280
     1
281
     0
  0
BLOCK_RECORD
  5
23
330
1
100
AcDbSymbolTableRecord
100
AcDbBlockTableRecord
  2
*Paper_Space0
340
26
 70
     0
280
     1
281
     0
  0
BLOCK_RECORD
  5
6E5
330
1
100
AcDbSymbolTableRecord
100
AcDbBlockTableRecord
  2
*D1
340
0
 70
     0
280
     1
281
     0
  0
BLOCK_RECORD
  5
6F1
330
1
100
AcDbSymbolTableRecord
100
AcDbBlockTableRecord
  2
*D2
340
0
 70
     0
280
     1
281
     0
  0
BLOCK_RECORD
  5
832
330
1
100
AcDbSymbolTableRecord
100
AcDbBlockTableRecord
  2
*D3
340
0
 70
     0
280
     1
281
     0
  0
BLOCK_RECORD
  5
88E
330
1
100
AcDbSymbolTableRecord
100
AcDbBlockTableRecord
  2
*D4
340
0
 70
     0
280
     1
281
     0
  0
BLOCK_RECORD
  5
8E6
330
1
100
AcDbSymbolTableRecord
100
AcDbBlockTableRecord
  2
*D6
340
0
 70
     0
280
     1
281
     0
  0
BLOCK_RECORD
  5
907
330
1
100
AcDbSymbolTableRecord
100
AcDbBlockTableRecord
  2
_Dot
340
0
102
{BLKREFS
331
911
331
912
331
932
331
933
331
94D
331
94E
102
}
 70
     0
280
     1
281
     0
  0
BLOCK_RECORD
  5
90C
330
1
100
AcDbSymbolTableRecord
100
AcDbBlockTableRecord
  2
*D8
340
0
 70
     0
280
     1
281
     0
  0
BLOCK_RECORD
  5
923
330
1
100
AcDbSymbolTableRecord
100
AcDbBlockTableRecord
  2
*D10
340
0
 70
     0
280
     1
281
     0
  0
ENDTAB
  0
ENDSEC
  0
SECTION
  2
BLOCKS
  0
BLOCK
  5
20
330
1F
100
AcDbEntity
  8
0
100
AcDbBlockBegin
  2
*Model_Space
 70
     0
 10
0.0
 20
0.0
 30
0.0
  3
*Model_Space
  1

  0
ENDBLK
  5
21
330
1F
100
AcDbEntity
  8
0
100
AcDbBlockEnd
  0
BLOCK
  5
1C
330
1B
100
AcDbEntity
 67
     1
  8
0
100
AcDbBlockBegin
  2
*Paper_Space
 70
     0
 10
0.0
 20
0.0
 30
0.0
  3
*Paper_Space
  1

  0
ENDBLK
  5
1D
330
1B
100
AcDbEntity
 67
     1
  8
0
100
AcDbBlockEnd
  0
BLOCK
  5
24
330
23
100
AcDbEntity
 67
     1
  8
0
100
AcDbBlockBegin
  2
*Paper_Space0
 70
     0
 10
0.0
 20
0.0
 30
0.0
  3
*Paper_Space0
  1

  0
ENDBLK
  5
25
330
23
100
AcDbEntity
 67
     1
  8
0
100
AcDbBlockEnd
  0
BLOCK
  5
6EE
330
6E5
100
AcDbEntity
  8
0
100
AcDbBlockBegin
  2
*D1
 70
     1
 10
0.0
 20
0.0
 30
0.0
  3
*D1
  1

  0
LINE
  5
6E6
330
6E5
100
AcDbEntity
  8
0
 62
     0
370
    -2
100
AcDbLine
 10
197.7955681797262
 20
729.269403322281
 30
0.0
 11
197.9755681797261
 21
729.269403322281
 31
0.0
  0
LINE
  5
6E7
330
6E5
100
AcDbEntity
  8
0
 62
     0
370
    -2
100
AcDbLine
 10
197.9755681797261
 20
729.269403322281
 30
0.0
 11
229.3197234096654
 21
718.3681070254327
 31
0.0
  0
MTEXT
  5
6E8
330
6E5
100
AcDbEntity
  8
0
 62
     0
100
AcDbMText
 10
197.1205681797261
 20
729.2694033222809
 30
0.0
 40
0.18
 41
0.0
 46
0.0
 71
     5
 72
     1
  1
\A1;∅23.6000
 73
     1
 44
1.0
1001
ACAD
1000
MTEXTBEGIN
1070
    73
1070
     1
1070
    44
1040
1.0
1070
    74
1070
     0
1000
MTEXTEND
  0
SOLID
  5
6E9
330
6E5
100
AcDbEntity
  8
0
 62
     0
100
AcDbTrace
 10
229.3295782070002
 20
718.3964422150294
 30
0.0
 11
229.3098686123305
 21
718.3397718358357
 31
0.0
 12
229.4897345472465
 22
718.3089782414238
 32
0.0
 13
229.4897345472465
 23
718.3089782414238
 33
0.0
  0
LINE
  5
6EA
330
6E5
100
AcDbEntity
  8
0
 62
     0
370
    -2
100
AcDbLine
 10
240.5449091220069
 20
714.4327579563887
 30
0.0
 11
240.7249091220069
 21
714.4327579563887
 31
0.0
  0
LINE
  5
6EB
330
6E5
100
AcDbEntity
  8
0
 62
     0
370
    -2
100
AcDbLine
 10
240.6349091220069
 20
714.3427579563891
 30
0.0
 11
240.6349091220068
 21
714.522757956389
 31
0.0
  0
POINT
  5
6EC
330
6E5
100
AcDbEntity
  8
Defpoints
 62
     0
100
AcDbPoint
 10
229.4897345472465
 20
718.3089782414238
 30
0.0
  0
POINT
  5
6ED
330
6E5
100
AcDbEntity
  8
Defpoints
 62
     0
100
AcDbPoint
 10
251.7800836967673
 20
710.5565376713546
 30
0.0
  0
ENDBLK
  5
6EF
330
6E5
100
AcDbEntity
  8
0
100
AcDbBlockEnd
  0
BLOCK
  5
6FC
330
6F1
100
AcDbEntity
  8
0
100
AcDbBlockBegin
  2
*D2
 70
     1
 10
0.0
 20
0.0
 30
0.0
  3
*D2
  1

  0
LINE
  5
6F2
330
6F1
100
AcDbEntity
  8
0
 62
     0
370
    -2
100
AcDbLine
 10
228.1362870747628
 20
714.1846591413504
 30
0.0
 11
228.1362870747628
 21
711.0397278630072
 31
0.0
  0
LINE
  5
6F3
330
6F1
100
AcDbEntity
  8
0
 62
     0
370
    -2
100
AcDbLine
 10
253.1349091220068
 20
714.3702579563893
 30
0.0
 11
253.1349091220068
 21
711.0397278630072
 31
0.0
  0
LINE
  5
6F4
330
6F1
100
AcDbEntity
  8
0
 62
     0
370
    -2
100
AcDbLine
 10
228.3162870747628
 20
711.2197278630072
 30
0.0
 11
240.0055980983848
 21
711.2197278630072
 31
0.0
  0
LINE
  5
6F5
330
6F1
100
AcDbEntity
  8
0
 62
     0
370
    -2
100
AcDbLine
 10
252.9549091220069
 20
711.2197278630072
 30
0.0
 11
241.2655980983848
 21
711.2197278630072
 31
0.0
  0
SOLID
  5
6F6
330
6F1
100
AcDbEntity
  8
0
 62
     0
100
AcDbTrace
 10
228.3162870747628
 20
711.249727863007
 30
0.0
 11
228.3162870747628
 21
711.189727863007
 31
0.0
 12
228.1362870747628
 22
711.2197278630072
 32
0.0
 13
228.1362870747628
 23
711.2197278630072
 33
0.0
  0
SOLID
  5
6F7
330
6F1
100
AcDbEntity
  8
0
 62
     0
100
AcDbTrace
 10
252.9549091220069
 20
711.249727863007
 30
0.0
 11
252.9549091220069
 21
711.189727863007
 31
0.0
 12
253.1349091220068
 22
711.2197278630072
 32
0.0
 13
253.1349091220068
 23
711.2197278630072
 33
0.0
  0
MTEXT
  5
6F8
330
6F1
100
AcDbEntity
  8
0
 62
     0
100
AcDbMText
 10
240.6355980983848
 20
711.2197278630072
 30
0.0
 40
0.18
 41
0.0
 46
0.0
 71
     5
 72
     1
  1
\A1;24.9986
 73
     1
 44
1.0
1001
ACAD
1000
MTEXTBEGIN
1070
    73
1070
     1
1070
    44
1040
1.0
1070
    74
1070
     0
1000
MTEXTEND
  0
POINT
  5
6F9
330
6F1
100
AcDbEntity
  8
Defpoints
 62
     0
100
AcDbPoint
 10
228.1362870747628
 20
714.2471591413506
 30
0.0
  0
POINT
  5
6FA
330
6F1
100
AcDbEntity
  8
Defpoints
 62
     0
100
AcDbPoint
 10
253.1349091220068
 20
714.4327579563893
 30
0.0
  0
POINT
  5
6FB
330
6F1
100
AcDbEntity
  8
Defpoints
 62
     0
100
AcDbPoint
 10
253.1349091220068
 20
711.2197278630072
 30
0.0
  0
ENDBLK
  5
6FD
330
6F1
100
AcDbEntity
  8
0
100
AcDbBlockEnd
  0
BLOCK
  5
833
330
832
100
AcDbEntity
  8
0
100
AcDbBlockBegin
  2
*D3
 70
     1
 10
0.0
 20
0.0
 30
0.0
  3
*D3
  1

  0
LINE
  5
835
330
832
100
AcDbEntity
  8
0
 62
     0
440
 16777216
370
    -2
100
AcDbLine
 10
683.9660740363707
 20
698.5360695271556
 30
0.0
 11
931.2838988099775
 21
698.5360695271557
 31
0.0
  0
LINE
  5
836
330
832
100
AcDbEntity
  8
0
 62
     0
440
 16777216
370
    -2
100
AcDbLine
 10
743.2960477928137
 20
70.90478901870854
 30
0.0
 11
931.2838988099775
 21
70.90478901870857
 31
0.0
  0
LINE
  5
837
330
832
100
AcDbEntity
  8
0
 62
     0
440
 16777216
370
    -2
100
AcDbLine
 10
931.1038988099776
 20
698.3560695271558
 30
0.0
 11
931.1038988099776
 21
384.9004292729322
 31
0.0
  0
LINE
  5
838
330
832
100
AcDbEntity
  8
0
 62
     0
440
 16777216
370
    -2
100
AcDbLine
 10
931.1038988099776
 20
71.08478901870856
 30
0.0
 11
931.1038988099776
 21
384.5404292729322
 31
0.0
  0
SOLID
  5
839
330
832
100
AcDbEntity
  8
0
 62
     0
440
 16777216
100
AcDbTrace
 10
931.0738988099775
 20
698.3560695271558
 30
0.0
 11
931.1338988099775
 21
698.3560695271558
 31
0.0
 12
931.1038988099776
 22
698.5360695271557
 32
0.0
 13
931.1038988099776
 23
698.5360695271557
 33
0.0
  0
SOLID
  5
83A
330
832
100
AcDbEntity
  8
0
 62
     0
440
 16777216
100
AcDbTrace
 10
931.0738988099775
 20
71.08478901870856
 30
0.0
 11
931.1338988099775
 21
71.08478901870856
 31
0.0
 12
931.1038988099776
 22
70.90478901870857
 32
0.0
 13
931.1038988099776
 23
70.90478901870857
 33
0.0
  0
MTEXT
  5
83B
330
832
100
AcDbEntity
  8
0
 62
     0
440
 16777216
100
AcDbMText
 10
931.1038988099774
 20
384.7204292729318
 30
0.0
 40
0.18
 41
0.0
 46
0.0
 71
     5
 72
     1
  1
\A1;627.6313
 73
     1
 44
1.0
  0
POINT
  5
83C
330
832
100
AcDbEntity
  8
Defpoints
 62
     0
440
 16777216
100
AcDbPoint
 10
683.9035740363707
 20
698.5360695271556
 30
0.0
  0
POINT
  5
83D
330
832
100
AcDbEntity
  8
Defpoints
 62
     0
440
 16777216
100
AcDbPoint
 10
743.2335477928137
 20
70.90478901870854
 30
0.0
  0
POINT
  5
83E
330
832
100
AcDbEntity
  8
Defpoints
 62
     0
440
 16777216
100
AcDbPoint
 10
931.1038988099776
 20
70.90478901870857
 30
0.0
  0
ENDBLK
  5
834
330
832
100
AcDbEntity
  8
0
100
AcDbBlockEnd
  0
BLOCK
  5
88F
330
88E
100
AcDbEntity
  8
0
100
AcDbBlockBegin
  2
*D4
 70
     1
 10
0.0
 20
0.0
 30
0.0
  3
*D4
  1

  0
LINE
  5
891
330
88E
100
AcDbEntity
  8
0
 62
     0
440
 16777216
370
    -2
100
AcDbLine
 10
724.7872616534862
 20
822.735636092444
 30
0.0
 11
442.6772192546708
 21
822.735636092444
 31
0.0
  0
LINE
  5
892
330
88E
100
AcDbEntity
  8
0
 62
     0
440
 16777216
370
    -2
100
AcDbLine
 10
697.4297366889961
 20
62.35615820247002
 30
0.0
 11
442.6772192546709
 21
62.35615820246998
 31
0.0
  0
LINE
  5
893
330
88E
100
AcDbEntity
  8
0
 62
     0
440
 16777216
370
    -2
100
AcDbLine
 10
442.8572192546709
 20
822.5556360924437
 30
0.0
 11
442.8572192546709
 21
442.725897147457
 31
0.0
  0
LINE
  5
894
330
88E
100
AcDbEntity
  8
0
 62
     0
440
 16777216
370
    -2
100
AcDbLine
 10
442.857219254671
 20
62.53615820246999
 30
0.0
 11
442.8572192546709
 21
442.3658971474569
 31
0.0
  0
SOLID
  5
895
330
88E
100
AcDbEntity
  8
0
 62
     0
440
 16777216
100
AcDbTrace
 10
442.8272192546709
 20
822.5556360924437
 30
0.0
 11
442.8872192546708
 21
822.5556360924437
 31
0.0
 12
442.8572192546709
 22
822.735636092444
 32
0.0
 13
442.8572192546709
 23
822.735636092444
 33
0.0
  0
SOLID
  5
896
330
88E
100
AcDbEntity
  8
0
 62
     0
440
 16777216
100
AcDbTrace
 10
442.827219254671
 20
62.53615820246999
 30
0.0
 11
442.887219254671
 21
62.53615820246999
 31
0.0
 12
442.857219254671
 22
62.35615820246998
 32
0.0
 13
442.857219254671
 23
62.35615820246998
 33
0.0
  0
MTEXT
  5
897
330
88E
100
AcDbEntity
  8
0
 62
     0
440
 16777216
100
AcDbMText
 10
442.8572192546709
 20
442.5458971474568
 30
0.0
 40
0.18
 41
0.0
 46
0.0
 71
     5
 72
     1
  1
\A1;760.3795
 73
     1
 44
1.0
  0
POINT
  5
898
330
88E
100
AcDbEntity
  8
Defpoints
 62
     0
440
 16777216
100
AcDbPoint
 10
724.8497616534862
 20
822.735636092444
 30
0.0000000000001063
  0
POINT
  5
899
330
88E
100
AcDbEntity
  8
Defpoints
 62
     0
440
 16777216
100
AcDbPoint
 10
697.4922366889963
 20
62.35615820247002
 30
0.0
  0
POINT
  5
89A
330
88E
100
AcDbEntity
  8
Defpoints
 62
     0
440
 16777216
100
AcDbPoint
 10
442.857219254671
 20
62.35615820246998
 30
0.0
  0
ENDBLK
  5
890
330
88E
100
AcDbEntity
  8
0
100
AcDbBlockEnd
  0
BLOCK
  5
8E7
330
8E6
100
AcDbEntity
  8
0
100
AcDbBlockBegin
  2
*D6
 70
     1
 10
0.0
 20
0.0
 30
0.0
  3
*D6
  1

  0
LINE
  5
94A
330
8E6
100
AcDbEntity
  8
0
 62
     0
440
 16777216
370
    -2
100
AcDbLine
 10
332.4354099418198
 20
912.2863982321817
 30
0.0
 11
123.5293505483642
 21
912.2863982321815
 31
0.0
  0
LINE
  5
94B
330
8E6
100
AcDbEntity
  8
0
 62
     0
440
 16777216
370
    -2
100
AcDbLine
 10
177.3559679933769
 20
62.28639823218109
 30
0.0
 11
123.5293505483644
 21
62.28639823218109
 31
0.0
  0
LINE
  5
94C
330
8E6
100
AcDbEntity
  8
0
 62
     0
440
 16777216
370
    -2
100
AcDbLine
 10
124.7793505483642
 20
894.2863982321815
 30
0.0
 11
124.7793505483644
 21
80.28639823218108
 31
0.0
  0
INSERT
  5
94D
330
8E6
100
AcDbEntity
  8
0
 62
     0
440
 16777216
370
    -2
100
AcDbBlockReference
  2
_Dot
 10
124.7793505483642
 20
912.2863982321815
 30
0.0
 41
18.0
 42
18.0
 43
18.0
 50
90.0
  0
INSERT
  5
94E
330
8E6
100
AcDbEntity
  8
0
 62
     0
440
 16777216
370
    -2
100
AcDbBlockReference
  2
_Dot
 10
124.7793505483644
 20
62.28639823218109
 30
0.0
 41
18.0
 42
18.0
 43
18.0
 50
270.0
  0
MTEXT
  5
94F
330
8E6
100
AcDbEntity
  8
0
 62
     0
440
 16777216
100
AcDbMText
 10
89.35643103949674
 20
487.2863982321812
 30
0.0
 40
40.0
 41
0.0
 46
0.0
 71
     5
 72
     1
  1
850
  7
ARIAL
 11
0.0000000000000001
 21
1.0
 31
0.0
 73
     1
 44
1.0
  0
POINT
  5
950
330
8E6
100
AcDbEntity
  8
Defpoints
 62
     0
440
 16777216
100
AcDbPoint
 10
333.0604099418198
 20
912.2863982321817
 30
-0.0000000000000677
  0
POINT
  5
951
330
8E6
100
AcDbEntity
  8
Defpoints
 62
     0
440
 16777216
100
AcDbPoint
 10
177.9809679933769
 20
62.28639823218109
 30
0.0
  0
POINT
  5
952
330
8E6
100
AcDbEntity
  8
Defpoints
 62
     0
440
 16777216
100
AcDbPoint
 10
124.7793505483644
 20
62.28639823218109
 30
0.0
  0
ENDBLK
  5
8E8
330
8E6
100
AcDbEntity
  8
0
100
AcDbBlockEnd
  0
BLOCK
  5
908
330
907
100
AcDbEntity
  8
0
100
AcDbBlockBegin
  2
_Dot
 70
     0
 10
0.0
 20
0.0
 30
0.0
  3
_Dot
  1

  0
LWPOLYLINE
  5
909
330
907
100
AcDbEntity
  8
0
  6
ByBlock
 62
     0
100
AcDbPolyline
 90
        2
 70
     1
 43
0.5
 10
-0.25
 20
0.0
 42
1.0
 10
0.25
 20
0.0
 42
1.0
  0
LINE
  5
90A
330
907
100
AcDbEntity
  8
0
  6
ByBlock
 62
     0
370
    -2
100
AcDbLine
 10
-0.5
 20
0.0
 30
0.0
 11
-1.0
 21
0.0
 31
0.0
  0
ENDBLK
  5
90B
330
907
100
AcDbEntity
  8
0
100
AcDbBlockEnd
  0
BLOCK
  5
90D
330
90C
100
AcDbEntity
  8
0
100
AcDbBlockBegin
  2
*D8
 70
     1
 10
0.0
 20
0.0
 30
0.0
  3
*D8
  1

  0
LINE
  5
90E
330
90C
100
AcDbEntity
  8
0
 62
     0
440
 16777216
370
    -2
100
AcDbLine
 10
21833.66388734562
 20
-62336.93462033389
 30
0.0
 11
21960.19945650409
 21
-62336.93462033389
 31
0.0
  0
LINE
  5
90F
330
90C
100
AcDbEntity
  8
0
 62
     0
440
 16777216
370
    -2
100
AcDbLine
 10
21833.66388734562
 20
-61486.93462033389
 30
0.0
 11
21960.19945650409
 21
-61486.93462033389
 31
0.0
  0
LINE
  5
910
330
90C
100
AcDbEntity
  8
0
 62
     0
440
 16777216
370
    -2
100
AcDbLine
 10
21958.94945650409
 20
-62318.93462033388
 30
0.0
 11
21958.94945650409
 21
-61504.93462033389
 31
0.0
  0
INSERT
  5
911
330
90C
100
AcDbEntity
  8
0
 62
     0
440
 16777216
370
    -2
100
AcDbBlockReference
  2
_Dot
 10
21958.94945650409
 20
-62336.93462033389
 30
0.0
 41
18.0
 42
18.0
 43
18.0
 50
270.0
  0
INSERT
  5
912
330
90C
100
AcDbEntity
  8
0
 62
     0
440
 16777216
370
    -2
100
AcDbBlockReference
  2
_Dot
 10
21958.94945650409
 20
-61486.93462033389
 30
0.0
 41
18.0
 42
18.0
 43
18.0
 50
90.0
  0
MTEXT
  5
913
330
90C
100
AcDbEntity
  8
0
 62
     0
440
 16777216
100
AcDbMText
 10
21923.5265369952
 20
-61911.93462033388
 30
0.0
 40
40.0
 41
0.0
 46
0.0
 71
     5
 72
     1
  1
850
  7
ARIAL
 11
0.0000000000000001
 21
1.0
 31
0.0
 73
     1
 44
1.0
  0
POINT
  5
914
330
90C
100
AcDbEntity
  8
Defpoints
 62
     0
440
 16777216
100
AcDbPoint
 10
21833.03888734562
 20
-62336.93462033389
 30
0.0
  0
POINT
  5
915
330
90C
100
AcDbEntity
  8
Defpoints
 62
     0
440
 16777216
100
AcDbPoint
 10
21833.03888734562
 20
-61486.93462033389
 30
0.0
  0
POINT
  5
916
330
90C
100
AcDbEntity
  8
Defpoints
 62
     0
440
 16777216
100
AcDbPoint
 10
21958.94945650409
 20
-61486.93462033389
 30
0.0
  0
ENDBLK
  5
917
330
90C
100
AcDbEntity
  8
0
100
AcDbBlockEnd
  0
BLOCK
  5
924
330
923
100
AcDbEntity
  8
0
100
AcDbBlockBegin
  2
*D10
 70
     1
 10
0.0
 20
0.0
 30
0.0
  3
*D10
  1

  0
LINE
  5
92F
330
923
100
AcDbEntity
  8
0
 62
     0
440
 16777216
370
    -2
100
AcDbLine
 10
1247.501426714149
 20
240.743968984839
 30
0.0
 11
1374.036995872627
 21
240.743968984839
 31
0.0
  0
LINE
  5
930
330
923
100
AcDbEntity
  8
0
 62
     0
440
 16777216
370
    -2
100
AcDbLine
 10
1247.501426714149
 20
1090.743968984839
 30
0.0
 11
1374.036995872626
 21
1090.743968984839
 31
0.0
  0
LINE
  5
931
330
923
100
AcDbEntity
  8
0
 62
     0
440
 16777216
370
    -2
100
AcDbLine
 10
1372.786995872626
 20
258.7439689848389
 30
0.0
 11
1372.786995872626
 21
1072.743968984839
 31
0.0
  0
INSERT
  5
932
330
923
100
AcDbEntity
  8
0
 62
     0
440
 16777216
370
    -2
100
AcDbBlockReference
  2
_Dot
 10
1372.786995872626
 20
240.743968984839
 30
0.0
 41
18.0
 42
18.0
 43
18.0
 50
270.0
  0
INSERT
  5
933
330
923
100
AcDbEntity
  8
0
 62
     0
440
 16777216
370
    -2
100
AcDbBlockReference
  2
_Dot
 10
1372.786995872626
 20
1090.743968984839
 30
0.0
 41
18.0
 42
18.0
 43
18.0
 50
90.0
  0
MTEXT
  5
934
330
923
100
AcDbEntity
  8
0
 62
     0
440
 16777216
100
AcDbMText
 10
1337.364076363759
 20
665.7439689848386
 30
0.0
 40
40.0
 41
0.0
 46
0.0
 71
     5
 72
     1
  1
850
  7
ARIAL
 11
0.0000000000000001
 21
1.0
 31
0.0
 73
     1
 44
1.0
  0
POINT
  5
935
330
923
100
AcDbEntity
  8
Defpoints
 62
     0
440
 16777216
100
AcDbPoint
 10
1246.876426714149
 20
240.743968984839
 30
0.0
  0
POINT
  5
936
330
923
100
AcDbEntity
  8
Defpoints
 62
     0
440
 16777216
100
AcDbPoint
 10
1246.876426714149
 20
1090.743968984839
 30
0.0
  0
POINT
  5
937
330
923
100
AcDbEntity
  8
Defpoints
 62
     0
440
 16777216
100
AcDbPoint
 10
1372.786995872626
 20
1090.743968984839
 30
0.0
  0
ENDBLK
  5
925
330
923
100
AcDbEntity
  8
0
100
AcDbBlockEnd
  0
ENDSEC
  0
SECTION
  2
ENTITIES
  0
POINT
  5
41
330
1F
100
AcDbEntity
  8
1
  6
Continuous
 62
     8
 60
     1
100
AcDbPoint
 10
404.3575923400498
 20
781.375311787343
 30
0.0
  0
POINT
  5
43
330
1F
100
AcDbEntity
  8
1
  6
Continuous
 62
     8
 60
     1
100
AcDbPoint
 10
406.2557024266769
 20
781.375311787343
 30
0.0
  0
POINT
  5
44
330
1F
100
AcDbEntity
  8
1
  6
Continuous
 62
     8
 60
     1
100
AcDbPoint
 10
459.0720825317583
 20
781.375311787343
 30
0.0
  0
POINT
  5
45
330
1F
100
AcDbEntity
  8
1
  6
Continuous
 62
     8
 60
     1
100
AcDbPoint
 10
407.4516212075917
 20
781.375311787343
 30
0.0
  0
POINT
  5
46
330
1F
100
AcDbEntity
  8
1
  6
Continuous
 62
     8
 60
     1
100
AcDbPoint
 10
458.1666053598187
 20
768.375311787343
 30
0.0
  0
POINT
  5
47
330
1F
100
AcDbEntity
  8
1
  6
Continuous
 62
     8
 60
     1
100
AcDbPoint
 10
458.1666053598187
 20
794.772511787343
 30
0.0
  0
POINT
  5
48
330
1F
100
AcDbEntity
  8
1
  6
Continuous
 62
     8
 60
     1
100
AcDbPoint
 10
404.3575923400498
 20
27.05471422462955
 30
0.0
  0
POINT
  5
49
330
1F
100
AcDbEntity
  8
1
  6
Continuous
 62
     8
 60
     1
100
AcDbPoint
 10
406.3864360407983
 20
27.05471422462955
 30
0.0
  0
POINT
  5
4A
330
1F
100
AcDbEntity
  8
1
  6
Continuous
 62
     8
 60
     1
100
AcDbPoint
 10
459.0720825317583
 20
27.05471422462955
 30
0.0
  0
POINT
  5
4B
330
1F
100
AcDbEntity
  8
1
  6
Continuous
 62
     8
 60
     1
100
AcDbPoint
 10
407.4690523561413
 20
27.05471422462955
 30
0.0
  0
LWPOLYLINE
  5
7B2
330
1F
100
AcDbEntity
  8
HEWI
  6
Continuous
100
AcDbPolyline
 90
       17
 70
     0
 43
0.0
 10
806.8217649090502
 20
710.4788687824268
 10
852.2866954521887
 20
101.0428398005873
 10
852.1063403410332
 20
100.8262968035274
 10
851.6580502207261
 20
100.7870764989323
 10
850.7875229724385
 20
100.710915231286
 10
849.5453504756005
 20
100.6022392166292
 10
848.0037232806161
 20
100.4673643099132
 10
846.2522351564702
 20
100.3141289504638
 10
844.39267622654
 20
100.1514386203858
 10
842.533117296608
 20
99.98874829030823
 10
840.781629172463
 20
99.83551293085845
 10
839.2400019774786
 20
99.70063802414239
 10
837.9978294806406
 20
99.59196200948515
 10
837.1273022323519
 20
99.51580074183931
 10
836.6790121120457
 20
99.4765804372451
 10
836.4637947045093
 20
99.65851532234914
 10
790.8879105780665
 20
708.9832698909006
  0
LWPOLYLINE
  5
7B3
330
1F
100
AcDbEntity
  8
HEWI
  6
Continuous
100
AcDbPolyline
 90
       44
 70
     1
 43
0.0
 10
841.8575340878076
 20
62.28639823218106
 10
841.6838484468916
 20
62.27120270715936
 10
841.2918032197776
 20
62.27547942692916
 10
840.9081253783861
 20
62.35615820246999
 10
840.4794608364152
 20
62.54925750398109
 10
840.1077184653013
 20
62.83709120919097
 10
839.8134408076574
 20
63.20375358172719
 10
839.6128896936934
 20
63.62898280050722
 10
839.5171476098976
 20
64.08928063120431
 10
838.2969672365941
 20
78.03600650695321
 10
839.6605256414886
 20
79.66103218015001
 10
839.8486850858144
 20
79.67749399892506
 10
840.4022282758196
 20
79.72592275417722
 10
841.2889852933485
 20
79.80350394268322
 10
842.4574210437731
 20
79.90572882776229
 10
843.8396302883683
 20
80.02665647066834
 10
845.3552840499659
 20
80.15925899634732
 10
846.9162980411201
 20
80.29583002799819
 10
848.4319518027188
 20
80.42843255367717
 10
849.8141610473139
 20
80.54936019658322
 10
850.9825967977384
 20
80.65158508166229
 10
851.8693538152673
 20
80.72916627016804
 10
852.4228970052728
 20
80.77759502541985
 10
852.6110564495965
 20
80.79405684419436
 10
854.2360820773428
 20
79.43049840116106
 10
855.4562624506459
 20
65.48377252541221
 10
855.4419048275976
 20
65.01384252276995
 10
855.3182407782642
 20
64.56024787555913
 10
855.092104098707
 20
64.14805511871117
 10
854.77599112562
 20
63.80004186635908
 10
854.3873702268701
 20
63.53543931962717
 10
854.0235307499088
 20
63.38936121019589
 10
853.6381845774521
 20
63.31707162781406
 10
853.4644989365359
 20
63.30187610279203
 10
852.9535359919174
 20
63.25717263640505
 10
852.1349910526597
 20
63.18555923163096
 10
851.0564349753447
 20
63.09119779924986
 10
849.7805495187948
 20
62.97957228272212
 10
848.3814845080896
 20
62.85716995132617
 10
846.9405485162543
 20
62.73110438364739
 10
845.5414835055488
 20
62.6087020522521
 10
844.2655980489988
 20
62.49707653572413
 10
843.1870419716842
 20
62.40271510334223
 10
842.3684970324265
 20
62.33110169856813
  0
LWPOLYLINE
  5
7B4
330
1F
100
AcDbEntity
  8
HEWI
  6
Continuous
100
AcDbPolyline
 90
       28
 70
     1
 43
0.0
 10
786.5802716976403
 20
712.2214308554223
 10
784.5260925777738
 20
715.1974231702418
 10
783.2438057276258
 20
718.5785358114255
 10
782.8079329980054
 20
722.1682708021122
 10
782.8079329980054
 20
758.8682710717417
 10
782.8079329980054
 20
763.2956108935887
 10
782.8079329980054
 20
767.4656498177153
 10
782.8079329980054
 20
771.1360403393261
 10
782.8079329980054
 20
774.0934727026317
 10
782.8079329980054
 20
776.166071688506
 10
782.8079329980054
 20
777.2333853774816
 10
812.8079323793027
 20
777.2333853774816
 10
812.8079323793027
 20
776.166071688506
 10
812.8079323793027
 20
774.0934727026317
 10
812.8079323793027
 20
771.1360403393261
 10
812.8079323793027
 20
767.4656498177153
 10
812.8079323793027
 20
763.2956108935887
 10
812.8079323793027
 20
758.8682710717417
 10
812.8079323793027
 20
722.1682708021122
 10
812.3720596496832
 20
718.5785358114255
 10
811.0897727995352
 20
715.1974231702418
 10
809.0355936796676
 20
712.2214308554223
 10
806.3289037138902
 20
709.8235127230119
 10
803.1270058845947
 20
708.1430270587893
 10
799.6159828551961
 20
707.2776375812419
 10
795.9998825221126
 20
707.2776375812419
 10
792.4888594927142
 20
708.1430270587893
 10
789.2869616634189
 20
709.8235127230119
  0
LWPOLYLINE
  5
7B5
330
1F
100
AcDbEntity
  8
HEWI
  6
Continuous
100
AcDbPolyline
 90
       11
 70
     0
 43
0.0
 10
996.0525769949281
 20
768.1392390417657
 10
995.5724030140038
 20
767.8153575930065
 10
993.0138916076302
 20
770.7585883667364
 10
989.8193469763445
 20
772.9954326612747
 10
986.178552376451
 20
774.3930028062156
 10
982.3078021266846
 20
774.8682711892914
 10
978.4370518769174
 20
774.3930028062156
 10
974.7962572770237
 20
772.9954326612747
 10
971.6017126457391
 20
770.7585883667364
 10
969.0432012393658
 20
767.8153575930065
 10
968.5630272831476
 20
768.1392390251003
  0
LWPOLYLINE
  5
7B6
330
1F
100
AcDbEntity
  8
HEWI
  6
Continuous
100
AcDbPolyline
 90
        3
 70
     0
 43
0.0
 10
807.1291680927606
 20
720.3339951938877
 10
807.0318797639719
 20
719.8947719746772
 10
806.5996026215525
 20
718.5687518351889
  0
LWPOLYLINE
  5
7B7
330
1F
100
AcDbEntity
  8
HEWI
  6
Continuous
100
AcDbPolyline
 90
        3
 70
     0
 43
0.0
 10
798.1414453340375
 20
712.6741267840733
 10
796.6628342498442
 20
712.7375364288942
 10
795.9736571317354
 20
712.8470351372887
  0
LINE
  5
7B8
330
1F
100
AcDbEntity
  8
HEWI
  6
Continuous
100
AcDbLine
 10
795.9736571317354
 20
712.8470351372887
 30
-0.0000000000000915
 11
798.1414453340375
 21
712.6741267840733
 31
-0.0000000000000915
  0
LWPOLYLINE
  5
7B9
330
1F
100
AcDbEntity
  8
HEWI
  6
Continuous
100
AcDbPolyline
 90
       28
 70
     1
 43
0.0
 10
801.6898017427656
 20
723.487775273786
 10
801.888031305064
 20
722.5717489255824
 10
801.8730570934668
 20
721.6346390039912
 10
801.6456615788719
 20
720.7254137792972
 10
801.2177272147281
 20
719.8915844191093
 10
800.6116155246154
 20
719.1767223130169
 10
799.8589986105779
 20
718.6181822686259
 10
798.9992041412469
 20
718.2451505523812
 10
798.0771603016672
 20
718.077119773937
 10
797.1410480905777
 20
718.122870308345
 10
796.2397836433374
 20
718.3800114813809
 10
795.4204621405989
 20
718.8351064931849
 10
794.725896870188
 20
719.4643745523801
 10
794.1923820374149
 20
720.2349335309524
 10
793.8477962272035
 20
721.1065182055127
 10
793.7101456207927
 20
722.0335842989843
 10
793.7866230905946
 20
722.9676883769412
 10
794.073232339775
 20
723.860019238147
 10
794.5549967270071
 20
724.6639485225882
 10
795.2067418643292
 20
725.3374672560958
 10
795.9944110938131
 20
725.845381010967
 10
796.8768451033702
 20
726.1611489754394
 10
797.8079326886544
 20
726.2682708322344
 10
798.4748172867311
 20
726.2136712958793
 10
799.1239401337889
 20
726.051326886496
 10
799.9713772378198
 20
725.6510150746447
 10
800.7057644903978
 20
725.0687139796358
 10
801.2887268059039
 20
724.3348514912502
  0
LWPOLYLINE
  5
7BA
330
1F
100
AcDbEntity
  8
HEWI
  6
Continuous
100
AcDbPolyline
 90
        3
 70
     0
 43
0.0
 10
807.1291680927606
 20
720.3339951938877
 10
807.307932492732
 20
722.1682708021122
 10
807.307932492732
 20
758.8682710276996
  0
LWPOLYLINE
  5
7BB
330
1F
100
AcDbEntity
  8
HEWI
  6
Continuous
100
AcDbPolyline
 90
        3
 70
     0
 43
0.0
 10
806.5996026215525
 20
718.5687518351889
 10
806.2197647588783
 20
717.7534006352609
 10
805.5506942818528
 20
716.66375984442
  0
LWPOLYLINE
  5
7BC
330
1F
100
AcDbEntity
  8
HEWI
  6
Continuous
100
AcDbPolyline
 90
        3
 70
     0
 43
0.0
 10
788.3079328845779
 20
758.8682710276996
 10
788.3079328845779
 20
722.1682708021122
 10
788.5568383100779
 20
720.007889044824
  0
LINE
  5
7BD
330
1F
100
AcDbEntity
  8
HEWI
  6
Continuous
100
AcDbLine
 10
806.5996026215525
 20
718.5687518351889
 30
-0.0000000000000915
 11
807.1291680927606
 21
720.3339951938877
 31
-0.0000000000000915
  0
LINE
  5
7BE
330
1F
100
AcDbEntity
  8
HEWI
  6
Continuous
100
AcDbLine
 10
805.5506942818528
 20
716.66375984442
 30
-0.0000000000000915
 11
806.5996026215525
 21
718.5687518351889
 31
-0.0000000000000915
  0
LWPOLYLINE
  5
7BF
330
1F
100
AcDbEntity
  8
HEWI
  6
Continuous
100
AcDbPolyline
 90
        3
 70
     0
 43
0.0
 10
805.5506942818528
 20
716.66375984442
 10
804.9187846496289
 20
715.8686055025416
 10
804.0960563824354
 20
715.0472105210942
  0
LINE
  5
7C0
330
1F
100
AcDbEntity
  8
HEWI
  6
Continuous
100
AcDbLine
 10
804.0960563824354
 20
715.0472105210942
 30
-0.0000000000000915
 11
805.5506942818528
 21
716.66375984442
 31
-0.0000000000000915
  0
LWPOLYLINE
  5
7C1
330
1F
100
AcDbEntity
  8
HEWI
  6
Continuous
100
AcDbPolyline
 90
        3
 70
     0
 43
0.0
 10
804.0960563824354
 20
715.0472105210942
 10
803.2045476713037
 20
714.3499240186818
 10
802.3119136123078
 20
713.8038128979399
  0
LINE
  5
7C2
330
1F
100
AcDbEntity
  8
HEWI
  6
Continuous
100
AcDbLine
 10
802.3119136123078
 20
713.8038128979399
 30
-0.0000000000000915
 11
804.0960563824354
 21
715.0472105210942
 31
-0.0000000000000915
  0
LWPOLYLINE
  5
7C3
330
1F
100
AcDbEntity
  8
HEWI
  6
Continuous
100
AcDbPolyline
 90
        3
 70
     0
 43
0.0
 10
802.3119136123078
 20
713.8038128979399
 10
801.1766790460843
 20
713.2856164313413
 10
800.291757092418
 20
712.9987224319768
  0
LINE
  5
7C4
330
1F
100
AcDbEntity
  8
HEWI
  6
Continuous
100
AcDbLine
 10
800.291757092418
 20
712.9987224319768
 30
-0.0000000000000915
 11
802.3119136123078
 21
713.8038128979399
 31
-0.0000000000000915
  0
LWPOLYLINE
  5
7C5
330
1F
100
AcDbEntity
  8
HEWI
  6
Continuous
100
AcDbPolyline
 90
        3
 70
     0
 43
0.0
 10
800.291757092418
 20
712.9987224319768
 10
798.9530311274648
 20
712.7375364288942
 10
798.1414453340375
 20
712.6741267840733
  0
LINE
  5
7C6
330
1F
100
AcDbEntity
  8
HEWI
  6
Continuous
100
AcDbLine
 10
798.1414453340375
 20
712.6741267840733
 30
-0.0000000000000915
 11
800.291757092418
 21
712.9987224319768
 31
-0.0000000000000915
  0
LWPOLYLINE
  5
7C7
330
1F
100
AcDbEntity
  8
HEWI
  6
Continuous
100
AcDbPolyline
 90
       12
 70
     0
 43
0.0
 10
967.4078024339733
 20
729.1667805900836
 10
967.4078024339733
 20
726.1767820623951
 10
967.4078024339733
 20
722.6632472132388
 10
967.4078024339733
 20
719.1209461342343
 10
967.4078024339733
 20
715.7557444883523
 10
967.4078024339733
 20
712.7632155632406
 10
967.4078024339733
 20
710.3172742626278
 10
967.4078024339733
 20
708.56006980427
 10
967.4078024339733
 20
707.593724524109
 10
967.4078024339733
 20
707.4743988973048
 10
974.4170838754843
 20
707.4248088790532
 10
974.8041792074838
 20
707.5115613119193
  0
LWPOLYLINE
  5
7C8
330
1F
100
AcDbEntity
  8
HEWI
  6
Continuous
100
AcDbPolyline
 90
       11
 70
     0
 43
0.0
 10
990.1641711857145
 20
707.428105717545
 10
997.2078018193952
 20
707.4743988973048
 10
997.2078018193952
 20
707.593724524109
 10
997.2078018193952
 20
708.56006980427
 10
997.2078018193952
 20
710.3172742626278
 10
997.2078018193952
 20
712.7632155632406
 10
997.2078018193952
 20
715.7557444883523
 10
997.2078018193952
 20
719.1209461342343
 10
997.2078018193952
 20
722.6632472132388
 10
997.2078018193952
 20
726.1767820623951
 10
997.2078018193952
 20
729.1682708546393
  0
LWPOLYLINE
  5
7C9
330
1F
100
AcDbEntity
  8
HEWI
  6
Continuous
100
AcDbPolyline
 90
        6
 70
     0
 43
0.0
 10
988.920121194311
 20
707.7979431794939
 10
987.9146627991202
 20
708.1328434917816
 10
986.6910427550793
 20
708.4986125179036
 10
985.2877226422798
 20
708.8286180124034
 10
983.7550866724457
 20
709.0622646651756
 10
982.1439038676464
 20
709.1389648032778
  0
LWPOLYLINE
  5
7CA
330
1F
100
AcDbEntity
  8
HEWI
  6
Continuous
100
AcDbPolyline
 90
        5
 70
     0
 43
0.0
 10
980.5401252034753
 20
709.0241779205607
 10
979.0213320697693
 20
708.7640436410135
 10
977.6435440478826
 20
708.4201709935325
 10
976.4622795558588
 20
708.0544482093679
 10
975.5073081845093
 20
707.735353934166
  0
LWPOLYLINE
  5
7CB
330
1F
100
AcDbEntity
  8
HEWI
  6
Continuous
100
AcDbPolyline
 90
       16
 70
     0
 43
0.0
 10
977.3078022298012
 20
99.63590366113528
 10
977.3078022298012
 20
80.22754451217219
 10
977.4530931396757
 20
80.12325583904603
 10
977.8805220897247
 20
80.02502804452712
 10
978.5652484630137
 20
79.93856977099111
 10
979.4674784516065
 20
79.86890565903109
 10
980.5347777280378
 20
79.82008433361722
 10
981.7051187378373
 20
79.79494311272325
 10
982.9104855155318
 20
79.79494311272325
 10
984.0808265253317
 20
79.82008433361722
 10
985.1481258017628
 20
79.86890565903109
 10
986.0503557903559
 20
79.93856977099111
 10
986.7350821636446
 20
80.02502804452712
 10
987.1625111136939
 20
80.12325583904603
 10
987.3078020235679
 20
80.22754451217219
 10
987.3078020235679
 20
99.63590366113528
  0
LWPOLYLINE
  5
7CC
330
1F
100
AcDbEntity
  8
HEWI
  6
Continuous
100
AcDbPolyline
 90
       15
 70
     0
 43
0.0
 10
988.7604096752474
 20
80.29583002799819
 10
988.7604096752474
 20
80.15925899634732
 10
988.3854075787985
 20
80.02665647066834
 10
987.6571971446708
 20
79.90572882776229
 10
986.618099316357
 20
79.80350394268322
 10
985.3285026826723
 20
79.72592275417722
 10
983.8633539124728
 20
79.67749399892506
 10
982.3078021266846
 20
79.66103218015001
 10
980.7522503408964
 20
79.67749399892506
 10
979.2871015706978
 20
79.72592275417722
 10
977.9975049370122
 20
79.80350394268322
 10
976.9584071086985
 20
79.90572882776229
 10
976.230196674571
 20
80.02665647066834
 10
975.8551945781229
 20
80.15925899634732
 10
975.8551945781229
 20
80.29583002799819
  0
LWPOLYLINE
  5
7CD
330
1F
100
AcDbEntity
  8
HEWI
  6
Continuous
100
AcDbPolyline
 90
        3
 70
     0
 43
0.0
 10
790.4705076052604
 20
716.134019277691
 10
789.3961006184298
 20
717.7534006352609
 10
789.290511657712
 20
717.9607137615638
  0
LINE
  5
7CE
330
1F
100
AcDbEntity
  8
HEWI
  6
Continuous
100
AcDbLine
 10
790.4705076052604
 20
716.134019277691
 30
-0.0000000000000915
 11
792.0349930159946
 21
714.6235264726064
 31
-0.0000000000000915
  0
LWPOLYLINE
  5
7CF
330
1F
100
AcDbEntity
  8
HEWI
  6
Continuous
100
AcDbPolyline
 90
        4
 70
     0
 43
0.0
 10
987.3078020408438
 20
80.58373316259491
 10
987.6571971446708
 20
80.54936019658322
 10
988.3854075787985
 20
80.42843255367717
 10
988.7604096752474
 20
80.29583002799819
  0
LINE
  5
7D0
330
1F
100
AcDbEntity
  8
HEWI
  6
Continuous
100
AcDbLine
 10
788.5568383100779
 20
720.007889044824
 30
-0.0000000000000915
 11
789.290511657712
 21
717.9607137615638
 31
-0.0000000000000915
  0
LWPOLYLINE
  5
7D1
330
1F
100
AcDbEntity
  8
HEWI
  6
Continuous
100
AcDbPolyline
 90
        3
 70
     0
 43
0.0
 10
795.9736571317354
 20
712.8470351372887
 10
794.4391863312257
 20
713.2856164313413
 10
793.9019870657276
 20
713.5083868962281
  0
LWPOLYLINE
  5
7D2
330
1F
100
AcDbEntity
  8
HEWI
  6
Continuous
100
AcDbPolyline
 90
        3
 70
     0
 43
0.0
 10
792.0349930159946
 20
714.6235264726064
 10
790.6970807276795
 20
715.8686055025416
 10
790.4705076052604
 20
716.134019277691
  0
LINE
  5
7D3
330
1F
100
AcDbEntity
  8
HEWI
  6
Continuous
100
AcDbLine
 10
789.290511657712
 20
717.9607137615638
 30
-0.0000000000000915
 11
790.4705076052604
 21
716.134019277691
 31
-0.0000000000000915
  0
LINE
  5
7D4
330
1F
100
AcDbEntity
  8
HEWI
  6
Continuous
100
AcDbLine
 10
793.9019870657276
 20
713.5083868962281
 30
-0.0000000000000915
 11
795.9736571317354
 21
712.8470351372887
 31
-0.0000000000000915
  0
LWPOLYLINE
  5
7D5
330
1F
100
AcDbEntity
  8
HEWI
  6
Continuous
100
AcDbPolyline
 90
        3
 70
     0
 43
0.0
 10
788.5568383100779
 20
720.007889044824
 10
788.5839856133371
 20
719.8947719746772
 10
788.8273829359969
 20
719.2529859621474
  0
LINE
  5
7D6
330
1F
100
AcDbEntity
  8
HEWI
  6
Continuous
100
AcDbLine
 10
792.0349930159946
 20
714.6235264726064
 30
-0.0000000000000915
 11
793.9019870657276
 21
713.5083868962281
 31
-0.0000000000000915
  0
LWPOLYLINE
  5
7D7
330
1F
100
AcDbEntity
  8
HEWI
  6
Continuous
100
AcDbPolyline
 90
        4
 70
     0
 43
0.0
 10
975.8551945781229
 20
80.29583002799819
 10
976.230196674571
 20
80.42843255367717
 10
976.9584071086985
 20
80.54936019658322
 10
977.3078022434928
 20
80.58373316564217
  0
LWPOLYLINE
  5
7D8
330
1F
100
AcDbEntity
  8
HEWI
  6
Continuous
100
AcDbPolyline
 90
        3
 70
     0
 43
0.0
 10
793.9019870657276
 20
713.5083868962281
 10
792.4113177060054
 20
714.3499240186818
 10
792.0349930159946
 20
714.6235264726064
  0
LWPOLYLINE
  5
7D9
330
1F
100
AcDbEntity
  8
HEWI
  6
Continuous
100
AcDbPolyline
 90
       26
 70
     1
 43
0.0
 10
798.2900793997323
 20
726.1391063276773
 10
799.2263522075727
 20
725.9083358003314
 10
800.0801916287182
 20
725.4602062898721
 10
800.8019756195917
 20
724.8207614545629
 10
801.3497567182238
 20
724.0271635039446
 10
801.6916998782626
 20
723.1255334662949
 10
801.8079326061615
 20
722.1682708021122
 10
801.6916998782626
 20
721.2110081379291
 10
801.3497567182238
 20
720.3093781002801
 10
800.8019756195917
 20
719.5157801496613
 10
800.0801916287182
 20
718.8763353143518
 10
799.2263522075727
 20
718.4282058038928
 10
798.2900793997323
 20
718.1974352765466
 10
797.3257859775767
 20
718.1974352765466
 10
796.3895131697372
 20
718.4282058038928
 10
795.5356737485917
 20
718.8763353143518
 10
794.8138897577182
 20
719.5157801496613
 10
794.266108659086
 20
720.3093781002801
 10
793.9241654990474
 20
721.2110081379291
 10
793.8079327711483
 20
722.1682708021122
 10
793.9241654990474
 20
723.1255334662949
 10
794.266108659086
 20
724.0271635039446
 10
794.8138897577182
 20
724.8207614545629
 10
795.5356737485917
 20
725.4602062898721
 10
796.3895131697372
 20
725.9083358003314
 10
797.3257859775767
 20
726.1391063276773
  0
LWPOLYLINE
  5
7DA
330
1F
100
AcDbEntity
  8
HEWI
  6
Continuous
100
AcDbPolyline
 90
       29
 70
     0
 43
0.0
 10
796.9717462743292
 20
721.2076680138157
 10
797.2545471158028
 20
721.0443924369221
 10
797.4429301007813
 20
720.9356297943547
 10
797.8079338542802
 20
720.7248957915084
 10
798.1729361421521
 20
720.9356299665598
 10
798.3613183128773
 20
721.0443924665808
 10
798.6252345984357
 20
721.1967646093533
 10
798.8465428009594
 20
721.3245369632273
 10
799.0579314972492
 20
721.4465822873484
 10
799.0579326628749
 20
721.8698069279163
 10
799.0579326628749
 20
722.1634820948629
 10
799.0579326628749
 20
722.4993815186333
 10
799.0579324899873
 20
722.6986546198344
 10
799.0579314972492
 20
722.8899593168757
 10
798.6929287402836
 20
723.1006937627597
 10
798.5045465568846
 20
723.2094562700974
 10
798.2406299505909
 20
723.3618285980462
 10
798.0193212202658
 20
723.4896009852818
 10
797.8079315230289
 20
723.6116458127159
 10
797.5965427357032
 20
723.4896004360363
 10
797.3752344298064
 20
723.3618280224785
 10
797.1113178087643
 20
723.209455686015
 10
796.9229351200519
 20
723.1006925593694
 10
796.5579327144341
 20
722.8899572979522
 10
796.5579327144341
 20
722.6986533536871
 10
796.5579327144341
 20
722.4993807500478
 10
796.5579327144341
 20
722.1634820904739
 10
796.5579327144341
 20
721.8698075984069
 10
796.5579327144341
 20
721.446584306272
  0
LWPOLYLINE
  5
7DB
330
1F
100
AcDbEntity
  8
HEWI
  6
Continuous
100
AcDbPolyline
 90
       16
 70
     0
 43
0.0
 10
963.8078025082185
 20
758.8682710717417
 10
963.8078025082185
 20
722.1682708021122
 10
963.8078025082185
 20
718.5785358114255
 10
963.8078025082185
 20
715.1974231702418
 10
963.8078025082185
 20
712.2214308554223
 10
963.8078025082185
 20
709.8235127230119
 10
963.8078025082185
 20
708.1430270587893
 10
963.8078025082185
 20
707.2776375812419
 10
966.907802444285
 20
707.2776375812419
 10
966.907802444285
 20
708.1430270587893
 10
966.907802444285
 20
709.8235127230119
 10
966.907802444285
 20
712.2214308554223
 10
966.907802444285
 20
715.1974231702418
 10
966.907802444285
 20
718.5785358114255
 10
966.907802444285
 20
722.1682708021122
 10
966.907802444285
 20
729.1682708535402
  0
LWPOLYLINE
  5
7DC
330
1F
100
AcDbEntity
  8
HEWI
  6
Continuous
100
AcDbPolyline
 90
       21
 70
     0
 43
0.0
 10
982.5578021215287
 20
742.1701653874241
 10
982.5578021215287
 20
730.1643636567178
 10
983.8130968910681
 20
730.025375134241
 10
985.0308749444128
 20
729.6905626706148
 10
986.1807853930185
 20
729.1682708535402
 10
997.7078018090841
 20
729.1682708535402
 10
997.7078018090841
 20
722.1682708021122
 10
997.7078018090841
 20
718.5785358114255
 10
997.7078018090841
 20
715.1974231702418
 10
997.7078018090841
 20
712.2214308554223
 10
997.7078018090841
 20
709.8235127230119
 10
997.7078018090841
 20
708.1430270587893
 10
997.7078018090841
 20
707.2776375812419
 10
1000.80780174515
 20
707.2776375812419
 10
1000.80780174515
 20
708.1430270587893
 10
1000.80780174515
 20
709.8235127230119
 10
1000.80780174515
 20
712.2214308554223
 10
1000.80780174515
 20
715.1974231702418
 10
1000.80780174515
 20
718.5785358114255
 10
1000.80780174515
 20
722.1682708021122
 10
1000.80780174515
 20
758.8682710717417
  0
LWPOLYLINE
  5
7DD
330
1F
100
AcDbEntity
  8
HEWI
  6
Continuous
100
AcDbPolyline
 90
       18
 70
     0
 43
0.0
 10
974.3078022916714
 20
707.4255820361566
 10
974.3078022916714
 20
100.350677561468
 10
974.5078022875468
 20
100.1514386203858
 10
974.7344561069494
 20
99.98874829030823
 10
975.4012452690258
 20
99.83551293085845
 10
976.4694184113578
 20
99.70063802414239
 10
977.8768971935624
 20
99.59196200948515
 10
979.5418840647952
 20
99.51580074183931
 10
981.3676160400827
 20
99.4765804372451
 10
983.2479882132865
 20
99.4765804372451
 10
985.0737201885742
 20
99.51580074183931
 10
986.7387070598068
 20
99.59196200948515
 10
988.1461858420115
 20
99.70063802414239
 10
989.2143589843426
 20
99.83551293085845
 10
989.8811481464189
 20
99.98874829030823
 10
990.1078019658218
 20
100.1514386203858
 10
990.3078019616968
 20
100.350677561468
 10
990.3078019616968
 20
707.4290497087446
  0
LWPOLYLINE
  5
7DE
330
1F
100
AcDbEntity
  8
HEWI
  6
Continuous
100
AcDbPolyline
 90
        8
 70
     0
 43
0.0
 10
999.0078017822733
 20
758.8682710717417
 10
998.6946900782456
 20
755.6725215964927
 10
997.7802205092864
 20
752.6052972350974
 10
996.2209116699204
 20
749.6396172233525
 10
993.8174683303488
 20
746.7681376912501
 10
990.4784429088969
 20
744.3106478152379
 10
986.6570718419968
 20
742.7505786233321
 10
982.5578021215287
 20
742.1701653874241
  0
LINE
  5
7DF
330
1F
100
AcDbEntity
  8
HEWI
  6
Continuous
100
AcDbLine
 10
797.3058209919908
 20
721.0147895390303
 30
-0.0000000000000915
 11
796.9717462743292
 21
721.2076680138157
 31
-0.0000000000000915
  0
LINE
  5
7E0
330
1F
100
AcDbEntity
  8
HEWI
  6
Continuous
100
AcDbLine
 10
796.5579327144341
 20
721.446584306272
 30
-0.0000000000000915
 11
796.7693215768658
 21
721.324537811645
 31
-0.0000000000000915
  0
LINE
  5
7E1
330
1F
100
AcDbEntity
  8
HEWI
  6
Continuous
100
AcDbLine
 10
982.0578021318405
 20
730.1643636567178
 30
-0.0000000000000915
 11
982.0578021318405
 21
742.1701653874241
 31
-0.0000000000000915
  0
LINE
  5
7E2
330
1F
100
AcDbEntity
  8
HEWI
  6
Continuous
100
AcDbLine
 10
796.9717462743292
 20
721.2076680138157
 30
-0.0000000000000915
 11
796.5579327144341
 21
721.446584306272
 31
-0.0000000000000915
  0
LINE
  5
7E3
330
1F
100
AcDbEntity
  8
HEWI
  6
Continuous
100
AcDbLine
 10
849.3373327101881
 20
100.5840400198352
 30
0.0
 11
851.0804475291923
 21
80.66014591162224
 31
0.0
  0
LINE
  5
7E4
330
1F
100
AcDbEntity
  8
HEWI
  6
Continuous
100
AcDbLine
 10
841.1911345618937
 20
79.79494311272325
 30
0.0
 11
839.4480197428892
 21
99.71883722093577
 31
0.0
  0
LWPOLYLINE
  5
7E5
330
1F
100
AcDbEntity
  8
HEWI
  6
Continuous
100
AcDbPolyline
 90
       14
 70
     0
 43
0.0
 10
999.0078017822733
 20
758.8682710717417
 10
998.5225301432958
 20
762.864842694706
 10
997.0949174501317
 20
766.6291481018908
 10
994.8079313633462
 20
769.942419545723
 10
991.7944832014473
 20
772.6121017331398
 10
988.2297036181654
 20
774.4830424393076
 10
984.3207646454347
 20
775.4465093909767
 10
980.2948396079345
 20
775.4465093909767
 10
976.3859006352042
 20
774.4830424393076
 10
972.8211210519221
 20
772.6121017331398
 10
969.8076728900231
 20
769.942419545723
 10
967.5206868032374
 20
766.6291481018908
 10
966.0930741100736
 20
762.864842694706
 10
965.6078024710959
 20
758.8682710717417
  0
LWPOLYLINE
  5
7E6
330
1F
100
AcDbEntity
  8
HEWI
  6
Continuous
100
AcDbPolyline
 90
       14
 70
     0
 43
0.0
 10
963.8078025082185
 20
758.8682710717417
 10
964.3453788747502
 20
763.2956108935887
 10
965.9268659899318
 20
767.4656498177153
 10
968.4603535711021
 20
771.1360403393261
 10
971.7986045288945
 20
774.0934727026317
 10
975.7476118516914
 20
776.166071688506
 10
980.07787358795
 20
777.2333853774816
 10
984.5377306654192
 20
777.2333853774816
 10
988.8679924016777
 20
776.166071688506
 10
992.8169997244758
 20
774.0934727026317
 10
996.1552506822682
 20
771.1360403393261
 10
998.6887382634378
 20
767.4656498177153
 10
1000.27022537862
 20
763.2956108935887
 10
1000.80780174515
 20
758.8682710717417
  0
LWPOLYLINE
  5
7E7
330
1F
100
AcDbEntity
  8
HEWI
  6
Continuous
100
AcDbPolyline
 90
        8
 70
     0
 43
0.0
 10
965.6078024710959
 20
758.8682710717417
 10
965.9951160733454
 20
755.3303320766594
 10
967.1141486289288
 20
751.968300147514
 10
969.0360939984483
 20
748.7381929287373
 10
971.6337264419179
 20
746.0256061080368
 10
974.7835574387945
 20
743.9598867717973
 10
978.3147462135937
 20
742.6521498342911
 10
982.0578021318405
 20
742.1701653874241
  0
LWPOLYLINE
  5
7E8
330
1F
100
AcDbEntity
  8
HEWI
  6
Continuous
100
AcDbPolyline
 90
        3
 70
     0
 43
0.0
 10
980.8025073622999
 20
730.025375134241
 10
979.5847293089563
 20
729.6905626706148
 10
978.4348188603507
 20
729.1682708535402
  0
LINE
  5
7E9
330
1F
100
AcDbEntity
  8
HEWI
  6
Continuous
100
AcDbLine
 10
978.4348188603507
 20
729.1682708535402
 30
-0.0000000000000915
 11
966.907802444285
 21
729.1682708535402
 31
-0.0000000000000915
  0
LINE
  5
7EA
330
1F
100
AcDbEntity
  8
HEWI
  6
Continuous
100
AcDbLine
 10
978.4348188603507
 20
729.1682708535402
 30
-0.0000000000000915
 11
975.5508678240657
 21
729.1676862646247
 31
-0.0000000000000915
  0
LWPOLYLINE
  5
7EB
330
1F
100
AcDbEntity
  8
HEWI
  6
Continuous
100
AcDbPolyline
 90
        7
 70
     0
 43
0.0
 10
978.4434537333016
 20
729.1721928314914
 10
978.4178226105714
 20
729.1590369982502
 10
975.5551005482566
 20
729.1657755435451
 10
974.1088923059233
 20
729.1675239452895
 10
971.2271382019062
 20
729.1675239529365
 10
969.7873596160333
 20
729.1656684814832
 10
969.1478329112541
 20
729.1676672207788
  0
LWPOLYLINE
  5
7EC
330
1F
100
AcDbEntity
  8
HEWI
  6
Continuous
100
AcDbPolyline
 90
        3
 70
     0
 43
0.0
 10
969.7873596160333
 20
729.1676862595725
 10
967.6276917372225
 20
729.1676219658913
 10
966.907802444285
 20
729.1682708535402
  0
LWPOLYLINE
  5
7ED
330
1F
100
AcDbEntity
  8
HEWI
  6
Continuous
100
AcDbPolyline
 90
       10
 70
     0
 43
0.0
 10
963.8078025082185
 20
712.7375364288942
 10
962.8079292857854
 20
712.6741267840733
 10
962.8149553084359
 20
712.9987224319768
 10
962.8323818632479
 20
713.8038128979399
 10
962.859295778824
 20
715.0472105210942
 10
962.8942867352181
 20
716.66375984442
 10
962.9355211663114
 20
718.5687518351889
 10
962.9737306737469
 20
720.3339951938877
 10
963.0134344160925
 20
722.1682708021122
 10
963.8078025059277
 20
758.8678947793377
  0
LINE
  5
7EE
330
1F
100
AcDbEntity
  8
HEWI
  6
Continuous
100
AcDbLine
 10
982.0578021318405
 20
730.1643636567178
 30
-0.0000000000000915
 11
980.8025073622999
 21
730.025375134241
 31
-0.0000000000000915
  0
LINE
  5
7EF
330
1F
100
AcDbEntity
  8
HEWI
  6
Continuous
100
AcDbLine
 10
997.8608200253693
 20
753.1551418648725
 30
-0.0000000000000915
 11
997.142676063815
 21
751.3927389864383
 31
-0.0000000000000915
  0
LINE
  5
7F0
330
1F
100
AcDbEntity
  8
HEWI
  6
Continuous
100
AcDbLine
 10
971.8229490912296
 20
745.9015102815097
 30
-0.0000000000000915
 11
970.4897334871294
 21
747.2202247780139
 31
-0.0000000000000915
  0
LINE
  5
7F1
330
1F
100
AcDbEntity
  8
HEWI
  6
Continuous
100
AcDbLine
 10
974.6630391348299
 20
744.0959589705581
 30
-0.0000000000000915
 11
976.9555460039988
 21
743.1600463684552
 31
-0.0000000000000915
  0
LINE
  5
7F2
330
1F
100
AcDbEntity
  8
HEWI
  6
Continuous
100
AcDbLine
 10
978.2341340462661
 20
742.7115563467712
 30
-0.0000000000000915
 11
982.0578021318405
 21
742.1701653874241
 31
-0.0000000000000915
  0
LINE
  5
7F3
330
1F
100
AcDbEntity
  8
HEWI
  6
Continuous
100
AcDbLine
 10
990.6215777701874
 20
744.4853697557688
 30
-0.0000000000000915
 11
988.9246853020642
 21
743.6763285329218
 31
-0.0000000000000915
  0
LWPOLYLINE
  5
7F4
330
1F
100
AcDbEntity
  8
HEWI
  6
Continuous
100
AcDbPolyline
 90
       10
 70
     0
 43
0.0
 10
1000.807801745152
 20
758.8678948851473
 10
1001.602169837276
 20
722.1682708021122
 10
1001.641873579622
 20
720.3339951938877
 10
1001.680083087059
 20
718.5687518351889
 10
1001.721317518151
 20
716.66375984442
 10
1001.756308474546
 20
715.0472105210942
 10
1001.783222390121
 20
713.8038128979399
 10
1001.800648944933
 20
712.9987224319768
 10
1001.807674967584
 20
712.6741267840733
 10
1000.80780174515
 20
712.7375364288942
  0
LINE
  5
7F5
330
1F
100
AcDbEntity
  8
HEWI
  6
Continuous
100
AcDbLine
 10
996.263960122943
 20
749.8885099432832
 30
-0.0000000000000915
 11
997.0187587926774
 21
751.1570582956456
 31
-0.0000000000000915
  0
LINE
  5
7F6
330
1F
100
AcDbEntity
  8
HEWI
  6
Continuous
100
AcDbLine
 10
966.907802444285
 20
712.8022631905478
 30
-0.0000000000000915
 11
967.407802433974
 21
712.8022631905478
 31
-0.0000000000000915
  0
LINE
  5
7F7
330
1F
100
AcDbEntity
  8
HEWI
  6
Continuous
100
AcDbLine
 10
993.795463578167
 20
746.8650026845149
 30
-0.0000000000000915
 11
992.4904562493074
 21
745.791469854397
 31
-0.0000000000000915
  0
LINE
  5
7F8
330
1F
100
AcDbEntity
  8
HEWI
  6
Continuous
100
AcDbLine
 10
995.4986624960108
 20
748.7767203643618
 30
-0.0000000000000915
 11
996.5977896885505
 21
750.3564088935559
 31
-0.0000000000000915
  0
LINE
  5
7F9
330
1F
100
AcDbEntity
  8
HEWI
  6
Continuous
100
AcDbLine
 10
971.3790125888918
 20
746.340618177197
 30
-0.0000000000000915
 11
973.2105707323897
 21
744.9926093941384
 31
-0.0000000000000915
  0
LINE
  5
7FA
330
1F
100
AcDbEntity
  8
HEWI
  6
Continuous
100
AcDbLine
 10
993.7494710254878
 20
746.8271680231143
 30
-0.0000000000000915
 11
994.6816023255525
 21
747.8005494135694
 31
-0.0000000000000915
  0
LINE
  5
7FB
330
1F
100
AcDbEntity
  8
HEWI
  6
Continuous
100
AcDbLine
 10
978.4549709864004
 20
742.6340934229163
 30
-0.0000000000000915
 11
976.7239740396389
 21
743.2412748190284
 31
-0.0000000000000915
  0
LINE
  5
7FC
330
1F
100
AcDbEntity
  8
HEWI
  6
Continuous
100
AcDbLine
 10
993.1987320592606
 20
746.3127538767992
 30
-0.0000000000000915
 11
994.2528129784387
 21
747.2882594630605
 31
-0.0000000000000915
  0
LWPOLYLINE
  5
7FD
330
1F
100
AcDbEntity
  8
HEWI
  6
Continuous
100
AcDbPolyline
 90
        3
 70
     0
 43
0.0
 10
967.9089842883131
 20
729.1676303400175
 10
967.6276917372225
 20
729.1659217512722
 10
967.0617886733818
 20
729.1681320547525
  0
LINE
  5
7FE
330
1F
100
AcDbEntity
  8
HEWI
  6
Continuous
100
AcDbLine
 10
986.6338264548664
 20
742.7472873221769
 30
-0.0000000000000915
 11
986.7899304136024
 21
742.804817942117
 31
-0.0000000000000915
  0
LINE
  5
7FF
330
1F
100
AcDbEntity
  8
HEWI
  6
Continuous
100
AcDbLine
 10
997.7078018090841
 20
712.8022631905478
 30
-0.0000000000000915
 11
997.2078018193961
 21
712.8022631905478
 31
-0.0000000000000915
  0
LINE
  5
800
330
1F
100
AcDbEntity
  8
HEWI
  6
Continuous
100
AcDbLine
 10
966.0006469628157
 20
755.4050896806455
 30
-0.0000000000000915
 11
966.2619467847854
 21
754.528663381973
 31
-0.0000000000000915
  0
LINE
  5
801
330
1F
100
AcDbEntity
  8
HEWI
  6
Continuous
100
AcDbLine
 10
998.0999715222798
 20
753.7664869371608
 30
-0.0000000000000915
 11
998.3536574787793
 21
754.5286634095715
 31
-0.0000000000000915
  0
LINE
  5
802
330
1F
100
AcDbEntity
  8
HEWI
  6
Continuous
100
AcDbLine
 10
966.0163707304407
 20
755.2664743838907
 30
-0.0000000000000915
 11
965.6078024710959
 21
758.8682710717417
 31
-0.0000000000000915
  0
LWPOLYLINE
  5
803
330
1F
100
AcDbEntity
  8
HEWI
  6
Continuous
100
AcDbPolyline
 90
        3
 70
     0
 43
0.0
 10
996.7572692975446
 20
729.1682708535208
 10
986.1902682505343
 20
729.1631277131296
 10
985.023971142793
 20
729.6924607823317
  0
LINE
  5
804
330
1F
100
AcDbEntity
  8
HEWI
  6
Continuous
100
AcDbLine
 10
967.1920313411584
 20
751.8374069783268
 30
-0.0000000000000915
 11
966.5863494661953
 21
753.5540249084585
 31
-0.0000000000000915
  0
LINE
  5
805
330
1F
100
AcDbEntity
  8
HEWI
  6
Continuous
100
AcDbLine
 10
980.6683532438638
 20
729.9768856463864
 30
-0.0000000000000915
 11
982.0578021318405
 21
730.1643636567178
 31
-0.0000000000000915
  0
LINE
  5
806
330
1F
100
AcDbEntity
  8
HEWI
  6
Continuous
100
AcDbLine
 10
987.1331514816837
 20
742.9449374438182
 30
-0.0000000000000915
 11
985.0993412318121
 21
742.5300204509246
 31
-0.0000000000000915
  0
LINE
  5
807
330
1F
100
AcDbEntity
  8
HEWI
  6
Continuous
100
AcDbLine
 10
969.1739118349786
 20
748.5942761683373
 30
-0.0000000000000915
 11
968.3173760053065
 21
749.9461024836229
 31
-0.0000000000000915
  0
LINE
  5
808
330
1F
100
AcDbEntity
  8
HEWI
  6
Continuous
100
AcDbLine
 10
987.0403048537017
 20
742.9259958316485
 30
-0.0000000000000915
 11
987.5405189708388
 21
743.1112446301014
 31
-0.0000000000000915
  0
LINE
  5
809
330
1F
100
AcDbEntity
  8
HEWI
  6
Continuous
100
AcDbLine
 10
990.772845025145
 20
744.5768802095403
 30
-0.0000000000000915
 11
991.3909649747438
 21
744.9822550798963
 31
-0.0000000000000915
  0
LINE
  5
80A
330
1F
100
AcDbEntity
  8
HEWI
  6
Continuous
100
AcDbLine
 10
983.7966674249292
 20
730.0271942348784
 30
-0.0000000000000915
 11
983.8187676982387
 21
730.0238160197586
 31
-0.0000000000000915
  0
LINE
  5
80B
330
1F
100
AcDbEntity
  8
HEWI
  6
Continuous
100
AcDbLine
 10
978.448967604323
 20
729.174697243695
 30
-0.0000000000000915
 11
980.8025073622999
 21
730.025375134241
 31
-0.0000000000000915
  0
LINE
  5
80C
330
1F
100
AcDbEntity
  8
HEWI
  6
Continuous
100
AcDbLine
 10
982.5578021215287
 20
742.1701483817193
 30
-0.0000000000000915
 11
982.0578021318405
 21
742.1701540502878
 31
-0.0000000000000915
  0
LWPOLYLINE
  5
80D
330
1F
100
AcDbEntity
  8
HEWI
  6
Continuous
100
AcDbPolyline
 90
       33
 70
     0
 43
0.0
 10
975.8551945781217
 20
80.29583002799819
 10
974.3661312976843
 20
78.81729616584227
 10
974.3661312976843
 20
78.64920874227237
 10
974.3661312976843
 20
64.70248286652227
 10
974.4209885469809
 20
64.23794932918238
 10
974.5825288745365
 20
63.80024705629493
 10
974.8418255361336
 20
63.41356354514395
 10
975.1845497569721
 20
63.09926698811824
 10
975.5917625420451
 20
62.87472546299505
 10
975.9820743508953
 20
62.73670935016325
 10
976.3328795540438
 20
62.63492639066003
 10
977.0487866649588
 20
62.51604185481021
 10
978.0703286387661
 20
62.41554408835207
 10
979.338137169101
 20
62.33927365617915
 10
979.5194631519281
 20
62.33110169856813
 10
980.8719081705721
 20
62.28639823218106
 10
982.3078021266846
 20
62.27120270715936
 10
983.7436960827963
 20
62.28639823218106
 10
985.096141101442
 20
62.33110169856813
 10
985.2774670842673
 20
62.33927365617915
 10
986.5452756146023
 20
62.41554408835207
 10
987.5668175884094
 20
62.51604185481021
 10
988.2827246993244
 20
62.63492639066003
 10
988.6335299024741
 20
62.73670935016325
 10
989.0238417113234
 20
62.87472546299505
 10
989.4310544963964
 20
63.09926698811824
 10
989.7737787172356
 20
63.41356354514395
 10
990.0330753788328
 20
63.80024705629493
 10
990.1946157063886
 20
64.23794932918238
 10
990.2494729556845
 20
64.70248286652227
 10
990.2494729556845
 20
78.64920874227237
 10
990.2494729556845
 20
78.81729616584227
 10
988.7604096752474
 20
80.29583002799819
  0
LINE
  5
80E
330
1F
100
AcDbEntity
  8
HEWI
  6
Continuous
100
AcDbLine
 10
967.0959485456588
 20
752.1097239373078
 30
-0.0000000000000915
 11
967.5968454081777
 21
751.15705838728
 31
-0.0000000000000915
  0
LINE
  5
80F
330
1F
100
AcDbEntity
  8
HEWI
  6
Continuous
100
AcDbLine
 10
968.8756687740934
 20
749.0649778032648
 30
-0.0000000000000915
 11
969.9340019391847
 21
747.8005494010355
 31
-0.0000000000000915
  0
LINE
  5
810
330
1F
100
AcDbEntity
  8
HEWI
  6
Continuous
100
AcDbLine
 10
990.0304171632114
 20
744.127741957544
 30
-0.0000000000000915
 11
991.1510394328415
 21
744.8056722374047
 31
-0.0000000000000915
  0
LINE
  5
811
330
1F
100
AcDbEntity
  8
HEWI
  6
Continuous
100
AcDbLine
 10
998.5374244445401
 20
755.1450365877334
 30
-0.0000000000000915
 11
999.0078017822733
 21
758.8682710717417
 31
-0.0000000000000915
  0
LINE
  5
812
330
1F
100
AcDbEntity
  8
HEWI
  6
Continuous
100
AcDbLine
 10
975.0332552700621
 20
743.8674139263528
 30
-0.0000000000000915
 11
973.1812673674756
 21
745.0106992075757
 31
-0.0000000000000915
  0
LINE
  5
813
330
1F
100
AcDbEntity
  8
HEWI
  6
Continuous
100
AcDbLine
 10
997.254833786973
 20
751.6060539348988
 30
-0.0000000000000915
 11
998.2111684129348
 21
754.0507405194286
 31
-0.0000000000000915
  0
LINE
  5
814
330
1F
100
AcDbEntity
  8
HEWI
  6
Continuous
100
AcDbLine
 10
996.442355794932
 20
750.1330160594623
 30
-0.0000000000000915
 11
995.1410491078759
 21
748.3494668933773
 31
-0.0000000000000915
  0
LINE
  5
815
330
1F
100
AcDbEntity
  8
HEWI
  6
Continuous
100
AcDbLine
 10
982.5578021215287
 20
733.7096787519108
 30
-0.0000000000000915
 11
982.0578021318405
 21
733.7096787519108
 31
-0.0000000000000915
  0
LWPOLYLINE
  5
825
330
1F
100
AcDbEntity
  8
HEWI
  6
Continuous
100
AcDbPolyline
 90
        5
 70
     0
 43
0.0
 10
788.6414457642171
 20
-2.090946465530585
 10
786.9137846386462
 20
-2.090946465530585
 10
784.8596055745214
 20
-2.090946465530585
 10
783.5773187591699
 20
-2.090946465530585
 10
783.1414460413783
 20
-2.090946465530585
  0
LINE
  5
826
330
1F
100
AcDbEntity
  8
HEWI
  6
Continuous
100
AcDbLine
 10
783.1414460413783
 20
-2.090946465530585
 30
0.0
 11
788.6414457787008
 21
-2.090954607183568
 31
0.0
  0
LWPOLYLINE
  5
827
330
1F
100
AcDbEntity
  8
HEWI
  6
Continuous
100
AcDbPolyline
 90
        5
 70
     0
 43
0.0
 10
813.1414446085958
 20
-2.090946465530585
 10
812.7055718908035
 20
-2.090946465530585
 10
811.423285075452
 20
-2.090946465530585
 10
809.3691060113263
 20
-2.090946465530585
 10
807.6414448857562
 20
-2.090946465530585
  0
LINE
  5
828
330
1F
100
AcDbEntity
  8
HEWI
  6
Continuous
100
AcDbLine
 10
807.6414448712716
 20
-2.090954607183568
 30
0.0
 11
813.1414446085958
 21
-2.090946465530585
 31
0.0
  0
LWPOLYLINE
  5
829
330
1F
100
AcDbEntity
  8
HEWI
  6
Continuous
100
AcDbPolyline
 90
       26
 70
     1
 43
0.0
 10
790.4750494355344
 20
-1.353173573876126
 10
791.3532744214193
 20
-1.392237435502586
 10
792.6482741444718
 20
-1.425428097984543
 10
794.2805392380492
 20
-1.450707747333588
 10
796.1498531835882
 20
-1.466524283673386
 10
798.1414453249867
 20
-1.471906615842506
 10
799.7861386953177
 20
-1.468254294723698
 10
801.3623097520433
 20
-1.457449496809438
 10
803.0908042497889
 20
-1.43536924500848
 10
804.5154219308875
 20
-1.404767621406342
 10
805.5486952480354
 20
-1.367523480238453
 10
806.1271841050306
 20
-1.325923507764407
 10
806.2153709015106
 20
-1.282521826125396
 10
805.8078412144391
 20
-1.239983177370511
 10
804.9296162285541
 20
-1.20091931574462
 10
803.6346165055014
 20
-1.167728653261299
 10
802.0023514119241
 20
-1.142449003912594
 10
800.1330374663853
 20
-1.126632467572568
 10
798.1414453249867
 20
-1.121250135404132
 10
796.4967519546567
 20
-1.124902456523507
 10
794.9205808979298
 20
-1.135707254436062
 10
793.1920864001843
 20
-1.157787506238725
 10
791.7674687190859
 20
-1.188389129839386
 10
790.734195401938
 20
-1.225633271009662
 10
790.1557065449427
 20
-1.267233243483367
 10
790.0675197484628
 20
-1.310634925122718
  0
LWPOLYLINE
  5
82A
330
1F
100
AcDbEntity
  8
HEWI
  6
Continuous
100
AcDbPolyline
 90
       45
 70
     0
 43
0.0
 10
813.1414446085958
 20
-2.090946465530585
 10
813.1414446085958
 20
-2.628522830559183
 10
813.1414446085958
 20
-4.210009941321465
 10
813.1414446085958
 20
-6.743497515411497
 10
813.1414446085958
 20
-10.0817484638751
 10
813.1414446085958
 20
-14.03075577563767
 10
813.1414446085958
 20
-18.36101749979526
 10
813.1414446085958
 20
-22.82087456480111
 10
813.1414446085958
 20
-27.15113628896053
 10
813.1414446085958
 20
-31.10014360072161
 10
813.1414446085958
 20
-34.43839454918522
 10
813.1414446085958
 20
-36.97188212327616
 10
813.1414446085958
 20
-38.55336923403866
 10
813.1414446085958
 20
-39.09094559906725
 10
807.6414448712716
 20
-39.09093745741428
 10
807.6414448712716
 20
-39.8853136889734
 10
807.3925394525261
 20
-39.93207614933432
 10
806.658866124801
 20
-39.97638820330941
 10
805.4788702092725
 20
-40.01592784860849
 10
803.9143848409926
 20
-40.04862316261255
 10
802.0473908419221
 20
-40.07276087348645
 10
799.9757208321311
 20
-40.08707613758633
 10
797.807932688654
 20
-40.09081881870611
 10
795.657620988624
 20
-40.08379279607551
 10
793.6374645235532
 20
-40.06636624131353
 10
791.8533218018396
 20
-40.03945232581156
 10
790.3986839418962
 20
-40.00446136951451
 10
789.3497756306601
 20
-39.96322693853631
 10
788.8202101738218
 20
-39.92501743120739
 10
788.6414457787008
 20
-39.8853136889734
 10
788.6414457787008
 20
-39.09094559906725
 10
783.1414460413783
 20
-39.09094559906725
 10
783.1414460413783
 20
-38.55336923403866
 10
783.1414460413783
 20
-36.97188212327616
 10
783.1414460413783
 20
-34.43839454918522
 10
783.1414460413783
 20
-31.10014360072161
 10
783.1414460413783
 20
-27.15113628896053
 10
783.1414460413783
 20
-22.82087456480111
 10
783.1414460413783
 20
-18.36101749979526
 10
783.1414460413783
 20
-14.03075577563767
 10
783.1414460413783
 20
-10.0817484638751
 10
783.1414460413783
 20
-6.743497515411497
 10
783.1414460413783
 20
-4.210009941321465
 10
783.1414460413783
 20
-2.628522830559183
 10
783.1414460413783
 20
-2.090946465530585
  0
LWPOLYLINE
  5
82B
330
1F
100
AcDbEntity
  8
HEWI
  6
Continuous
100
AcDbPolyline
 90
       28
 70
     1
 43
0.0
 10
798.1414453249867
 20
-39.79656729577654
 10
797.4745607450064
 20
-39.79774912794347
 10
796.8254379155645
 20
-39.8012631476213
 10
795.9780008345282
 20
-39.80992808157124
 10
795.2436136018782
 20
-39.82253225756109
 10
794.660651302191
 20
-39.83841704987118
 10
794.2595763762132
 20
-39.85675240560546
 10
794.0613468192946
 20
-39.87658021874735
 10
794.0763210304853
 20
-39.89686439556614
 10
794.30371653891
 20
-39.9165449952493
 10
794.7316508914406
 20
-39.93459361664362
 10
795.3377625651069
 20
-39.9500671369084
 10
796.0903794587216
 20
-39.96215699398864
 10
796.9501739047204
 20
-39.97023143767639
 10
797.8722177192799
 20
-39.97386854143839
 10
798.8083299049662
 20
-39.97287825000354
 10
799.7095943277514
 20
-39.96731231061757
 10
800.5289158082563
 20
-39.95746156901511
 10
801.2234810598188
 20
-39.94384077140741
 10
801.7569958781145
 20
-39.92716166662957
 10
802.1015816789764
 20
-39.90829581402762
 10
802.2392322816509
 20
-39.8882290405045
 10
802.1627548139234
 20
-39.86800992655776
 10
801.8761455725211
 20
-39.84869501316963
 10
801.3943811983631
 20
-39.83129359271869
 10
800.7426360787261
 20
-39.81671496883747
 10
799.9549668706163
 20
-39.80572094116247
 10
799.0725328850053
 20
-39.7988859978134
  0
LWPOLYLINE
  5
82C
330
1F
100
AcDbEntity
  8
HEWI
  6
Continuous
100
AcDbPolyline
 90
       16
 70
     0
 43
0.0
 10
813.1414448035215
 20
-28.59094584495564
 10
844.7087564510324
 20
-28.59094584495564
 10
846.6159963274133
 20
-28.3584803898084
 10
848.4123943547123
 20
-27.67459407164052
 10
849.993550409226
 20
-26.57903187743967
 10
851.2675734483339
 20
-25.13546389972431
 10
852.1604218838886
 20
-23.42778506220624
 10
852.6202066101873
 20
-21.55523945176027
 10
852.6202066101873
 20
-19.62665261283758
 10
852.1604218838886
 20
-17.75410700239104
 10
851.2675734483339
 20
-16.0464281648724
 10
849.993550409226
 20
-14.60286018715875
 10
848.4123943547114
 20
-13.50729799295733
 10
846.6159963274133
 20
-12.82341167478945
 10
844.7087564510324
 20
-12.59094621964108
 10
813.1414451069417
 20
-12.59094621964108
  0
LWPOLYLINE
  5
82D
330
1F
100
AcDbEntity
  8
HEWI
  6
Continuous
100
AcDbPolyline
 90
       19
 70
     0
 43
0.0
 10
845.4902002088733
 20
-28.49569894864931
 10
845.6394120098416
 20
-28.53261683910524
 10
847.5606599468189
 20
-28.53261683910524
 10
848.7808402870109
 20
-28.53261683910524
 10
850.6462602506658
 20
-28.07107579861349
 10
852.3474408132356
 20
-27.17481680526749
 10
853.7855155439642
 20
-25.89592717399468
 10
854.8769087666919
 20
-24.30873132158628
 10
855.5581926743649
 20
-22.50547130176541
 10
855.7897735226347
 20
-20.59094603229949
 10
855.5581926743649
 20
-18.67642076283358
 10
854.8769087666919
 20
-16.87316074301111
 10
853.7855155439642
 20
-15.28596489060465
 10
852.3474408132356
 20
-14.00707525932921
 10
850.6462602506658
 20
-13.11081626598435
 10
848.7808402870109
 20
-12.64927522549033
 10
847.5606599468189
 20
-12.64927522549033
 10
845.6394120098416
 20
-12.64927522549033
 10
845.4902002366702
 20
-12.68619310906934
  0
LWPOLYLINE
  5
82E
330
1F
100
AcDbEntity
  8
HEWI
  6
Continuous
100
AcDbPolyline
 90
        7
 70
     0
 43
0.0
 10
851.6245999431708
 20
-24.4526082572877
 10
852.2028649845902
 20
-23.61164657984558
 10
852.7564081595741
 20
-22.14649781374034
 10
852.944567598794
 20
-20.59094603229949
 10
852.7564081595741
 20
-19.03539425085843
 10
852.2028649845902
 20
-17.57024548475341
 10
851.6245999431708
 20
-16.72928380731014
  0
LWPOLYLINE
  5
82F
330
1F
100
AcDbEntity
  8
HEWI
  6
Continuous
100
AcDbPolyline
 90
       17
 70
     0
 43
0.0
 10
788.6414457787008
 20
-2.090954607183568
 10
788.6414457787008
 20
-1.296578375623319
 10
788.8202101738218
 20
-1.256874633389322
 10
789.3497756306601
 20
-1.218665126059256
 10
790.3986839418962
 20
-1.177430695082428
 10
791.8533218018396
 20
-1.142439738786272
 10
793.6374645235532
 20
-1.115525823284549
 10
795.657620988624
 20
-1.09809926852268
 10
797.807932688654
 20
-1.091073245890591
 10
799.9757208321311
 20
-1.094815927010365
 10
802.0473908419221
 20
-1.109131191110243
 10
803.9143848409926
 20
-1.133268901985281
 10
805.4788702092725
 20
-1.165964215988544
 10
806.658866124801
 20
-1.205503861287531
 10
807.3925394525261
 20
-1.249815915263531
 10
807.6414448712716
 20
-1.296578375623319
 10
807.6414448712716
 20
-2.090954607183568
  0
ARC
  5
874
330
1F
100
AcDbEntity
  8
VD
100
AcDbCircle
 10
818.4780393855943
 20
827.2863982321812
 30
0.0000000000000215
 40
85.0
100
AcDbArc
 50
270.0
 51
90.0
  0
ARC
  5
875
330
1F
100
AcDbEntity
  8
VD
100
AcDbCircle
 10
818.4780393855943
 20
827.2863982321812
 30
0.0000000000000215
 40
52.0
100
AcDbArc
 50
270.0
 51
90.0
  0
LINE
  5
876
330
1F
100
AcDbEntity
  8
VD
100
AcDbLine
 10
260.1404944932692
 20
912.2863982321812
 30
-0.0000000000000811
 11
818.4780393855943
 21
912.2863982321812
 31
0.0000000000000215
210
0.0
220
1.0
230
0.0
  0
LINE
  5
877
330
1F
100
AcDbEntity
  8
VD
100
AcDbLine
 10
260.1404944932692
 20
879.2863982321811
 30
-0.0000000000000811
 11
436.9780393855944
 21
879.2863982321811
 31
-0.0000000000000486
210
0.0
220
1.0
230
0.0
  0
LINE
  5
878
330
1F
100
AcDbEntity
  8
VD
100
AcDbLine
 10
469.9780393855944
 20
879.2863982321811
 30
-0.0000000000000425
 11
818.4780393855943
 21
879.2863982321811
 31
0.0000000000000215
210
0.0
220
1.0
230
0.0
  0
LINE
  5
879
330
1F
100
AcDbEntity
  8
VD
100
AcDbLine
 10
818.4780393855943
 20
742.2863982321812
 30
0.0000000000000215
 11
219.9780393855945
 21
742.2863982321812
 31
-0.0000000000000885
210
0.0
220
1.0
230
0.0
  0
LINE
  5
87A
330
1F
100
AcDbEntity
  8
VD
100
AcDbLine
 10
818.4780393855943
 20
775.2863982321812
 30
0.0000000000000215
 11
469.9780393855944
 21
775.2863982321812
 31
-0.0000000000000425
210
0.0
220
1.0
230
0.0
  0
LINE
  5
87B
330
1F
100
AcDbEntity
  8
VD
100
AcDbLine
 10
436.9780393855944
 20
775.2863982321812
 30
-0.0000000000000486
 11
219.9780393855945
 21
775.2863982321812
 31
-0.0000000000000885
210
0.0
220
1.0
230
0.0
  0
LINE
  5
87C
330
1F
100
AcDbEntity
  8
VD
100
AcDbLine
 10
469.9780393855944
 20
879.2863982321811
 30
-0.0000000000000425
 11
469.9780393855944
 21
775.2863982321812
 31
-0.0000000000000425
210
0.0
220
1.0
230
0.0
  0
LINE
  5
87D
330
1F
100
AcDbEntity
  8
VD
100
AcDbLine
 10
436.9780393855944
 20
879.2863982321811
 30
-0.0000000000000486
 11
436.9780393855944
 21
775.2863982321812
 31
-0.0000000000000486
210
0.0
220
1.0
230
0.0
  0
LINE
  5
87E
330
1F
100
AcDbEntity
  8
VD
100
AcDbLine
 10
219.9780393855945
 20
710.7863982321812
 30
-0.0000000000000885
 11
219.9780393855945
 21
943.7863982321813
 31
-0.0000000000000885
210
0.0
220
1.0
230
0.0
  0
LINE
  5
87F
330
1F
100
AcDbEntity
  8
VD
100
AcDbLine
 10
203.4780393855945
 20
699.2863982321812
 30
-0.0000000000000915
 11
208.4780393855945
 21
699.2863982321812
 31
-0.0000000000000906
210
0.0
220
1.0
230
0.0
  0
ARC
  5
880
330
1F
100
AcDbEntity
  8
VD
100
AcDbCircle
 10
208.4780393855945
 20
710.7863982321812
 30
-0.0000000000000906
 40
11.5
100
AcDbArc
 50
270.0
 51
0.0
  0
ARC
  5
881
330
1F
100
AcDbEntity
  8
VD
100
AcDbCircle
 10
208.4780393855945
 20
943.7863982321813
 30
-0.0000000000000906
 40
11.5
100
AcDbArc
 50
0.0
 51
90.0
  0
LINE
  5
882
330
1F
100
AcDbEntity
  8
VD
100
AcDbLine
 10
208.4780393855945
 20
955.2863982321811
 30
-0.0000000000000906
 11
203.4780393855945
 21
955.2863982321811
 31
-0.0000000000000915
210
0.0
220
1.0
230
0.0
  0
LINE
  5
883
330
1F
100
AcDbEntity
  8
VD
100
AcDbLine
 10
203.4780393855945
 20
700.7863982321813
 30
-0.0000000000000915
 11
203.4780393855945
 21
699.2863982321812
 31
-0.0000000000000915
210
0.0
220
1.0
230
0.0
  0
LINE
  5
884
330
1F
100
AcDbEntity
  8
VD
100
AcDbLine
 10
203.4780393855945
 20
955.2863982321811
 30
-0.0000000000000915
 11
203.4780393855945
 21
953.7863982321812
 31
-0.0000000000000915
210
0.0
220
1.0
230
0.0
  0
LINE
  5
885
330
1F
100
AcDbEntity
  8
VD
100
AcDbLine
 10
203.4780393855945
 20
700.7863982321813
 30
-0.0000000000000915
 11
203.4780393855945
 21
953.7863982321812
 31
-0.0000000000000915
210
0.0
220
1.0
230
0.0
  0
ARC
  5
886
330
1F
100
AcDbEntity
  8
VD
100
AcDbCircle
 10
244.4780393855944
 20
895.7863982321812
 30
-0.000000000000084
 40
22.74999999999999
100
AcDbArc
 50
270.0
 51
90.0
  0
LINE
  5
887
330
1F
100
AcDbEntity
  8
VD
100
AcDbLine
 10
244.4780393855944
 20
873.0363982321811
 30
-0.000000000000084
 11
219.9780393855945
 21
873.0363982321811
 31
-0.0000000000000885
210
0.0
220
1.0
230
0.0
  0
LINE
  5
888
330
1F
100
AcDbEntity
  8
VD
100
AcDbLine
 10
219.9780393855945
 20
918.5363982321812
 30
-0.0000000000000885
 11
244.4780393855944
 21
918.5363982321812
 31
-0.000000000000084
210
0.0
220
1.0
230
0.0
  0
LINE
  5
889
330
1F
100
AcDbEntity
  8
VD
100
AcDbLine
 10
453.4780393855944
 20
758.7863982321812
 30
-0.0000000000000456
 11
436.9780393855944
 21
775.2863982321812
 31
-0.0000000000000486
210
0.0
220
1.0
230
0.0
  0
LINE
  5
88A
330
1F
100
AcDbEntity
  8
VD
100
AcDbLine
 10
469.9780393855944
 20
775.2863982321812
 30
-0.0000000000000425
 11
453.4780393855944
 21
758.7863982321812
 31
-0.0000000000000456
210
0.0
220
1.0
230
0.0
  0
LINE
  5
88B
330
1F
100
AcDbEntity
  8
VD
100
AcDbLine
 10
436.9780393855944
 20
879.2863982321811
 30
-0.0000000000000486
 11
453.4780393855944
 21
895.7863982321812
 31
-0.0000000000000456
210
0.0
220
1.0
230
0.0
  0
LINE
  5
88C
330
1F
100
AcDbEntity
  8
VD
100
AcDbLine
 10
453.4780393855944
 20
895.7863982321812
 30
-0.0000000000000456
 11
469.9780393855944
 21
879.2863982321811
 31
-0.0000000000000425
210
0.0
220
1.0
230
0.0
  0
TEXT
  5
89E
330
1F
100
AcDbEntity
  8
0
100
AcDbText
 10
306.5273345990527
 20
688.8398549137088
 30
-0.0000000000000915
 40
25.0
  1
805.50...
100
AcDbText
  0
LINE
  5
8B3
330
1F
100
AcDbEntity
  8
0
100
AcDbLine
 10
1250.8803001412
 20
62.28639823218106
 30
0.0
 11
57.90447119665259
 21
62.28639823218106
 31
0.0
  0
DIMENSION
  5
8E5
330
1F
100
AcDbEntity
  8
0
100
AcDbDimension
280
     0
  2
*D6
 10
124.7793505483644
 20
62.28639823218109
 30
0.0
 11
89.35643103949674
 21
487.2863982321812
 31
0.0
 70
    32
 71
     5
 42
850.0000000000003
 73
     0
 74
     0
 75
     0
  3
ISO-25
100
AcDbAlignedDimension
 13
333.0604099418197
 23
912.2863982321812
 33
-0.0000000000000677
 14
177.9809679933769
 24
62.28639823218107
 34
0.0
 50
90.0
100
AcDbRotatedDimension
1001
ACAD
1000
DSTYLE
1002
{
1070
    41
1040
18.0
1070
   140
1040
40.0
1070
   147
1040
15.0
1070
   173
1070
     1
1070
   340
1005
918
1070
   343
1005
907
1070
   344
1005
907
1002
}
  0
ENDSEC
  0
SECTION
  2
OBJECTS
  0
DICTIONARY
  5
C
330
0
100
AcDbDictionary
281
     1
  3
ACAD_CIP_PREVIOUS_PRODUCT_INFO
350
738
  3
ACAD_COLOR
350
6DD
  3
ACAD_DETAILVIEWSTYLE
350
734
  3
ACAD_GROUP
350
D
  3
ACAD_LAYOUT
350
1A
  3
ACAD_MATERIAL
350
6D9
  3
ACAD_MLEADERSTYLE
350
6D3
  3
ACAD_MLINESTYLE
350
17
  3
ACAD_PLOTSETTINGS
350
19
  3
ACAD_PLOTSTYLENAME
350
E
  3
ACAD_SCALELIST
350
71F
  3
ACAD_SECTIONVIEWSTYLE
350
732
  3
ACAD_TABLESTYLE
350
6D2
  3
ACAD_VISUALSTYLE
350
2A
  3
ACDB_RECOMPOSE_DATA
350
954
  3
AcDbVariableDictionary
350
6E1
  0
DICTIONARY
  5
843
330
2
100
AcDbDictionary
280
     1
281
     1
  3
ACAD_LAYERSTATES
360
844
  0
DICTIONARY
  5
739
330
10
100
AcDbDictionary
280
     1
281
     1
  3
ADSK_XREC_LAYER_RECONCILED
360
73A
  0
DICTIONARY
  5
73B
330
42
100
AcDbDictionary
280
     1
281
     1
  3
ADSK_XREC_LAYER_RECONCILED
360
73C
  0
DICTIONARY
  5
73D
330
6BD
100
AcDbDictionary
280
     1
281
     1
  3
ADSK_XREC_LAYER_RECONCILED
360
73E
  0
DICTIONARY
  5
8B6
330
1F
100
AcDbDictionary
280
     1
281
     1
  3
ACAD_SORTENTS
360
8B7
  0
XRECORD
  5
738
102
{ACAD_REACTORS
330
C
102
}
330
C
100
AcDbXrecord
280
     1
300
ACDLT
300
2021
300
ACDLT_F_S
  0
DICTIONARY
  5
6DD
102
{ACAD_REACTORS
330
C
102
}
330
C
100
AcDbDictionary
281
     1
  0
DICTIONARY
  5
734
102
{ACAD_REACTORS
330
C
102
}
330
C
100
AcDbDictionary
281
     1
  3
Imperial24
350
91A
  3
Metric50
350
735
  0
DICTIONARY
  5
D
102
{ACAD_REACTORS
330
C
102
}
330
C
100
AcDbDictionary
281
     1
  0
DICTIONARY
  5
1A
102
{ACAD_REACTORS
330
C
102
}
330
C
100
AcDbDictionary
281
     1
  3
Layout1
350
1E
  3
Layout2
350
26
  3
Model
350
22
  0
DICTIONARY
  5
6D9
102
{ACAD_REACTORS
330
C
102
}
330
C
100
AcDbDictionary
281
     1
  3
ByBlock
350
6DB
  3
ByLayer
350
6DA
  3
Global
350
6DC
  0
DICTIONARY
  5
6D3
102
{ACAD_REACTORS
330
C
102
}
330
C
100
AcDbDictionary
281
     1
  3
Standard
350
731
  0
DICTIONARY
  5
17
102
{ACAD_REACTORS
330
C
102
}
330
C
100
AcDbDictionary
281
     1
  3
Standard
350
18
  0
DICTIONARY
  5
19
102
{ACAD_REACTORS
330
C
102
}
330
C
100
AcDbDictionary
281
     1
  0
ACDBDICTIONARYWDFLT
  5
E
102
{ACAD_REACTORS
330
C
102
}
330
C
100
AcDbDictionary
281
     1
  3
Normal
350
F
100
AcDbDictionaryWithDefault
340
F
  0
DICTIONARY
  5
71F
102
{ACAD_REACTORS
330
C
102
}
330
C
100
AcDbDictionary
281
     1
  3
A0
350
720
  3
A1
350
721
  3
A2
350
722
  3
A3
350
723
  3
A4
350
724
  3
A5
350
725
  3
A6
350
726
  3
A7
350
727
  3
A8
350
728
  3
A9
350
729
  3
B0
350
72A
  3
B1
350
72B
  3
B2
350
72C
  3
B3
350
72D
  3
B4
350
72E
  3
B5
350
72F
  3
B6
350
730
  0
DICTIONARY
  5
732
102
{ACAD_REACTORS
330
C
102
}
330
C
100
AcDbDictionary
281
     1
  3
Imperial24
350
919
  3
Metric50
350
733
  0
DICTIONARY
  5
6D2
102
{ACAD_REACTORS
330
C
102
}
330
C
100
AcDbDictionary
281
     1
  3
Standard
350
6DE
  0
DICTIONARY
  5
2A
102
{ACAD_REACTORS
330
C
102
}
330
C
100
AcDbDictionary
281
     1
  3
2dWireframe
350
2F
  3
3D Hidden
350
31
  3
3dWireframe
350
30
  3
Basic
350
32
  3
Brighten
350
36
  3
ColorChange
350
3A
  3
Conceptual
350
34
  3
Dim
350
35
  3
EdgeColorOff
350
71E
  3
Facepattern
350
39
  3
Flat
350
2B
  3
FlatWithEdges
350
2C
  3
Gouraud
350
2D
  3
GouraudWithEdges
350
2E
  3
Hidden
350
716
  3
JitterOff
350
71C
  3
Linepattern
350
38
  3
OverhangOff
350
71D
  3
Realistic
350
33
  3
Shaded
350
71B
  3
Shaded with edges
350
71A
  3
Shades of Gray
350
717
  3
Sketchy
350
718
  3
Thicken
350
37
  3
Wireframe
350
715
  3
X-Ray
350
719
  0
XRECORD
  5
954
102
{ACAD_REACTORS
330
C
102
}
330
C
100
AcDbXrecord
280
     1
 90
        1
330
6DE
  0
DICTIONARY
  5
6E1
102
{ACAD_REACTORS
330
C
102
}
330
C
100
AcDbDictionary
281
     1
  3
CANNOSCALE
350
8A3
  3
CMLEADERSTYLE
350
89F
  3
CTABLESTYLE
350
6E2
  3
CVIEWDETAILSTYLE
350
8A0
  3
CVIEWSECTIONSTYLE
350
8A1
  3
DIMASSOC
350
703
  3
INDEXCTL
350
702
  3
LAYEREVAL
350
8A5
  3
LAYERNOTIFY
350
8A6
  3
LIGHTINGUNITS
350
8A4
  3
MSLTSCALE
350
8A2
  3
SORTENTS
350
701
  0
DICTIONARY
  5
844
102
{ACAD_REACTORS
330
843
102
}
330
843
100
AcDbDictionary
281
     1
  0
XRECORD
  5
73A
102
{ACAD_REACTORS
330
739
102
}
330
739
100
AcDbXrecord
280
     1
290
     1
  0
XRECORD
  5
73C
102
{ACAD_REACTORS
330
73B
102
}
330
73B
100
AcDbXrecord
280
     1
290
     1
  0
XRECORD
  5
73E
102
{ACAD_REACTORS
330
73D
102
}
330
73D
100
AcDbXrecord
280
     1
290
     1
  0
SORTENTSTABLE
  5
8B7
102
{ACAD_REACTORS
330
8B6
102
}
330
8B6
100
AcDbSortentsTable
330
1F
  0
ACDBDETAILVIEWSTYLE
  5
91A
102
{ACAD_XDICTIONARY
360
95B
102
}
102
{ACAD_REACTORS
330
734
102
}
330
734
100
AcDbModelDocViewStyle
 70
     0
  3
Imperial24
290
     0
100
AcDbDetailViewStyle
 70
     0
 71
     0
 90
        3
 71
     1
340
11
 62
   256
 40
0.24
340
0
 62
   256
 40
0.24
300

 40
0.36
280
     3
 71
     2
340
16
 90
       25
 62
   256
 71
     3
340
11
 62
   256
 40
0.24
 90
        1
 40
0.75
 90
        1
300
%<\AcVar ViewType \f "%tc1">% %<\AcVar ViewDetailId>%\PVARIA %<\AcVar ViewScale \f "%sn">%
 71
     4
340
16
 90
       25
 62
   256
340
16
 90
       25
 62
   256
280
     0
  0
ACDBDETAILVIEWSTYLE
  5
735
102
{ACAD_XDICTIONARY
360
957
102
}
102
{ACAD_REACTORS
330
734
102
}
330
734
100
AcDbModelDocViewStyle
 70
     0
  3
Metric50
290
     0
100
AcDbDetailViewStyle
 70
     0
 71
     0
 90
        3
 71
     1
340
11
 62
   256
 40
5.0
340
0
 62
   256
 40
5.0
300

 40
0.0
280
     1
 71
     2
340
16
 90
       25
 62
   256
 71
     3
340
11
 62
   256
 40
5.0
 90
        0
 40
15.0
 90
        1
300
%<\AcVar ViewDetailId>% (%<\AcVar ViewScale \f "%sn">%)
 71
     4
340
16
 90
       25
 62
   256
340
16
 90
       25
 62
   256
280
     0
  0
LAYOUT
  5
1E
102
{ACAD_REACTORS
330
1A
102
}
330
1A
100
AcDbPlotSettings
  1

  2
none_device
  4

  6

 40
0.0
 41
0.0
 42
0.0
 43
0.0
 44
0.0
 45
0.0
 46
0.0
 47
0.0
 48
0.0
 49
0.0
140
0.0
141
0.0
142
1.0
143
1.0
 70
   688
 72
     0
 73
     0
 74
     5
  7

 75
    16
147
1.0
 76
     0
 77
     2
 78
   300
148
0.0
149
0.0
100
AcDbLayout
  1
Layout1
 70
     1
 71
     1
 10
-0.5
 20
-0.5
 11
5.0
 21
5.0
 12
0.0
 22
0.0
 32
0.0
 14
-0.5
 24
-0.5
 34
-0.5
 15
5.0
 25
5.0
 35
5.0
146
0.0
 13
0.0
 23
0.0
 33
0.0
 16
1.0
 26
0.0
 36
0.0
 17
0.0
 27
1.0
 37
0.0
 76
     0
330
1B
  0
LAYOUT
  5
26
102
{ACAD_REACTORS
330
1A
102
}
330
1A
100
AcDbPlotSettings
  1

  2
none_device
  4

  6

 40
0.0
 41
0.0
 42
0.0
 43
0.0
 44
0.0
 45
0.0
 46
0.0
 47
0.0
 48
0.0
 49
0.0
140
0.0
141
0.0
142
1.0
143
1.0
 70
   688
 72
     0
 73
     0
 74
     5
  7

 75
    16
147
1.0
 76
     0
 77
     2
 78
   300
148
0.0
149
0.0
100
AcDbLayout
  1
Layout2
 70
     1
 71
     2
 10
0.0
 20
0.0
 11
0.0
 21
0.0
 12
0.0
 22
0.0
 32
0.0
 14
0.0
 24
0.0
 34
0.0
 15
0.0
 25
0.0
 35
0.0
146
0.0
 13
0.0
 23
0.0
 33
0.0
 16
1.0
 26
0.0
 36
0.0
 17
0.0
 27
1.0
 37
0.0
 76
     0
330
23
  0
LAYOUT
  5
22
102
{ACAD_REACTORS
330
1A
102
}
330
1A
100
AcDbPlotSettings
  1

  2
none_device
  4

  6

 40
0.0
 41
0.0
 42
0.0
 43
0.0
 44
0.0
 45
0.0
 46
0.0
 47
0.0
 48
0.0
 49
0.0
140
0.0
141
0.0
142
1.0
143
1.0
 70
  1712
 72
     0
 73
     0
 74
     0
  7

 75
     0
147
1.0
 76
     0
 77
     2
 78
   300
148
0.0
149
0.0
100
AcDbLayout
  1
Model
 70
     1
 71
     0
 10
-0.5
 20
-0.5
 11
5.0
 21
5.0
 12
0.0
 22
0.0
 32
0.0
 14
-0.5
 24
-0.5
 34
-0.5
 15
5.0
 25
5.0
 35
5.0
146
0.0
 13
0.0
 23
0.0
 33
0.0
 16
1.0
 26
0.0
 36
0.0
 17
0.0
 27
1.0
 37
0.0
 76
     0
330
1F
331
6C2
  0
MATERIAL
  5
6DB
102
{ACAD_XDICTIONARY
360
70D
102
}
102
{ACAD_REACTORS
330
6D9
102
}
330
6D9
100
AcDbMaterial
  1
ByBlock
  0
MATERIAL
  5
6DA
102
{ACAD_XDICTIONARY
360
70B
102
}
102
{ACAD_REACTORS
330
6D9
102
}
330
6D9
100
AcDbMaterial
  1
ByLayer
  0
MATERIAL
  5
6DC
102
{ACAD_XDICTIONARY
360
70F
102
}
102
{ACAD_REACTORS
330
6D9
102
}
330
6D9
100
AcDbMaterial
  1
Global
  0
MLEADERSTYLE
  5
731
102
{ACAD_REACTORS
330
6D3
102
}
330
6D3
100
AcDbMLeaderStyle
179
     2
170
     2
171
     1
172
     0
 90
        2
 40
0.0
 41
0.0
173
     1
 91
-1056964608
340
14
 92
       -2
290
     1
 42
2.0
291
     1
 43
0.36
  3
Standard
 44
4.0
300

342
11
174
     1
178
     6
175
     1
176
     0
 93
-1056964608
 45
4.0
292
     0
297
     0
 46
4.0
 94
-1056964608
 47
1.0
 49
1.0
140
1.0
293
     1
141
0.0
294
     1
177
     0
142
1.0
295
     0
296
     0
143
0.125
271
     0
272
     9
273
     9
298
     0
  0
MLINESTYLE
  5
18
102
{ACAD_REACTORS
330
17
102
}
330
17
100
AcDbMlineStyle
  2
STANDARD
 70
     0
  3

 62
   256
 51
90.0
 52
90.0
 71
     2
 49
0.5
 62
   256
  6
BYLAYER
 49
-0.5
 62
   256
  6
BYLAYER
  0
ACDBPLACEHOLDER
  5
F
102
{ACAD_REACTORS
330
E
102
}
330
E
  0
SCALE
  5
720
102
{ACAD_REACTORS
330
71F
102
}
330
71F
100
AcDbScale
 70
     0
300
1:1
140
1.0
141
1.0
290
     1
  0
SCALE
  5
721
102
{ACAD_REACTORS
330
71F
102
}
330
71F
100
AcDbScale
 70
     0
300
1:2
140
1.0
141
2.0
290
     0
  0
SCALE
  5
722
102
{ACAD_REACTORS
330
71F
102
}
330
71F
100
AcDbScale
 70
     0
300
1:4
140
1.0
141
4.0
290
     0
  0
SCALE
  5
723
102
{ACAD_REACTORS
330
71F
102
}
330
71F
100
AcDbScale
 70
     0
300
1:5
140
1.0
141
5.0
290
     0
  0
SCALE
  5
724
102
{ACAD_REACTORS
330
71F
102
}
330
71F
100
AcDbScale
 70
     0
300
1:8
140
1.0
141
8.0
290
     0
  0
SCALE
  5
725
102
{ACAD_REACTORS
330
71F
102
}
330
71F
100
AcDbScale
 70
     0
300
1:10
140
1.0
141
10.0
290
     0
  0
SCALE
  5
726
102
{ACAD_REACTORS
330
71F
102
}
330
71F
100
AcDbScale
 70
     0
300
1:16
140
1.0
141
16.0
290
     0
  0
SCALE
  5
727
102
{ACAD_REACTORS
330
71F
102
}
330
71F
100
AcDbScale
 70
     0
300
1:20
140
1.0
141
20.0
290
     0
  0
SCALE
  5
728
102
{ACAD_REACTORS
330
71F
102
}
330
71F
100
AcDbScale
 70
     0
300
1:30
140
1.0
141
30.0
290
     0
  0
SCALE
  5
729
102
{ACAD_REACTORS
330
71F
102
}
330
71F
100
AcDbScale
 70
     0
300
1:40
140
1.0
141
40.0
290
     0
  0
SCALE
  5
72A
102
{ACAD_REACTORS
330
71F
102
}
330
71F
100
AcDbScale
 70
     0
300
1:50
140
1.0
141
50.0
290
     0
  0
SCALE
  5
72B
102
{ACAD_REACTORS
330
71F
102
}
330
71F
100
AcDbScale
 70
     0
300
1:100
140
1.0
141
100.0
290
     0
  0
SCALE
  5
72C
102
{ACAD_REACTORS
330
71F
102
}
330
71F
100
AcDbScale
 70
     0
300
2:1
140
2.0
141
1.0
290
     0
  0
SCALE
  5
72D
102
{ACAD_REACTORS
330
71F
102
}
330
71F
100
AcDbScale
 70
     0
300
4:1
140
4.0
141
1.0
290
     0
  0
SCALE
  5
72E
102
{ACAD_REACTORS
330
71F
102
}
330
71F
100
AcDbScale
 70
     0
300
8:1
140
8.0
141
1.0
290
     0
  0
SCALE
  5
72F
102
{ACAD_REACTORS
330
71F
102
}
330
71F
100
AcDbScale
 70
     0
300
10:1
140
10.0
141
1.0
290
     0
  0
SCALE
  5
730
102
{ACAD_REACTORS
330
71F
102
}
330
71F
100
AcDbScale
 70
     0
300
100:1
140
100.0
141
1.0
290
     0
  0
ACDBSECTIONVIEWSTYLE
  5
919
102
{ACAD_XDICTIONARY
360
959
102
}
102
{ACAD_REACTORS
330
732
102
}
330
732
100
AcDbModelDocViewStyle
 70
     0
  3
Imperial24
290
     0
100
AcDbSectionViewStyle
 70
     0
 71
     0
 90
       78
 71
     1
340
11
 62
   256
 40
0.24
340
0
340
0
 62
   256
 40
0.24
300
I, O, Q, S, X, Z
 40
0.48
 90
        3
 40
0.18
 90
        1
 71
     2
340
16
 90
       25
 62
   256
340
16
 90
       50
 62
   256
 40
0.24
 40
0.0
 40
0.24
 71
     3
340
11
 62
   256
 40
0.24
 90
        1
 40
0.75
 90
        1
300
%<\AcVar ViewType \f "%tc1">% %<\AcVar ViewSectionStartId>%-%<\AcVar ViewSectionEndId>%\PVARIA %<\AcVar ViewScale \f "%sn">%
 71
     4
 62
   256
 62
   257
300
ANSI31
 40
1.0
 90
        0
290
     0
290
     0
 90
        6
 40
0.0
 40
1.570796326794896
 40
0.2617993877991494
 40
1.308996938995747
 40
-0.2617993877991494
 40
1.832595714594046
  0
ACDBSECTIONVIEWSTYLE
  5
733
102
{ACAD_XDICTIONARY
360
955
102
}
102
{ACAD_REACTORS
330
732
102
}
330
732
100
AcDbModelDocViewStyle
 70
     0
  3
Metric50
290
     0
100
AcDbSectionViewStyle
 70
     0
 71
     0
 90
      102
 71
     1
340
11
 62
   256
 40
5.0
340
0
340
0
 62
   256
 40
5.0
300
I, O, Q, S, X, Z
 40
10.0
 90
        0
 40
2.5
 90
        0
 71
     2
340
16
 90
       25
 62
   256
340
16
 90
       50
 62
   256
 40
5.0
 40
2.5
 40
5.0
 71
     3
340
11
 62
   256
 40
5.0
 90
        0
 40
15.0
 90
        1
300
%<\AcVar ViewSectionStartId>%-%<\AcVar ViewSectionEndId>% (%<\AcVar ViewScale \f "%sn">%)
 71
     4
 62
   256
 62
   257
300
ANSI31
 40
1.0
 90
        0
290
     0
290
     0
 90
        6
 40
0.0
 40
1.570796326794896
 40
0.2617993877991494
 40
1.308996938995747
 40
-0.2617993877991494
 40
1.832595714594045
  0
TABLESTYLE
  5
6DE
102
{ACAD_XDICTIONARY
360
8A7
102
}
102
{ACAD_REACTORS
330
6D2
102
}
330
6D2
100
AcDbTableStyle
280
     0
  3
Standard
 70
     0
 71
     0
 40
1.5
 41
1.5
280
     0
281
     0
  7
Standard
140
4.5
170
     2
 62
     0
 63
     7
283
     0
 90
      512
 91
        0
  1

274
    -2
284
     1
 64
     0
275
    -2
285
     1
 65
     0
276
    -2
286
     1
 66
     0
277
    -2
287
     1
 67
     0
278
    -2
288
     1
 68
     0
279
    -2
289
     1
 69
     0
  7
Standard
140
6.0
170
     5
 62
     0
 63
     7
283
     0
 90
      512
 91
        0
  1

274
    -2
284
     1
 64
     0
275
    -2
285
     1
 65
     0
276
    -2
286
     1
 66
     0
277
    -2
287
     1
 67
     0
278
    -2
288
     1
 68
     0
279
    -2
289
     1
 69
     0
  7
Standard
140
4.5
170
     5
 62
     0
 63
     7
283
     0
 90
      512
 91
        0
  1

274
    -2
284
     1
 64
     0
275
    -2
285
     1
 65
     0
276
    -2
286
     1
 66
     0
277
    -2
287
     1
 67
     0
278
    -2
288
     1
 68
     0
279
    -2
289
     1
 69
     0
  0
VISUALSTYLE
  5
2F
102
{ACAD_REACTORS
330
2A
102
}
330
2A
100
AcDbVisualStyle
  2

 70
     4
177
     3
291
     0
 70
    58
 90
        0
176
     1
 90
        2
176
     1
 90
        0
176
     1
 90
        0
176
     1
 40
0.6
176
     1
 40
30.0
176
     1
 62
     7
176
     1
 90
        1
176
     1
 90
        4
176
     1
 62
     7
176
     1
 62
   257
176
     1
 90
        1
176
     1
 90
        1
176
     1
 40
1.0
176
     1
 90
        0
176
     1
 62
   257
176
     1
 40
1.0
176
     1
 90
        1
176
     1
 90
        6
176
     1
 90
        2
176
     1
 62
     7
176
     1
 90
        5
176
     1
 90
        0
176
     1
 90
        0
176
     1
290
     0
176
     1
 90
        1
176
     1
 40
0.0
176
     1
 90
        0
176
     1
290
     1
176
     1
290
     1
176
     1
290
     0
176
     1
290
     0
176
     1
290
     0
176
     1
290
     0
176
     1
290
     0
176
     1
290
     0
176
     1
290
     0
176
     1
 90
       50
176
     1
 40
0.0
176
     1
 40
1.0
176
     1
 90
        0
176
     1
 62
    18
176
     1
 90
       50
176
     1
 90
        3
176
     1
 62
     5
420
      255
176
     1
290
     0
176
     1
 90
       50
176
     1
 90
       50
176
     1
 90
       50
176
     1
290
     0
176
     1
 90
       50
176
     1
 62
   256
176
     0
 40
1.0
176
     0
 90
        2
176
     1
  1
strokes_ogs.tif
176
     1
290
     0
176
     1
 40
1.0
176
     1
 40
1.0
176
     1
1001
ACAD
1000
AcDbSavedByObjectVersion
1070
     0
  0
VISUALSTYLE
  5
31
102
{ACAD_REACTORS
330
2A
102
}
330
2A
100
AcDbVisualStyle
  2

 70
     6
177
     3
291
     0
 70
    58
 90
        1
176
     1
 90
        2
176
     1
 90
        2
176
     1
 90
        0
176
     1
 40
0.6
176
     1
 40
30.0
176
     1
 62
     7
176
     1
 90
        2
176
     1
 90
        2
176
     1
 62
     7
176
     1
 62
   257
176
     1
 90
        2
176
     1
 90
        1
176
     1
 40
40.0
176
     1
 90
        0
176
     1
 62
   257
176
     1
 40
1.0
176
     1
 90
        1
176
     1
 90
        6
176
     1
 90
        2
176
     1
 62
     7
176
     1
 90
        3
176
     1
 90
        0
176
     1
 90
        0
176
     1
290
     0
176
     1
 90
        1
176
     1
 40
0.0
176
     1
 90
        0
176
     1
290
     0
176
     1
290
     1
176
     1
290
     1
176
     1
290
     0
176
     1
290
     0
176
     1
290
     0
176
     1
290
     0
176
     1
290
     0
176
     1
290
     0
176
     1
 90
       50
176
     1
 40
0.0
176
     1
 40
1.0
176
     1
 90
        0
176
     1
 62
    18
176
     1
 90
       50
176
     1
 90
        3
176
     1
 62
     5
420
      255
176
     1
290
     0
176
     1
 90
       50
176
     1
 90
       50
176
     1
 90
       50
176
     1
290
     0
176
     1
 90
       50
176
     1
 62
   256
176
     0
 40
1.0
176
     0
 90
        2
176
     1
  1
strokes_ogs.tif
176
     1
290
     0
176
     1
 40
1.0
176
     1
 40
1.0
176
     1
1001
ACAD
1000
AcDbSavedByObjectVersion
1070
     0
  0
VISUALSTYLE
  5
30
102
{ACAD_REACTORS
330
2A
102
}
330
2A
100
AcDbVisualStyle
  2

 70
     5
177
     3
291
     0
 70
    58
 90
        0
176
     1
 90
        2
176
     1
 90
        0
176
     1
 90
        0
176
     1
 40
0.6
176
     1
 40
30.0
176
     1
 62
     7
176
     1
 90
        1
176
     1
 90
        4
176
     1
 62
     7
176
     1
 62
   257
176
     1
 90
        1
176
     1
 90
        1
176
     1
 40
1.0
176
     1
 90
        0
176
     1
 62
   257
176
     1
 40
1.0
176
     1
 90
        1
176
     1
 90
        6
176
     1
 90
        2
176
     1
 62
     7
176
     1
 90
        5
176
     1
 90
        0
176
     1
 90
        0
176
     1
290
     0
176
     1
 90
        1
176
     1
 40
0.0
176
     1
 90
        0
176
     1
290
     0
176
     1
290
     1
176
     1
290
     1
176
     1
290
     0
176
     1
290
     0
176
     1
290
     0
176
     1
290
     0
176
     1
290
     0
176
     1
290
     0
176
     1
 90
       50
176
     1
 40
0.0
176
     1
 40
1.0
176
     1
 90
        0
176
     1
 62
    18
176
     1
 90
       50
176
     1
 90
        3
176
     1
 62
     5
420
      255
176
     1
290
     0
176
     1
 90
       50
176
     1
 90
       50
176
     1
 90
       50
176
     1
290
     0
176
     1
 90
       50
176
     1
 62
   256
176
     0
 40
1.0
176
     0
 90
        2
176
     1
  1
strokes_ogs.tif
176
     1
290
     0
176
     1
 40
1.0
176
     1
 40
1.0
176
     1
1001
ACAD
1000
AcDbSavedByObjectVersion
1070
     0
  0
VISUALSTYLE
  5
32
102
{ACAD_REACTORS
330
2A
102
}
330
2A
100
AcDbVisualStyle
  2

 70
     7
177
     3
291
     1
 70
    58
 90
        1
176
     1
 90
        0
176
     1
 90
        1
176
     1
 90
        0
176
     1
 40
0.6
176
     1
 40
30.0
176
     1
 62
     7
176
     1
 90
        0
176
     1
 90
        4
176
     1
 62
     7
176
     1
 62
   257
176
     1
 90
        1
176
     1
 90
        1
176
     1
 40
1.0
176
     1
 90
        8
176
     1
 62
     7
176
     1
 40
1.0
176
     1
 90
        1
176
     1
 90
        6
176
     1
 90
        2
176
     1
 62
     7
176
     1
 90
        5
176
     1
 90
        0
176
     1
 90
        0
176
     1
290
     0
176
     1
 90
        1
176
     1
 40
0.0
176
     1
 90
        0
176
     1
290
     0
176
     1
290
     1
176
     1
290
     1
176
     1
290
     0
176
     1
290
     0
176
     1
290
     0
176
     1
290
     0
176
     1
290
     0
176
     1
290
     0
176
     1
 90
       50
176
     1
 40
0.0
176
     1
 40
1.0
176
     1
 90
        0
176
     1
 62
    18
176
     1
 90
       50
176
     1
 90
        3
176
     1
 62
     5
420
      255
176
     1
290
     0
176
     1
 90
       50
176
     1
 90
       50
176
     1
 90
       50
176
     1
290
     0
176
     1
 90
       50
176
     1
 62
   256
176
     0
 40
1.0
176
     0
 90
        2
176
     1
  1
strokes_ogs.tif
176
     1
290
     0
176
     1
 40
1.0
176
     1
 40
1.0
176
     1
1001
ACAD
1000
AcDbSavedByObjectVersion
1070
     0
  0
VISUALSTYLE
  5
36
102
{ACAD_REACTORS
330
2A
102
}
330
2A
100
AcDbVisualStyle
  2

 70
    12
177
     3
291
     1
 70
    58
 90
        2
176
     1
 90
        2
176
     1
 90
        0
176
     1
 90
        0
176
     1
 40
0.6
176
     1
 40
30.0
176
     1
 62
     7
176
     1
 90
        1
176
     1
 90
        4
176
     1
 62
     7
176
     1
 62
   257
176
     1
 90
        1
176
     1
 90
        1
176
     1
 40
1.0
176
     1
 90
        8
176
     1
 62
     7
176
     1
 40
1.0
176
     1
 90
        1
176
     1
 90
        6
176
     1
 90
        2
176
     1
 62
     7
176
     1
 90
        5
176
     1
 90
        0
176
     1
 90
        0
176
     1
290
     0
176
     1
 90
        1
176
     1
 40
50.0
176
     1
 90
        0
176
     1
290
     0
176
     1
290
     1
176
     1
290
     1
176
     1
290
     0
176
     1
290
     0
176
     1
290
     0
176
     1
290
     0
176
     1
290
     0
176
     1
290
     0
176
     1
 90
       50
176
     1
 40
0.0
176
     1
 40
1.0
176
     1
 90
        0
176
     1
 62
    18
176
     1
 90
       50
176
     1
 90
        3
176
     1
 62
     5
420
      255
176
     1
290
     0
176
     1
 90
       50
176
     1
 90
       50
176
     1
 90
       50
176
     1
290
     0
176
     1
 90
       50
176
     1
 62
   256
176
     0
 40
1.0
176
     0
 90
        2
176
     1
  1
strokes_ogs.tif
176
     1
290
     0
176
     1
 40
1.0
176
     1
 40
1.0
176
     1
1001
ACAD
1000
AcDbSavedByObjectVersion
1070
     0
  0
VISUALSTYLE
  5
3A
102
{ACAD_REACTORS
330
2A
102
}
330
2A
100
AcDbVisualStyle
  2

 70
    16
177
     3
291
     1
 70
    58
 90
        2
176
     1
 90
        2
176
     1
 90
        3
176
     1
 90
        0
176
     1
 40
0.6
176
     1
 40
30.0
176
     1
 62
     8
176
     1
 90
        1
176
     1
 90
        4
176
     1
 62
     7
176
     1
 62
   257
176
     1
 90
        1
176
     1
 90
        1
176
     1
 40
1.0
176
     1
 90
        8
176
     1
 62
     8
176
     1
 40
1.0
176
     1
 90
        1
176
     1
 90
        6
176
     1
 90
        2
176
     1
 62
     7
176
     1
 90
        5
176
     1
 90
        0
176
     1
 90
        0
176
     1
290
     0
176
     1
 90
        1
176
     1
 40
0.0
176
     1
 90
        0
176
     1
290
     0
176
     1
290
     1
176
     1
290
     1
176
     1
290
     0
176
     1
290
     0
176
     1
290
     0
176
     1
290
     0
176
     1
290
     0
176
     1
290
     0
176
     1
 90
       50
176
     1
 40
0.0
176
     1
 40
1.0
176
     1
 90
        0
176
     1
 62
    18
176
     1
 90
       50
176
     1
 90
        3
176
     1
 62
     5
420
      255
176
     1
290
     0
176
     1
 90
       50
176
     1
 90
       50
176
     1
 90
       50
176
     1
290
     0
176
     1
 90
       50
176
     1
 62
   256
176
     0
 40
1.0
176
     0
 90
        2
176
     1
  1
strokes_ogs.tif
176
     1
290
     0
176
     1
 40
1.0
176
     1
 40
1.0
176
     1
1001
ACAD
1000
AcDbSavedByObjectVersion
1070
     0
  0
VISUALSTYLE
  5
34
102
{ACAD_REACTORS
330
2A
102
}
330
2A
100
AcDbVisualStyle
  2

 70
     9
177
     3
291
     0
 70
    58
 90
        3
176
     1
 90
        2
176
     1
 90
        0
176
     1
 90
        0
176
     1
 40
0.6
176
     1
 40
30.0
176
     1
 62
     7
176
     1
 90
        2
176
     1
 90
        2
176
     1
 62
     7
176
     1
 62
   257
176
     1
 90
        1
176
     1
 90
        1
176
     1
 40
40.0
176
     1
 90
        8
176
     1
 62
     7
176
     1
 40
1.0
176
     1
 90
        1
176
     1
 90
        6
176
     1
 90
        2
176
     1
 62
     7
176
     1
 90
        3
176
     1
 90
        0
176
     1
 90
        0
176
     1
290
     0
176
     1
 90
        1
176
     1
 40
0.0
176
     1
 90
        0
176
     1
290
     0
176
     1
290
     1
176
     1
290
     1
176
     1
290
     0
176
     1
290
     0
176
     1
290
     0
176
     1
290
     0
176
     1
290
     0
176
     1
290
     0
176
     1
 90
       50
176
     1
 40
0.0
176
     1
 40
1.0
176
     1
 90
        0
176
     1
 62
    18
176
     1
 90
       50
176
     1
 90
        3
176
     1
 62
     5
420
      255
176
     1
290
     0
176
     1
 90
       50
176
     1
 90
       50
176
     1
 90
       50
176
     1
290
     0
176
     1
 90
       50
176
     1
 62
   256
176
     0
 40
1.0
176
     0
 90
        2
176
     1
  1
strokes_ogs.tif
176
     1
290
     0
176
     1
 40
1.0
176
     1
 40
1.0
176
     1
1001
ACAD
1000
AcDbSavedByObjectVersion
1070
     0
  0
VISUALSTYLE
  5
35
102
{ACAD_REACTORS
330
2A
102
}
330
2A
100
AcDbVisualStyle
  2

 70
    11
177
     3
291
     1
 70
    58
 90
        2
176
     1
 90
        2
176
     1
 90
        0
176
     1
 90
        0
176
     1
 40
0.6
176
     1
 40
30.0
176
     1
 62
     7
176
     1
 90
        1
176
     1
 90
        4
176
     1
 62
     7
176
     1
 62
   257
176
     1
 90
        1
176
     1
 90
        1
176
     1
 40
1.0
176
     1
 90
        8
176
     1
 62
     7
176
     1
 40
1.0
176
     1
 90
        1
176
     1
 90
        6
176
     1
 90
        2
176
     1
 62
     7
176
     1
 90
        5
176
     1
 90
        0
176
     1
 90
        0
176
     1
290
     0
176
     1
 90
        1
176
     1
 40
-50.0
176
     1
 90
        0
176
     1
290
     0
176
     1
290
     1
176
     1
290
     1
176
     1
290
     0
176
     1
290
     0
176
     1
290
     0
176
     1
290
     0
176
     1
290
     0
176
     1
290
     0
176
     1
 90
       50
176
     1
 40
0.0
176
     1
 40
1.0
176
     1
 90
        0
176
     1
 62
    18
176
     1
 90
       50
176
     1
 90
        3
176
     1
 62
     5
420
      255
176
     1
290
     0
176
     1
 90
       50
176
     1
 90
       50
176
     1
 90
       50
176
     1
290
     0
176
     1
 90
       50
176
     1
 62
   256
176
     0
 40
1.0
176
     0
 90
        2
176
     1
  1
strokes_ogs.tif
176
     1
290
     0
176
     1
 40
1.0
176
     1
 40
1.0
176
     1
1001
ACAD
1000
AcDbSavedByObjectVersion
1070
     0
  0
VISUALSTYLE
  5
71E
102
{ACAD_REACTORS
330
2A
102
}
330
2A
100
AcDbVisualStyle
  2
EdgeColorOff
 70
    22
177
     3
291
     1
 70
    58
 90
        2
176
     0
 90
        2
176
     0
 90
        0
176
     0
 90
        0
176
     0
 40
0.6
176
     0
 40
30.0
176
     0
 62
     7
420
 16777215
176
     0
 90
        1
176
     0
 90
        4
176
     0
 62
     7
176
     0
 62
   257
176
     0
 90
        1
176
     0
 90
        1
176
     0
 40
1.0
176
     0
 90
        8
176
     2
 62
     7
176
     0
 40
1.0
176
     0
 90
        1
176
     0
 90
        6
176
     0
 90
        2
176
     0
 62
     7
176
     0
 90
        5
176
     0
 90
        0
176
     0
 90
        0
176
     0
290
     0
176
     0
 90
        1
176
     0
 40
0.0
176
     0
 90
        0
176
     0
290
     0
176
     1
290
     1
176
     1
290
     1
176
     1
290
     0
176
     1
290
     0
176
     1
290
     0
176
     1
290
     0
176
     1
290
     0
176
     1
290
     0
176
     1
 90
       50
176
     0
 40
0.0
176
     0
 40
1.0
176
     0
 90
        0
176
     0
 62
    18
176
     0
 90
       50
176
     0
 90
        3
176
     0
 62
     5
420
      255
176
     0
290
     0
176
     1
 90
       50
176
     0
 90
       50
176
     0
 90
       50
176
     0
290
     0
176
     1
 90
       50
176
     0
 62
   256
176
     0
 40
1.0
176
     0
 90
        2
176
     0
  1
strokes_ogs.tif
176
     0
290
     0
176
     1
 40
1.0
176
     0
 40
1.0
176
     0
1001
ACAD
1000
AcDbSavedByObjectVersion
1070
     0
  0
VISUALSTYLE
  5
39
102
{ACAD_REACTORS
330
2A
102
}
330
2A
100
AcDbVisualStyle
  2

 70
    15
177
     3
291
     1
 70
    58
 90
        2
176
     1
 90
        2
176
     1
 90
        0
176
     1
 90
        0
176
     1
 40
0.6
176
     1
 40
30.0
176
     1
 62
     7
176
     1
 90
        1
176
     1
 90
        4
176
     1
 62
     7
176
     1
 62
   257
176
     1
 90
        1
176
     1
 90
        1
176
     1
 40
1.0
176
     1
 90
        8
176
     1
 62
     7
176
     1
 40
1.0
176
     1
 90
        1
176
     1
 90
        6
176
     1
 90
        2
176
     1
 62
     7
176
     1
 90
        5
176
     1
 90
        0
176
     1
 90
        0
176
     1
290
     0
176
     1
 90
        1
176
     1
 40
0.0
176
     1
 90
        0
176
     1
290
     0
176
     1
290
     1
176
     1
290
     1
176
     1
290
     0
176
     1
290
     0
176
     1
290
     0
176
     1
290
     0
176
     1
290
     0
176
     1
290
     0
176
     1
 90
       50
176
     1
 40
0.0
176
     1
 40
1.0
176
     1
 90
        0
176
     1
 62
    18
176
     1
 90
       50
176
     1
 90
        3
176
     1
 62
     5
420
      255
176
     1
290
     0
176
     1
 90
       50
176
     1
 90
       50
176
     1
 90
       50
176
     1
290
     0
176
     1
 90
       50
176
     1
 62
   256
176
     0
 40
1.0
176
     0
 90
        2
176
     1
  1
strokes_ogs.tif
176
     1
290
     0
176
     1
 40
1.0
176
     1
 40
1.0
176
     1
1001
ACAD
1000
AcDbSavedByObjectVersion
1070
     0
  0
VISUALSTYLE
  5
2B
102
{ACAD_REACTORS
330
2A
102
}
330
2A
100
AcDbVisualStyle
  2

 70
     0
177
     3
291
     1
 70
    58
 90
        2
176
     1
 90
        1
176
     1
 90
        1
176
     1
 90
        2
176
     1
 40
0.6
176
     1
 40
30.0
176
     1
 62
     7
176
     1
 90
        0
176
     1
 90
        4
176
     1
 62
     7
176
     1
 62
   257
176
     1
 90
        1
176
     1
 90
        1
176
     1
 40
1.0
176
     1
 90
        8
176
     1
 62
     7
176
     1
 40
1.0
176
     1
 90
        1
176
     1
 90
        6
176
     1
 90
        2
176
     1
 62
     7
176
     1
 90
        5
176
     1
 90
        0
176
     1
 90
        0
176
     1
290
     0
176
     1
 90
       13
176
     1
 40
0.0
176
     1
 90
        0
176
     1
290
     0
176
     1
290
     1
176
     1
290
     1
176
     1
290
     0
176
     1
290
     0
176
     1
290
     0
176
     1
290
     0
176
     1
290
     0
176
     1
290
     0
176
     1
 90
       50
176
     1
 40
0.0
176
     1
 40
1.0
176
     1
 90
        0
176
     1
 62
    18
176
     1
 90
       50
176
     1
 90
        3
176
     1
 62
     5
420
      255
176
     1
290
     0
176
     1
 90
       50
176
     1
 90
       50
176
     1
 90
       50
176
     1
290
     0
176
     1
 90
       50
176
     1
 62
   256
176
     0
 40
1.0
176
     0
 90
        2
176
     1
  1
strokes_ogs.tif
176
     1
290
     0
176
     1
 40
1.0
176
     1
 40
1.0
176
     1
1001
ACAD
1000
AcDbSavedByObjectVersion
1070
     0
  0
VISUALSTYLE
  5
2C
102
{ACAD_REACTORS
330
2A
102
}
330
2A
100
AcDbVisualStyle
  2

 70
     1
177
     3
291
     1
 70
    58
 90
        2
176
     1
 90
        1
176
     1
 90
        1
176
     1
 90
        2
176
     1
 40
0.6
176
     1
 40
30.0
176
     1
 62
     7
176
     1
 90
        1
176
     1
 90
        4
176
     1
 62
     7
176
     1
 62
   257
176
     1
 90
        1
176
     1
 90
        1
176
     1
 40
1.0
176
     1
 90
        0
176
     1
 62
   257
176
     1
 40
1.0
176
     1
 90
        1
176
     1
 90
        6
176
     1
 90
        2
176
     1
 62
     7
176
     1
 90
        5
176
     1
 90
        0
176
     1
 90
        0
176
     1
290
     0
176
     1
 90
       13
176
     1
 40
0.0
176
     1
 90
        0
176
     1
290
     0
176
     1
290
     1
176
     1
290
     1
176
     1
290
     0
176
     1
290
     0
176
     1
290
     0
176
     1
290
     0
176
     1
290
     0
176
     1
290
     0
176
     1
 90
       50
176
     1
 40
0.0
176
     1
 40
1.0
176
     1
 90
        0
176
     1
 62
    18
176
     1
 90
       50
176
     1
 90
        3
176
     1
 62
     5
420
      255
176
     1
290
     0
176
     1
 90
       50
176
     1
 90
       50
176
     1
 90
       50
176
     1
290
     0
176
     1
 90
       50
176
     1
 62
   256
176
     0
 40
1.0
176
     0
 90
        2
176
     1
  1
strokes_ogs.tif
176
     1
290
     0
176
     1
 40
1.0
176
     1
 40
1.0
176
     1
1001
ACAD
1000
AcDbSavedByObjectVersion
1070
     0
  0
VISUALSTYLE
  5
2D
102
{ACAD_REACTORS
330
2A
102
}
330
2A
100
AcDbVisualStyle
  2

 70
     2
177
     3
291
     1
 70
    58
 90
        2
176
     1
 90
        2
176
     1
 90
        1
176
     1
 90
        2
176
     1
 40
0.6
176
     1
 40
30.0
176
     1
 62
     7
176
     1
 90
        0
176
     1
 90
        4
176
     1
 62
     7
176
     1
 62
   257
176
     1
 90
        1
176
     1
 90
        1
176
     1
 40
1.0
176
     1
 90
        0
176
     1
 62
     7
176
     1
 40
1.0
176
     1
 90
        1
176
     1
 90
        6
176
     1
 90
        2
176
     1
 62
     7
176
     1
 90
        5
176
     1
 90
        0
176
     1
 90
        0
176
     1
290
     0
176
     1
 90
       13
176
     1
 40
0.0
176
     1
 90
        0
176
     1
290
     0
176
     1
290
     1
176
     1
290
     1
176
     1
290
     0
176
     1
290
     0
176
     1
290
     0
176
     1
290
     0
176
     1
290
     0
176
     1
290
     0
176
     1
 90
       50
176
     1
 40
0.0
176
     1
 40
1.0
176
     1
 90
        0
176
     1
 62
    18
176
     1
 90
       50
176
     1
 90
        3
176
     1
 62
     5
420
      255
176
     1
290
     0
176
     1
 90
       50
176
     1
 90
       50
176
     1
 90
       50
176
     1
290
     0
176
     1
 90
       50
176
     1
 62
   256
176
     0
 40
1.0
176
     0
 90
        2
176
     1
  1
strokes_ogs.tif
176
     1
290
     0
176
     1
 40
1.0
176
     1
 40
1.0
176
     1
1001
ACAD
1000
AcDbSavedByObjectVersion
1070
     0
  0
VISUALSTYLE
  5
2E
102
{ACAD_REACTORS
330
2A
102
}
330
2A
100
AcDbVisualStyle
  2

 70
     3
177
     3
291
     1
 70
    58
 90
        2
176
     1
 90
        2
176
     1
 90
        1
176
     1
 90
        2
176
     1
 40
0.6
176
     1
 40
30.0
176
     1
 62
     7
176
     1
 90
        1
176
     1
 90
        4
176
     1
 62
     7
176
     1
 62
   257
176
     1
 90
        1
176
     1
 90
        1
176
     1
 40
1.0
176
     1
 90
        0
176
     1
 62
   257
176
     1
 40
1.0
176
     1
 90
        1
176
     1
 90
        6
176
     1
 90
        2
176
     1
 62
     7
176
     1
 90
        5
176
     1
 90
        0
176
     1
 90
        0
176
     1
290
     0
176
     1
 90
       13
176
     1
 40
0.0
176
     1
 90
        0
176
     1
290
     0
176
     1
290
     1
176
     1
290
     1
176
     1
290
     0
176
     1
290
     0
176
     1
290
     0
176
     1
290
     0
176
     1
290
     0
176
     1
290
     0
176
     1
 90
       50
176
     1
 40
0.0
176
     1
 40
1.0
176
     1
 90
        0
176
     1
 62
    18
176
     1
 90
       50
176
     1
 90
        3
176
     1
 62
     5
420
      255
176
     1
290
     0
176
     1
 90
       50
176
     1
 90
       50
176
     1
 90
       50
176
     1
290
     0
176
     1
 90
       50
176
     1
 62
   256
176
     0
 40
1.0
176
     0
 90
        2
176
     1
  1
strokes_ogs.tif
176
     1
290
     0
176
     1
 40
1.0
176
     1
 40
1.0
176
     1
1001
ACAD
1000
AcDbSavedByObjectVersion
1070
     0
  0
VISUALSTYLE
  5
716
102
{ACAD_REACTORS
330
2A
102
}
330
2A
100
AcDbVisualStyle
  2
Hidden
 70
     6
177
     3
291
     0
 70
    58
 90
        1
176
     1
 90
        2
176
     1
 90
        2
176
     1
 90
        0
176
     1
 40
0.6
176
     1
 40
30.0
176
     1
 62
     7
420
 16777215
176
     1
 90
        2
176
     1
 90
        2
176
     1
 62
     7
176
     1
 62
   257
176
     1
 90
        2
176
     1
 90
        1
176
     1
 40
40.0
176
     1
 90
        0
176
     1
 62
   257
176
     1
 40
1.0
176
     1
 90
        1
176
     1
 90
        6
176
     1
 90
        2
176
     1
 62
     7
176
     1
 90
        3
176
     1
 90
        0
176
     1
 90
        0
176
     1
290
     0
176
     1
 90
        1
176
     1
 40
0.0
176
     1
 90
        0
176
     1
290
     0
176
     1
290
     1
176
     1
290
     1
176
     1
290
     0
176
     1
290
     0
176
     1
290
     0
176
     1
290
     0
176
     1
290
     0
176
     1
290
     0
176
     1
 90
       50
176
     1
 40
0.0
176
     1
 40
1.0
176
     1
 90
        0
176
     1
 62
    18
176
     1
 90
       50
176
     1
 90
        3
176
     1
 62
     5
420
      255
176
     1
290
     0
176
     1
 90
       50
176
     1
 90
       50
176
     1
 90
       50
176
     1
290
     0
176
     1
 90
       50
176
     1
 62
   256
176
     0
 40
1.0
176
     0
 90
        2
176
     1
  1
strokes_ogs.tif
176
     1
290
     0
176
     1
 40
1.0
176
     1
 40
1.0
176
     1
1001
ACAD
1000
AcDbSavedByObjectVersion
1070
     0
  0
VISUALSTYLE
  5
71C
102
{ACAD_REACTORS
330
2A
102
}
330
2A
100
AcDbVisualStyle
  2
JitterOff
 70
    20
177
     3
291
     1
 70
    58
 90
        2
176
     0
 90
        2
176
     0
 90
        0
176
     0
 90
        0
176
     0
 40
0.6
176
     0
 40
30.0
176
     0
 62
     7
420
 16777215
176
     0
 90
        1
176
     0
 90
        4
176
     0
 62
     7
176
     0
 62
   257
176
     0
 90
        1
176
     0
 90
        1
176
     0
 40
1.0
176
     0
 90
       10
176
     2
 62
     7
176
     0
 40
1.0
176
     0
 90
        1
176
     0
 90
        6
176
     0
 90
        2
176
     0
 62
     7
176
     0
 90
        5
176
     0
 90
        0
176
     0
 90
        0
176
     0
290
     0
176
     0
 90
        1
176
     0
 40
0.0
176
     0
 90
        0
176
     0
290
     0
176
     1
290
     1
176
     1
290
     1
176
     1
290
     0
176
     1
290
     0
176
     1
290
     0
176
     1
290
     0
176
     1
290
     0
176
     1
290
     0
176
     1
 90
       50
176
     0
 40
0.0
176
     0
 40
1.0
176
     0
 90
        0
176
     0
 62
    18
176
     0
 90
       50
176
     0
 90
        3
176
     0
 62
     5
420
      255
176
     0
290
     0
176
     1
 90
       50
176
     0
 90
       50
176
     0
 90
       50
176
     0
290
     0
176
     1
 90
       50
176
     0
 62
   256
176
     0
 40
1.0
176
     0
 90
        2
176
     0
  1
strokes_ogs.tif
176
     0
290
     0
176
     1
 40
1.0
176
     0
 40
1.0
176
     0
1001
ACAD
1000
AcDbSavedByObjectVersion
1070
     0
  0
VISUALSTYLE
  5
38
102
{ACAD_REACTORS
330
2A
102
}
330
2A
100
AcDbVisualStyle
  2

 70
    14
177
     3
291
     1
 70
    58
 90
        2
176
     1
 90
        2
176
     1
 90
        0
176
     1
 90
        0
176
     1
 40
0.6
176
     1
 40
30.0
176
     1
 62
     7
176
     1
 90
        1
176
     1
 90
        4
176
     1
 62
     7
176
     1
 62
   257
176
     1
 90
        7
176
     1
 90
        7
176
     1
 40
1.0
176
     1
 90
        8
176
     1
 62
     7
176
     1
 40
1.0
176
     1
 90
        1
176
     1
 90
        6
176
     1
 90
        2
176
     1
 62
     7
176
     1
 90
        5
176
     1
 90
        0
176
     1
 90
        0
176
     1
290
     0
176
     1
 90
        1
176
     1
 40
0.0
176
     1
 90
        0
176
     1
290
     0
176
     1
290
     1
176
     1
290
     1
176
     1
290
     0
176
     1
290
     0
176
     1
290
     0
176
     1
290
     0
176
     1
290
     0
176
     1
290
     0
176
     1
 90
       50
176
     1
 40
0.0
176
     1
 40
1.0
176
     1
 90
        0
176
     1
 62
    18
176
     1
 90
       50
176
     1
 90
        3
176
     1
 62
     5
420
      255
176
     1
290
     0
176
     1
 90
       50
176
     1
 90
       50
176
     1
 90
       50
176
     1
290
     0
176
     1
 90
       50
176
     1
 62
   256
176
     0
 40
1.0
176
     0
 90
        2
176
     1
  1
strokes_ogs.tif
176
     1
290
     0
176
     1
 40
1.0
176
     1
 40
1.0
176
     1
1001
ACAD
1000
AcDbSavedByObjectVersion
1070
     0
  0
VISUALSTYLE
  5
71D
102
{ACAD_REACTORS
330
2A
102
}
330
2A
100
AcDbVisualStyle
  2
OverhangOff
 70
    21
177
     3
291
     1
 70
    58
 90
        2
176
     0
 90
        2
176
     0
 90
        0
176
     0
 90
        0
176
     0
 40
0.6
176
     0
 40
30.0
176
     0
 62
     7
420
 16777215
176
     0
 90
        1
176
     0
 90
        4
176
     0
 62
     7
176
     0
 62
   257
176
     0
 90
        1
176
     0
 90
        1
176
     0
 40
1.0
176
     0
 90
        9
176
     2
 62
     7
176
     0
 40
1.0
176
     0
 90
        1
176
     0
 90
        6
176
     0
 90
        2
176
     0
 62
     7
176
     0
 90
        5
176
     0
 90
        0
176
     0
 90
        0
176
     0
290
     0
176
     0
 90
        1
176
     0
 40
0.0
176
     0
 90
        0
176
     0
290
     0
176
     1
290
     1
176
     1
290
     1
176
     1
290
     0
176
     1
290
     0
176
     1
290
     0
176
     1
290
     0
176
     1
290
     0
176
     1
290
     0
176
     1
 90
       50
176
     0
 40
0.0
176
     0
 40
1.0
176
     0
 90
        0
176
     0
 62
    18
176
     0
 90
       50
176
     0
 90
        3
176
     0
 62
     5
420
      255
176
     0
290
     0
176
     1
 90
       50
176
     0
 90
       50
176
     0
 90
       50
176
     0
290
     0
176
     1
 90
       50
176
     0
 62
   256
176
     0
 40
1.0
176
     0
 90
        2
176
     0
  1
strokes_ogs.tif
176
     0
290
     0
176
     1
 40
1.0
176
     0
 40
1.0
176
     0
1001
ACAD
1000
AcDbSavedByObjectVersion
1070
     0
  0
VISUALSTYLE
  5
33
102
{ACAD_REACTORS
330
2A
102
}
330
2A
100
AcDbVisualStyle
  2

 70
     8
177
     3
291
     0
 70
    58
 90
        2
176
     1
 90
        2
176
     1
 90
        0
176
     1
 90
        0
176
     1
 40
0.6
176
     1
 40
30.0
176
     1
 62
     7
176
     1
 90
        1
176
     1
 90
        0
176
     1
 62
     7
176
     1
 62
   257
176
     1
 90
        1
176
     1
 90
        1
176
     1
 40
1.0
176
     1
 90
        8
176
     1
 62
     8
176
     1
 40
1.0
176
     1
 90
        1
176
     1
 90
        6
176
     1
 90
        2
176
     1
 62
     7
176
     1
 90
        5
176
     1
 90
        0
176
     1
 90
        0
176
     1
290
     0
176
     1
 90
       13
176
     1
 40
0.0
176
     1
 90
        0
176
     1
290
     0
176
     1
290
     1
176
     1
290
     1
176
     1
290
     0
176
     1
290
     0
176
     1
290
     0
176
     1
290
     0
176
     1
290
     0
176
     1
290
     0
176
     1
 90
       50
176
     1
 40
0.0
176
     1
 40
1.0
176
     1
 90
        0
176
     1
 62
    18
176
     1
 90
       50
176
     1
 90
        3
176
     1
 62
     5
420
      255
176
     1
290
     0
176
     1
 90
       50
176
     1
 90
       50
176
     1
 90
       50
176
     1
290
     0
176
     1
 90
       50
176
     1
 62
   256
176
     0
 40
1.0
176
     0
 90
        2
176
     1
  1
strokes_ogs.tif
176
     1
290
     0
176
     1
 40
1.0
176
     1
 40
1.0
176
     1
1001
ACAD
1000
AcDbSavedByObjectVersion
1070
     0
  0
VISUALSTYLE
  5
71B
102
{ACAD_REACTORS
330
2A
102
}
330
2A
100
AcDbVisualStyle
  2
Shaded
 70
    27
177
     3
291
     0
 70
    58
 90
        2
176
     1
 90
        2
176
     1
 90
        1
176
     1
 90
        2
176
     1
 40
0.6
176
     1
 40
30.0
176
     1
 62
     7
420
 16777215
176
     1
 90
        0
176
     1
 90
        4
176
     1
 62
     7
176
     1
 62
   257
176
     1
 90
        1
176
     1
 90
        1
176
     1
 40
1.0
176
     1
 90
        8
176
     1
 62
   257
176
     1
 40
1.0
176
     1
 90
        1
176
     1
 90
        6
176
     1
 90
        2
176
     1
 62
     8
420
  7895160
176
     1
 90
        3
176
     1
 90
        0
176
     1
 90
        0
176
     1
290
     0
176
     1
 90
        5
176
     1
 40
0.0
176
     1
 90
        0
176
     1
290
     0
176
     1
290
     1
176
     1
290
     1
176
     1
290
     0
176
     1
290
     0
176
     1
290
     0
176
     1
290
     0
176
     1
290
     0
176
     1
290
     0
176
     1
 90
       50
176
     1
 40
0.0
176
     1
 40
1.0
176
     1
 90
        0
176
     1
 62
    18
176
     1
 90
       50
176
     1
 90
        3
176
     1
 62
     5
420
      255
176
     1
290
     0
176
     1
 90
       50
176
     1
 90
       50
176
     1
 90
       50
176
     1
290
     0
176
     1
 90
       50
176
     1
 62
   256
176
     0
 40
1.0
176
     0
 90
        2
176
     1
  1
strokes_ogs.tif
176
     1
290
     0
176
     1
 40
1.0
176
     1
 40
1.0
176
     1
1001
ACAD
1000
AcDbSavedByObjectVersion
1070
     0
  0
VISUALSTYLE
  5
71A
102
{ACAD_REACTORS
330
2A
102
}
330
2A
100
AcDbVisualStyle
  2
Shaded with edges
 70
    26
177
     3
291
     0
 70
    58
 90
        2
176
     1
 90
        2
176
     1
 90
        1
176
     1
 90
        2
176
     1
 40
0.6
176
     1
 40
30.0
176
     1
 62
     7
420
 16777215
176
     1
 90
        1
176
     1
 90
        2
176
     1
 62
     7
176
     1
 62
   257
176
     1
 90
        2
176
     1
 90
        1
176
     1
 40
1.0
176
     1
 90
        8
176
     1
 62
   257
176
     1
 40
1.0
176
     1
 90
        1
176
     1
 90
        6
176
     1
 90
        2
176
     1
 62
     7
176
     1
 90
        3
176
     1
 90
        0
176
     1
 90
        0
176
     1
290
     0
176
     1
 90
        5
176
     1
 40
0.0
176
     1
 90
        0
176
     1
290
     0
176
     1
290
     1
176
     1
290
     1
176
     1
290
     0
176
     1
290
     0
176
     1
290
     0
176
     1
290
     0
176
     1
290
     0
176
     1
290
     0
176
     1
 90
       50
176
     1
 40
0.0
176
     1
 40
1.0
176
     1
 90
        0
176
     1
 62
    18
176
     1
 90
       50
176
     1
 90
        3
176
     1
 62
     5
420
      255
176
     1
290
     0
176
     1
 90
       50
176
     1
 90
       50
176
     1
 90
       50
176
     1
290
     0
176
     1
 90
       50
176
     1
 62
   256
176
     0
 40
1.0
176
     0
 90
        2
176
     1
  1
strokes_ogs.tif
176
     1
290
     0
176
     1
 40
1.0
176
     1
 40
1.0
176
     1
1001
ACAD
1000
AcDbSavedByObjectVersion
1070
     0
  0
VISUALSTYLE
  5
717
102
{ACAD_REACTORS
330
2A
102
}
330
2A
100
AcDbVisualStyle
  2
Shades of Gray
 70
    23
177
     3
291
     0
 70
    58
 90
        2
176
     1
 90
        2
176
     1
 90
        3
176
     1
 90
        0
176
     1
 40
0.6
176
     1
 40
30.0
176
     1
 62
     7
420
 16777215
176
     1
 90
        2
176
     1
 90
        2
176
     1
 62
     7
176
     1
 62
     7
176
     1
 90
        1
176
     1
 90
        1
176
     1
 40
40.0
176
     1
 90
        8
176
     1
 62
     7
176
     1
 40
1.0
176
     1
 90
        1
176
     1
 90
        6
176
     1
 90
        2
176
     1
 62
     7
176
     1
 90
        3
176
     1
 90
        0
176
     1
 90
        0
176
     1
290
     0
176
     1
 90
        1
176
     1
 40
0.0
176
     1
 90
        0
176
     1
290
     0
176
     1
290
     1
176
     1
290
     1
176
     1
290
     0
176
     1
290
     0
176
     1
290
     0
176
     1
290
     0
176
     1
290
     0
176
     1
290
     0
176
     1
 90
       50
176
     1
 40
0.0
176
     1
 40
1.0
176
     1
 90
        0
176
     1
 62
    18
176
     1
 90
       50
176
     1
 90
        3
176
     1
 62
     5
420
      255
176
     1
290
     0
176
     1
 90
       50
176
     1
 90
       50
176
     1
 90
       50
176
     1
290
     0
176
     1
 90
       50
176
     1
 62
   256
176
     0
 40
1.0
176
     0
 90
        2
176
     1
  1
strokes_ogs.tif
176
     1
290
     0
176
     1
 40
1.0
176
     1
 40
1.0
176
     1
1001
ACAD
1000
AcDbSavedByObjectVersion
1070
     0
  0
VISUALSTYLE
  5
718
102
{ACAD_REACTORS
330
2A
102
}
330
2A
100
AcDbVisualStyle
  2
Sketchy
 70
    24
177
     3
291
     0
 70
    58
 90
        1
176
     1
 90
        2
176
     1
 90
        2
176
     1
 90
        0
176
     1
 40
0.6
176
     1
 40
30.0
176
     1
 62
     7
420
 16777215
176
     1
 90
        2
176
     1
 90
        2
176
     1
 62
     7
176
     1
 62
     7
176
     1
 90
        1
176
     1
 90
        1
176
     1
 40
40.0
176
     1
 90
       11
176
     1
 62
     7
176
     1
 40
1.0
176
     1
 90
        1
176
     1
 90
        6
176
     1
 90
        2
176
     1
 62
     7
176
     1
 90
        6
176
     1
 90
        0
176
     1
 90
        0
176
     1
290
     0
176
     1
 90
        1
176
     1
 40
0.0
176
     1
 90
        0
176
     1
290
     0
176
     1
290
     1
176
     1
290
     1
176
     1
290
     0
176
     1
290
     0
176
     1
290
     0
176
     1
290
     0
176
     1
290
     0
176
     1
290
     0
176
     1
 90
       50
176
     1
 40
0.0
176
     1
 40
1.0
176
     1
 90
        0
176
     1
 62
    18
176
     1
 90
       50
176
     1
 90
        3
176
     1
 62
     5
420
      255
176
     1
290
     0
176
     1
 90
       50
176
     1
 90
       50
176
     1
 90
       50
176
     1
290
     0
176
     1
 90
       50
176
     1
 62
   256
176
     0
 40
1.0
176
     0
 90
        2
176
     1
  1
strokes_ogs.tif
176
     1
290
     0
176
     1
 40
1.0
176
     1
 40
1.0
176
     1
1001
ACAD
1000
AcDbSavedByObjectVersion
1070
     0
  0
VISUALSTYLE
  5
37
102
{ACAD_REACTORS
330
2A
102
}
330
2A
100
AcDbVisualStyle
  2

 70
    13
177
     3
291
     1
 70
    58
 90
        2
176
     1
 90
        2
176
     1
 90
        0
176
     1
 90
        0
176
     1
 40
0.6
176
     1
 40
30.0
176
     1
 62
     7
176
     1
 90
        1
176
     1
 90
        4
176
     1
 62
     7
176
     1
 62
   257
176
     1
 90
        1
176
     1
 90
        1
176
     1
 40
1.0
176
     1
 90
       12
176
     1
 62
     7
176
     1
 40
1.0
176
     1
 90
        1
176
     1
 90
        6
176
     1
 90
        2
176
     1
 62
     7
176
     1
 90
        5
176
     1
 90
        0
176
     1
 90
        0
176
     1
290
     0
176
     1
 90
        1
176
     1
 40
0.0
176
     1
 90
        0
176
     1
290
     0
176
     1
290
     1
176
     1
290
     1
176
     1
290
     0
176
     1
290
     0
176
     1
290
     0
176
     1
290
     0
176
     1
290
     0
176
     1
290
     0
176
     1
 90
       50
176
     1
 40
0.0
176
     1
 40
1.0
176
     1
 90
        0
176
     1
 62
    18
176
     1
 90
       50
176
     1
 90
        3
176
     1
 62
     5
420
      255
176
     1
290
     0
176
     1
 90
       50
176
     1
 90
       50
176
     1
 90
       50
176
     1
290
     0
176
     1
 90
       50
176
     1
 62
   256
176
     0
 40
1.0
176
     0
 90
        2
176
     1
  1
strokes_ogs.tif
176
     1
290
     0
176
     1
 40
1.0
176
     1
 40
1.0
176
     1
1001
ACAD
1000
AcDbSavedByObjectVersion
1070
     0
  0
VISUALSTYLE
  5
715
102
{ACAD_REACTORS
330
2A
102
}
330
2A
100
AcDbVisualStyle
  2
Wireframe
 70
     5
177
     3
291
     0
 70
    58
 90
        0
176
     1
 90
        2
176
     1
 90
        0
176
     1
 90
        0
176
     1
 40
0.6
176
     1
 40
30.0
176
     1
 62
     7
420
 16777215
176
     1
 90
        1
176
     1
 90
        4
176
     1
 62
     7
176
     1
 62
   257
176
     1
 90
        1
176
     1
 90
        1
176
     1
 40
1.0
176
     1
 90
        0
176
     1
 62
   257
176
     1
 40
1.0
176
     1
 90
        1
176
     1
 90
        6
176
     1
 90
        2
176
     1
 62
     7
176
     1
 90
        3
176
     1
 90
        0
176
     1
 90
        0
176
     1
290
     0
176
     1
 90
        1
176
     1
 40
0.0
176
     1
 90
        0
176
     1
290
     0
176
     1
290
     1
176
     1
290
     1
176
     1
290
     0
176
     1
290
     0
176
     1
290
     0
176
     1
290
     0
176
     1
290
     0
176
     1
290
     0
176
     1
 90
       50
176
     1
 40
0.0
176
     1
 40
1.0
176
     1
 90
        0
176
     1
 62
    18
176
     1
 90
       50
176
     1
 90
        3
176
     1
 62
     5
420
      255
176
     1
290
     0
176
     1
 90
       50
176
     1
 90
       50
176
     1
 90
       50
176
     1
290
     0
176
     1
 90
       50
176
     1
 62
   256
176
     0
 40
1.0
176
     0
 90
        2
176
     1
  1
strokes_ogs.tif
176
     1
290
     0
176
     1
 40
1.0
176
     1
 40
1.0
176
     1
1001
ACAD
1000
AcDbSavedByObjectVersion
1070
     0
  0
VISUALSTYLE
  5
719
102
{ACAD_REACTORS
330
2A
102
}
330
2A
100
AcDbVisualStyle
  2
X-Ray
 70
    25
177
     3
291
     0
 70
    58
 90
        2
176
     1
 90
        2
176
     1
 90
        1
176
     1
 90
        1
176
     1
 40
0.5
176
     1
 40
30.0
176
     1
 62
     7
420
 16777215
176
     1
 90
        1
176
     1
 90
        0
176
     1
 62
     7
176
     1
 62
   257
176
     1
 90
        1
176
     1
 90
        1
176
     1
 40
1.0
176
     1
 90
        8
176
     1
 62
     7
176
     1
 40
1.0
176
     1
 90
        1
176
     1
 90
        6
176
     1
 90
        2
176
     1
 62
     7
176
     1
 90
        3
176
     1
 90
        0
176
     1
 90
        0
176
     1
290
     0
176
     1
 90
       13
176
     1
 40
0.0
176
     1
 90
        0
176
     1
290
     0
176
     1
290
     1
176
     1
290
     1
176
     1
290
     0
176
     1
290
     0
176
     1
290
     0
176
     1
290
     0
176
     1
290
     0
176
     1
290
     0
176
     1
 90
       50
176
     1
 40
0.0
176
     1
 40
1.0
176
     1
 90
        0
176
     1
 62
    18
176
     1
 90
       50
176
     1
 90
        3
176
     1
 62
     5
420
      255
176
     1
290
     0
176
     1
 90
       50
176
     1
 90
       50
176
     1
 90
       50
176
     1
290
     0
176
     1
 90
       50
176
     1
 62
   256
176
     0
 40
1.0
176
     0
 90
        2
176
     1
  1
strokes_ogs.tif
176
     1
290
     0
176
     1
 40
1.0
176
     1
 40
1.0
176
     1
1001
ACAD
1000
AcDbSavedByObjectVersion
1070
     0
  0
DICTIONARYVAR
  5
8A3
102
{ACAD_REACTORS
330
6E1
102
}
330
6E1
100
DictionaryVariables
280
     0
  1
1:1
  0
DICTIONARYVAR
  5
89F
102
{ACAD_REACTORS
330
6E1
102
}
330
6E1
100
DictionaryVariables
280
     0
  1
STANDARD
  0
DICTIONARYVAR
  5
6E2
102
{ACAD_REACTORS
330
6E1
102
}
330
6E1
100
DictionaryVariables
280
     0
  1
STANDARD
  0
DICTIONARYVAR
  5
8A0
102
{ACAD_REACTORS
330
6E1
102
}
330
6E1
100
DictionaryVariables
280
     0
  1
Metric50
  0
DICTIONARYVAR
  5
8A1
102
{ACAD_REACTORS
330
6E1
102
}
330
6E1
100
DictionaryVariables
280
     0
  1
Metric50
  0
DICTIONARYVAR
  5
703
102
{ACAD_REACTORS
330
6E1
102
}
330
6E1
100
DictionaryVariables
280
     0
  1
1
  0
DICTIONARYVAR
  5
702
102
{ACAD_REACTORS
330
6E1
102
}
330
6E1
100
DictionaryVariables
280
     0
  1
0
  0
DICTIONARYVAR
  5
8A5
102
{ACAD_REACTORS
330
6E1
102
}
330
6E1
100
DictionaryVariables
280
     0
  1
1
  0
DICTIONARYVAR
  5
8A6
102
{ACAD_REACTORS
330
6E1
102
}
330
6E1
100
DictionaryVariables
280
     0
  1
15
  0
DICTIONARYVAR
  5
8A4
102
{ACAD_REACTORS
330
6E1
102
}
330
6E1
100
DictionaryVariables
280
     0
  1
0
  0
DICTIONARYVAR
  5
8A2
102
{ACAD_REACTORS
330
6E1
102
}
330
6E1
100
DictionaryVariables
280
     0
  1
0
  0
DICTIONARYVAR
  5
701
102
{ACAD_REACTORS
330
6E1
102
}
330
6E1
100
DictionaryVariables
280
     0
  1
127
  0
DICTIONARY
  5
95B
330
91A
100
AcDbDictionary
280
     1
281
     1
  3
ACAD_XREC_ROUNDTRIP
360
95C
  0
DICTIONARY
  5
957
330
735
100
AcDbDictionary
280
     1
281
     1
  3
ACAD_XREC_ROUNDTRIP
360
958
  0
DICTIONARY
  5
70D
330
6DB
100
AcDbDictionary
280
     1
281
     1
  3
ACAD_XREC_ROUNDTRIP
360
70E
  0
DICTIONARY
  5
70B
330
6DA
100
AcDbDictionary
280
     1
281
     1
  3
ACAD_XREC_ROUNDTRIP
360
70C
  0
DICTIONARY
  5
70F
330
6DC
100
AcDbDictionary
280
     1
281
     1
  3
ACAD_XREC_ROUNDTRIP
360
710
  0
DICTIONARY
  5
959
330
919
100
AcDbDictionary
280
     1
281
     1
  3
ACAD_XREC_ROUNDTRIP
360
95A
  0
DICTIONARY
  5
955
330
733
100
AcDbDictionary
280
     1
281
     1
  3
ACAD_XREC_ROUNDTRIP
360
956
  0
DICTIONARY
  5
8A7
330
6DE
100
AcDbDictionary
280
     1
281
     1
  3
ACAD_ROUNDTRIP_2008_TABLESTYLE_CELLSTYLEMAP
360
953
  0
XRECORD
  5
95C
102
{ACAD_REACTORS
330
95B
102
}
330
95B
100
AcDbXrecord
280
     1
102
DISPLAYNAME
  1
Imperial24
102
FLAGS
 90
        0
  0
XRECORD
  5
958
102
{ACAD_REACTORS
330
957
102
}
330
957
100
AcDbXrecord
280
     1
102
DISPLAYNAME
  1
Metric50
102
FLAGS
 90
        0
  0
XRECORD
  5
70E
102
{ACAD_REACTORS
330
70D
102
}
330
70D
100
AcDbXrecord
280
     1
102
MATERIAL
148
0.0
149
0.0
149
0.0
 93
        0
 94
       63
282
     0
 72
     1
 77
     1
171
     1
175
     1
179
     1
273
     0
  0
XRECORD
  5
70C
102
{ACAD_REACTORS
330
70B
102
}
330
70B
100
AcDbXrecord
280
     1
102
MATERIAL
148
0.0
149
0.0
149
0.0
 93
        0
 94
       63
282
     0
 72
     1
 77
     1
171
     1
175
     1
179
     1
273
     0
  0
XRECORD
  5
710
102
{ACAD_REACTORS
330
70F
102
}
330
70F
100
AcDbXrecord
280
     1
102
MATERIAL
148
0.0
149
0.0
149
0.0
 93
        0
 94
       63
282
     0
 72
     1
 77
     1
171
     1
175
     1
179
     1
273
     0
  0
XRECORD
  5
95A
102
{ACAD_REACTORS
330
959
102
}
330
959
100
AcDbXrecord
280
     1
102
DISPLAYNAME
  1
Imperial24
102
FLAGS
 90
        0
  0
XRECORD
  5
956
102
{ACAD_REACTORS
330
955
102
}
330
955
100
AcDbXrecord
280
     1
102
DISPLAYNAME
  1
Metric50
102
FLAGS
 90
        0
  0
CELLSTYLEMAP
  5
953
102
{ACAD_REACTORS
330
8A7
102
}
330
8A7
100
AcDbCellStyleMap
 90
        3
300
CELLSTYLE
  1
TABLEFORMAT_BEGIN
 90
        5
170
     1
 91
        0
 92
    32768
 62
   257
 93
        1
300
CONTENTFORMAT
  1
CONTENTFORMAT_BEGIN
 90
        0
 91
        0
 92
      512
 93
        0
300

 40
0.0
140
1.0
 94
        5
 62
     0
340
11
144
6.0
309
CONTENTFORMAT_END
171
     1
301
MARGIN
  1
CELLMARGIN_BEGIN
 40
1.5
 40
1.5
 40
1.5
 40
1.5
 40
0.18
 40
0.18
309
CELLMARGIN_END
 94
        6
 95
        1
302
GRIDFORMAT
  1
GRIDFORMAT_BEGIN
 90
        0
 91
        1
 62
     0
 92
       -2
340
0
 93
        0
 40
0.045
309
GRIDFORMAT_END
 95
        2
302
GRIDFORMAT
  1
GRIDFORMAT_BEGIN
 90
        0
 91
        1
 62
     0
 92
       -2
340
0
 93
        0
 40
0.045
309
GRIDFORMAT_END
 95
        4
302
GRIDFORMAT
  1
GRIDFORMAT_BEGIN
 90
        0
 91
        1
 62
     0
 92
       -2
340
0
 93
        0
 40
0.045
309
GRIDFORMAT_END
 95
        8
302
GRIDFORMAT
  1
GRIDFORMAT_BEGIN
 90
        0
 91
        1
 62
     0
 92
       -2
340
0
 93
        0
 40
0.045
309
GRIDFORMAT_END
 95
       16
302
GRIDFORMAT
  1
GRIDFORMAT_BEGIN
 90
        0
 91
        1
 62
     0
 92
       -2
340
0
 93
        0
 40
0.045
309
GRIDFORMAT_END
 95
       32
302
GRIDFORMAT
  1
GRIDFORMAT_BEGIN
 90
        0
 91
        1
 62
     0
 92
       -2
340
0
 93
        0
 40
0.045
309
GRIDFORMAT_END
309
TABLEFORMAT_END
  1
CELLSTYLE_BEGIN
 90
        1
 91
        1
300
_TITLE
309
CELLSTYLE_END
300
CELLSTYLE
  1
TABLEFORMAT_BEGIN
 90
        5
170
     1
 91
        0
 92
        0
 62
   257
 93
        1
300
CONTENTFORMAT
  1
CONTENTFORMAT_BEGIN
 90
        0
 91
        0
 92
      512
 93
        0
300

 40
0.0
140
1.0
 94
        5
 62
     0
340
11
144
4.5
309
CONTENTFORMAT_END
171
     1
301
MARGIN
  1
CELLMARGIN_BEGIN
 40
1.5
 40
1.5
 40
1.5
 40
1.5
 40
0.18
 40
0.18
309
CELLMARGIN_END
 94
        6
 95
        1
302
GRIDFORMAT
  1
GRIDFORMAT_BEGIN
 90
        0
 91
        1
 62
     0
 92
       -2
340
0
 93
        0
 40
0.045
309
GRIDFORMAT_END
 95
        2
302
GRIDFORMAT
  1
GRIDFORMAT_BEGIN
 90
        0
 91
        1
 62
     0
 92
       -2
340
0
 93
        0
 40
0.045
309
GRIDFORMAT_END
 95
        4
302
GRIDFORMAT
  1
GRIDFORMAT_BEGIN
 90
        0
 91
        1
 62
     0
 92
       -2
340
0
 93
        0
 40
0.045
309
GRIDFORMAT_END
 95
        8
302
GRIDFORMAT
  1
GRIDFORMAT_BEGIN
 90
        0
 91
        1
 62
     0
 92
       -2
340
0
 93
        0
 40
0.045
309
GRIDFORMAT_END
 95
       16
302
GRIDFORMAT
  1
GRIDFORMAT_BEGIN
 90
        0
 91
        1
 62
     0
 92
       -2
340
0
 93
        0
 40
0.045
309
GRIDFORMAT_END
 95
       32
302
GRIDFORMAT
  1
GRIDFORMAT_BEGIN
 90
        0
 91
        1
 62
     0
 92
       -2
340
0
 93
        0
 40
0.045
309
GRIDFORMAT_END
309
TABLEFORMAT_END
  1
CELLSTYLE_BEGIN
 90
        2
 91
        1
300
_HEADER
309
CELLSTYLE_END
300
CELLSTYLE
  1
TABLEFORMAT_BEGIN
 90
        5
170
     1
 91
        0
 92
        0
 62
   257
 93
        1
300
CONTENTFORMAT
  1
CONTENTFORMAT_BEGIN
 90
        0
 91
        0
 92
      512
 93
        0
300

 40
0.0
140
1.0
 94
        2
 62
     0
340
11
144
4.5
309
CONTENTFORMAT_END
171
     1
301
MARGIN
  1
CELLMARGIN_BEGIN
 40
1.5
 40
1.5
 40
1.5
 40
1.5
 40
0.18
 40
0.18
309
CELLMARGIN_END
 94
        6
 95
        1
302
GRIDFORMAT
  1
GRIDFORMAT_BEGIN
 90
        0
 91
        1
 62
     0
 92
       -2
340
0
 93
        0
 40
0.045
309
GRIDFORMAT_END
 95
        2
302
GRIDFORMAT
  1
GRIDFORMAT_BEGIN
 90
        0
 91
        1
 62
     0
 92
       -2
340
0
 93
        0
 40
0.045
309
GRIDFORMAT_END
 95
        4
302
GRIDFORMAT
  1
GRIDFORMAT_BEGIN
 90
        0
 91
        1
 62
     0
 92
       -2
340
0
 93
        0
 40
0.045
309
GRIDFORMAT_END
 95
        8
302
GRIDFORMAT
  1
GRIDFORMAT_BEGIN
 90
        0
 91
        1
 62
     0
 92
       -2
340
0
 93
        0
 40
0.045
309
GRIDFORMAT_END
 95
       16
302
GRIDFORMAT
  1
GRIDFORMAT_BEGIN
 90
        0
 91
        1
 62
     0
 92
       -2
340
0
 93
        0
 40
0.045
309
GRIDFORMAT_END
 95
       32
302
GRIDFORMAT
  1
GRIDFORMAT_BEGIN
 90
        0
 91
        1
 62
     0
 92
       -2
340
0
 93
        0
 40
0.045
309
GRIDFORMAT_END
309
TABLEFORMAT_END
  1
CELLSTYLE_BEGIN
 90
        3
 91
        2
300
_DATA
309
CELLSTYLE_END
  0
ENDSEC
  0
EOF
