  0
SECTION
  2
HEADER
  9
$ACADVER
  1
AC1027
  9
$ACADMAINTVER
 70
   125
  9
$DWGCODEPAGE
  3
ANSI_1252
  9
$LASTSAVEDBY
  1
kaschu
  9
$REQUIREDVERSIONS
160
                 0
  9
$INSBASE
 10
0.0
 20
0.0
 30
0.0
  9
$EXTMIN
 10
1.410273219530374
 20
-1.429105078280198
 30
-0.0000000000000944
  9
$EXTMAX
 10
1561.573665061685
 20
1065.062830244673
 30
0.0000000000000186
  9
$LIMMIN
 10
-0.5
 20
-0.5
  9
$LIMMAX
 10
5.0
 20
5.0
  9
$ORTHOMODE
 70
     1
  9
$REGENMODE
 70
     1
  9
$FILLMODE
 70
     1
  9
$QTEXTMODE
 70
     0
  9
$MIRRTEXT
 70
     1
  9
$LTSCALE
 40
1.0
  9
$ATTMODE
 70
     1
  9
$TEXTSIZE
 40
25.0
  9
$TRACEWID
 40
0.05
  9
$TEXTSTYLE
  7
Standard
  9
$CLAYER
  8
0
  9
$CELTYPE
  6
BYLAYER
  9
$CECOLOR
 62
   256
  9
$CELTSCALE
 40
1.0
  9
$DISPSILH
 70
     0
  9
$DIMSCALE
 40
1.0
  9
$DIMASZ
 40
0.18
  9
$DIMEXO
 40
0.0625
  9
$DIMDLI
 40
0.38
  9
$DIMRND
 40
0.0
  9
$DIMDLE
 40
0.0
  9
$DIMEXE
 40
0.18
  9
$DIMTP
 40
0.0
  9
$DIMTM
 40
0.0
  9
$DIMTXT
 40
0.18
  9
$DIMCEN
 40
0.09
  9
$DIMTSZ
 40
0.0
  9
$DIMTOL
 70
     0
  9
$DIMLIM
 70
     0
  9
$DIMTIH
 70
     1
  9
$DIMTOH
 70
     1
  9
$DIMSE1
 70
     0
  9
$DIMSE2
 70
     0
  9
$DIMTAD
 70
     0
  9
$DIMZIN
 70
     0
  9
$DIMBLK
  1

  9
$DIMASO
 70
     1
  9
$DIMSHO
 70
     1
  9
$DIMPOST
  1

  9
$DIMAPOST
  1

  9
$DIMALT
 70
     0
  9
$DIMALTD
 70
     2
  9
$DIMALTF
 40
25.4
  9
$DIMLFAC
 40
1.0
  9
$DIMTOFL
 70
     0
  9
$DIMTVP
 40
0.0
  9
$DIMTIX
 70
     0
  9
$DIMSOXD
 70
     0
  9
$DIMSAH
 70
     0
  9
$DIMBLK1
  1

  9
$DIMBLK2
  1

  9
$DIMSTYLE
  2
Standard
  9
$DIMCLRD
 70
     0
  9
$DIMCLRE
 70
     0
  9
$DIMCLRT
 70
     0
  9
$DIMTFAC
 40
1.0
  9
$DIMGAP
 40
0.09
  9
$DIMJUST
 70
     0
  9
$DIMSD1
 70
     0
  9
$DIMSD2
 70
     0
  9
$DIMTOLJ
 70
     1
  9
$DIMTZIN
 70
     0
  9
$DIMALTZ
 70
     0
  9
$DIMALTTZ
 70
     0
  9
$DIMUPT
 70
     0
  9
$DIMDEC
 70
     4
  9
$DIMTDEC
 70
     4
  9
$DIMALTU
 70
     2
  9
$DIMALTTD
 70
     2
  9
$DIMTXSTY
  7
Standard
  9
$DIMAUNIT
 70
     0
  9
$DIMADEC
 70
     0
  9
$DIMALTRND
 40
0.0
  9
$DIMAZIN
 70
     0
  9
$DIMDSEP
 70
    46
  9
$DIMATFIT
 70
     3
  9
$DIMFRAC
 70
     0
  9
$DIMLDRBLK
  1

  9
$DIMLUNIT
 70
     2
  9
$DIMLWD
 70
    -2
  9
$DIMLWE
 70
    -2
  9
$DIMTMOVE
 70
     0
  9
$DIMFXL
 40
1.0
  9
$DIMFXLON
 70
     0
  9
$DIMJOGANG
 40
0.7853981633974483
  9
$DIMTFILL
 70
     0
  9
$DIMTFILLCLR
 70
     0
  9
$DIMARCSYM
 70
     0
  9
$DIMLTYPE
  6

  9
$DIMLTEX1
  6

  9
$DIMLTEX2
  6

  9
$DIMTXTDIRECTION
 70
     0
  9
$LUNITS
 70
     2
  9
$LUPREC
 70
     4
  9
$SKETCHINC
 40
0.1
  9
$FILLETRAD
 40
0.5
  9
$AUNITS
 70
     0
  9
$AUPREC
 70
     0
  9
$MENU
  1
.
  9
$ELEVATION
 40
0.0
  9
$PELEVATION
 40
0.0
  9
$THICKNESS
 40
0.0
  9
$LIMCHECK
 70
     0
  9
$CHAMFERA
 40
0.5
  9
$CHAMFERB
 40
0.5
  9
$CHAMFERC
 40
1.0
  9
$CHAMFERD
 40
0.0
  9
$SKPOLY
 70
     0
  9
$TDCREATE
 40
2455694.560428241
  9
$TDUCREATE
 40
2455694.477100590
  9
$TDUPDATE
 40
2459478.673425926
  9
$TDUUPDATE
 40
2459478.590092592
  9
$TDINDWG
 40
0.0192277546
  9
$TDUSRTIMER
 40
0.0192277546
  9
$USRTIMER
 70
     1
  9
$ANGBASE
 50
0.0
  9
$ANGDIR
 70
     0
  9
$PDMODE
 70
     0
  9
$PDSIZE
 40
0.0
  9
$PLINEWID
 40
0.0
  9
$SPLFRAME
 70
     0
  9
$SPLINETYPE
 70
     6
  9
$SPLINESEGS
 70
     8
  9
$HANDSEED
  5
9F1
  9
$SURFTAB1
 70
     6
  9
$SURFTAB2
 70
     6
  9
$SURFTYPE
 70
     6
  9
$SURFU
 70
     6
  9
$SURFV
 70
     6
  9
$UCSBASE
  2

  9
$UCSNAME
  2

  9
$UCSORG
 10
0.0
 20
0.0
 30
0.0
  9
$UCSXDIR
 10
1.0
 20
0.0
 30
0.0
  9
$UCSYDIR
 10
0.0
 20
1.0
 30
0.0
  9
$UCSORTHOREF
  2

  9
$UCSORTHOVIEW
 70
     0
  9
$UCSORGTOP
 10
0.0
 20
0.0
 30
0.0
  9
$UCSORGBOTTOM
 10
0.0
 20
0.0
 30
0.0
  9
$UCSORGLEFT
 10
0.0
 20
0.0
 30
0.0
  9
$UCSORGRIGHT
 10
0.0
 20
0.0
 30
0.0
  9
$UCSORGFRONT
 10
0.0
 20
0.0
 30
0.0
  9
$UCSORGBACK
 10
0.0
 20
0.0
 30
0.0
  9
$PUCSBASE
  2

  9
$PUCSNAME
  2

  9
$PUCSORG
 10
0.0
 20
0.0
 30
0.0
  9
$PUCSXDIR
 10
1.0
 20
0.0
 30
0.0
  9
$PUCSYDIR
 10
0.0
 20
1.0
 30
0.0
  9
$PUCSORTHOREF
  2

  9
$PUCSORTHOVIEW
 70
     0
  9
$PUCSORGTOP
 10
0.0
 20
0.0
 30
0.0
  9
$PUCSORGBOTTOM
 10
0.0
 20
0.0
 30
0.0
  9
$PUCSORGLEFT
 10
0.0
 20
0.0
 30
0.0
  9
$PUCSORGRIGHT
 10
0.0
 20
0.0
 30
0.0
  9
$PUCSORGFRONT
 10
0.0
 20
0.0
 30
0.0
  9
$PUCSORGBACK
 10
0.0
 20
0.0
 30
0.0
  9
$USERI1
 70
     0
  9
$USERI2
 70
     0
  9
$USERI3
 70
     0
  9
$USERI4
 70
     0
  9
$USERI5
 70
     0
  9
$USERR1
 40
0.0
  9
$USERR2
 40
0.0
  9
$USERR3
 40
0.0
  9
$USERR4
 40
0.0
  9
$USERR5
 40
0.0
  9
$WORLDVIEW
 70
     1
  9
$SHADEDGE
 70
     3
  9
$SHADEDIF
 70
    70
  9
$TILEMODE
 70
     1
  9
$MAXACTVP
 70
    64
  9
$PINSBASE
 10
0.0
 20
0.0
 30
0.0
  9
$PLIMCHECK
 70
     0
  9
$PEXTMIN
 10
-0.5
 20
-0.5
 30
-0.5
  9
$PEXTMAX
 10
5.0
 20
5.0
 30
5.0
  9
$PLIMMIN
 10
-0.5
 20
-0.5
  9
$PLIMMAX
 10
5.0
 20
5.0
  9
$UNITMODE
 70
     0
  9
$VISRETAIN
 70
     1
  9
$PLINEGEN
 70
     0
  9
$PSLTSCALE
 70
     1
  9
$TREEDEPTH
 70
  3020
  9
$CMLSTYLE
  2
Standard
  9
$CMLJUST
 70
     0
  9
$CMLSCALE
 40
1.0
  9
$PROXYGRAPHICS
 70
     1
  9
$MEASUREMENT
 70
     1
  9
$CELWEIGHT
370
    -1
  9
$ENDCAPS
280
     0
  9
$JOINSTYLE
280
     0
  9
$LWDISPLAY
290
     0
  9
$INSUNITS
 70
     4
  9
$HYPERLINKBASE
  1

  9
$STYLESHEET
  1

  9
$XEDIT
290
     1
  9
$CEPSNTYPE
380
     0
  9
$PSTYLEMODE
290
     1
  9
$FINGERPRINTGUID
  2
{F00BE011-E78A-4A73-80CF-EFD0DEF1625D}
  9
$VERSIONGUID
  2
{33DE766A-4F9D-BF49-B71B-49D03AB7D078}
  9
$EXTNAMES
290
     1
  9
$PSVPSCALE
 40
0.0
  9
$OLESTARTUP
290
     0
  9
$SORTENTS
280
   127
  9
$INDEXCTL
280
     0
  9
$HIDETEXT
280
     0
  9
$XCLIPFRAME
280
     2
  9
$HALOGAP
280
     0
  9
$OBSCOLOR
 70
   257
  9
$OBSLTYPE
280
     0
  9
$INTERSECTIONDISPLAY
280
     0
  9
$INTERSECTIONCOLOR
 70
   257
  9
$DIMASSOC
280
     1
  9
$PROJECTNAME
  1

  9
$CAMERADISPLAY
290
     0
  9
$LENSLENGTH
 40
50.0
  9
$CAMERAHEIGHT
 40
0.0
  9
$STEPSPERSEC
 40
2.0
  9
$STEPSIZE
 40
6.0
  9
$3DDWFPREC
 40
2.0
  9
$PSOLWIDTH
 40
0.25
  9
$PSOLHEIGHT
 40
4.0
  9
$LOFTANG1
 40
1.570796326794896
  9
$LOFTANG2
 40
1.570796326794896
  9
$LOFTMAG1
 40
0.0
  9
$LOFTMAG2
 40
0.0
  9
$LOFTPARAM
 70
     7
  9
$LOFTNORMALS
280
     1
  9
$LATITUDE
 40
37.795
  9
$LONGITUDE
 40
-122.394
  9
$NORTHDIRECTION
 40
0.0
  9
$TIMEZONE
 70
 -8000
  9
$LIGHTGLYPHDISPLAY
280
     1
  9
$TILEMODELIGHTSYNCH
280
     1
  9
$CMATERIAL
347
6DA
  9
$SOLIDHIST
280
     0
  9
$SHOWHIST
280
     1
  9
$DWFFRAME
280
     2
  9
$DGNFRAME
280
     0
  9
$REALWORLDSCALE
290
     1
  9
$INTERFERECOLOR
 62
     1
  9
$INTERFEREOBJVS
345
33
  9
$INTERFEREVPVS
346
715
  9
$CSHADOW
280
     0
  9
$SHADOWPLANELOCATION
 40
0.0
  0
ENDSEC
  0
SECTION
  2
CLASSES
  0
CLASS
  1
ACDBDICTIONARYWDFLT
  2
AcDbDictionaryWithDefault
  3
ObjectDBX Classes
 90
        0
 91
        1
280
     0
281
     0
  0
CLASS
  1
VISUALSTYLE
  2
AcDbVisualStyle
  3
ObjectDBX Classes
 90
     4095
 91
       26
280
     0
281
     0
  0
CLASS
  1
MATERIAL
  2
AcDbMaterial
  3
ObjectDBX Classes
 90
     1153
 91
        3
280
     0
281
     0
  0
CLASS
  1
TABLESTYLE
  2
AcDbTableStyle
  3
ObjectDBX Classes
 90
     4095
 91
        1
280
     0
281
     0
  0
CLASS
  1
DICTIONARYVAR
  2
AcDbDictionaryVar
  3
ObjectDBX Classes
 90
        0
 91
       12
280
     0
281
     0
  0
CLASS
  1
SCALE
  2
AcDbScale
  3
ObjectDBX Classes
 90
     1153
 91
       17
280
     0
281
     0
  0
CLASS
  1
MLEADERSTYLE
  2
AcDbMLeaderStyle
  3
ACDB_MLEADERSTYLE_CLASS
 90
     4095
 91
        1
280
     0
281
     0
  0
CLASS
  1
ACDBSECTIONVIEWSTYLE
  2
AcDbSectionViewStyle
  3
ObjectDBX Classes
 90
     1025
 91
        2
280
     0
281
     0
  0
CLASS
  1
ACDBDETAILVIEWSTYLE
  2
AcDbDetailViewStyle
  3
ObjectDBX Classes
 90
     1025
 91
        2
280
     0
281
     0
  0
CLASS
  1
SORTENTSTABLE
  2
AcDbSortentsTable
  3
ObjectDBX Classes
 90
        0
 91
        2
280
     0
281
     0
  0
CLASS
  1
CELLSTYLEMAP
  2
AcDbCellStyleMap
  3
ObjectDBX Classes
 90
     1152
 91
        2
280
     0
281
     0
  0
ENDSEC
  0
SECTION
  2
TABLES
  0
TABLE
  2
VPORT
  5
8
330
0
100
AcDbSymbolTable
 70
    17
1001
ACAD
1000
DbSaveVer
1071
      224
  0
VPORT
  5
29
330
8
100
AcDbSymbolTableRecord
100
AcDbViewportTableRecord
  2
DUMMY
 70
     0
 10
0.0
 20
0.0
 11
1.0
 21
1.0
 12
10.42990654205607
 22
4.5
 13
0.0
 23
0.0
 14
0.5
 24
0.5
 15
0.5
 25
0.5
 16
0.0
 26
0.0
 36
1.0
 17
0.0
 27
0.0
 37
0.0
 40
9.0
 41
1.972972972850327
 42
50.0
 43
0.0
 44
0.0
 50
0.0
 51
0.0
 71
     0
 72
   100
 73
     1
 74
     3
 75
     0
 76
     0
 77
     0
 78
     0
281
     0
 65
     1
110
0.0
120
0.0
130
0.0
111
1.0
121
0.0
131
0.0
112
0.0
122
1.0
132
0.0
 79
     0
146
0.0
348
2F
 60
     3
 61
     5
292
     1
282
     1
141
0.0
142
0.0
 63
   250
421
  3355443
  0
VPORT
  5
6C2
330
8
100
AcDbSymbolTableRecord
100
AcDbViewportTableRecord
  2
*ACTIVE
 70
     0
 10
0.0
 20
0.0
 11
1.0
 21
1.0
 12
1033.125603405046
 22
231.9502180654226
 13
0.0
 23
0.0
 14
0.5
 24
0.5
 15
0.5
 25
0.5
 16
0.0
 26
0.0
 36
1.0
 17
0.0
 27
0.0
 37
0.0
 40
1531.524340528672
 41
2.14188422247446
 42
50.0
 43
1767.948756937242
 44
-1767.948756937242
 50
0.0
 51
0.0
 71
     0
 72
 10000
 73
     1
 74
     3
 75
     0
 76
     0
 77
     0
 78
     0
281
     0
 65
     1
110
0.0
120
0.0
130
0.0
111
1.0
121
0.0
131
0.0
112
0.0
122
1.0
132
0.0
 79
     0
146
0.0
348
2F
 60
     3
 61
     5
292
     1
282
     1
141
0.0
142
0.0
 63
   250
421
  3355443
1001
ACAD_NAV_VCDISPLAY
1070
     3
  0
VPORT
  5
6C3
330
8
100
AcDbSymbolTableRecord
100
AcDbViewportTableRecord
  2
L1
 70
     0
 10
0.0
 20
0.0
 11
1.0
 21
1.0
 12
460.8737472285888
 22
404.664939769725
 13
0.0
 23
0.0
 14
0.5
 24
0.5
 15
0.5
 25
0.5
 16
0.0
 26
0.0
 36
1.0
 17
0.0
 27
0.0
 37
0.0
 40
254.0
 41
0.069908491163988
 42
50.0
 43
1767.948756937242
 44
-1767.948756937242
 50
0.0
 51
0.0
 71
     0
 72
   100
 73
     1
 74
     3
 75
     0
 76
     0
 77
     0
 78
     0
281
     0
 65
     1
110
0.0
120
0.0
130
0.0
111
1.0
121
0.0
131
0.0
112
0.0
122
1.0
132
0.0
 79
     0
146
0.0
348
2F
 60
     3
 61
     5
292
     1
282
     1
141
0.0
142
0.0
 63
   250
421
  3355443
  0
VPORT
  5
6C4
330
8
100
AcDbSymbolTableRecord
100
AcDbViewportTableRecord
  2
L2
 70
     0
 10
0.0
 20
0.0
 11
0.5
 21
1.0
 12
0.0
 22
0.0
 13
0.0
 23
0.0
 14
0.5
 24
0.5
 15
0.5
 25
0.5
 16
0.0
 26
-1.0
 36
0.0
 17
0.0
 27
0.0
 37
0.0
 40
1319.822715367485
 41
0.0134538953973897
 42
50.0
 43
672.0208330104061
 44
-672.0208330104061
 50
0.0
 51
0.0
 71
     0
 72
   100
 73
     1
 74
     3
 75
     0
 76
     0
 77
     0
 78
     0
281
     0
 65
     1
110
0.0
120
0.0
130
0.0
111
1.0
121
0.0
131
0.0
112
0.0
122
1.0
132
0.0
 79
     0
146
0.0
348
2F
 60
     3
 61
     5
292
     1
282
     1
141
0.0
142
0.0
 63
   250
421
  3355443
  0
VPORT
  5
6C5
330
8
100
AcDbSymbolTableRecord
100
AcDbViewportTableRecord
  2
L2
 70
     0
 10
0.5
 20
0.0
 11
1.0
 21
1.0
 12
0.0
 22
0.0
 13
0.0
 23
0.0
 14
0.5
 24
0.5
 15
0.5
 25
0.5
 16
1.0
 26
0.0
 36
0.0
 17
0.0
 27
0.0
 37
0.0
 40
1319.822715367485
 41
0.0134538953973897
 42
50.0
 43
672.0208330104061
 44
-672.0208330104061
 50
0.0
 51
0.0
 71
     0
 72
   100
 73
     1
 74
     3
 75
     0
 76
     0
 77
     0
 78
     0
281
     0
 65
     1
110
0.0
120
0.0
130
0.0
111
1.0
121
0.0
131
0.0
112
0.0
122
1.0
132
0.0
 79
     0
146
0.0
348
2F
 60
     3
 61
     5
292
     1
282
     1
141
0.0
142
0.0
 63
   250
421
  3355443
  0
VPORT
  5
6C6
330
8
100
AcDbSymbolTableRecord
100
AcDbViewportTableRecord
  2
L3
 70
     0
 10
0.0
 20
0.5
 11
1.0
 21
1.0
 12
460.8737472285888
 22
404.664939769725
 13
0.0
 23
0.0
 14
0.5
 24
0.5
 15
0.5
 25
0.5
 16
0.0
 26
0.0
 36
1.0
 17
0.0
 27
0.0
 37
0.0
 40
254.0
 41
0.069908491163988
 42
50.0
 43
1767.948756937242
 44
-1767.948756937242
 50
0.0
 51
0.0
 71
     0
 72
   100
 73
     1
 74
     3
 75
     0
 76
     0
 77
     0
 78
     0
281
     0
 65
     1
110
0.0
120
0.0
130
0.0
111
1.0
121
0.0
131
0.0
112
0.0
122
1.0
132
0.0
 79
     0
146
0.0
348
2F
 60
     3
 61
     5
292
     1
282
     1
141
0.0
142
0.0
 63
   250
421
  3355443
  0
VPORT
  5
6C7
330
8
100
AcDbSymbolTableRecord
100
AcDbViewportTableRecord
  2
L3
 70
     0
 10
0.0
 20
0.0
 11
1.0
 21
0.5
 12
0.0
 22
0.0
 13
0.0
 23
0.0
 14
0.5
 24
0.5
 15
0.5
 25
0.5
 16
0.0
 26
-1.0
 36
0.0
 17
0.0
 27
0.0
 37
0.0
 40
1319.822715367485
 41
0.0134538953973897
 42
50.0
 43
672.0208330104061
 44
-672.0208330104061
 50
0.0
 51
0.0
 71
     0
 72
   100
 73
     1
 74
     3
 75
     0
 76
     0
 77
     0
 78
     0
281
     0
 65
     1
110
0.0
120
0.0
130
0.0
111
1.0
121
0.0
131
0.0
112
0.0
122
1.0
132
0.0
 79
     0
146
0.0
348
2F
 60
     3
 61
     5
292
     1
282
     1
141
0.0
142
0.0
 63
   250
421
  3355443
  0
VPORT
  5
6C8
330
8
100
AcDbSymbolTableRecord
100
AcDbViewportTableRecord
  2
L4
 70
     0
 10
0.0
 20
0.5
 11
0.5
 21
1.0
 12
460.8737472285888
 22
404.664939769725
 13
0.0
 23
0.0
 14
0.5
 24
0.5
 15
0.5
 25
0.5
 16
0.0
 26
0.0
 36
1.0
 17
0.0
 27
0.0
 37
0.0
 40
254.0
 41
0.069908491163988
 42
50.0
 43
1767.948756937242
 44
-1767.948756937242
 50
0.0
 51
0.0
 71
     0
 72
   100
 73
     1
 74
     3
 75
     0
 76
     0
 77
     0
 78
     0
281
     0
 65
     1
110
0.0
120
0.0
130
0.0
111
1.0
121
0.0
131
0.0
112
0.0
122
1.0
132
0.0
 79
     0
146
0.0
348
2F
 60
     3
 61
     5
292
     1
282
     1
141
0.0
142
0.0
 63
   250
421
  3355443
  0
VPORT
  5
6C9
330
8
100
AcDbSymbolTableRecord
100
AcDbViewportTableRecord
  2
L4
 70
     0
 10
0.0
 20
0.0
 11
0.5
 21
0.5
 12
0.0
 22
0.0
 13
0.0
 23
0.0
 14
0.5
 24
0.5
 15
0.5
 25
0.5
 16
0.0
 26
-1.0
 36
0.0
 17
0.0
 27
0.0
 37
0.0
 40
1319.822715367485
 41
0.0134538953973897
 42
50.0
 43
672.0208330104061
 44
-672.0208330104061
 50
0.0
 51
0.0
 71
     0
 72
   100
 73
     1
 74
     3
 75
     0
 76
     0
 77
     0
 78
     0
281
     0
 65
     1
110
0.0
120
0.0
130
0.0
111
1.0
121
0.0
131
0.0
112
0.0
122
1.0
132
0.0
 79
     0
146
0.0
348
2F
 60
     3
 61
     5
292
     1
282
     1
141
0.0
142
0.0
 63
   250
421
  3355443
  0
VPORT
  5
6CA
330
8
100
AcDbSymbolTableRecord
100
AcDbViewportTableRecord
  2
L4
 70
     0
 10
0.5
 20
0.0
 11
1.0
 21
0.5
 12
0.0
 22
0.0
 13
0.0
 23
0.0
 14
0.5
 24
0.5
 15
0.5
 25
0.5
 16
1.0
 26
0.0
 36
0.0
 17
0.0
 27
0.0
 37
0.0
 40
1319.822715367485
 41
0.0134538953973897
 42
50.0
 43
672.0208330104061
 44
-672.0208330104061
 50
0.0
 51
0.0
 71
     0
 72
   100
 73
     1
 74
     3
 75
     0
 76
     0
 77
     0
 78
     0
281
     0
 65
     1
110
0.0
120
0.0
130
0.0
111
1.0
121
0.0
131
0.0
112
0.0
122
1.0
132
0.0
 79
     0
146
0.0
348
2F
 60
     3
 61
     5
292
     1
282
     1
141
0.0
142
0.0
 63
   250
421
  3355443
  0
VPORT
  5
6CB
330
8
100
AcDbSymbolTableRecord
100
AcDbViewportTableRecord
  2
L4
 70
     0
 10
0.5
 20
0.5
 11
1.0
 21
1.0
 12
0.0
 22
0.0
 13
0.0
 23
0.0
 14
0.5
 24
0.5
 15
0.5
 25
0.5
 16
0.577350269189626
 26
-0.577350269189626
 36
0.577350269189626
 17
0.0
 27
0.0
 37
0.0
 40
1285.020866083941
 41
0.0138182633638986
 42
50.0
 43
667.1414067255757
 44
-667.1414067255757
 50
0.0
 51
0.0
 71
     0
 72
   100
 73
     1
 74
     3
 75
     0
 76
     0
 77
     0
 78
     0
281
     0
 65
     1
110
0.0
120
0.0
130
0.0
111
1.0
121
0.0
131
0.0
112
0.0
122
1.0
132
0.0
 79
     0
146
0.0
348
2F
 60
     3
 61
     5
292
     1
282
     1
141
0.0
142
0.0
 63
   250
421
  3355443
  0
VPORT
  5
6CC
330
8
100
AcDbSymbolTableRecord
100
AcDbViewportTableRecord
  2
L6
 70
     0
 10
0.0
 20
0.5
 11
0.3333333333333334
 21
1.0
 12
0.0
 22
0.0
 13
0.0
 23
0.0
 14
0.5
 24
0.5
 15
0.5
 25
0.5
 16
0.7188730927569436
 26
-0.5850486126764432
 36
0.3754192287502549
 17
0.0
 27
0.0
 37
0.0
 40
1357.434191666423
 41
0.0130811179390246
 42
50.0
 43
701.8394773188865
 44
-701.8394773188865
 50
0.0
 51
0.0
 71
     0
 72
   100
 73
     1
 74
     3
 75
     0
 76
     0
 77
     0
 78
     0
281
     0
 65
     1
110
0.0
120
0.0
130
0.0
111
1.0
121
0.0
131
0.0
112
0.0
122
1.0
132
0.0
 79
     0
146
0.0
348
2F
 60
     3
 61
     5
292
     1
282
     1
141
0.0
142
0.0
 63
   250
421
  3355443
  0
VPORT
  5
6CD
330
8
100
AcDbSymbolTableRecord
100
AcDbViewportTableRecord
  2
L6
 70
     0
 10
0.0
 20
0.0
 11
0.3333333333333334
 21
0.5
 12
0.0
 22
0.0
 13
0.0
 23
0.0
 14
0.5
 24
0.5
 15
0.5
 25
0.5
 16
-1.0
 26
0.0
 36
0.0
 17
0.0
 27
0.0
 37
0.0
 40
1319.822715367485
 41
0.0134538953973897
 42
50.0
 43
672.0208330104061
 44
-672.0208330104061
 50
0.0
 51
0.0
 71
     0
 72
   100
 73
     1
 74
     3
 75
     0
 76
     0
 77
     0
 78
     0
281
     0
 65
     1
110
0.0
120
0.0
130
0.0
111
1.0
121
0.0
131
0.0
112
0.0
122
1.0
132
0.0
 79
     0
146
0.0
348
2F
 60
     3
 61
     5
292
     1
282
     1
141
0.0
142
0.0
 63
   250
421
  3355443
  0
VPORT
  5
6CE
330
8
100
AcDbSymbolTableRecord
100
AcDbViewportTableRecord
  2
L6
 70
     0
 10
0.3333333333333334
 20
0.5
 11
0.6666666666666666
 21
1.0
 12
460.8737472285888
 22
404.664939769725
 13
0.0
 23
0.0
 14
0.5
 24
0.5
 15
0.5
 25
0.5
 16
0.0
 26
0.0
 36
1.0
 17
0.0
 27
0.0
 37
0.0
 40
254.0
 41
0.069908491163988
 42
50.0
 43
1767.948756937242
 44
-1767.948756937242
 50
0.0
 51
0.0
 71
     0
 72
   100
 73
     1
 74
     3
 75
     0
 76
     0
 77
     0
 78
     0
281
     0
 65
     1
110
0.0
120
0.0
130
0.0
111
1.0
121
0.0
131
0.0
112
0.0
122
1.0
132
0.0
 79
     0
146
0.0
348
2F
 60
     3
 61
     5
292
     1
282
     1
141
0.0
142
0.0
 63
   250
421
  3355443
  0
VPORT
  5
6CF
330
8
100
AcDbSymbolTableRecord
100
AcDbViewportTableRecord
  2
L6
 70
     0
 10
0.3333333333333334
 20
0.0
 11
0.6666666666666666
 21
0.5
 12
0.0
 22
0.0
 13
0.0
 23
0.0
 14
0.5
 24
0.5
 15
0.5
 25
0.5
 16
0.0
 26
-1.0
 36
0.0
 17
0.0
 27
0.0
 37
0.0
 40
1319.822715367485
 41
0.0134538953973897
 42
50.0
 43
672.0208330104061
 44
-672.0208330104061
 50
0.0
 51
0.0
 71
     0
 72
   100
 73
     1
 74
     3
 75
     0
 76
     0
 77
     0
 78
     0
281
     0
 65
     1
110
0.0
120
0.0
130
0.0
111
1.0
121
0.0
131
0.0
112
0.0
122
1.0
132
0.0
 79
     0
146
0.0
348
2F
 60
     3
 61
     5
292
     1
282
     1
141
0.0
142
0.0
 63
   250
421
  3355443
  0
VPORT
  5
6D0
330
8
100
AcDbSymbolTableRecord
100
AcDbViewportTableRecord
  2
L6
 70
     0
 10
0.6666666666666666
 20
0.5
 11
1.0
 21
1.0
 12
0.0
 22
0.0
 13
0.0
 23
0.0
 14
0.5
 24
0.5
 15
0.5
 25
0.5
 16
0.577350269189626
 26
-0.577350269189626
 36
0.577350269189626
 17
0.0
 27
0.0
 37
0.0
 40
1285.020866083941
 41
0.0138182633638986
 42
50.0
 43
667.1414067255757
 44
-667.1414067255757
 50
0.0
 51
0.0
 71
     0
 72
   100
 73
     1
 74
     3
 75
     0
 76
     0
 77
     0
 78
     0
281
     0
 65
     1
110
0.0
120
0.0
130
0.0
111
1.0
121
0.0
131
0.0
112
0.0
122
1.0
132
0.0
 79
     0
146
0.0
348
2F
 60
     3
 61
     5
292
     1
282
     1
141
0.0
142
0.0
 63
   250
421
  3355443
  0
VPORT
  5
6D1
330
8
100
AcDbSymbolTableRecord
100
AcDbViewportTableRecord
  2
L6
 70
     0
 10
0.6666666666666666
 20
0.0
 11
1.0
 21
0.5
 12
0.0
 22
0.0
 13
0.0
 23
0.0
 14
0.5
 24
0.5
 15
0.5
 25
0.5
 16
1.0
 26
0.0
 36
0.0
 17
0.0
 27
0.0
 37
0.0
 40
1319.822715367485
 41
0.0134538953973897
 42
50.0
 43
672.0208330104061
 44
-672.0208330104061
 50
0.0
 51
0.0
 71
     0
 72
   100
 73
     1
 74
     3
 75
     0
 76
     0
 77
     0
 78
     0
281
     0
 65
     1
110
0.0
120
0.0
130
0.0
111
1.0
121
0.0
131
0.0
112
0.0
122
1.0
132
0.0
 79
     0
146
0.0
348
2F
 60
     3
 61
     5
292
     1
282
     1
141
0.0
142
0.0
 63
   250
421
  3355443
  0
ENDTAB
  0
TABLE
  2
LTYPE
  5
5
330
0
100
AcDbSymbolTable
 70
     8
  0
LTYPE
  5
14
330
5
100
AcDbSymbolTableRecord
100
AcDbLinetypeTableRecord
  2
BYBLOCK
 70
     0
  3

 72
    65
 73
     0
 40
0.0
  0
LTYPE
  5
15
330
5
100
AcDbSymbolTableRecord
100
AcDbLinetypeTableRecord
  2
BYLAYER
 70
     0
  3

 72
    65
 73
     0
 40
0.0
  0
LTYPE
  5
16
330
5
100
AcDbSymbolTableRecord
100
AcDbLinetypeTableRecord
  2
CONTINUOUS
 70
     0
  3
Solid line
 72
    65
 73
     0
 40
0.0
  0
LTYPE
  5
3B
330
5
100
AcDbSymbolTableRecord
100
AcDbLinetypeTableRecord
  2
DASHED
 70
     0
  3
__ __ __ __ __ __ __ __ __
 72
    65
 73
     2
 40
25.72
 49
12.86
 74
     4
 75
     0
340
0
 46
0.0
 50
0.0
 44
0.0
 45
0.0
 49
-12.86
 74
     4
 75
     0
340
0
 46
0.0
 50
0.0
 44
0.0
 45
0.0
  0
LTYPE
  5
3C
330
5
100
AcDbSymbolTableRecord
100
AcDbLinetypeTableRecord
  2
HIDDEN
 70
     0
  3
_ _ _ _ _ _ _ _ _ _ _ _ _ _ _
 72
    65
 73
     2
 40
0.5
 49
0.25
 74
     4
 75
     0
340
0
 46
0.0
 50
0.0
 44
0.0
 45
0.0
 49
-0.25
 74
     4
 75
     0
340
0
 46
0.0
 50
0.0
 44
0.0
 45
0.0
  0
LTYPE
  5
3D
330
5
100
AcDbSymbolTableRecord
100
AcDbLinetypeTableRecord
  2
PHANTOM
 70
     0
  3
____ _ _ ____ _ _ _____ _ _ ____
 72
    65
 73
     6
 40
50.5
 49
18.0
 74
     4
 75
     0
340
0
 46
0.0
 50
0.0
 44
0.0
 45
0.0
 49
-6.5
 74
     4
 75
     0
340
0
 46
0.0
 50
0.0
 44
0.0
 45
0.0
 49
6.5
 74
     4
 75
     0
340
0
 46
0.0
 50
0.0
 44
0.0
 45
0.0
 49
-6.5
 74
     4
 75
     0
340
0
 46
0.0
 50
0.0
 44
0.0
 45
0.0
 49
6.5
 74
     4
 75
     0
340
0
 46
0.0
 50
0.0
 44
0.0
 45
0.0
 49
-6.5
 74
     4
 75
     0
340
0
 46
0.0
 50
0.0
 44
0.0
 45
0.0
  0
LTYPE
  5
3E
330
5
100
AcDbSymbolTableRecord
100
AcDbLinetypeTableRecord
  2
CENTER
 70
     0
  3
____ _ ____ _ ____ _ ____
 72
    65
 73
     4
 40
47.4
 49
22.0
 74
     4
 75
     0
340
0
 46
0.0
 50
0.0
 44
0.0
 45
0.0
 49
-8.5
 74
     4
 75
     0
340
0
 46
0.0
 50
0.0
 44
0.0
 45
0.0
 49
8.5
 74
     4
 75
     0
340
0
 46
0.0
 50
0.0
 44
0.0
 45
0.0
 49
-8.5
 74
     4
 75
     0
340
0
 46
0.0
 50
0.0
 44
0.0
 45
0.0
  0
LTYPE
  5
3F
330
5
100
AcDbSymbolTableRecord
100
AcDbLinetypeTableRecord
  2
DOT
 70
     0
  3
.........................
 72
    65
 73
     2
 40
10.0
 49
0.0
 74
     4
 75
     0
340
0
 46
0.0
 50
0.0
 44
0.0
 45
0.0
 49
-10.0
 74
     4
 75
     0
340
0
 46
0.0
 50
0.0
 44
0.0
 45
0.0
  0
LTYPE
  5
40
330
5
100
AcDbSymbolTableRecord
100
AcDbLinetypeTableRecord
  2
DASHDOT
 70
     0
  3
_._._._._._._._._._._._._._._._.
 72
    65
 73
     4
 40
70.0
 49
31.0
 74
     4
 75
     0
340
0
 46
0.0
 50
0.0
 44
0.0
 45
0.0
 49
-13.0
 74
     4
 75
     0
340
0
 46
0.0
 50
0.0
 44
0.0
 45
0.0
 49
13.0
 74
     4
 75
     0
340
0
 46
0.0
 50
0.0
 44
0.0
 45
0.0
 49
-13.0
 74
     4
 75
     0
340
0
 46
0.0
 50
0.0
 44
0.0
 45
0.0
  0
LTYPE
  5
748
330
5
100
AcDbSymbolTableRecord
100
AcDbLinetypeTableRecord
  2
CUSTOM
 70
     0
  3

 72
    65
 73
     0
 40
0.0
  0
ENDTAB
  0
TABLE
  2
LAYER
  5
2
102
{ACAD_XDICTIONARY
360
843
102
}
330
0
100
AcDbSymbolTable
 70
     6
  0
LAYER
  5
10
102
{ACAD_XDICTIONARY
360
739
102
}
330
2
100
AcDbSymbolTableRecord
100
AcDbLayerTableRecord
  2
0
 70
     0
 62
     7
  6
CONTINUOUS
370
    -3
390
F
347
6DC
348
0
  0
LAYER
  5
42
102
{ACAD_XDICTIONARY
360
73B
102
}
330
2
100
AcDbSymbolTableRecord
100
AcDbLayerTableRecord
  2
1
 70
     0
 62
     7
  6
CONTINUOUS
370
    -3
390
F
347
6DC
348
0
  0
LAYER
  5
6BD
102
{ACAD_XDICTIONARY
360
73D
102
}
330
2
100
AcDbSymbolTableRecord
100
AcDbLayerTableRecord
  2
TOP
 70
     0
 62
     7
  6
CONTINUOUS
370
    -3
390
F
347
6DC
348
0
  0
LAYER
  5
6E4
330
2
100
AcDbSymbolTableRecord
100
AcDbLayerTableRecord
  2
Defpoints
 70
     0
 62
     7
  6
CONTINUOUS
290
     0
370
    -3
390
F
347
6DC
348
0
  0
LAYER
  5
840
330
2
100
AcDbSymbolTableRecord
100
AcDbLayerTableRecord
  2
HEWI
 70
     0
 62
   250
  6
CONTINUOUS
370
    -3
390
F
347
6DC
348
0
1001
AcAecLayerStandard
1000

1000

1001
AcCmTransparency
1071
        0
  0
LAYER
  5
89B
330
2
100
AcDbSymbolTableRecord
100
AcDbLayerTableRecord
  2
VD
 70
     0
 62
   183
  6
HIDDEN
370
    -3
390
F
347
6DC
348
0
1001
AcAecLayerStandard
1000

1000

1001
AcCmTransparency
1071
        0
  0
ENDTAB
  0
TABLE
  2
STYLE
  5
3
330
0
100
AcDbSymbolTable
 70
     3
  0
STYLE
  5
11
330
3
100
AcDbSymbolTableRecord
100
AcDbTextStyleTableRecord
  2
Standard
 70
     0
 40
0.0
 41
1.0
 50
0.0
 71
     0
 42
25.0
  3
txt
  4

  0
STYLE
  5
852
330
3
100
AcDbSymbolTableRecord
100
AcDbTextStyleTableRecord
  2
HEWI
 70
     0
 40
0.0
 41
1.0
 50
0.0
 71
     0
 42
90.0
  3
arial.ttf
  4

1001
ACAD
1000
Arial
1071
       34
  0
STYLE
  5
995
330
3
100
AcDbSymbolTableRecord
100
AcDbTextStyleTableRecord
  2
ARIAL
 70
     0
 40
0.0
 41
1.0
 50
0.0
 71
     0
 42
0.0
  3
Arial
  4

  0
ENDTAB
  0
TABLE
  2
VIEW
  5
6
330
0
100
AcDbSymbolTable
 70
     0
  0
ENDTAB
  0
TABLE
  2
UCS
  5
7
330
0
100
AcDbSymbolTable
 70
     0
  0
ENDTAB
  0
TABLE
  2
APPID
  5
9
330
0
100
AcDbSymbolTable
 70
     6
  0
APPID
  5
12
330
9
100
AcDbSymbolTableRecord
100
AcDbRegAppTableRecord
  2
ACAD
 70
     0
  0
APPID
  5
73F
330
9
100
AcDbSymbolTableRecord
100
AcDbRegAppTableRecord
  2
ACAD_NAV_VCDISPLAY
 70
     0
  0
APPID
  5
841
330
9
100
AcDbSymbolTableRecord
100
AcDbRegAppTableRecord
  2
AcAecLayerStandard
 70
     0
  0
APPID
  5
842
330
9
100
AcDbSymbolTableRecord
100
AcDbRegAppTableRecord
  2
AcCmTransparency
 70
     0
  0
APPID
  5
853
330
9
100
AcDbSymbolTableRecord
100
AcDbRegAppTableRecord
  2
ACAD_PSEXT
 70
     0
  0
APPID
  5
89C
330
9
100
AcDbSymbolTableRecord
100
AcDbRegAppTableRecord
  2
ACAD_EXEMPT_FROM_CAD_STANDARDS
 70
     0
  0
ENDTAB
  0
TABLE
  2
DIMSTYLE
  5
A
330
0
100
AcDbSymbolTable
 70
     2
100
AcDbDimStyleTable
 71
     2
340
749
340
27
  0
DIMSTYLE
105
27
330
A
100
AcDbSymbolTableRecord
100
AcDbDimStyleTableRecord
  2
Standard
 70
     0
340
11
  0
DIMSTYLE
105
749
102
{ACAD_REACTORS
330
9B5
102
}
330
A
100
AcDbSymbolTableRecord
100
AcDbDimStyleTableRecord
  2
ISO-25
 70
     0
 41
2.5
 42
0.625
 43
3.75
 44
1.25
 73
     0
 74
     0
 77
     1
 78
     8
140
2.5
141
2.5
143
0.03937007874016
147
0.625
171
     3
172
     1
271
     2
272
     2
274
     3
278
    44
283
     0
284
     8
340
11
  0
ENDTAB
  0
TABLE
  2
BLOCK_RECORD
  5
1
330
0
100
AcDbSymbolTable
 70
    10
  0
BLOCK_RECORD
  5
1F
102
{ACAD_XDICTIONARY
360
975
102
}
330
1
100
AcDbSymbolTableRecord
100
AcDbBlockTableRecord
  2
*Model_Space
340
22
 70
     0
280
     1
281
     0
  0
BLOCK_RECORD
  5
1B
330
1
100
AcDbSymbolTableRecord
100
AcDbBlockTableRecord
  2
*Paper_Space
340
1E
 70
     0
280
     1
281
     0
  0
BLOCK_RECORD
  5
23
330
1
100
AcDbSymbolTableRecord
100
AcDbBlockTableRecord
  2
*Paper_Space0
340
26
 70
     0
280
     1
281
     0
  0
BLOCK_RECORD
  5
6E5
330
1
100
AcDbSymbolTableRecord
100
AcDbBlockTableRecord
  2
*D1
340
0
 70
     0
280
     1
281
     0
  0
BLOCK_RECORD
  5
6F1
330
1
100
AcDbSymbolTableRecord
100
AcDbBlockTableRecord
  2
*D2
340
0
 70
     0
280
     1
281
     0
  0
BLOCK_RECORD
  5
832
330
1
100
AcDbSymbolTableRecord
100
AcDbBlockTableRecord
  2
*D3
340
0
 70
     0
280
     1
281
     0
  0
BLOCK_RECORD
  5
88E
330
1
100
AcDbSymbolTableRecord
100
AcDbBlockTableRecord
  2
*D4
340
0
 70
     0
280
     1
281
     0
  0
BLOCK_RECORD
  5
984
330
1
100
AcDbSymbolTableRecord
100
AcDbBlockTableRecord
  2
_Dot
340
0
102
{BLKREFS
331
9E1
331
9E2
331
98E
331
98F
331
9AF
331
9B0
102
}
 70
     0
280
     1
281
     0
  0
BLOCK_RECORD
  5
989
330
1
100
AcDbSymbolTableRecord
100
AcDbBlockTableRecord
  2
*D6
340
0
 70
     0
280
     1
281
     0
  0
BLOCK_RECORD
  5
9A0
330
1
100
AcDbSymbolTableRecord
100
AcDbBlockTableRecord
  2
*D8
340
0
 70
     0
280
     1
281
     0
  0
BLOCK_RECORD
  5
9B6
330
1
100
AcDbSymbolTableRecord
100
AcDbBlockTableRecord
  2
*D9
340
0
 70
     0
280
     1
281
     0
  0
ENDTAB
  0
ENDSEC
  0
SECTION
  2
BLOCKS
  0
BLOCK
  5
20
330
1F
100
AcDbEntity
  8
0
100
AcDbBlockBegin
  2
*Model_Space
 70
     0
 10
0.0
 20
0.0
 30
0.0
  3
*Model_Space
  1

  0
ENDBLK
  5
21
330
1F
100
AcDbEntity
  8
0
100
AcDbBlockEnd
  0
BLOCK
  5
1C
330
1B
100
AcDbEntity
 67
     1
  8
0
100
AcDbBlockBegin
  2
*Paper_Space
 70
     0
 10
0.0
 20
0.0
 30
0.0
  3
*Paper_Space
  1

  0
ENDBLK
  5
1D
330
1B
100
AcDbEntity
 67
     1
  8
0
100
AcDbBlockEnd
  0
BLOCK
  5
24
330
23
100
AcDbEntity
 67
     1
  8
0
100
AcDbBlockBegin
  2
*Paper_Space0
 70
     0
 10
0.0
 20
0.0
 30
0.0
  3
*Paper_Space0
  1

  0
ENDBLK
  5
25
330
23
100
AcDbEntity
 67
     1
  8
0
100
AcDbBlockEnd
  0
BLOCK
  5
6EE
330
6E5
100
AcDbEntity
  8
0
100
AcDbBlockBegin
  2
*D1
 70
     1
 10
0.0
 20
0.0
 30
0.0
  3
*D1
  1

  0
LINE
  5
6E6
330
6E5
100
AcDbEntity
  8
0
 62
     0
370
    -2
100
AcDbLine
 10
197.7955681797262
 20
729.269403322281
 30
0.0
 11
197.9755681797261
 21
729.269403322281
 31
0.0
  0
LINE
  5
6E7
330
6E5
100
AcDbEntity
  8
0
 62
     0
370
    -2
100
AcDbLine
 10
197.9755681797261
 20
729.269403322281
 30
0.0
 11
229.3197234096654
 21
718.3681070254327
 31
0.0
  0
MTEXT
  5
6E8
330
6E5
100
AcDbEntity
  8
0
 62
     0
100
AcDbMText
 10
197.1205681797261
 20
729.2694033222809
 30
0.0
 40
0.18
 41
0.0
 46
0.0
 71
     5
 72
     1
  1
\A1;∅23.6000
 73
     1
 44
1.0
1001
ACAD
1000
MTEXTBEGIN
1070
    73
1070
     1
1070
    44
1040
1.0
1070
    74
1070
     0
1000
MTEXTEND
  0
SOLID
  5
6E9
330
6E5
100
AcDbEntity
  8
0
 62
     0
100
AcDbTrace
 10
229.3295782070002
 20
718.3964422150294
 30
0.0
 11
229.3098686123305
 21
718.3397718358357
 31
0.0
 12
229.4897345472465
 22
718.3089782414238
 32
0.0
 13
229.4897345472465
 23
718.3089782414238
 33
0.0
  0
LINE
  5
6EA
330
6E5
100
AcDbEntity
  8
0
 62
     0
370
    -2
100
AcDbLine
 10
240.5449091220069
 20
714.4327579563887
 30
0.0
 11
240.7249091220069
 21
714.4327579563887
 31
0.0
  0
LINE
  5
6EB
330
6E5
100
AcDbEntity
  8
0
 62
     0
370
    -2
100
AcDbLine
 10
240.6349091220069
 20
714.3427579563891
 30
0.0
 11
240.6349091220068
 21
714.522757956389
 31
0.0
  0
POINT
  5
6EC
330
6E5
100
AcDbEntity
  8
Defpoints
 62
     0
100
AcDbPoint
 10
229.4897345472465
 20
718.3089782414238
 30
0.0
  0
POINT
  5
6ED
330
6E5
100
AcDbEntity
  8
Defpoints
 62
     0
100
AcDbPoint
 10
251.7800836967673
 20
710.5565376713546
 30
0.0
  0
ENDBLK
  5
6EF
330
6E5
100
AcDbEntity
  8
0
100
AcDbBlockEnd
  0
BLOCK
  5
6FC
330
6F1
100
AcDbEntity
  8
0
100
AcDbBlockBegin
  2
*D2
 70
     1
 10
0.0
 20
0.0
 30
0.0
  3
*D2
  1

  0
LINE
  5
6F2
330
6F1
100
AcDbEntity
  8
0
 62
     0
370
    -2
100
AcDbLine
 10
228.1362870747628
 20
714.1846591413504
 30
0.0
 11
228.1362870747628
 21
711.0397278630072
 31
0.0
  0
LINE
  5
6F3
330
6F1
100
AcDbEntity
  8
0
 62
     0
370
    -2
100
AcDbLine
 10
253.1349091220068
 20
714.3702579563893
 30
0.0
 11
253.1349091220068
 21
711.0397278630072
 31
0.0
  0
LINE
  5
6F4
330
6F1
100
AcDbEntity
  8
0
 62
     0
370
    -2
100
AcDbLine
 10
228.3162870747628
 20
711.2197278630072
 30
0.0
 11
240.0055980983848
 21
711.2197278630072
 31
0.0
  0
LINE
  5
6F5
330
6F1
100
AcDbEntity
  8
0
 62
     0
370
    -2
100
AcDbLine
 10
252.9549091220069
 20
711.2197278630072
 30
0.0
 11
241.2655980983848
 21
711.2197278630072
 31
0.0
  0
SOLID
  5
6F6
330
6F1
100
AcDbEntity
  8
0
 62
     0
100
AcDbTrace
 10
228.3162870747628
 20
711.249727863007
 30
0.0
 11
228.3162870747628
 21
711.189727863007
 31
0.0
 12
228.1362870747628
 22
711.2197278630072
 32
0.0
 13
228.1362870747628
 23
711.2197278630072
 33
0.0
  0
SOLID
  5
6F7
330
6F1
100
AcDbEntity
  8
0
 62
     0
100
AcDbTrace
 10
252.9549091220069
 20
711.249727863007
 30
0.0
 11
252.9549091220069
 21
711.189727863007
 31
0.0
 12
253.1349091220068
 22
711.2197278630072
 32
0.0
 13
253.1349091220068
 23
711.2197278630072
 33
0.0
  0
MTEXT
  5
6F8
330
6F1
100
AcDbEntity
  8
0
 62
     0
100
AcDbMText
 10
240.6355980983848
 20
711.2197278630072
 30
0.0
 40
0.18
 41
0.0
 46
0.0
 71
     5
 72
     1
  1
\A1;24.9986
 73
     1
 44
1.0
1001
ACAD
1000
MTEXTBEGIN
1070
    73
1070
     1
1070
    44
1040
1.0
1070
    74
1070
     0
1000
MTEXTEND
  0
POINT
  5
6F9
330
6F1
100
AcDbEntity
  8
Defpoints
 62
     0
100
AcDbPoint
 10
228.1362870747628
 20
714.2471591413506
 30
0.0
  0
POINT
  5
6FA
330
6F1
100
AcDbEntity
  8
Defpoints
 62
     0
100
AcDbPoint
 10
253.1349091220068
 20
714.4327579563893
 30
0.0
  0
POINT
  5
6FB
330
6F1
100
AcDbEntity
  8
Defpoints
 62
     0
100
AcDbPoint
 10
253.1349091220068
 20
711.2197278630072
 30
0.0
  0
ENDBLK
  5
6FD
330
6F1
100
AcDbEntity
  8
0
100
AcDbBlockEnd
  0
BLOCK
  5
833
330
832
100
AcDbEntity
  8
0
100
AcDbBlockBegin
  2
*D3
 70
     1
 10
0.0
 20
0.0
 30
0.0
  3
*D3
  1

  0
LINE
  5
835
330
832
100
AcDbEntity
  8
0
 62
     0
440
 16777216
370
    -2
100
AcDbLine
 10
683.9660740363707
 20
698.5360695271556
 30
0.0
 11
931.2838988099775
 21
698.5360695271557
 31
0.0
  0
LINE
  5
836
330
832
100
AcDbEntity
  8
0
 62
     0
440
 16777216
370
    -2
100
AcDbLine
 10
743.2960477928137
 20
70.90478901870854
 30
0.0
 11
931.2838988099775
 21
70.90478901870857
 31
0.0
  0
LINE
  5
837
330
832
100
AcDbEntity
  8
0
 62
     0
440
 16777216
370
    -2
100
AcDbLine
 10
931.1038988099776
 20
698.3560695271558
 30
0.0
 11
931.1038988099776
 21
384.9004292729322
 31
0.0
  0
LINE
  5
838
330
832
100
AcDbEntity
  8
0
 62
     0
440
 16777216
370
    -2
100
AcDbLine
 10
931.1038988099776
 20
71.08478901870856
 30
0.0
 11
931.1038988099776
 21
384.5404292729322
 31
0.0
  0
SOLID
  5
839
330
832
100
AcDbEntity
  8
0
 62
     0
440
 16777216
100
AcDbTrace
 10
931.0738988099775
 20
698.3560695271558
 30
0.0
 11
931.1338988099775
 21
698.3560695271558
 31
0.0
 12
931.1038988099776
 22
698.5360695271557
 32
0.0
 13
931.1038988099776
 23
698.5360695271557
 33
0.0
  0
SOLID
  5
83A
330
832
100
AcDbEntity
  8
0
 62
     0
440
 16777216
100
AcDbTrace
 10
931.0738988099775
 20
71.08478901870856
 30
0.0
 11
931.1338988099775
 21
71.08478901870856
 31
0.0
 12
931.1038988099776
 22
70.90478901870857
 32
0.0
 13
931.1038988099776
 23
70.90478901870857
 33
0.0
  0
MTEXT
  5
83B
330
832
100
AcDbEntity
  8
0
 62
     0
440
 16777216
100
AcDbMText
 10
931.1038988099774
 20
384.7204292729318
 30
0.0
 40
0.18
 41
0.0
 46
0.0
 71
     5
 72
     1
  1
\A1;627.6313
 73
     1
 44
1.0
  0
POINT
  5
83C
330
832
100
AcDbEntity
  8
Defpoints
 62
     0
440
 16777216
100
AcDbPoint
 10
683.9035740363707
 20
698.5360695271556
 30
0.0
  0
POINT
  5
83D
330
832
100
AcDbEntity
  8
Defpoints
 62
     0
440
 16777216
100
AcDbPoint
 10
743.2335477928137
 20
70.90478901870854
 30
0.0
  0
POINT
  5
83E
330
832
100
AcDbEntity
  8
Defpoints
 62
     0
440
 16777216
100
AcDbPoint
 10
931.1038988099776
 20
70.90478901870857
 30
0.0
  0
ENDBLK
  5
834
330
832
100
AcDbEntity
  8
0
100
AcDbBlockEnd
  0
BLOCK
  5
88F
330
88E
100
AcDbEntity
  8
0
100
AcDbBlockBegin
  2
*D4
 70
     1
 10
0.0
 20
0.0
 30
0.0
  3
*D4
  1

  0
LINE
  5
891
330
88E
100
AcDbEntity
  8
0
 62
     0
440
 16777216
370
    -2
100
AcDbLine
 10
724.7872616534862
 20
822.735636092444
 30
0.0
 11
442.6772192546708
 21
822.735636092444
 31
0.0
  0
LINE
  5
892
330
88E
100
AcDbEntity
  8
0
 62
     0
440
 16777216
370
    -2
100
AcDbLine
 10
697.4297366889961
 20
62.35615820247002
 30
0.0
 11
442.6772192546709
 21
62.35615820246998
 31
0.0
  0
LINE
  5
893
330
88E
100
AcDbEntity
  8
0
 62
     0
440
 16777216
370
    -2
100
AcDbLine
 10
442.8572192546709
 20
822.5556360924437
 30
0.0
 11
442.8572192546709
 21
442.725897147457
 31
0.0
  0
LINE
  5
894
330
88E
100
AcDbEntity
  8
0
 62
     0
440
 16777216
370
    -2
100
AcDbLine
 10
442.857219254671
 20
62.53615820246999
 30
0.0
 11
442.8572192546709
 21
442.3658971474569
 31
0.0
  0
SOLID
  5
895
330
88E
100
AcDbEntity
  8
0
 62
     0
440
 16777216
100
AcDbTrace
 10
442.8272192546709
 20
822.5556360924437
 30
0.0
 11
442.8872192546708
 21
822.5556360924437
 31
0.0
 12
442.8572192546709
 22
822.735636092444
 32
0.0
 13
442.8572192546709
 23
822.735636092444
 33
0.0
  0
SOLID
  5
896
330
88E
100
AcDbEntity
  8
0
 62
     0
440
 16777216
100
AcDbTrace
 10
442.827219254671
 20
62.53615820246999
 30
0.0
 11
442.887219254671
 21
62.53615820246999
 31
0.0
 12
442.857219254671
 22
62.35615820246998
 32
0.0
 13
442.857219254671
 23
62.35615820246998
 33
0.0
  0
MTEXT
  5
897
330
88E
100
AcDbEntity
  8
0
 62
     0
440
 16777216
100
AcDbMText
 10
442.8572192546709
 20
442.5458971474568
 30
0.0
 40
0.18
 41
0.0
 46
0.0
 71
     5
 72
     1
  1
\A1;760.3795
 73
     1
 44
1.0
  0
POINT
  5
898
330
88E
100
AcDbEntity
  8
Defpoints
 62
     0
440
 16777216
100
AcDbPoint
 10
724.8497616534862
 20
822.735636092444
 30
0.0000000000001063
  0
POINT
  5
899
330
88E
100
AcDbEntity
  8
Defpoints
 62
     0
440
 16777216
100
AcDbPoint
 10
697.4922366889963
 20
62.35615820247002
 30
0.0
  0
POINT
  5
89A
330
88E
100
AcDbEntity
  8
Defpoints
 62
     0
440
 16777216
100
AcDbPoint
 10
442.857219254671
 20
62.35615820246998
 30
0.0
  0
ENDBLK
  5
890
330
88E
100
AcDbEntity
  8
0
100
AcDbBlockEnd
  0
BLOCK
  5
985
330
984
100
AcDbEntity
  8
0
100
AcDbBlockBegin
  2
_Dot
 70
     0
 10
0.0
 20
0.0
 30
0.0
  3
_Dot
  1

  0
LWPOLYLINE
  5
986
330
984
100
AcDbEntity
  8
0
  6
ByBlock
 62
     0
100
AcDbPolyline
 90
        2
 70
     1
 43
0.5
 10
-0.25
 20
0.0
 42
1.0
 10
0.25
 20
0.0
 42
1.0
  0
LINE
  5
987
330
984
100
AcDbEntity
  8
0
  6
ByBlock
 62
     0
370
    -2
100
AcDbLine
 10
-0.5
 20
0.0
 30
0.0
 11
-1.0
 21
0.0
 31
0.0
  0
ENDBLK
  5
988
330
984
100
AcDbEntity
  8
0
100
AcDbBlockEnd
  0
BLOCK
  5
98A
330
989
100
AcDbEntity
  8
0
100
AcDbBlockBegin
  2
*D6
 70
     1
 10
0.0
 20
0.0
 30
0.0
  3
*D6
  1

  0
LINE
  5
98B
330
989
100
AcDbEntity
  8
0
 62
     0
440
 16777216
370
    -2
100
AcDbLine
 10
21833.66388734562
 20
-62336.93462033389
 30
0.0
 11
21960.19945650409
 21
-62336.93462033389
 31
0.0
  0
LINE
  5
98C
330
989
100
AcDbEntity
  8
0
 62
     0
440
 16777216
370
    -2
100
AcDbLine
 10
21833.66388734562
 20
-61486.93462033389
 30
0.0
 11
21960.19945650409
 21
-61486.93462033389
 31
0.0
  0
LINE
  5
98D
330
989
100
AcDbEntity
  8
0
 62
     0
440
 16777216
370
    -2
100
AcDbLine
 10
21958.94945650409
 20
-62318.93462033388
 30
0.0
 11
21958.94945650409
 21
-61504.93462033389
 31
0.0
  0
INSERT
  5
98E
330
989
100
AcDbEntity
  8
0
 62
     0
440
 16777216
370
    -2
100
AcDbBlockReference
  2
_Dot
 10
21958.94945650409
 20
-62336.93462033389
 30
0.0
 41
18.0
 42
18.0
 43
18.0
 50
270.0
  0
INSERT
  5
98F
330
989
100
AcDbEntity
  8
0
 62
     0
440
 16777216
370
    -2
100
AcDbBlockReference
  2
_Dot
 10
21958.94945650409
 20
-61486.93462033389
 30
0.0
 41
18.0
 42
18.0
 43
18.0
 50
90.0
  0
MTEXT
  5
990
330
989
100
AcDbEntity
  8
0
 62
     0
440
 16777216
100
AcDbMText
 10
21923.5265369952
 20
-61911.93462033388
 30
0.0
 40
40.0
 41
0.0
 46
0.0
 71
     5
 72
     1
  1
850
  7
ARIAL
 11
0.0000000000000001
 21
1.0
 31
0.0
 73
     1
 44
1.0
  0
POINT
  5
991
330
989
100
AcDbEntity
  8
Defpoints
 62
     0
440
 16777216
100
AcDbPoint
 10
21833.03888734562
 20
-62336.93462033389
 30
0.0
  0
POINT
  5
992
330
989
100
AcDbEntity
  8
Defpoints
 62
     0
440
 16777216
100
AcDbPoint
 10
21833.03888734562
 20
-61486.93462033389
 30
0.0
  0
POINT
  5
993
330
989
100
AcDbEntity
  8
Defpoints
 62
     0
440
 16777216
100
AcDbPoint
 10
21958.94945650409
 20
-61486.93462033389
 30
0.0
  0
ENDBLK
  5
994
330
989
100
AcDbEntity
  8
0
100
AcDbBlockEnd
  0
BLOCK
  5
9A1
330
9A0
100
AcDbEntity
  8
0
100
AcDbBlockBegin
  2
*D8
 70
     1
 10
0.0
 20
0.0
 30
0.0
  3
*D8
  1

  0
LINE
  5
9AC
330
9A0
100
AcDbEntity
  8
0
 62
     0
440
 16777216
370
    -2
100
AcDbLine
 10
1427.288095903207
 20
206.0628302446727
 30
0.0
 11
1553.823665061685
 21
206.0628302446727
 31
0.0
  0
LINE
  5
9AD
330
9A0
100
AcDbEntity
  8
0
 62
     0
440
 16777216
370
    -2
100
AcDbLine
 10
1427.288095903207
 20
1056.062830244673
 30
0.0
 11
1553.823665061684
 21
1056.062830244673
 31
0.0
  0
LINE
  5
9AE
330
9A0
100
AcDbEntity
  8
0
 62
     0
440
 16777216
370
    -2
100
AcDbLine
 10
1552.573665061685
 20
224.0628302446727
 30
0.0
 11
1552.573665061684
 21
1038.062830244673
 31
0.0
  0
INSERT
  5
9AF
330
9A0
100
AcDbEntity
  8
0
 62
     0
440
 16777216
370
    -2
100
AcDbBlockReference
  2
_Dot
 10
1552.573665061685
 20
206.0628302446727
 30
0.0
 41
18.0
 42
18.0
 43
18.0
 50
270.0
  0
INSERT
  5
9B0
330
9A0
100
AcDbEntity
  8
0
 62
     0
440
 16777216
370
    -2
100
AcDbBlockReference
  2
_Dot
 10
1552.573665061684
 20
1056.062830244673
 30
0.0
 41
18.0
 42
18.0
 43
18.0
 50
90.0
  0
MTEXT
  5
9B1
330
9A0
100
AcDbEntity
  8
0
 62
     0
440
 16777216
100
AcDbMText
 10
1517.150745552816
 20
631.0628302446723
 30
0.0
 40
40.0
 41
0.0
 46
0.0
 71
     5
 72
     1
  1
850
  7
ARIAL
 11
0.0000000000000001
 21
1.0
 31
0.0
 73
     1
 44
1.0
  0
POINT
  5
9B2
330
9A0
100
AcDbEntity
  8
Defpoints
 62
     0
440
 16777216
100
AcDbPoint
 10
1426.663095903207
 20
206.0628302446727
 30
0.0
  0
POINT
  5
9B3
330
9A0
100
AcDbEntity
  8
Defpoints
 62
     0
440
 16777216
100
AcDbPoint
 10
1426.663095903207
 20
1056.062830244673
 30
0.0
  0
POINT
  5
9B4
330
9A0
100
AcDbEntity
  8
Defpoints
 62
     0
440
 16777216
100
AcDbPoint
 10
1552.573665061684
 20
1056.062830244673
 30
0.0
  0
ENDBLK
  5
9A2
330
9A0
100
AcDbEntity
  8
0
100
AcDbBlockEnd
  0
BLOCK
  5
9B7
330
9B6
100
AcDbEntity
  8
0
100
AcDbBlockBegin
  2
*D9
 70
     1
 10
0.0
 20
0.0
 30
0.0
  3
*D9
  1

  0
LINE
  5
9DE
330
9B6
100
AcDbEntity
  8
0
 62
     0
440
 16777216
370
    -2
100
AcDbLine
 10
234.1320489597375
 20
744.2250236057849
 30
0.0
 11
73.65959109129015
 21
744.2250236057849
 31
0.0
  0
LINE
  5
9DF
330
9B6
100
AcDbEntity
  8
0
 62
     0
440
 16777216
370
    -2
100
AcDbLine
 10
234.1320489597375
 20
64.84214547880791
 30
0.0
 11
73.65959109129031
 21
64.84214547880788
 31
0.0
  0
LINE
  5
9E0
330
9B6
100
AcDbEntity
  8
0
 62
     0
440
 16777216
370
    -2
100
AcDbLine
 10
74.90959109129017
 20
726.2250236057849
 30
0.0
 11
74.90959109129031
 21
82.84214547880788
 31
0.0
  0
INSERT
  5
9E1
330
9B6
100
AcDbEntity
  8
0
 62
     0
440
 16777216
370
    -2
100
AcDbBlockReference
  2
_Dot
 10
74.90959109129015
 20
744.2250236057849
 30
0.0
 41
18.0
 42
18.0
 43
18.0
 50
90.0
  0
INSERT
  5
9E2
330
9B6
100
AcDbEntity
  8
0
 62
     0
440
 16777216
370
    -2
100
AcDbBlockReference
  2
_Dot
 10
74.90959109129031
 20
64.84214547880788
 30
0.0
 41
18.0
 42
18.0
 43
18.0
 50
270.0
  0
MTEXT
  5
9E3
330
9B6
100
AcDbEntity
  8
0
 62
     0
440
 16777216
100
AcDbMText
 10
39.48667158242267
 20
404.5335845422963
 30
0.0
 40
40.0
 41
0.0
 46
0.0
 71
     5
 72
     1
  1
680
  7
ARIAL
 11
0.0000000000000001
 21
1.0
 31
0.0
 73
     1
 44
1.0
  0
POINT
  5
9E4
330
9B6
100
AcDbEntity
  8
Defpoints
 62
     0
440
 16777216
100
AcDbPoint
 10
234.7570489597375
 20
744.2250236057849
 30
-0.0000000000000782
  0
POINT
  5
9E5
330
9B6
100
AcDbEntity
  8
Defpoints
 62
     0
440
 16777216
100
AcDbPoint
 10
234.7570489597375
 20
64.84214547880791
 30
0.0
  0
POINT
  5
9E6
330
9B6
100
AcDbEntity
  8
Defpoints
 62
     0
440
 16777216
100
AcDbPoint
 10
74.90959109129031
 20
64.84214547880788
 30
0.0
  0
ENDBLK
  5
9B8
330
9B6
100
AcDbEntity
  8
0
100
AcDbBlockEnd
  0
ENDSEC
  0
SECTION
  2
ENTITIES
  0
POINT
  5
41
330
1F
100
AcDbEntity
  8
1
  6
Continuous
 62
     8
 60
     1
100
AcDbPoint
 10
404.3575923400498
 20
781.375311787343
 30
0.0
  0
POINT
  5
43
330
1F
100
AcDbEntity
  8
1
  6
Continuous
 62
     8
 60
     1
100
AcDbPoint
 10
406.2557024266769
 20
781.375311787343
 30
0.0
  0
POINT
  5
44
330
1F
100
AcDbEntity
  8
1
  6
Continuous
 62
     8
 60
     1
100
AcDbPoint
 10
459.0720825317583
 20
781.375311787343
 30
0.0
  0
POINT
  5
45
330
1F
100
AcDbEntity
  8
1
  6
Continuous
 62
     8
 60
     1
100
AcDbPoint
 10
407.4516212075917
 20
781.375311787343
 30
0.0
  0
POINT
  5
46
330
1F
100
AcDbEntity
  8
1
  6
Continuous
 62
     8
 60
     1
100
AcDbPoint
 10
458.1666053598187
 20
768.375311787343
 30
0.0
  0
POINT
  5
47
330
1F
100
AcDbEntity
  8
1
  6
Continuous
 62
     8
 60
     1
100
AcDbPoint
 10
458.1666053598187
 20
794.772511787343
 30
0.0
  0
POINT
  5
48
330
1F
100
AcDbEntity
  8
1
  6
Continuous
 62
     8
 60
     1
100
AcDbPoint
 10
404.3575923400498
 20
27.05471422462955
 30
0.0
  0
POINT
  5
49
330
1F
100
AcDbEntity
  8
1
  6
Continuous
 62
     8
 60
     1
100
AcDbPoint
 10
406.3864360407983
 20
27.05471422462955
 30
0.0
  0
POINT
  5
4A
330
1F
100
AcDbEntity
  8
1
  6
Continuous
 62
     8
 60
     1
100
AcDbPoint
 10
459.0720825317583
 20
27.05471422462955
 30
0.0
  0
POINT
  5
4B
330
1F
100
AcDbEntity
  8
1
  6
Continuous
 62
     8
 60
     1
100
AcDbPoint
 10
407.4690523561413
 20
27.05471422462955
 30
0.0
  0
ARC
  5
874
330
1F
100
AcDbEntity
  8
VD
100
AcDbCircle
 10
761.2625360756681
 20
659.2250236057846
 30
0.0000000000000186
 40
85.0
100
AcDbArc
 50
270.0
 51
90.0
  0
ARC
  5
875
330
1F
100
AcDbEntity
  8
VD
100
AcDbCircle
 10
761.2625360756681
 20
659.2250236057846
 30
0.0000000000000186
 40
52.0
100
AcDbArc
 50
270.0
 51
90.0
  0
LINE
  5
876
330
1F
100
AcDbEntity
  8
VD
100
AcDbLine
 10
202.9249911833431
 20
744.2250236057847
 30
-0.000000000000084
 11
761.2625360756681
 21
744.2250236057847
 31
0.0000000000000186
210
0.0
220
1.0
230
0.0
  0
LINE
  5
877
330
1F
100
AcDbEntity
  8
VD
100
AcDbLine
 10
202.9249911833431
 20
711.2250236057847
 30
-0.000000000000084
 11
379.7625360756683
 21
711.2250236057847
 31
-0.0000000000000515
210
0.0
220
1.0
230
0.0
  0
LINE
  5
878
330
1F
100
AcDbEntity
  8
VD
100
AcDbLine
 10
412.7625360756683
 20
711.2250236057847
 30
-0.0000000000000454
 11
761.2625360756681
 21
711.2250236057847
 31
0.0000000000000186
210
0.0
220
1.0
230
0.0
  0
LINE
  5
879
330
1F
100
AcDbEntity
  8
VD
100
AcDbLine
 10
761.2625360756681
 20
574.2250236057847
 30
0.0000000000000186
 11
162.7625360756683
 21
574.2250236057847
 31
-0.0000000000000914
210
0.0
220
1.0
230
0.0
  0
LINE
  5
87A
330
1F
100
AcDbEntity
  8
VD
100
AcDbLine
 10
761.2625360756681
 20
607.2250236057847
 30
0.0000000000000186
 11
412.7625360756683
 21
607.2250236057847
 31
-0.0000000000000454
210
0.0
220
1.0
230
0.0
  0
LINE
  5
87B
330
1F
100
AcDbEntity
  8
VD
100
AcDbLine
 10
379.7625360756683
 20
607.2250236057847
 30
-0.0000000000000515
 11
162.7625360756683
 21
607.2250236057847
 31
-0.0000000000000914
210
0.0
220
1.0
230
0.0
  0
LINE
  5
87C
330
1F
100
AcDbEntity
  8
VD
100
AcDbLine
 10
412.7625360756683
 20
711.2250236057847
 30
-0.0000000000000454
 11
412.7625360756683
 21
607.2250236057847
 31
-0.0000000000000454
210
0.0
220
1.0
230
0.0
  0
LINE
  5
87D
330
1F
100
AcDbEntity
  8
VD
100
AcDbLine
 10
379.7625360756683
 20
711.2250236057847
 30
-0.0000000000000515
 11
379.7625360756683
 21
607.2250236057847
 31
-0.0000000000000515
210
0.0
220
1.0
230
0.0
  0
LINE
  5
87E
330
1F
100
AcDbEntity
  8
VD
100
AcDbLine
 10
162.7625360756683
 20
542.7250236057848
 30
-0.0000000000000914
 11
162.7625360756683
 21
775.7250236057847
 31
-0.0000000000000914
210
0.0
220
1.0
230
0.0
  0
LINE
  5
87F
330
1F
100
AcDbEntity
  8
VD
100
AcDbLine
 10
146.2625360756683
 20
531.2250236057848
 30
-0.0000000000000944
 11
151.2625360756683
 21
531.2250236057848
 31
-0.0000000000000935
210
0.0
220
1.0
230
0.0
  0
ARC
  5
880
330
1F
100
AcDbEntity
  8
VD
100
AcDbCircle
 10
151.2625360756683
 20
542.7250236057848
 30
-0.0000000000000935
 40
11.5
100
AcDbArc
 50
270.0
 51
0.0
  0
ARC
  5
881
330
1F
100
AcDbEntity
  8
VD
100
AcDbCircle
 10
151.2625360756683
 20
775.7250236057847
 30
-0.0000000000000935
 40
11.5
100
AcDbArc
 50
0.0
 51
90.0
  0
LINE
  5
882
330
1F
100
AcDbEntity
  8
VD
100
AcDbLine
 10
151.2625360756683
 20
787.2250236057847
 30
-0.0000000000000935
 11
146.2625360756683
 21
787.2250236057847
 31
-0.0000000000000944
210
0.0
220
1.0
230
0.0
  0
LINE
  5
883
330
1F
100
AcDbEntity
  8
VD
100
AcDbLine
 10
146.2625360756683
 20
532.7250236057848
 30
-0.0000000000000944
 11
146.2625360756683
 21
531.2250236057848
 31
-0.0000000000000944
210
0.0
220
1.0
230
0.0
  0
LINE
  5
884
330
1F
100
AcDbEntity
  8
VD
100
AcDbLine
 10
146.2625360756683
 20
787.2250236057847
 30
-0.0000000000000944
 11
146.2625360756683
 21
785.7250236057847
 31
-0.0000000000000944
210
0.0
220
1.0
230
0.0
  0
LINE
  5
885
330
1F
100
AcDbEntity
  8
VD
100
AcDbLine
 10
146.2625360756683
 20
532.7250236057848
 30
-0.0000000000000944
 11
146.2625360756683
 21
785.7250236057847
 31
-0.0000000000000944
210
0.0
220
1.0
230
0.0
  0
ARC
  5
886
330
1F
100
AcDbEntity
  8
VD
100
AcDbCircle
 10
187.2625360756683
 20
727.7250236057847
 30
-0.0000000000000869
 40
22.74999999999999
100
AcDbArc
 50
270.0
 51
90.0
  0
LINE
  5
887
330
1F
100
AcDbEntity
  8
VD
100
AcDbLine
 10
187.2625360756683
 20
704.9750236057847
 30
-0.0000000000000869
 11
162.7625360756683
 21
704.9750236057847
 31
-0.0000000000000914
210
0.0
220
1.0
230
0.0
  0
LINE
  5
888
330
1F
100
AcDbEntity
  8
VD
100
AcDbLine
 10
162.7625360756683
 20
750.4750236057847
 30
-0.0000000000000914
 11
187.2625360756683
 21
750.4750236057847
 31
-0.0000000000000869
210
0.0
220
1.0
230
0.0
  0
LINE
  5
889
330
1F
100
AcDbEntity
  8
VD
100
AcDbLine
 10
396.2625360756683
 20
590.7250236057847
 30
-0.0000000000000485
 11
379.7625360756683
 21
607.2250236057847
 31
-0.0000000000000515
210
0.0
220
1.0
230
0.0
  0
LINE
  5
88A
330
1F
100
AcDbEntity
  8
VD
100
AcDbLine
 10
412.7625360756683
 20
607.2250236057847
 30
-0.0000000000000454
 11
396.2625360756683
 21
590.7250236057847
 31
-0.0000000000000485
210
0.0
220
1.0
230
0.0
  0
LINE
  5
88B
330
1F
100
AcDbEntity
  8
VD
100
AcDbLine
 10
379.7625360756683
 20
711.2250236057847
 30
-0.0000000000000515
 11
396.2625360756683
 21
727.7250236057847
 31
-0.0000000000000485
210
0.0
220
1.0
230
0.0
  0
LINE
  5
88C
330
1F
100
AcDbEntity
  8
VD
100
AcDbLine
 10
396.2625360756683
 20
727.7250236057847
 30
-0.0000000000000485
 11
412.7625360756683
 21
711.2250236057847
 31
-0.0000000000000454
210
0.0
220
1.0
230
0.0
  0
TEXT
  5
89E
330
1F
100
AcDbEntity
  8
0
100
AcDbText
 10
249.3118312891265
 20
520.7784802873125
 30
-0.0000000000000944
 40
25.0
  1
801.50...
100
AcDbText
  0
LWPOLYLINE
  5
8C5
330
1F
100
AcDbEntity
  8
HEWI
  6
Continuous
100
AcDbPolyline
 90
       16
 70
     0
 43
0.0
 10
778.6078503415065
 20
26.07076807945561
 10
803.2027043637882
 20
26.0707680794556
 10
805.1099443600197
 20
25.83830261958582
 10
806.906342500206
 20
25.15441628752484
 10
808.487498654078
 20
24.05885407106695
 10
809.7615217732455
 20
22.61528606402464
 10
810.6543702649087
 20
20.90760719181475
 10
811.114155020101
 20
19.03506154332689
 10
811.114155020101
 20
17.10647466522488
 10
810.6543702649087
 20
15.23392901673702
 10
809.7615217732455
 20
13.52625014452542
 10
808.487498654078
 20
12.08268213748454
 10
806.906342500206
 20
10.98711992102693
 10
805.1099443600197
 20
10.30323358896567
 10
803.2027043637882
 20
10.07076812909588
 10
778.60785061993
 20
10.07076812909588
  0
LWPOLYLINE
  5
8C6
330
1F
100
AcDbEntity
  8
HEWI
  6
Continuous
100
AcDbPolyline
 90
       62
 70
     1
 43
0.0
 10
748.6078496102053
 20
15.84083952647064
 10
748.6078496102053
 20
11.51057771434154
 10
748.6078496102053
 20
7.561570322353651
 10
748.6078496102053
 20
4.223319306071863
 10
748.6078496102053
 20
1.689831680512844
 10
748.6078496102053
 20
0.1083445376204466
 10
748.6078496102053
 20
-0.4292318383281142
 10
754.1078496931495
 20
-0.4292236966750737
 10
754.1078496931495
 20
-1.223599944371464
 10
754.2866140995029
 20
-1.263303687414341
 10
754.8161795896175
 20
-1.301513195519412
 10
755.8650879667673
 20
-1.342747627334396
 10
757.3197259181214
 20
-1.377738584341154
 10
759.1038687519485
 20
-1.404652500389427
 10
761.1240253439682
 20
-1.42207905550634
 10
763.2743371791238
 20
-1.429105078280198
 10
765.4421254588233
 20
-1.425362397084479
 10
767.5137955987993
 20
-1.411047132694416
 10
769.3807897151908
 20
-1.386909421327967
 10
770.9452751817844
 20
-1.354214106660544
 10
772.1252711714623
 20
-1.314674460558077
 10
772.8589445452906
 20
-1.270362405683155
 10
773.1078499796787
 20
-1.223599944371468
 10
773.1078499796787
 20
-0.4292236966750771
 10
778.6078500626226
 20
-0.4292318383281179
 10
778.6078500626226
 20
0.108344537620443
 10
778.6078500626226
 20
1.689831680512841
 10
778.6078500626226
 20
4.223319306071861
 10
778.6078500626226
 20
7.561570322353648
 10
778.6078500626226
 20
11.51057771434154
 10
778.6078500626226
 20
15.84083952647063
 10
778.6078500626226
 20
20.30069668208086
 10
778.6078500626226
 20
24.63095849420967
 10
778.6078500626226
 20
28.57996588619755
 10
778.6078500626226
 20
31.91821690247878
 10
778.6078500626226
 20
34.45170452803865
 10
778.6078500626226
 20
36.03319167092962
 10
778.6078500626226
 20
36.57076804687962
 10
773.1078499796787
 20
36.57075990522685
 10
773.1078499796787
 20
37.36513615292381
 10
772.8589445452906
 20
37.41189861423379
 10
772.1252711714623
 20
37.456210669109
 10
770.9452751817844
 20
37.49575031521061
 10
769.3807897151908
 20
37.52844562987974
 10
767.5137955987993
 20
37.55258334124562
 10
765.4421254588233
 20
37.56689860563455
 10
763.2743371791238
 20
37.57064128683197
 10
761.1240253439682
 20
37.56361526405783
 10
759.1038687519485
 20
37.54618870894036
 10
757.3197259181214
 20
37.51927479289264
 10
755.8650879667673
 20
37.48428383588561
 10
754.8161795896175
 20
37.44304940407062
 10
754.2866140995029
 20
37.40483989596471
 10
754.1078496931495
 20
37.36513615292381
 10
754.1078496931495
 20
36.57076804687962
 10
748.6078496102053
 20
36.57076804687962
 10
748.6078496102053
 20
36.03319167092962
 10
748.6078496102053
 20
34.45170452803865
 10
748.6078496102053
 20
31.91821690247878
 10
748.6078496102053
 20
28.57996588619757
 10
748.6078496102053
 20
24.63095849420967
 10
748.6078496102053
 20
20.30069668208086
  0
LWPOLYLINE
  5
8C7
330
1F
100
AcDbEntity
  8
HEWI
  6
Continuous
100
AcDbPolyline
 90
       19
 70
     0
 43
0.0
 10
803.9841481707354
 20
25.9755211812157
 10
804.1333599810805
 20
26.01243907242207
 10
806.0546080387885
 20
26.01243907242207
 10
807.2747884556575
 20
26.01243907242207
 10
809.1402085365352
 20
25.55089802255281
 10
810.8413892060069
 20
24.65463901099895
 10
812.2794640271058
 20
23.37574935374363
 10
813.370857318414
 20
21.78855346909159
 10
814.0521412688995
 20
19.9852934126369
 10
814.2837221317222
 20
18.07076810427474
 10
814.0521412688995
 20
16.15624279591486
 10
813.370857318414
 20
14.3529827394596
 10
812.2794640271058
 20
12.76578685480757
 10
810.8413892060069
 20
11.48689719755282
 10
809.1402085365352
 20
10.59063818599895
 10
807.2747884556575
 20
10.12909713613055
 10
806.0546080387885
 20
10.12909713613055
 10
804.1333599810805
 20
10.12909713613055
 10
803.984148198533
 20
10.16601502045858
  0
LWPOLYLINE
  5
8C8
330
1F
100
AcDbEntity
  8
HEWI
  6
Continuous
100
AcDbPolyline
 90
        7
 70
     0
 43
0.0
 10
810.1185482905185
 20
21.93243040771563
 10
810.6968133682766
 20
21.09146871318899
 10
811.2503565780462
 20
19.62631991731854
 10
811.4385160290892
 20
18.07076810427474
 10
811.2503565780462
 20
16.51521629123266
 10
810.6968133682766
 20
15.05006749536278
 10
810.1185482905185
 20
14.20910580083585
  0
LWPOLYLINE
  5
8C9
330
1F
100
AcDbEntity
  8
HEWI
  6
Continuous
100
AcDbPolyline
 90
       28
 70
     1
 43
0.0
 10
760.127055594885
 20
37.31823951286771
 10
759.725980643705
 20
37.33657486897584
 10
759.5277510743288
 20
37.35640268251957
 10
759.5427252864592
 20
37.3766868597508
 10
759.770120809173
 20
37.39636745983461
 10
760.1980551885954
 20
37.41441608159477
 10
760.8041669003505
 20
37.42988960217275
 10
761.5567838412588
 20
37.44197945949963
 10
762.4165783412881
 20
37.45005390335194
 10
763.3386222137869
 20
37.45369100718676
 10
764.2747344582986
 20
37.45270071573174
 10
765.1759989377207
 20
37.44713477623293
 10
765.9953204697102
 20
37.43728403443299
 10
766.6898857649194
 20
37.42366323654693
 10
767.2234006167419
 20
37.40698413142894
 10
767.5679864392567
 20
37.38811827844472
 10
767.7056370505834
 20
37.36805150451261
 10
767.6291595780512
 20
37.34783239015685
 10
767.3425503186352
 20
37.3285174763754
 10
766.8607859142047
 20
37.31111605557061
 10
766.2090407536124
 20
37.2965374313938
 10
765.421371496006
 20
37.28554340349461
 10
764.5389374549396
 20
37.27870846000769
 10
763.6078498364149
 20
37.27638975792274
 10
762.9409652145277
 20
37.27757159011446
 10
762.2918423442934
 20
37.2810856098647
 10
761.4444052100042
 20
37.28975054399058
 10
760.7100179312054
 20
37.30235472023565
  0
LWPOLYLINE
  5
8CA
330
1F
100
AcDbEntity
  8
HEWI
  6
Continuous
100
AcDbPolyline
 90
       26
 70
     1
 43
0.0
 10
755.9414534652078
 20
-1.167004744969225
 10
756.8196785062773
 20
-1.127940882550428
 10
758.1146783107088
 20
-1.094750219393173
 10
759.7469435068577
 20
-1.069470569530035
 10
761.6162575698636
 20
-1.053654032869526
 10
763.6078498364149
 20
-1.048271700592233
 10
765.2525433100962
 20
-1.051924021784311
 10
766.8287144658697
 20
-1.062728819917989
 10
768.5572090722327
 20
-1.08480907216943
 10
769.9818268428551
 20
-1.115410696391446
 10
771.0151002249348
 20
-1.15265483831649
 10
771.5935891182817
 20
-1.194254811635172
 10
771.6817759203039
 20
-1.237656494156449
 10
771.274246207622
 20
-1.280195143774559
 10
770.3960211665507
 20
-1.319259006195633
 10
769.1010213621192
 20
-1.352449669351184
 10
767.468756165972
 20
-1.377729319213184
 10
765.5994421029645
 20
-1.393545855875397
 10
763.6078498364149
 20
-1.398928188152407
 10
761.9631563627317
 20
-1.395275866960329
 10
760.3869852069583
 20
-1.384471068827219
 10
758.6584906005937
 20
-1.362390816576346
 10
757.2338728299727
 20
-1.331789192353195
 10
756.2005994478932
 20
-1.29454505042815
 10
755.6221105545463
 20
-1.252945077109465
 10
755.5339237525239
 20
-1.209543394588187
  0
LWPOLYLINE
  5
924
330
1F
100
AcDbEntity
  8
HEWI
  6
Continuous
100
AcDbPolyline
 90
       17
 70
     0
 43
0.0
 10
750.8080194312661
 20
543.0188483385292
 10
789.3004914449685
 20
103.0478927333692
 10
789.1201363298441
 20
102.8313497438862
 10
788.6718461996679
 20
102.7921294406628
 10
787.8013189322156
 20
102.715968175682
 10
786.5591464080336
 20
102.6072921648282
 10
785.0175191791113
 20
102.47241726283
 10
783.2660310164102
 20
102.319181908743
 10
781.4064720455409
 20
102.1564915843578
 10
779.5469130746733
 20
101.993801259973
 10
777.795424911974
 20
101.840565905886
 10
776.2537976830517
 20
101.7056910038878
 10
775.0116251588679
 20
101.5970149930343
 10
774.1410978914174
 20
101.5208537280529
 10
773.692807761243
 20
101.4816334248312
 10
773.4775903489682
 20
101.6635683035691
 10
734.9806048178744
 20
541.686113647078
  0
LWPOLYLINE
  5
925
330
1F
100
AcDbEntity
  8
HEWI
  6
Continuous
100
AcDbPolyline
 90
       44
 70
     1
 43
0.0
 10
781.2793938652049
 20
64.50213081723808
 10
780.200837764145
 20
64.40776938815793
 10
779.3822928068695
 20
64.33615598588922
 10
778.871329851003
 20
64.29145252106713
 10
778.6976442062641
 20
64.27625699657602
 10
778.3055989705189
 20
64.28053371619689
 10
777.92192112068
 20
64.36121248891516
 10
777.4932565692744
 20
64.55431178366928
 10
777.1215141899757
 20
64.84214547880788
 10
776.8272365258544
 20
65.2088078385143
 10
776.6266854074766
 20
65.63403704241614
 10
776.5309433215718
 20
66.09433485700697
 10
775.3107629214082
 20
80.04106024475424
 10
776.6743213563205
 20
81.66608586109111
 10
776.8624808047881
 20
81.68254767928919
 10
777.4160240069797
 20
81.73097643284711
 10
778.3027810440289
 20
81.80855761863801
 10
779.471216820175
 20
81.91078250014106
 10
780.8534260951947
 20
82.03171013881535
 10
782.3690798901607
 20
82.16431265985425
 10
783.9300939156784
 20
82.30088368672602
 10
785.4457477106426
 20
82.43348620776606
 10
786.8279569856642
 20
82.55441384644006
 10
787.9963927618101
 20
82.65663872794311
 10
788.8831497988595
 20
82.7342199137343
 10
789.4366930010492
 20
82.78264866729108
 10
789.6248524495169
 20
82.79911048549029
 10
791.2498781130381
 20
81.43555209016801
 10
792.4700585131996
 20
67.48882670242017
 10
792.4557008898355
 20
67.01889671622189
 10
792.3320368377791
 20
66.56530208488226
 10
792.105900153245
 20
66.1531093424569
 10
791.7897871731967
 20
65.80509610228211
 10
791.4011662658905
 20
65.54049356480795
 10
791.0373267809228
 20
65.39441546048926
 10
790.6519805999852
 20
65.3221258806372
 10
790.4782949552448
 20
65.3069303561461
 10
789.967331999378
 20
65.2622268913243
 10
789.1487870420989
 20
65.1906134890553
 10
788.0702309410428
 20
65.09625205997628
 10
786.7943454564064
 20
64.98462654735283
 10
785.3952804148994
 20
64.86222422024018
 10
783.9543443913444
 20
64.73615865697303
 10
782.5552793498426
 20
64.61375632986039
  0
LINE
  5
926
330
1F
100
AcDbEntity
  8
HEWI
  6
Continuous
100
AcDbLine
 10
778.2049303104196
 20
81.79999678897791
 30
0.0000000000000177
 11
776.4618154530417
 21
101.723890200046
 31
0.0000000000000177
  0
LINE
  5
927
330
1F
100
AcDbEntity
  8
HEWI
  6
Continuous
100
AcDbLine
 10
786.3511286380436
 20
102.5890929686702
 30
0.0000000000000177
 11
788.0942434954214
 21
82.66519955760292
 31
0.0000000000000177
  0
LWPOLYLINE
  5
928
330
1F
100
AcDbEntity
  8
HEWI
  6
Continuous
100
AcDbPolyline
 90
       21
 70
     0
 43
0.0
 10
1003.826944171042
 20
574.9288632363085
 10
1000.083888170395
 20
575.4108476663101
 10
996.5526993178626
 20
576.7185845580582
 10
993.4028682516473
 20
578.7843038220175
 10
990.8052357509934
 20
581.4968905478032
 10
988.883290339165
 20
584.7269976535575
 10
987.7642577589467
 20
588.0890294650639
 10
987.3769441481728
 20
591.6269683363521
 10
987.8622157978316
 20
595.6235398194752
 10
989.2898285224235
 20
599.3878450949452
 10
991.5768146595508
 20
602.7011164228446
 10
994.5902628877922
 20
605.3707985168481
 10
998.1550425495443
 20
607.2417391575513
 10
1002.063981608326
 20
608.2052060755082
 10
1006.089906734451
 20
608.2052060755082
 10
1009.998845793232
 20
607.2417391575513
 10
1013.563625454988
 20
605.3707985168481
 10
1016.577073683224
 20
602.7011164228446
 10
1018.864059820356
 20
599.3878450949452
 10
1020.291672544947
 20
595.6235398194752
 10
1020.776944194607
 20
591.6269683363521
  0
LWPOLYLINE
  5
929
330
1F
100
AcDbEntity
  8
HEWI
  6
Continuous
100
AcDbPolyline
 90
       14
 70
     0
 43
0.0
 10
985.5769441456688
 20
591.6269683363521
 10
986.1145205240337
 20
596.0543080032847
 10
987.6960076740306
 20
600.2243467814998
 10
990.2294953109739
 20
603.8947371746825
 10
993.5677463422509
 20
606.8521694345061
 10
997.516753751981
 20
608.9247683478597
 10
1001.847015583567
 20
609.9920819994892
 10
1006.306872759213
 20
609.9920819994892
 10
1010.637134590797
 20
608.9247683478597
 10
1014.586142000526
 20
606.8521694345061
 10
1017.924393031808
 20
603.8947371746825
 10
1020.457880668748
 20
600.2243467815002
 10
1022.039367818743
 20
596.0543080032847
 10
1022.576944197109
 20
591.6269683363521
  0
LWPOLYLINE
  5
92A
330
1F
100
AcDbEntity
  8
HEWI
  6
Continuous
100
AcDbPolyline
 90
       18
 70
     0
 43
0.0
 10
1004.326944171737
 20
574.9288632363085
 10
1004.326944171737
 20
561.9269691573662
 10
1019.4769441928
 20
561.9269691573662
 10
1019.4769441928
 20
554.9269693508708
 10
1019.4769441928
 20
551.33723448579
 10
1019.4769441928
 20
547.956121962913
 10
1019.4769441928
 20
544.9801297522251
 10
1019.4769441928
 20
542.5822117037191
 10
1019.4769441928
 20
540.9017260982972
 10
1019.4769441928
 20
540.03633665103
 10
1022.576944197109
 20
540.03633665103
 10
1022.576944197109
 20
540.9017260982972
 10
1022.576944197109
 20
542.5822117037191
 10
1022.576944197109
 20
544.9801297522251
 10
1022.576944197109
 20
547.956121962913
 10
1022.576944197109
 20
551.33723448579
 10
1022.576944197109
 20
554.9269693508708
 10
1022.576944197109
 20
591.6269683363521
  0
LWPOLYLINE
  5
92B
330
1F
100
AcDbEntity
  8
HEWI
  6
Continuous
100
AcDbPolyline
 90
       18
 70
     0
 43
0.0
 10
985.5769441456688
 20
591.6269683363521
 10
985.5769441456688
 20
554.9269693508708
 10
985.5769441456688
 20
551.33723448579
 10
985.5769441456688
 20
547.956121962913
 10
985.5769441456688
 20
544.9801297522251
 10
985.5769441456688
 20
542.5822117037191
 10
985.5769441456688
 20
540.9017260982972
 10
985.5769441456688
 20
540.03633665103
 10
988.6769441499783
 20
540.03633665103
 10
988.6769441499783
 20
540.9017260982972
 10
988.6769441499783
 20
542.5822117037191
 10
988.6769441499783
 20
544.9801297522251
 10
988.6769441499783
 20
547.956121962913
 10
988.6769441499783
 20
551.33723448579
 10
988.6769441499783
 20
554.9269693508708
 10
988.6769441499783
 20
561.9269691573662
 10
1003.826944171042
 20
561.9269691573662
 10
1003.826944171042
 20
574.9288632363085
  0
LWPOLYLINE
  5
92C
330
1F
100
AcDbEntity
  8
HEWI
  6
Continuous
100
AcDbPolyline
 90
        8
 70
     0
 43
0.0
 10
1020.776944194607
 20
591.6269683363521
 10
1020.463832483689
 20
588.4312189729239
 10
1019.549362894597
 20
585.363994718852
 10
1017.990054020904
 20
582.3983148108776
 10
1015.586610628425
 20
579.5268353792493
 10
1012.247585133468
 20
577.0693455892256
 10
1008.426213982446
 20
575.5092764519071
 10
1004.326944171737
 20
574.9288632363085
  0
LINE
  5
92D
330
1F
100
AcDbEntity
  8
HEWI
  6
Continuous
100
AcDbLine
 10
990.1207858784113
 20
582.6472075015516
 30
0.0000000000000092
 11
991.4555640437882
 21
580.8177829917577
 31
0.0000000000000092
  0
LWPOLYLINE
  5
92E
330
1F
100
AcDbEntity
  8
HEWI
  6
Continuous
100
AcDbPolyline
 90
       10
 70
     0
 43
0.0
 10
1022.576944197108
 20
591.6265921498044
 10
1023.371312306721
 20
554.9269693508708
 10
1023.418074768244
 20
552.7665876691752
 10
1023.462386823317
 20
550.7194124575461
 10
1023.501926469598
 20
548.892718037591
 10
1023.534621784413
 20
547.3822252853591
 10
1023.558759495885
 20
546.267085748
 10
1023.573074760343
 20
545.605734012201
 10
1023.576817441553
 20
545.432825665036
 10
1022.576944197109
 20
545.4962353076381
  0
LWPOLYLINE
  5
92F
330
1F
100
AcDbEntity
  8
HEWI
  6
Continuous
100
AcDbPolyline
 90
       10
 70
     0
 43
0.0
 10
985.5769441456688
 20
545.4962353076381
 10
984.5770709012253
 20
545.432825665036
 10
984.5808135824372
 20
545.605734012201
 10
984.5951288468933
 20
546.267085748
 10
984.6192665583659
 20
547.3822252853591
 10
984.6519618731838
 20
548.892718037591
 10
984.6915015194626
 20
550.7194124575461
 10
984.7358135745343
 20
552.7665876691752
 10
984.7825760360576
 20
554.9269693508708
 10
985.5769441433787
 20
591.6265920439615
  0
LINE
  5
930
330
1F
100
AcDbEntity
  8
HEWI
  6
Continuous
100
AcDbLine
 10
1015.005733936323
 20
579.0993158689174
 30
0.0000000000000092
 11
1016.301737866715
 21
580.3812233622415
 31
0.0000000000000092
  0
LINE
  5
931
330
1F
100
AcDbEntity
  8
HEWI
  6
Continuous
100
AcDbLine
 10
993.8942899079938
 20
578.5501675095267
 30
0.0000000000000092
 11
994.9937812025911
 21
577.740952774638
 31
0.0000000000000092
  0
LINE
  5
932
330
1F
100
AcDbEntity
  8
HEWI
  6
Continuous
100
AcDbLine
 10
1001.285405054095
 20
575.288718273804
 30
0.0000000000000092
 11
1003.826944171042
 21
574.9288632363085
 31
0.0000000000000092
  0
LINE
  5
933
330
1F
100
AcDbEntity
  8
HEWI
  6
Continuous
100
AcDbLine
 10
1011.72170731064
 20
576.8546567398157
 30
0.0000000000000092
 11
1013.174175745371
 21
577.7513071368795
 31
0.0000000000000092
  0
LINE
  5
934
330
1F
100
AcDbEntity
  8
HEWI
  6
Continuous
100
AcDbLine
 10
992.6352750377413
 20
579.5858656913387
 30
0.0000000000000092
 11
994.4227299127526
 21
578.1154590975542
 31
0.0000000000000092
  0
LINE
  5
935
330
1F
100
AcDbEntity
  8
HEWI
  6
Continuous
100
AcDbLine
 10
1018.787901039303
 20
583.9157555844602
 30
0.0000000000000092
 11
1018.067370412236
 21
582.7047997666483
 31
0.0000000000000092
  0
LINE
  5
936
330
1F
100
AcDbEntity
  8
HEWI
  6
Continuous
100
AcDbLine
 10
1001.718501746422
 20
575.200362361472
 30
0.0000000000000092
 11
999.3444414039752
 21
575.6846936417117
 31
0.0000000000000092
  0
LINE
  5
937
330
1F
100
AcDbEntity
  8
HEWI
  6
Continuous
100
AcDbLine
 10
991.2436969758513
 20
581.1081644334733
 30
0.0000000000000092
 11
991.7031437114946
 21
580.5592470529102
 31
0.0000000000000092
  0
LINE
  5
938
330
1F
100
AcDbEntity
  8
HEWI
  6
Continuous
100
AcDbLine
 10
995.7631683643484
 20
577.2440675125722
 30
0.0000000000000092
 11
995.6119010745316
 21
577.335577982294
 31
0.0000000000000092
  0
LINE
  5
939
330
1F
100
AcDbEntity
  8
HEWI
  6
Continuous
100
AcDbLine
 10
995.7201977216611
 20
577.2645549759817
 30
0.0000000000000092
 11
997.9530480660068
 21
576.1999808182305
 31
0.0000000000000092
  0
LINE
  5
93A
330
1F
100
AcDbEntity
  8
HEWI
  6
Continuous
100
AcDbLine
 10
987.7202899622172
 20
588.4906558887259
 30
0.0000000000000092
 11
987.8632356963027
 21
587.7916592588741
 31
0.0000000000000092
  0
LINE
  5
93B
330
1F
100
AcDbEntity
  8
HEWI
  6
Continuous
100
AcDbLine
 10
1020.384099692319
 20
588.1637870584162
 30
0.0000000000000092
 11
1020.776944194607
 21
591.6269683363521
 31
0.0000000000000092
  0
LINE
  5
93C
330
1F
100
AcDbEntity
  8
HEWI
  6
Continuous
100
AcDbLine
 10
989.1769441506752
 20
552.1291358957889
 30
0.0000000000000092
 11
988.6769441499783
 21
552.1291358957889
 31
0.0000000000000092
  0
LINE
  5
93D
330
1F
100
AcDbEntity
  8
HEWI
  6
Continuous
100
AcDbLine
 10
1019.288798083316
 20
584.8684214324918
 30
0.0000000000000092
 11
1020.016590566796
 21
586.9311239946561
 31
0.0000000000000092
  0
LINE
  5
93E
330
1F
100
AcDbEntity
  8
HEWI
  6
Continuous
100
AcDbLine
 10
1016.450744470821
 20
580.559246866431
 30
0.0000000000000092
 11
1015.895013014486
 21
579.9789223968636
 31
0.0000000000000092
  0
LINE
  5
93F
330
1F
100
AcDbEntity
  8
HEWI
  6
Continuous
100
AcDbLine
 10
997.4600609832561
 20
576.435026269222
 30
0.0000000000000092
 11
998.844227181544
 21
575.8699424598955
 31
0.0000000000000092
  0
LINE
  5
940
330
1F
100
AcDbEntity
  8
HEWI
  6
Continuous
100
AcDbLine
 10
1003.826944171042
 20
566.468376896824
 30
0.0000000000000092
 11
1004.326944171737
 21
566.468376896824
 31
0.0000000000000092
  0
LINE
  5
941
330
1F
100
AcDbEntity
  8
HEWI
  6
Continuous
100
AcDbLine
 10
1018.976944192105
 20
552.1291358957889
 30
0.0000000000000092
 11
1019.4769441928
 21
552.1291358957889
 31
0.0000000000000092
  0
LINE
  5
942
330
1F
100
AcDbEntity
  8
HEWI
  6
Continuous
100
AcDbLine
 10
1008.150612349786
 20
575.470254177858
 30
0.0000000000000092
 11
1009.4292004942
 21
575.9187442181067
 31
0.0000000000000092
  0
LINE
  5
943
330
1F
100
AcDbEntity
  8
HEWI
  6
Continuous
100
AcDbLine
 10
1019.4769441928
 20
545.5609620670271
 30
0.0000000000000092
 11
1018.976944192105
 21
545.5609620670271
 31
0.0000000000000092
  0
LINE
  5
944
330
1F
100
AcDbEntity
  8
HEWI
  6
Continuous
100
AcDbLine
 10
1003.826944171042
 20
574.9288462306037
 30
0.0000000000000092
 11
1004.326944171737
 21
574.9288518991724
 31
0.0000000000000092
  0
LINE
  5
945
330
1F
100
AcDbEntity
  8
HEWI
  6
Continuous
100
AcDbLine
 10
1017.509077824607
 20
581.8236754217856
 30
0.0000000000000092
 11
1018.559954992044
 21
583.4822205507598
 31
0.0000000000000092
  0
LINE
  5
946
330
1F
100
AcDbEntity
  8
HEWI
  6
Continuous
100
AcDbLine
 10
988.6769441499783
 20
545.5609620670271
 30
0.0000000000000092
 11
989.1769441506752
 21
545.5609620670271
 31
0.0000000000000092
  0
LINE
  5
947
330
1F
100
AcDbEntity
  8
HEWI
  6
Continuous
100
AcDbLine
 10
989.2420699547241
 20
584.1514364083154
 30
0.0000000000000092
 11
989.3659871290385
 21
583.9157559217091
 31
0.0000000000000092
  0
LINE
  5
948
330
1F
100
AcDbEntity
  8
HEWI
  6
Continuous
100
AcDbLine
 10
988.3291891034316
 20
586.3917445170152
 30
0.0000000000000092
 11
989.2775206016432
 21
584.0644366841026
 31
0.0000000000000092
  0
LWPOLYLINE
  5
949
330
1F
100
AcDbEntity
  8
HEWI
  6
Continuous
100
AcDbPolyline
 90
       26
 70
     1
 43
0.0
 10
740.6894096319031
 20
556.239831983719
 10
740.4073238495822
 20
555.937292080721
 10
740.2058375073849
 20
555.5760358930371
 10
740.0966602591506
 20
555.1770583171832
 10
740.0861370897018
 20
554.763546479644
 10
740.1748795673976
 20
554.3595321853621
 10
740.3577303019975
 20
553.9884952765902
 10
740.6240626734453
 20
553.6719990698001
 10
740.9583984123875
 20
553.4284371741152
 10
741.3413071409396
 20
553.2719645216001
 10
741.7505355956182
 20
553.2116747340641
 10
742.1623009061187
 20
553.2510716348151
 10
742.5526727693013
 20
553.3878656191831
 10
742.8989641914177
 20
553.6141067180222
 10
743.1810499737422
 20
553.91664662102
 10
743.3825363159378
 20
554.2779028087042
 10
743.4917135641717
 20
554.6768803845581
 10
743.5022367336188
 20
555.0903922220968
 10
743.4134942559268
 20
555.494406516379
 10
743.230643521325
 20
555.8654434251509
 10
742.9643111498791
 20
556.1819396319411
 10
742.6299754109331
 20
556.4255015276261
 10
742.2470666823811
 20
556.5819741801419
 10
741.8378382277023
 20
556.6422639676772
 10
741.4260729172037
 20
556.6028670669261
 10
741.035701054023
 20
556.4660730825582
  0
LINE
  5
94A
330
1F
100
AcDbEntity
  8
HEWI
  6
Continuous
100
AcDbLine
 10
741.7941869116623
 20
554.92696935087
 30
0.0000000000000177
 11
741.4041454989219
 21
554.5086459238468
 31
0.0000000000000177
  0
LWPOLYLINE
  5
94B
330
1F
100
AcDbEntity
  8
HEWI
  6
Continuous
100
AcDbPolyline
 90
       26
 70
     1
 43
0.0
 10
743.8788755501648
 20
555.1800963724089
 10
743.8788755501648
 20
554.6738423293321
 10
743.7577210240289
 20
554.1822991086672
 10
743.5224530324395
 20
553.7340334157121
 10
743.1867444959046
 20
553.3550968231633
 10
742.7701055743092
 20
553.0675117484008
 10
742.2967498073631
 20
552.8879915906401
 10
741.7941869116623
 20
552.8269694089219
 10
741.2916240159574
 20
552.8879915906401
 10
740.8182682490132
 20
553.0675117484008
 10
740.4016293274199
 20
553.3550968231633
 10
740.065920790883
 20
553.7340334157121
 10
739.8306527992917
 20
554.1822991086672
 10
739.7094982731577
 20
554.6738423293321
 10
739.7094982731577
 20
555.1800963724089
 10
739.8306527992917
 20
555.6716395930751
 10
740.065920790883
 20
556.1199052860291
 10
740.4016293274199
 20
556.4988418785782
 10
740.8182682490132
 20
556.7864269533401
 10
741.2916240159574
 20
556.9659471111012
 10
741.7941869116623
 20
557.026969292819
 10
742.2967498073631
 20
556.9659471111012
 10
742.7701055743092
 20
556.7864269533401
 10
743.1867444959046
 20
556.4988418785782
 10
743.5224530324395
 20
556.1199052860291
 10
743.7577210240289
 20
555.6716395930751
  0
LWPOLYLINE
  5
94C
330
1F
100
AcDbEntity
  8
HEWI
  6
Continuous
100
AcDbPolyline
 90
       28
 70
     0
 43
0.0
 10
742.4610715244182
 20
558.9723697030871
 10
743.1101943857667
 20
558.8100252993853
 10
743.9576315084523
 20
558.4097135015412
 10
744.6920187771957
 20
557.827412426907
 10
745.2749811055381
 20
557.093549964199
 10
745.6760560512284
 20
556.246473776375
 10
745.8742856178887
 20
555.3304474602231
 10
745.8593114059622
 20
554.3933375714218
 10
745.6319158863607
 20
553.4841123785421
 10
745.2039815127992
 20
552.65028304753
 10
744.5978698093405
 20
551.935420966451
 10
743.8452528787365
 20
551.3768809416028
 10
742.9854583904798
 20
551.0038492384111
 10
742.0634145306012
 20
550.8358184658468
 10
741.1273022989027
 20
550.8815689986541
 10
740.2260378318242
 20
551.1387101626921
 10
739.4067163110486
 20
551.5938051585719
 10
738.7121510253474
 20
552.2230731957489
 10
738.1786361808317
 20
552.9936321473591
 10
737.8340503630335
 20
553.8652167914221
 10
737.6963997535932
 20
554.7922828524558
 10
737.7728772250776
 20
555.7263868977279
 10
738.0594864805681
 20
556.6187177277099
 10
738.5412508784049
 20
557.4226469840222
 10
739.192996030075
 20
558.0961656939631
 10
739.9806652768968
 20
558.6040794310621
 10
740.8630993058798
 20
558.9198473844861
 10
741.7941869116623
 20
559.0269692375319
  0
LWPOLYLINE
  5
94D
330
1F
100
AcDbEntity
  8
HEWI
  6
Continuous
100
AcDbPolyline
 90
       28
 70
     1
 43
0.0
 10
726.7941868908073
 20
596.0543080032847
 10
726.7941868908073
 20
591.6269683363521
 10
726.7941868908073
 20
554.9269693508708
 10
727.2300596300212
 20
551.33723448579
 10
728.5123465083979
 20
547.956121962913
 10
730.5665256734847
 20
544.9801297522251
 10
733.2732156988478
 20
542.5822117037191
 10
736.4751135986281
 20
540.9017260982972
 10
739.9861367053182
 20
540.03633665103
 10
743.6022371180063
 20
540.03633665103
 10
747.1132602246945
 20
540.9017260982972
 10
750.3151581244748
 20
542.5822117037191
 10
753.0218481498359
 20
544.9801297522251
 10
755.0760273149244
 20
547.956121962913
 10
756.3583141933015
 20
551.33723448579
 10
756.7941869325133
 20
554.9269693508708
 10
756.7941869325133
 20
591.6269683363521
 10
756.7941869325133
 20
596.0543080032847
 10
756.7941869325133
 20
600.2243467814998
 10
756.7941869325133
 20
603.8947371746825
 10
756.7941869325133
 20
606.8521694345061
 10
756.7941869325133
 20
608.9247683478596
 10
756.7941869325133
 20
609.9920819994892
 10
726.7941868908073
 20
609.9920819994892
 10
726.7941868908073
 20
608.9247683478596
 10
726.7941868908073
 20
606.8521694345061
 10
726.7941868908073
 20
603.8947371746825
 10
726.7941868908073
 20
600.2243467814998
  0
LINE
  5
94E
330
1F
100
AcDbEntity
  8
HEWI
  6
Continuous
100
AcDbLine
 10
732.5430923294317
 20
552.7665876691752
 30
0.0000000000000177
 11
733.2767656932173
 21
550.7194124575461
 31
0.0000000000000177
  0
LWPOLYLINE
  5
94F
330
1F
100
AcDbEntity
  8
HEWI
  6
Continuous
100
AcDbPolyline
 90
        3
 70
     0
 43
0.0
 10
732.2941868984527
 20
591.6269682923101
 10
732.2941868984527
 20
554.9269693508708
 10
732.5430923294317
 20
552.7665876691752
  0
LWPOLYLINE
  5
950
330
1F
100
AcDbEntity
  8
HEWI
  6
Continuous
100
AcDbPolyline
 90
        3
 70
     0
 43
0.0
 10
751.1154225209613
 20
553.0926938068281
 10
751.2941869248679
 20
554.9269693508708
 10
751.2941869248679
 20
591.6269682923101
  0
LWPOLYLINE
  5
951
330
1F
100
AcDbEntity
  8
HEWI
  6
Continuous
100
AcDbPolyline
 90
        3
 70
     0
 43
0.0
 10
736.0212471119175
 20
547.3822252853582
 10
734.6833347941502
 20
548.6273042717281
 10
734.4567616667427
 20
548.892718037591
  0
LWPOLYLINE
  5
952
330
1F
100
AcDbEntity
  8
HEWI
  6
Continuous
100
AcDbPolyline
 90
        3
 70
     0
 43
0.0
 10
744.2780113701046
 20
545.7574213015809
 10
742.939285375678
 20
545.4962353076381
 10
742.1276995643856
 20
545.432825665036
  0
LINE
  5
953
330
1F
100
AcDbEntity
  8
HEWI
  6
Continuous
100
AcDbLine
 10
733.2767656932173
 20
550.7194124575461
 30
0.0000000000000177
 11
734.4567616667427
 21
548.892718037591
 31
0.0000000000000177
  0
LINE
  5
954
330
1F
100
AcDbEntity
  8
HEWI
  6
Continuous
100
AcDbLine
 10
746.2981679344632
 20
546.5625117393741
 30
0.0000000000000177
 11
748.0823107438681
 21
547.8059093190212
 31
0.0000000000000177
  0
LWPOLYLINE
  5
955
330
1F
100
AcDbEntity
  8
HEWI
  6
Continuous
100
AcDbPolyline
 90
        3
 70
     0
 43
0.0
 10
732.5430923294317
 20
552.7665876691752
 10
732.5702396332908
 20
552.6534706029861
 10
732.8136369613076
 20
552.0116846129131
  0
LWPOLYLINE
  5
956
330
1F
100
AcDbEntity
  8
HEWI
  6
Continuous
100
AcDbPolyline
 90
       11
 70
     0
 43
0.0
 10
989.1769441506752
 20
561.9269690696791
 10
989.1769441506752
 20
561.3394954402541
 10
989.1769441506752
 20
557.9742939121212
 10
989.1769441506752
 20
554.4319929570632
 10
989.1769441506752
 20
550.9184582308471
 10
989.1769441506752
 20
547.6378836005819
 10
989.1769441506752
 20
544.7809241393741
 10
989.1769441506752
 20
542.5136159464852
 10
989.1769441506752
 20
540.9677267327562
 10
989.1769441506752
 20
540.2330979602083
 10
996.0769441544437
 20
540.1877487732731
  0
LWPOLYLINE
  5
957
330
1F
100
AcDbEntity
  8
HEWI
  6
Continuous
100
AcDbPolyline
 90
        3
 70
     0
 43
0.0
 10
751.1154225209613
 20
553.0926938068281
 10
751.0181341900318
 20
552.6534706029861
 10
750.5858570380969
 20
551.327450509896
  0
LINE
  5
958
330
1F
100
AcDbEntity
  8
HEWI
  6
Continuous
100
AcDbLine
 10
750.5858570380969
 20
551.327450509896
 30
0.0000000000000177
 11
751.1154225209613
 21
553.0926938068281
 31
0.0000000000000177
  0
LINE
  5
959
330
1F
100
AcDbEntity
  8
HEWI
  6
Continuous
100
AcDbLine
 10
749.5369486753062
 20
549.4224585857839
 30
0.0000000000000177
 11
750.5858570380969
 21
551.327450509896
 31
0.0000000000000177
  0
LWPOLYLINE
  5
95A
330
1F
100
AcDbEntity
  8
HEWI
  6
Continuous
100
AcDbPolyline
 90
        3
 70
     0
 43
0.0
 10
748.0823107438681
 20
547.8059093190212
 10
747.1908020131088
 20
547.1086228410082
 10
746.2981679344632
 20
546.5625117393741
  0
LWPOLYLINE
  5
95B
330
1F
100
AcDbEntity
  8
HEWI
  6
Continuous
100
AcDbPolyline
 90
        3
 70
     0
 43
0.0
 10
746.2981679344632
 20
546.5625117393741
 10
745.1629333432484
 20
546.044315290907
 10
744.2780113701046
 20
545.7574213015809
  0
LINE
  5
95C
330
1F
100
AcDbEntity
  8
HEWI
  6
Continuous
100
AcDbLine
 10
742.1276995643856
 20
545.432825665036
 30
0.0000000000000177
 11
744.2780113701046
 21
545.7574213015809
 31
0.0000000000000177
  0
LINE
  5
95D
330
1F
100
AcDbEntity
  8
HEWI
  6
Continuous
100
AcDbLine
 10
739.9599113143632
 20
545.605734012201
 30
0.0000000000000177
 11
742.1276995643856
 21
545.432825665036
 31
0.0000000000000177
  0
LWPOLYLINE
  5
95E
330
1F
100
AcDbEntity
  8
HEWI
  6
Continuous
100
AcDbPolyline
 90
        3
 70
     0
 43
0.0
 10
739.9599113143632
 20
545.605734012201
 10
738.4254404800741
 20
546.044315290907
 10
737.8882412027507
 20
546.2670857479992
  0
LINE
  5
95F
330
1F
100
AcDbEntity
  8
HEWI
  6
Continuous
100
AcDbLine
 10
737.8882412027507
 20
546.2670857479992
 30
0.0000000000000177
 11
739.9599113143632
 21
545.605734012201
 31
0.0000000000000177
  0
LWPOLYLINE
  5
960
330
1F
100
AcDbEntity
  8
HEWI
  6
Continuous
100
AcDbPolyline
 90
        3
 70
     0
 43
0.0
 10
749.5369486753062
 20
549.4224585857839
 10
748.9050390291741
 20
548.6273042717281
 10
748.0823107438681
 20
547.8059093190212
  0
LWPOLYLINE
  5
961
330
1F
100
AcDbEntity
  8
HEWI
  6
Continuous
100
AcDbPolyline
 90
        3
 70
     0
 43
0.0
 10
742.1276995643856
 20
545.432825665036
 10
740.6490884476427
 20
545.4962353076381
 10
739.9599113143632
 20
545.605734012201
  0
LINE
  5
962
330
1F
100
AcDbEntity
  8
HEWI
  6
Continuous
100
AcDbLine
 10
736.0212471119175
 20
547.3822252853582
 30
0.0000000000000177
 11
737.8882412027507
 21
546.2670857479992
 31
0.0000000000000177
  0
LINE
  5
963
330
1F
100
AcDbEntity
  8
HEWI
  6
Continuous
100
AcDbLine
 10
734.4567616667427
 20
548.892718037591
 30
0.0000000000000177
 11
736.0212471119175
 21
547.3822252853582
 31
0.0000000000000177
  0
LWPOLYLINE
  5
964
330
1F
100
AcDbEntity
  8
HEWI
  6
Continuous
100
AcDbPolyline
 90
        3
 70
     0
 43
0.0
 10
734.4567616667427
 20
548.892718037591
 10
733.3823546562618
 20
550.5120993384982
 10
733.2767656932173
 20
550.7194124575461
  0
LWPOLYLINE
  5
965
330
1F
100
AcDbEntity
  8
HEWI
  6
Continuous
100
AcDbPolyline
 90
        3
 70
     0
 43
0.0
 10
737.8882412027507
 20
546.2670857479992
 10
736.3975718102119
 20
547.1086228410082
 10
736.0212471119175
 20
547.3822252853582
  0
LWPOLYLINE
  5
966
330
1F
100
AcDbEntity
  8
HEWI
  6
Continuous
100
AcDbPolyline
 90
        3
 70
     0
 43
0.0
 10
750.5858570380969
 20
551.327450509896
 10
750.2060191670607
 20
550.512099338497
 10
749.5369486753062
 20
549.4224585857839
  0
LINE
  5
967
330
1F
100
AcDbEntity
  8
HEWI
  6
Continuous
100
AcDbLine
 10
748.0823107438681
 20
547.8059093190212
 30
0.0000000000000177
 11
749.5369486753062
 21
549.4224585857839
 31
0.0000000000000177
  0
LINE
  5
968
330
1F
100
AcDbEntity
  8
HEWI
  6
Continuous
100
AcDbLine
 10
744.2780113701046
 20
545.7574213015809
 30
0.0000000000000177
 11
746.2981679344632
 21
546.5625117393741
 31
0.0000000000000177
  0
LWPOLYLINE
  5
969
330
1F
100
AcDbEntity
  8
HEWI
  6
Continuous
100
AcDbPolyline
 90
       44
 70
     1
 43
0.0
 10
996.1352731675635
 20
66.87562448855806
 10
996.1352731675635
 20
66.70753707086936
 10
996.1901304180683
 20
66.24300354978294
 10
996.3516707491763
 20
65.80530129221107
 10
996.6109674164837
 20
65.41861779459003
 10
996.9536916448673
 20
65.10432124856101
 10
997.360904438905
 20
64.87977973129523
 10
997.7512162563472
 20
64.74176362329223
 10
998.102021467219
 20
64.63998066735121
 10
998.8179285938933
 20
64.52109613566114
 10
999.8394705901883
 20
64.42059837272018
 10
1001.107279148435
 20
64.3443279432143
 10
1001.28860513525
 20
64.33615598588922
 10
1002.641050183667
 20
64.29145252106713
 10
1004.076944171389
 20
64.27625699657602
 10
1005.512838159111
 20
64.29145252106713
 10
1006.865283207527
 20
64.33615598588922
 10
1007.046609194345
 20
64.3443279432143
 10
1008.31441775259
 20
64.42059837272018
 10
1009.335959748887
 20
64.52109613566114
 10
1010.051866875561
 20
64.63998066735121
 10
1010.402672086431
 20
64.74176362329223
 10
1010.792983903873
 20
64.87977973129523
 10
1011.20019669791
 20
65.10432124856101
 10
1011.542920926295
 20
65.41861779459003
 10
1011.802217593598
 20
65.80530129221107
 10
1011.963757924712
 20
66.24300354978294
 10
1012.018615175217
 20
66.70753707086936
 10
1012.018615175217
 20
66.87562448855806
 10
1012.018615175217
 20
80.82234987630505
 10
1010.529551861998
 20
82.30088368672602
 10
1010.154549757295
 20
82.43348620776606
 10
1009.426339307136
 20
82.55441384644006
 10
1008.387241455946
 20
82.65663872794311
 10
1007.097644793874
 20
82.7342199137343
 10
1005.632495991422
 20
82.78264866729108
 10
1004.076944171389
 20
82.79911048549029
 10
1002.521392351356
 20
82.78264866729108
 10
1001.056243548904
 20
82.7342199137343
 10
999.7666468868338
 20
82.65663872794311
 10
998.7275490356443
 20
82.55441384644006
 10
997.9993385854852
 20
82.43348620776606
 10
997.6243364807816
 20
82.30088368672602
 10
996.1352731675635
 20
80.82234987630505
  0
LWPOLYLINE
  5
96A
330
1F
100
AcDbEntity
  8
HEWI
  6
Continuous
100
AcDbPolyline
 90
       11
 70
     0
 43
0.0
 10
1010.687546022227
 20
541.3488450214361
 10
1009.681350991739
 20
541.8935327942212
 10
1008.455384264325
 20
542.4293060466442
 10
1007.049602369567
 20
542.8856863143231
 10
1005.59715383277
 20
543.1854728498753
 10
1004.076944171389
 20
543.297622974493
 10
1002.507798880388
 20
543.176897180239
 10
1001.007917506131
 20
542.8577378467072
 10
999.6323000763515
 20
542.4029592821231
 10
998.435975422055
 20
541.8753740218061
 10
997.4550985923123
 20
541.3426616193261
  0
LWPOLYLINE
  5
96B
330
1F
100
AcDbEntity
  8
HEWI
  6
Continuous
100
AcDbPolyline
 90
        4
 70
     0
 43
0.0
 10
996.2311616923907
 20
540.4793793325251
 10
996.0975350865956
 20
540.3327934002333
 10
996.0519441602338
 20
540.2330979602083
 10
996.0769441605062
 20
540.2262348627839
  0
LWPOLYLINE
  5
96C
330
1F
100
AcDbEntity
  8
HEWI
  6
Continuous
100
AcDbPolyline
 90
       11
 70
     0
 43
0.0
 10
1012.076944065571
 20
540.1842810999413
 10
1018.976944192105
 20
540.2330979602083
 10
1018.976944192105
 20
540.9677267327562
 10
1018.976944192105
 20
542.5136159464852
 10
1018.976944192105
 20
544.7809241393741
 10
1018.976944192105
 20
547.6378836005819
 10
1018.976944192105
 20
550.9184582308471
 10
1018.976944192105
 20
554.4319929570632
 10
1018.976944192105
 20
557.9742939121212
 10
1018.976944192105
 20
561.3394954402541
 10
1018.976944192105
 20
561.9269691588632
  0
LWPOLYLINE
  5
96D
330
1F
100
AcDbEntity
  8
HEWI
  6
Continuous
100
AcDbPolyline
 90
       19
 70
     0
 43
0.0
 10
1019.477963642134
 20
585.4045527462337
 10
1018.911885865082
 20
585.6332630073851
 10
1019.921233293282
 20
589.4001987825467
 10
1019.989294519402
 20
593.2994237024026
 10
1019.112026124867
 20
597.0992904782889
 10
1017.341545350711
 20
600.5740545445553
 10
1014.783033888016
 20
603.5172852152999
 10
1011.588489186406
 20
605.7541294315703
 10
1007.947694506365
 20
607.1516995276096
 10
1004.076944171389
 20
607.6269678940556
 10
1000.206193836411
 20
607.1516995276096
 10
996.5653991563703
 20
605.7541294315703
 10
993.3708544547627
 20
603.5172852152999
 10
990.8123429920673
 20
600.5740545445553
 10
989.0418622179112
 20
597.0992904782889
 10
988.1645938233759
 20
593.2994237024026
 10
988.2326550494964
 20
589.4001987825467
 10
989.2420024776946
 20
585.6332630073851
 10
988.7236009672053
 20
585.4238152077151
  0
LWPOLYLINE
  5
96E
330
1F
100
AcDbEntity
  8
HEWI
  6
Continuous
100
AcDbPolyline
 90
       16
 70
     0
 43
0.0
 10
1009.076944178341
 20
82.5887868084593
 10
1009.076944178341
 20
102.1564915843578
 10
1008.931653265267
 20
102.260780253836
 10
1008.504224305812
 20
102.3590080449171
 10
1007.819497917448
 20
102.4454663154293
 10
1006.917267908993
 20
102.5151304249502
 10
1005.849968609065
 20
102.5639517486559
 10
1004.679627573503
 20
102.5890929686702
 10
1003.474260769275
 20
102.5890929686702
 10
1002.303919733711
 20
102.5639517486559
 10
1001.236620433785
 20
102.5151304249502
 10
1000.334390425331
 20
102.4454663154293
 10
999.6496640369697
 20
102.3590080449171
 10
999.2222350775083
 20
102.260780253836
 10
999.0769441644408
 20
102.1564915843578
 10
999.0769441644408
 20
82.58878677134793
  0
LINE
  5
96F
330
1F
100
AcDbEntity
  8
HEWI
  6
Continuous
100
AcDbLine
 10
988.676944173607
 20
560.3272297237951
 30
0.0000000000000092
 11
989.1769441568033
 21
559.8635775825181
 31
0.0000000000000092
  0
LINE
  5
970
330
1F
100
AcDbEntity
  8
HEWI
  6
Continuous
100
AcDbLine
 10
1012.07694418247
 20
540.2238689386059
 30
0.0000000000000092
 11
1012.101932717109
 21
540.2330979602083
 31
0.0000000000000092
  0
LWPOLYLINE
  5
971
330
1F
100
AcDbEntity
  8
HEWI
  6
Continuous
100
AcDbPolyline
 90
        7
 70
     0
 43
0.0
 10
1012.07694418251
 20
540.2678922563588
 10
1012.07694418251
 20
102.3557305184693
 10
1011.876944182233
 20
102.1564915843578
 10
1011.650290357844
 20
101.993801259973
 10
1010.983501181086
 20
101.840565905886
 10
1009.91532801524
 20
101.7056910038878
 10
1009.076944192326
 20
101.6409566657328
  0
LWPOLYLINE
  5
972
330
1F
100
AcDbEntity
  8
HEWI
  6
Continuous
100
AcDbPolyline
 90
        7
 70
     0
 43
0.0
 10
999.0769441504545
 20
101.6409566657328
 10
998.238560327538
 20
101.7056910038878
 10
997.170387161692
 20
101.840565905886
 10
996.5035979849382
 20
101.993801259973
 10
996.2769441605452
 20
102.1564915843578
 10
996.076944160268
 20
102.3557305184693
 10
996.076944160268
 20
540.2877666999061
  0
LINE
  5
983
330
1F
100
AcDbEntity
  8
0
100
AcDbLine
 10
777.1215141899757
 20
64.84214547880788
 30
0.0
 11
45.37256512346266
 21
64.84214547880788
 31
0.0
  0
DIMENSION
  5
9B5
330
1F
100
AcDbEntity
  8
0
100
AcDbDimension
280
     0
  2
*D9
 10
74.90959109129031
 20
64.84214547880788
 30
0.0
 11
39.48667158242267
 21
404.5335845422963
 31
0.0
 70
    32
  1
680
 71
     5
 42
679.3828781269769
 73
     0
 74
     0
 75
     0
  3
ISO-25
100
AcDbAlignedDimension
 13
234.7570489597374
 23
744.2250236057847
 33
-0.0000000000000782
 14
234.7570489597374
 24
64.84214547880788
 34
0.0
 50
90.0
100
AcDbRotatedDimension
1001
ACAD
1000
DSTYLE
1002
{
1070
   271
1070
     0
1070
    41
1040
18.0
1070
   140
1040
40.0
1070
   147
1040
15.0
1070
   173
1070
     1
1070
   340
1005
995
1070
   343
1005
984
1070
   344
1005
984
1002
}
  0
ENDSEC
  0
SECTION
  2
OBJECTS
  0
DICTIONARY
  5
C
330
0
100
AcDbDictionary
281
     1
  3
ACAD_CIP_PREVIOUS_PRODUCT_INFO
350
738
  3
ACAD_COLOR
350
6DD
  3
ACAD_DETAILVIEWSTYLE
350
734
  3
ACAD_GROUP
350
D
  3
ACAD_LAYOUT
350
1A
  3
ACAD_MATERIAL
350
6D9
  3
ACAD_MLEADERSTYLE
350
6D3
  3
ACAD_MLINESTYLE
350
17
  3
ACAD_PLOTSETTINGS
350
19
  3
ACAD_PLOTSTYLENAME
350
E
  3
ACAD_SCALELIST
350
71F
  3
ACAD_SECTIONVIEWSTYLE
350
732
  3
ACAD_TABLESTYLE
350
6D2
  3
ACAD_VISUALSTYLE
350
2A
  3
ACDB_RECOMPOSE_DATA
350
9E8
  3
AcDbVariableDictionary
350
6E1
  0
DICTIONARY
  5
843
330
2
100
AcDbDictionary
280
     1
281
     1
  3
ACAD_LAYERSTATES
360
844
  0
DICTIONARY
  5
739
330
10
100
AcDbDictionary
280
     1
281
     1
  3
ADSK_XREC_LAYER_RECONCILED
360
73A
  0
DICTIONARY
  5
73B
330
42
100
AcDbDictionary
280
     1
281
     1
  3
ADSK_XREC_LAYER_RECONCILED
360
73C
  0
DICTIONARY
  5
73D
330
6BD
100
AcDbDictionary
280
     1
281
     1
  3
ADSK_XREC_LAYER_RECONCILED
360
73E
  0
DICTIONARY
  5
975
330
1F
100
AcDbDictionary
280
     1
281
     1
  3
ACAD_SORTENTS
360
976
  0
XRECORD
  5
738
102
{ACAD_REACTORS
330
C
102
}
330
C
100
AcDbXrecord
280
     1
300
ACDLT
300
2021
300
ACDLT_F_S
  0
DICTIONARY
  5
6DD
102
{ACAD_REACTORS
330
C
102
}
330
C
100
AcDbDictionary
281
     1
  0
DICTIONARY
  5
734
102
{ACAD_REACTORS
330
C
102
}
330
C
100
AcDbDictionary
281
     1
  3
Imperial24
350
997
  3
Metric50
350
735
  0
DICTIONARY
  5
D
102
{ACAD_REACTORS
330
C
102
}
330
C
100
AcDbDictionary
281
     1
  0
DICTIONARY
  5
1A
102
{ACAD_REACTORS
330
C
102
}
330
C
100
AcDbDictionary
281
     1
  3
Layout1
350
1E
  3
Layout2
350
26
  3
Model
350
22
  0
DICTIONARY
  5
6D9
102
{ACAD_REACTORS
330
C
102
}
330
C
100
AcDbDictionary
281
     1
  3
ByBlock
350
6DB
  3
ByLayer
350
6DA
  3
Global
350
6DC
  0
DICTIONARY
  5
6D3
102
{ACAD_REACTORS
330
C
102
}
330
C
100
AcDbDictionary
281
     1
  3
Standard
350
731
  0
DICTIONARY
  5
17
102
{ACAD_REACTORS
330
C
102
}
330
C
100
AcDbDictionary
281
     1
  3
Standard
350
18
  0
DICTIONARY
  5
19
102
{ACAD_REACTORS
330
C
102
}
330
C
100
AcDbDictionary
281
     1
  0
ACDBDICTIONARYWDFLT
  5
E
102
{ACAD_REACTORS
330
C
102
}
330
C
100
AcDbDictionary
281
     1
  3
Normal
350
F
100
AcDbDictionaryWithDefault
340
F
  0
DICTIONARY
  5
71F
102
{ACAD_REACTORS
330
C
102
}
330
C
100
AcDbDictionary
281
     1
  3
A0
350
720
  3
A1
350
721
  3
A2
350
722
  3
A3
350
723
  3
A4
350
724
  3
A5
350
725
  3
A6
350
726
  3
A7
350
727
  3
A8
350
728
  3
A9
350
729
  3
B0
350
72A
  3
B1
350
72B
  3
B2
350
72C
  3
B3
350
72D
  3
B4
350
72E
  3
B5
350
72F
  3
B6
350
730
  0
DICTIONARY
  5
732
102
{ACAD_REACTORS
330
C
102
}
330
C
100
AcDbDictionary
281
     1
  3
Imperial24
350
996
  3
Metric50
350
733
  0
DICTIONARY
  5
6D2
102
{ACAD_REACTORS
330
C
102
}
330
C
100
AcDbDictionary
281
     1
  3
Standard
350
6DE
  0
DICTIONARY
  5
2A
102
{ACAD_REACTORS
330
C
102
}
330
C
100
AcDbDictionary
281
     1
  3
2dWireframe
350
2F
  3
3D Hidden
350
31
  3
3dWireframe
350
30
  3
Basic
350
32
  3
Brighten
350
36
  3
ColorChange
350
3A
  3
Conceptual
350
34
  3
Dim
350
35
  3
EdgeColorOff
350
71E
  3
Facepattern
350
39
  3
Flat
350
2B
  3
FlatWithEdges
350
2C
  3
Gouraud
350
2D
  3
GouraudWithEdges
350
2E
  3
Hidden
350
716
  3
JitterOff
350
71C
  3
Linepattern
350
38
  3
OverhangOff
350
71D
  3
Realistic
350
33
  3
Shaded
350
71B
  3
Shaded with edges
350
71A
  3
Shades of Gray
350
717
  3
Sketchy
350
718
  3
Thicken
350
37
  3
Wireframe
350
715
  3
X-Ray
350
719
  0
XRECORD
  5
9E8
102
{ACAD_REACTORS
330
C
102
}
330
C
100
AcDbXrecord
280
     1
 90
        1
330
6DE
  0
DICTIONARY
  5
6E1
102
{ACAD_REACTORS
330
C
102
}
330
C
100
AcDbDictionary
281
     1
  3
CANNOSCALE
350
8A3
  3
CMLEADERSTYLE
350
89F
  3
CTABLESTYLE
350
6E2
  3
CVIEWDETAILSTYLE
350
8A0
  3
CVIEWSECTIONSTYLE
350
8A1
  3
DIMASSOC
350
703
  3
INDEXCTL
350
702
  3
LAYEREVAL
350
8A5
  3
LAYERNOTIFY
350
8A6
  3
LIGHTINGUNITS
350
8A4
  3
MSLTSCALE
350
8A2
  3
SORTENTS
350
701
  0
DICTIONARY
  5
844
102
{ACAD_REACTORS
330
843
102
}
330
843
100
AcDbDictionary
281
     1
  0
XRECORD
  5
73A
102
{ACAD_REACTORS
330
739
102
}
330
739
100
AcDbXrecord
280
     1
290
     1
  0
XRECORD
  5
73C
102
{ACAD_REACTORS
330
73B
102
}
330
73B
100
AcDbXrecord
280
     1
290
     1
  0
XRECORD
  5
73E
102
{ACAD_REACTORS
330
73D
102
}
330
73D
100
AcDbXrecord
280
     1
290
     1
  0
SORTENTSTABLE
  5
976
102
{ACAD_REACTORS
330
975
102
}
330
975
100
AcDbSortentsTable
330
1F
  0
ACDBDETAILVIEWSTYLE
  5
997
102
{ACAD_XDICTIONARY
360
9EF
102
}
102
{ACAD_REACTORS
330
734
102
}
330
734
100
AcDbModelDocViewStyle
 70
     0
  3
Imperial24
290
     0
100
AcDbDetailViewStyle
 70
     0
 71
     0
 90
        3
 71
     1
340
11
 62
   256
 40
0.24
340
0
 62
   256
 40
0.24
300

 40
0.36
280
     3
 71
     2
340
16
 90
       25
 62
   256
 71
     3
340
11
 62
   256
 40
0.24
 90
        1
 40
0.75
 90
        1
300
%<\AcVar ViewType \f "%tc1">% %<\AcVar ViewDetailId>%\PVARIA %<\AcVar ViewScale \f "%sn">%
 71
     4
340
16
 90
       25
 62
   256
340
16
 90
       25
 62
   256
280
     0
  0
ACDBDETAILVIEWSTYLE
  5
735
102
{ACAD_XDICTIONARY
360
9EB
102
}
102
{ACAD_REACTORS
330
734
102
}
330
734
100
AcDbModelDocViewStyle
 70
     0
  3
Metric50
290
     0
100
AcDbDetailViewStyle
 70
     0
 71
     0
 90
        3
 71
     1
340
11
 62
   256
 40
5.0
340
0
 62
   256
 40
5.0
300

 40
0.0
280
     1
 71
     2
340
16
 90
       25
 62
   256
 71
     3
340
11
 62
   256
 40
5.0
 90
        0
 40
15.0
 90
        1
300
%<\AcVar ViewDetailId>% (%<\AcVar ViewScale \f "%sn">%)
 71
     4
340
16
 90
       25
 62
   256
340
16
 90
       25
 62
   256
280
     0
  0
LAYOUT
  5
1E
102
{ACAD_REACTORS
330
1A
102
}
330
1A
100
AcDbPlotSettings
  1

  2
none_device
  4

  6

 40
0.0
 41
0.0
 42
0.0
 43
0.0
 44
0.0
 45
0.0
 46
0.0
 47
0.0
 48
0.0
 49
0.0
140
0.0
141
0.0
142
1.0
143
1.0
 70
   688
 72
     0
 73
     0
 74
     5
  7

 75
    16
147
1.0
 76
     0
 77
     2
 78
   300
148
0.0
149
0.0
100
AcDbLayout
  1
Layout1
 70
     1
 71
     1
 10
-0.5
 20
-0.5
 11
5.0
 21
5.0
 12
0.0
 22
0.0
 32
0.0
 14
-0.5
 24
-0.5
 34
-0.5
 15
5.0
 25
5.0
 35
5.0
146
0.0
 13
0.0
 23
0.0
 33
0.0
 16
1.0
 26
0.0
 36
0.0
 17
0.0
 27
1.0
 37
0.0
 76
     0
330
1B
  0
LAYOUT
  5
26
102
{ACAD_REACTORS
330
1A
102
}
330
1A
100
AcDbPlotSettings
  1

  2
none_device
  4

  6

 40
0.0
 41
0.0
 42
0.0
 43
0.0
 44
0.0
 45
0.0
 46
0.0
 47
0.0
 48
0.0
 49
0.0
140
0.0
141
0.0
142
1.0
143
1.0
 70
   688
 72
     0
 73
     0
 74
     5
  7

 75
    16
147
1.0
 76
     0
 77
     2
 78
   300
148
0.0
149
0.0
100
AcDbLayout
  1
Layout2
 70
     1
 71
     2
 10
0.0
 20
0.0
 11
0.0
 21
0.0
 12
0.0
 22
0.0
 32
0.0
 14
0.0
 24
0.0
 34
0.0
 15
0.0
 25
0.0
 35
0.0
146
0.0
 13
0.0
 23
0.0
 33
0.0
 16
1.0
 26
0.0
 36
0.0
 17
0.0
 27
1.0
 37
0.0
 76
     0
330
23
  0
LAYOUT
  5
22
102
{ACAD_REACTORS
330
1A
102
}
330
1A
100
AcDbPlotSettings
  1

  2
none_device
  4

  6

 40
0.0
 41
0.0
 42
0.0
 43
0.0
 44
0.0
 45
0.0
 46
0.0
 47
0.0
 48
0.0
 49
0.0
140
0.0
141
0.0
142
1.0
143
1.0
 70
  1712
 72
     0
 73
     0
 74
     0
  7

 75
     0
147
1.0
 76
     0
 77
     2
 78
   300
148
0.0
149
0.0
100
AcDbLayout
  1
Model
 70
     1
 71
     0
 10
-0.5
 20
-0.5
 11
5.0
 21
5.0
 12
0.0
 22
0.0
 32
0.0
 14
-0.5
 24
-0.5
 34
-0.5
 15
5.0
 25
5.0
 35
5.0
146
0.0
 13
0.0
 23
0.0
 33
0.0
 16
1.0
 26
0.0
 36
0.0
 17
0.0
 27
1.0
 37
0.0
 76
     0
330
1F
331
6C2
  0
MATERIAL
  5
6DB
102
{ACAD_XDICTIONARY
360
70D
102
}
102
{ACAD_REACTORS
330
6D9
102
}
330
6D9
100
AcDbMaterial
  1
ByBlock
  0
MATERIAL
  5
6DA
102
{ACAD_XDICTIONARY
360
70B
102
}
102
{ACAD_REACTORS
330
6D9
102
}
330
6D9
100
AcDbMaterial
  1
ByLayer
  0
MATERIAL
  5
6DC
102
{ACAD_XDICTIONARY
360
70F
102
}
102
{ACAD_REACTORS
330
6D9
102
}
330
6D9
100
AcDbMaterial
  1
Global
  0
MLEADERSTYLE
  5
731
102
{ACAD_REACTORS
330
6D3
102
}
330
6D3
100
AcDbMLeaderStyle
179
     2
170
     2
171
     1
172
     0
 90
        2
 40
0.0
 41
0.0
173
     1
 91
-1056964608
340
14
 92
       -2
290
     1
 42
2.0
291
     1
 43
0.36
  3
Standard
 44
4.0
300

342
11
174
     1
178
     6
175
     1
176
     0
 93
-1056964608
 45
4.0
292
     0
297
     0
 46
4.0
 94
-1056964608
 47
1.0
 49
1.0
140
1.0
293
     1
141
0.0
294
     1
177
     0
142
1.0
295
     0
296
     0
143
0.125
271
     0
272
     9
273
     9
298
     0
  0
MLINESTYLE
  5
18
102
{ACAD_REACTORS
330
17
102
}
330
17
100
AcDbMlineStyle
  2
STANDARD
 70
     0
  3

 62
   256
 51
90.0
 52
90.0
 71
     2
 49
0.5
 62
   256
  6
BYLAYER
 49
-0.5
 62
   256
  6
BYLAYER
  0
ACDBPLACEHOLDER
  5
F
102
{ACAD_REACTORS
330
E
102
}
330
E
  0
SCALE
  5
720
102
{ACAD_REACTORS
330
71F
102
}
330
71F
100
AcDbScale
 70
     0
300
1:1
140
1.0
141
1.0
290
     1
  0
SCALE
  5
721
102
{ACAD_REACTORS
330
71F
102
}
330
71F
100
AcDbScale
 70
     0
300
1:2
140
1.0
141
2.0
290
     0
  0
SCALE
  5
722
102
{ACAD_REACTORS
330
71F
102
}
330
71F
100
AcDbScale
 70
     0
300
1:4
140
1.0
141
4.0
290
     0
  0
SCALE
  5
723
102
{ACAD_REACTORS
330
71F
102
}
330
71F
100
AcDbScale
 70
     0
300
1:5
140
1.0
141
5.0
290
     0
  0
SCALE
  5
724
102
{ACAD_REACTORS
330
71F
102
}
330
71F
100
AcDbScale
 70
     0
300
1:8
140
1.0
141
8.0
290
     0
  0
SCALE
  5
725
102
{ACAD_REACTORS
330
71F
102
}
330
71F
100
AcDbScale
 70
     0
300
1:10
140
1.0
141
10.0
290
     0
  0
SCALE
  5
726
102
{ACAD_REACTORS
330
71F
102
}
330
71F
100
AcDbScale
 70
     0
300
1:16
140
1.0
141
16.0
290
     0
  0
SCALE
  5
727
102
{ACAD_REACTORS
330
71F
102
}
330
71F
100
AcDbScale
 70
     0
300
1:20
140
1.0
141
20.0
290
     0
  0
SCALE
  5
728
102
{ACAD_REACTORS
330
71F
102
}
330
71F
100
AcDbScale
 70
     0
300
1:30
140
1.0
141
30.0
290
     0
  0
SCALE
  5
729
102
{ACAD_REACTORS
330
71F
102
}
330
71F
100
AcDbScale
 70
     0
300
1:40
140
1.0
141
40.0
290
     0
  0
SCALE
  5
72A
102
{ACAD_REACTORS
330
71F
102
}
330
71F
100
AcDbScale
 70
     0
300
1:50
140
1.0
141
50.0
290
     0
  0
SCALE
  5
72B
102
{ACAD_REACTORS
330
71F
102
}
330
71F
100
AcDbScale
 70
     0
300
1:100
140
1.0
141
100.0
290
     0
  0
SCALE
  5
72C
102
{ACAD_REACTORS
330
71F
102
}
330
71F
100
AcDbScale
 70
     0
300
2:1
140
2.0
141
1.0
290
     0
  0
SCALE
  5
72D
102
{ACAD_REACTORS
330
71F
102
}
330
71F
100
AcDbScale
 70
     0
300
4:1
140
4.0
141
1.0
290
     0
  0
SCALE
  5
72E
102
{ACAD_REACTORS
330
71F
102
}
330
71F
100
AcDbScale
 70
     0
300
8:1
140
8.0
141
1.0
290
     0
  0
SCALE
  5
72F
102
{ACAD_REACTORS
330
71F
102
}
330
71F
100
AcDbScale
 70
     0
300
10:1
140
10.0
141
1.0
290
     0
  0
SCALE
  5
730
102
{ACAD_REACTORS
330
71F
102
}
330
71F
100
AcDbScale
 70
     0
300
100:1
140
100.0
141
1.0
290
     0
  0
ACDBSECTIONVIEWSTYLE
  5
996
102
{ACAD_XDICTIONARY
360
9ED
102
}
102
{ACAD_REACTORS
330
732
102
}
330
732
100
AcDbModelDocViewStyle
 70
     0
  3
Imperial24
290
     0
100
AcDbSectionViewStyle
 70
     0
 71
     0
 90
       78
 71
     1
340
11
 62
   256
 40
0.24
340
0
340
0
 62
   256
 40
0.24
300
I, O, Q, S, X, Z
 40
0.48
 90
        3
 40
0.18
 90
        1
 71
     2
340
16
 90
       25
 62
   256
340
16
 90
       50
 62
   256
 40
0.24
 40
0.0
 40
0.24
 71
     3
340
11
 62
   256
 40
0.24
 90
        1
 40
0.75
 90
        1
300
%<\AcVar ViewType \f "%tc1">% %<\AcVar ViewSectionStartId>%-%<\AcVar ViewSectionEndId>%\PVARIA %<\AcVar ViewScale \f "%sn">%
 71
     4
 62
   256
 62
   257
300
ANSI31
 40
1.0
 90
        0
290
     0
290
     0
 90
        6
 40
0.0
 40
1.570796326794896
 40
0.2617993877991494
 40
1.308996938995747
 40
-0.2617993877991494
 40
1.832595714594046
  0
ACDBSECTIONVIEWSTYLE
  5
733
102
{ACAD_XDICTIONARY
360
9E9
102
}
102
{ACAD_REACTORS
330
732
102
}
330
732
100
AcDbModelDocViewStyle
 70
     0
  3
Metric50
290
     0
100
AcDbSectionViewStyle
 70
     0
 71
     0
 90
      102
 71
     1
340
11
 62
   256
 40
5.0
340
0
340
0
 62
   256
 40
5.0
300
I, O, Q, S, X, Z
 40
10.0
 90
        0
 40
2.5
 90
        0
 71
     2
340
16
 90
       25
 62
   256
340
16
 90
       50
 62
   256
 40
5.0
 40
2.5
 40
5.0
 71
     3
340
11
 62
   256
 40
5.0
 90
        0
 40
15.0
 90
        1
300
%<\AcVar ViewSectionStartId>%-%<\AcVar ViewSectionEndId>% (%<\AcVar ViewScale \f "%sn">%)
 71
     4
 62
   256
 62
   257
300
ANSI31
 40
1.0
 90
        0
290
     0
290
     0
 90
        6
 40
0.0
 40
1.570796326794896
 40
0.2617993877991494
 40
1.308996938995747
 40
-0.2617993877991494
 40
1.832595714594045
  0
TABLESTYLE
  5
6DE
102
{ACAD_XDICTIONARY
360
977
102
}
102
{ACAD_REACTORS
330
6D2
102
}
330
6D2
100
AcDbTableStyle
280
     0
  3
Standard
 70
     0
 71
     0
 40
1.5
 41
1.5
280
     0
281
     0
  7
Standard
140
4.5
170
     2
 62
     0
 63
     7
283
     0
 90
      512
 91
        0
  1

274
    -2
284
     1
 64
     0
275
    -2
285
     1
 65
     0
276
    -2
286
     1
 66
     0
277
    -2
287
     1
 67
     0
278
    -2
288
     1
 68
     0
279
    -2
289
     1
 69
     0
  7
Standard
140
6.0
170
     5
 62
     0
 63
     7
283
     0
 90
      512
 91
        0
  1

274
    -2
284
     1
 64
     0
275
    -2
285
     1
 65
     0
276
    -2
286
     1
 66
     0
277
    -2
287
     1
 67
     0
278
    -2
288
     1
 68
     0
279
    -2
289
     1
 69
     0
  7
Standard
140
4.5
170
     5
 62
     0
 63
     7
283
     0
 90
      512
 91
        0
  1

274
    -2
284
     1
 64
     0
275
    -2
285
     1
 65
     0
276
    -2
286
     1
 66
     0
277
    -2
287
     1
 67
     0
278
    -2
288
     1
 68
     0
279
    -2
289
     1
 69
     0
  0
VISUALSTYLE
  5
2F
102
{ACAD_REACTORS
330
2A
102
}
330
2A
100
AcDbVisualStyle
  2

 70
     4
177
     3
291
     0
 70
    58
 90
        0
176
     1
 90
        2
176
     1
 90
        0
176
     1
 90
        0
176
     1
 40
0.6
176
     1
 40
30.0
176
     1
 62
     7
176
     1
 90
        1
176
     1
 90
        4
176
     1
 62
     7
176
     1
 62
   257
176
     1
 90
        1
176
     1
 90
        1
176
     1
 40
1.0
176
     1
 90
        0
176
     1
 62
   257
176
     1
 40
1.0
176
     1
 90
        1
176
     1
 90
        6
176
     1
 90
        2
176
     1
 62
     7
176
     1
 90
        5
176
     1
 90
        0
176
     1
 90
        0
176
     1
290
     0
176
     1
 90
        1
176
     1
 40
0.0
176
     1
 90
        0
176
     1
290
     1
176
     1
290
     1
176
     1
290
     0
176
     1
290
     0
176
     1
290
     0
176
     1
290
     0
176
     1
290
     0
176
     1
290
     0
176
     1
290
     0
176
     1
 90
       50
176
     1
 40
0.0
176
     1
 40
1.0
176
     1
 90
        0
176
     1
 62
    18
176
     1
 90
       50
176
     1
 90
        3
176
     1
 62
     5
420
      255
176
     1
290
     0
176
     1
 90
       50
176
     1
 90
       50
176
     1
 90
       50
176
     1
290
     0
176
     1
 90
       50
176
     1
 62
   256
176
     0
 40
1.0
176
     0
 90
        2
176
     1
  1
strokes_ogs.tif
176
     1
290
     0
176
     1
 40
1.0
176
     1
 40
1.0
176
     1
1001
ACAD
1000
AcDbSavedByObjectVersion
1070
     0
  0
VISUALSTYLE
  5
31
102
{ACAD_REACTORS
330
2A
102
}
330
2A
100
AcDbVisualStyle
  2

 70
     6
177
     3
291
     0
 70
    58
 90
        1
176
     1
 90
        2
176
     1
 90
        2
176
     1
 90
        0
176
     1
 40
0.6
176
     1
 40
30.0
176
     1
 62
     7
176
     1
 90
        2
176
     1
 90
        2
176
     1
 62
     7
176
     1
 62
   257
176
     1
 90
        2
176
     1
 90
        1
176
     1
 40
40.0
176
     1
 90
        0
176
     1
 62
   257
176
     1
 40
1.0
176
     1
 90
        1
176
     1
 90
        6
176
     1
 90
        2
176
     1
 62
     7
176
     1
 90
        3
176
     1
 90
        0
176
     1
 90
        0
176
     1
290
     0
176
     1
 90
        1
176
     1
 40
0.0
176
     1
 90
        0
176
     1
290
     0
176
     1
290
     1
176
     1
290
     1
176
     1
290
     0
176
     1
290
     0
176
     1
290
     0
176
     1
290
     0
176
     1
290
     0
176
     1
290
     0
176
     1
 90
       50
176
     1
 40
0.0
176
     1
 40
1.0
176
     1
 90
        0
176
     1
 62
    18
176
     1
 90
       50
176
     1
 90
        3
176
     1
 62
     5
420
      255
176
     1
290
     0
176
     1
 90
       50
176
     1
 90
       50
176
     1
 90
       50
176
     1
290
     0
176
     1
 90
       50
176
     1
 62
   256
176
     0
 40
1.0
176
     0
 90
        2
176
     1
  1
strokes_ogs.tif
176
     1
290
     0
176
     1
 40
1.0
176
     1
 40
1.0
176
     1
1001
ACAD
1000
AcDbSavedByObjectVersion
1070
     0
  0
VISUALSTYLE
  5
30
102
{ACAD_REACTORS
330
2A
102
}
330
2A
100
AcDbVisualStyle
  2

 70
     5
177
     3
291
     0
 70
    58
 90
        0
176
     1
 90
        2
176
     1
 90
        0
176
     1
 90
        0
176
     1
 40
0.6
176
     1
 40
30.0
176
     1
 62
     7
176
     1
 90
        1
176
     1
 90
        4
176
     1
 62
     7
176
     1
 62
   257
176
     1
 90
        1
176
     1
 90
        1
176
     1
 40
1.0
176
     1
 90
        0
176
     1
 62
   257
176
     1
 40
1.0
176
     1
 90
        1
176
     1
 90
        6
176
     1
 90
        2
176
     1
 62
     7
176
     1
 90
        5
176
     1
 90
        0
176
     1
 90
        0
176
     1
290
     0
176
     1
 90
        1
176
     1
 40
0.0
176
     1
 90
        0
176
     1
290
     0
176
     1
290
     1
176
     1
290
     1
176
     1
290
     0
176
     1
290
     0
176
     1
290
     0
176
     1
290
     0
176
     1
290
     0
176
     1
290
     0
176
     1
 90
       50
176
     1
 40
0.0
176
     1
 40
1.0
176
     1
 90
        0
176
     1
 62
    18
176
     1
 90
       50
176
     1
 90
        3
176
     1
 62
     5
420
      255
176
     1
290
     0
176
     1
 90
       50
176
     1
 90
       50
176
     1
 90
       50
176
     1
290
     0
176
     1
 90
       50
176
     1
 62
   256
176
     0
 40
1.0
176
     0
 90
        2
176
     1
  1
strokes_ogs.tif
176
     1
290
     0
176
     1
 40
1.0
176
     1
 40
1.0
176
     1
1001
ACAD
1000
AcDbSavedByObjectVersion
1070
     0
  0
VISUALSTYLE
  5
32
102
{ACAD_REACTORS
330
2A
102
}
330
2A
100
AcDbVisualStyle
  2

 70
     7
177
     3
291
     1
 70
    58
 90
        1
176
     1
 90
        0
176
     1
 90
        1
176
     1
 90
        0
176
     1
 40
0.6
176
     1
 40
30.0
176
     1
 62
     7
176
     1
 90
        0
176
     1
 90
        4
176
     1
 62
     7
176
     1
 62
   257
176
     1
 90
        1
176
     1
 90
        1
176
     1
 40
1.0
176
     1
 90
        8
176
     1
 62
     7
176
     1
 40
1.0
176
     1
 90
        1
176
     1
 90
        6
176
     1
 90
        2
176
     1
 62
     7
176
     1
 90
        5
176
     1
 90
        0
176
     1
 90
        0
176
     1
290
     0
176
     1
 90
        1
176
     1
 40
0.0
176
     1
 90
        0
176
     1
290
     0
176
     1
290
     1
176
     1
290
     1
176
     1
290
     0
176
     1
290
     0
176
     1
290
     0
176
     1
290
     0
176
     1
290
     0
176
     1
290
     0
176
     1
 90
       50
176
     1
 40
0.0
176
     1
 40
1.0
176
     1
 90
        0
176
     1
 62
    18
176
     1
 90
       50
176
     1
 90
        3
176
     1
 62
     5
420
      255
176
     1
290
     0
176
     1
 90
       50
176
     1
 90
       50
176
     1
 90
       50
176
     1
290
     0
176
     1
 90
       50
176
     1
 62
   256
176
     0
 40
1.0
176
     0
 90
        2
176
     1
  1
strokes_ogs.tif
176
     1
290
     0
176
     1
 40
1.0
176
     1
 40
1.0
176
     1
1001
ACAD
1000
AcDbSavedByObjectVersion
1070
     0
  0
VISUALSTYLE
  5
36
102
{ACAD_REACTORS
330
2A
102
}
330
2A
100
AcDbVisualStyle
  2

 70
    12
177
     3
291
     1
 70
    58
 90
        2
176
     1
 90
        2
176
     1
 90
        0
176
     1
 90
        0
176
     1
 40
0.6
176
     1
 40
30.0
176
     1
 62
     7
176
     1
 90
        1
176
     1
 90
        4
176
     1
 62
     7
176
     1
 62
   257
176
     1
 90
        1
176
     1
 90
        1
176
     1
 40
1.0
176
     1
 90
        8
176
     1
 62
     7
176
     1
 40
1.0
176
     1
 90
        1
176
     1
 90
        6
176
     1
 90
        2
176
     1
 62
     7
176
     1
 90
        5
176
     1
 90
        0
176
     1
 90
        0
176
     1
290
     0
176
     1
 90
        1
176
     1
 40
50.0
176
     1
 90
        0
176
     1
290
     0
176
     1
290
     1
176
     1
290
     1
176
     1
290
     0
176
     1
290
     0
176
     1
290
     0
176
     1
290
     0
176
     1
290
     0
176
     1
290
     0
176
     1
 90
       50
176
     1
 40
0.0
176
     1
 40
1.0
176
     1
 90
        0
176
     1
 62
    18
176
     1
 90
       50
176
     1
 90
        3
176
     1
 62
     5
420
      255
176
     1
290
     0
176
     1
 90
       50
176
     1
 90
       50
176
     1
 90
       50
176
     1
290
     0
176
     1
 90
       50
176
     1
 62
   256
176
     0
 40
1.0
176
     0
 90
        2
176
     1
  1
strokes_ogs.tif
176
     1
290
     0
176
     1
 40
1.0
176
     1
 40
1.0
176
     1
1001
ACAD
1000
AcDbSavedByObjectVersion
1070
     0
  0
VISUALSTYLE
  5
3A
102
{ACAD_REACTORS
330
2A
102
}
330
2A
100
AcDbVisualStyle
  2

 70
    16
177
     3
291
     1
 70
    58
 90
        2
176
     1
 90
        2
176
     1
 90
        3
176
     1
 90
        0
176
     1
 40
0.6
176
     1
 40
30.0
176
     1
 62
     8
176
     1
 90
        1
176
     1
 90
        4
176
     1
 62
     7
176
     1
 62
   257
176
     1
 90
        1
176
     1
 90
        1
176
     1
 40
1.0
176
     1
 90
        8
176
     1
 62
     8
176
     1
 40
1.0
176
     1
 90
        1
176
     1
 90
        6
176
     1
 90
        2
176
     1
 62
     7
176
     1
 90
        5
176
     1
 90
        0
176
     1
 90
        0
176
     1
290
     0
176
     1
 90
        1
176
     1
 40
0.0
176
     1
 90
        0
176
     1
290
     0
176
     1
290
     1
176
     1
290
     1
176
     1
290
     0
176
     1
290
     0
176
     1
290
     0
176
     1
290
     0
176
     1
290
     0
176
     1
290
     0
176
     1
 90
       50
176
     1
 40
0.0
176
     1
 40
1.0
176
     1
 90
        0
176
     1
 62
    18
176
     1
 90
       50
176
     1
 90
        3
176
     1
 62
     5
420
      255
176
     1
290
     0
176
     1
 90
       50
176
     1
 90
       50
176
     1
 90
       50
176
     1
290
     0
176
     1
 90
       50
176
     1
 62
   256
176
     0
 40
1.0
176
     0
 90
        2
176
     1
  1
strokes_ogs.tif
176
     1
290
     0
176
     1
 40
1.0
176
     1
 40
1.0
176
     1
1001
ACAD
1000
AcDbSavedByObjectVersion
1070
     0
  0
VISUALSTYLE
  5
34
102
{ACAD_REACTORS
330
2A
102
}
330
2A
100
AcDbVisualStyle
  2

 70
     9
177
     3
291
     0
 70
    58
 90
        3
176
     1
 90
        2
176
     1
 90
        0
176
     1
 90
        0
176
     1
 40
0.6
176
     1
 40
30.0
176
     1
 62
     7
176
     1
 90
        2
176
     1
 90
        2
176
     1
 62
     7
176
     1
 62
   257
176
     1
 90
        1
176
     1
 90
        1
176
     1
 40
40.0
176
     1
 90
        8
176
     1
 62
     7
176
     1
 40
1.0
176
     1
 90
        1
176
     1
 90
        6
176
     1
 90
        2
176
     1
 62
     7
176
     1
 90
        3
176
     1
 90
        0
176
     1
 90
        0
176
     1
290
     0
176
     1
 90
        1
176
     1
 40
0.0
176
     1
 90
        0
176
     1
290
     0
176
     1
290
     1
176
     1
290
     1
176
     1
290
     0
176
     1
290
     0
176
     1
290
     0
176
     1
290
     0
176
     1
290
     0
176
     1
290
     0
176
     1
 90
       50
176
     1
 40
0.0
176
     1
 40
1.0
176
     1
 90
        0
176
     1
 62
    18
176
     1
 90
       50
176
     1
 90
        3
176
     1
 62
     5
420
      255
176
     1
290
     0
176
     1
 90
       50
176
     1
 90
       50
176
     1
 90
       50
176
     1
290
     0
176
     1
 90
       50
176
     1
 62
   256
176
     0
 40
1.0
176
     0
 90
        2
176
     1
  1
strokes_ogs.tif
176
     1
290
     0
176
     1
 40
1.0
176
     1
 40
1.0
176
     1
1001
ACAD
1000
AcDbSavedByObjectVersion
1070
     0
  0
VISUALSTYLE
  5
35
102
{ACAD_REACTORS
330
2A
102
}
330
2A
100
AcDbVisualStyle
  2

 70
    11
177
     3
291
     1
 70
    58
 90
        2
176
     1
 90
        2
176
     1
 90
        0
176
     1
 90
        0
176
     1
 40
0.6
176
     1
 40
30.0
176
     1
 62
     7
176
     1
 90
        1
176
     1
 90
        4
176
     1
 62
     7
176
     1
 62
   257
176
     1
 90
        1
176
     1
 90
        1
176
     1
 40
1.0
176
     1
 90
        8
176
     1
 62
     7
176
     1
 40
1.0
176
     1
 90
        1
176
     1
 90
        6
176
     1
 90
        2
176
     1
 62
     7
176
     1
 90
        5
176
     1
 90
        0
176
     1
 90
        0
176
     1
290
     0
176
     1
 90
        1
176
     1
 40
-50.0
176
     1
 90
        0
176
     1
290
     0
176
     1
290
     1
176
     1
290
     1
176
     1
290
     0
176
     1
290
     0
176
     1
290
     0
176
     1
290
     0
176
     1
290
     0
176
     1
290
     0
176
     1
 90
       50
176
     1
 40
0.0
176
     1
 40
1.0
176
     1
 90
        0
176
     1
 62
    18
176
     1
 90
       50
176
     1
 90
        3
176
     1
 62
     5
420
      255
176
     1
290
     0
176
     1
 90
       50
176
     1
 90
       50
176
     1
 90
       50
176
     1
290
     0
176
     1
 90
       50
176
     1
 62
   256
176
     0
 40
1.0
176
     0
 90
        2
176
     1
  1
strokes_ogs.tif
176
     1
290
     0
176
     1
 40
1.0
176
     1
 40
1.0
176
     1
1001
ACAD
1000
AcDbSavedByObjectVersion
1070
     0
  0
VISUALSTYLE
  5
71E
102
{ACAD_REACTORS
330
2A
102
}
330
2A
100
AcDbVisualStyle
  2
EdgeColorOff
 70
    22
177
     3
291
     1
 70
    58
 90
        2
176
     0
 90
        2
176
     0
 90
        0
176
     0
 90
        0
176
     0
 40
0.6
176
     0
 40
30.0
176
     0
 62
     7
420
 16777215
176
     0
 90
        1
176
     0
 90
        4
176
     0
 62
     7
176
     0
 62
   257
176
     0
 90
        1
176
     0
 90
        1
176
     0
 40
1.0
176
     0
 90
        8
176
     2
 62
     7
176
     0
 40
1.0
176
     0
 90
        1
176
     0
 90
        6
176
     0
 90
        2
176
     0
 62
     7
176
     0
 90
        5
176
     0
 90
        0
176
     0
 90
        0
176
     0
290
     0
176
     0
 90
        1
176
     0
 40
0.0
176
     0
 90
        0
176
     0
290
     0
176
     1
290
     1
176
     1
290
     1
176
     1
290
     0
176
     1
290
     0
176
     1
290
     0
176
     1
290
     0
176
     1
290
     0
176
     1
290
     0
176
     1
 90
       50
176
     0
 40
0.0
176
     0
 40
1.0
176
     0
 90
        0
176
     0
 62
    18
176
     0
 90
       50
176
     0
 90
        3
176
     0
 62
     5
420
      255
176
     0
290
     0
176
     1
 90
       50
176
     0
 90
       50
176
     0
 90
       50
176
     0
290
     0
176
     1
 90
       50
176
     0
 62
   256
176
     0
 40
1.0
176
     0
 90
        2
176
     0
  1
strokes_ogs.tif
176
     0
290
     0
176
     1
 40
1.0
176
     0
 40
1.0
176
     0
1001
ACAD
1000
AcDbSavedByObjectVersion
1070
     0
  0
VISUALSTYLE
  5
39
102
{ACAD_REACTORS
330
2A
102
}
330
2A
100
AcDbVisualStyle
  2

 70
    15
177
     3
291
     1
 70
    58
 90
        2
176
     1
 90
        2
176
     1
 90
        0
176
     1
 90
        0
176
     1
 40
0.6
176
     1
 40
30.0
176
     1
 62
     7
176
     1
 90
        1
176
     1
 90
        4
176
     1
 62
     7
176
     1
 62
   257
176
     1
 90
        1
176
     1
 90
        1
176
     1
 40
1.0
176
     1
 90
        8
176
     1
 62
     7
176
     1
 40
1.0
176
     1
 90
        1
176
     1
 90
        6
176
     1
 90
        2
176
     1
 62
     7
176
     1
 90
        5
176
     1
 90
        0
176
     1
 90
        0
176
     1
290
     0
176
     1
 90
        1
176
     1
 40
0.0
176
     1
 90
        0
176
     1
290
     0
176
     1
290
     1
176
     1
290
     1
176
     1
290
     0
176
     1
290
     0
176
     1
290
     0
176
     1
290
     0
176
     1
290
     0
176
     1
290
     0
176
     1
 90
       50
176
     1
 40
0.0
176
     1
 40
1.0
176
     1
 90
        0
176
     1
 62
    18
176
     1
 90
       50
176
     1
 90
        3
176
     1
 62
     5
420
      255
176
     1
290
     0
176
     1
 90
       50
176
     1
 90
       50
176
     1
 90
       50
176
     1
290
     0
176
     1
 90
       50
176
     1
 62
   256
176
     0
 40
1.0
176
     0
 90
        2
176
     1
  1
strokes_ogs.tif
176
     1
290
     0
176
     1
 40
1.0
176
     1
 40
1.0
176
     1
1001
ACAD
1000
AcDbSavedByObjectVersion
1070
     0
  0
VISUALSTYLE
  5
2B
102
{ACAD_REACTORS
330
2A
102
}
330
2A
100
AcDbVisualStyle
  2

 70
     0
177
     3
291
     1
 70
    58
 90
        2
176
     1
 90
        1
176
     1
 90
        1
176
     1
 90
        2
176
     1
 40
0.6
176
     1
 40
30.0
176
     1
 62
     7
176
     1
 90
        0
176
     1
 90
        4
176
     1
 62
     7
176
     1
 62
   257
176
     1
 90
        1
176
     1
 90
        1
176
     1
 40
1.0
176
     1
 90
        8
176
     1
 62
     7
176
     1
 40
1.0
176
     1
 90
        1
176
     1
 90
        6
176
     1
 90
        2
176
     1
 62
     7
176
     1
 90
        5
176
     1
 90
        0
176
     1
 90
        0
176
     1
290
     0
176
     1
 90
       13
176
     1
 40
0.0
176
     1
 90
        0
176
     1
290
     0
176
     1
290
     1
176
     1
290
     1
176
     1
290
     0
176
     1
290
     0
176
     1
290
     0
176
     1
290
     0
176
     1
290
     0
176
     1
290
     0
176
     1
 90
       50
176
     1
 40
0.0
176
     1
 40
1.0
176
     1
 90
        0
176
     1
 62
    18
176
     1
 90
       50
176
     1
 90
        3
176
     1
 62
     5
420
      255
176
     1
290
     0
176
     1
 90
       50
176
     1
 90
       50
176
     1
 90
       50
176
     1
290
     0
176
     1
 90
       50
176
     1
 62
   256
176
     0
 40
1.0
176
     0
 90
        2
176
     1
  1
strokes_ogs.tif
176
     1
290
     0
176
     1
 40
1.0
176
     1
 40
1.0
176
     1
1001
ACAD
1000
AcDbSavedByObjectVersion
1070
     0
  0
VISUALSTYLE
  5
2C
102
{ACAD_REACTORS
330
2A
102
}
330
2A
100
AcDbVisualStyle
  2

 70
     1
177
     3
291
     1
 70
    58
 90
        2
176
     1
 90
        1
176
     1
 90
        1
176
     1
 90
        2
176
     1
 40
0.6
176
     1
 40
30.0
176
     1
 62
     7
176
     1
 90
        1
176
     1
 90
        4
176
     1
 62
     7
176
     1
 62
   257
176
     1
 90
        1
176
     1
 90
        1
176
     1
 40
1.0
176
     1
 90
        0
176
     1
 62
   257
176
     1
 40
1.0
176
     1
 90
        1
176
     1
 90
        6
176
     1
 90
        2
176
     1
 62
     7
176
     1
 90
        5
176
     1
 90
        0
176
     1
 90
        0
176
     1
290
     0
176
     1
 90
       13
176
     1
 40
0.0
176
     1
 90
        0
176
     1
290
     0
176
     1
290
     1
176
     1
290
     1
176
     1
290
     0
176
     1
290
     0
176
     1
290
     0
176
     1
290
     0
176
     1
290
     0
176
     1
290
     0
176
     1
 90
       50
176
     1
 40
0.0
176
     1
 40
1.0
176
     1
 90
        0
176
     1
 62
    18
176
     1
 90
       50
176
     1
 90
        3
176
     1
 62
     5
420
      255
176
     1
290
     0
176
     1
 90
       50
176
     1
 90
       50
176
     1
 90
       50
176
     1
290
     0
176
     1
 90
       50
176
     1
 62
   256
176
     0
 40
1.0
176
     0
 90
        2
176
     1
  1
strokes_ogs.tif
176
     1
290
     0
176
     1
 40
1.0
176
     1
 40
1.0
176
     1
1001
ACAD
1000
AcDbSavedByObjectVersion
1070
     0
  0
VISUALSTYLE
  5
2D
102
{ACAD_REACTORS
330
2A
102
}
330
2A
100
AcDbVisualStyle
  2

 70
     2
177
     3
291
     1
 70
    58
 90
        2
176
     1
 90
        2
176
     1
 90
        1
176
     1
 90
        2
176
     1
 40
0.6
176
     1
 40
30.0
176
     1
 62
     7
176
     1
 90
        0
176
     1
 90
        4
176
     1
 62
     7
176
     1
 62
   257
176
     1
 90
        1
176
     1
 90
        1
176
     1
 40
1.0
176
     1
 90
        0
176
     1
 62
     7
176
     1
 40
1.0
176
     1
 90
        1
176
     1
 90
        6
176
     1
 90
        2
176
     1
 62
     7
176
     1
 90
        5
176
     1
 90
        0
176
     1
 90
        0
176
     1
290
     0
176
     1
 90
       13
176
     1
 40
0.0
176
     1
 90
        0
176
     1
290
     0
176
     1
290
     1
176
     1
290
     1
176
     1
290
     0
176
     1
290
     0
176
     1
290
     0
176
     1
290
     0
176
     1
290
     0
176
     1
290
     0
176
     1
 90
       50
176
     1
 40
0.0
176
     1
 40
1.0
176
     1
 90
        0
176
     1
 62
    18
176
     1
 90
       50
176
     1
 90
        3
176
     1
 62
     5
420
      255
176
     1
290
     0
176
     1
 90
       50
176
     1
 90
       50
176
     1
 90
       50
176
     1
290
     0
176
     1
 90
       50
176
     1
 62
   256
176
     0
 40
1.0
176
     0
 90
        2
176
     1
  1
strokes_ogs.tif
176
     1
290
     0
176
     1
 40
1.0
176
     1
 40
1.0
176
     1
1001
ACAD
1000
AcDbSavedByObjectVersion
1070
     0
  0
VISUALSTYLE
  5
2E
102
{ACAD_REACTORS
330
2A
102
}
330
2A
100
AcDbVisualStyle
  2

 70
     3
177
     3
291
     1
 70
    58
 90
        2
176
     1
 90
        2
176
     1
 90
        1
176
     1
 90
        2
176
     1
 40
0.6
176
     1
 40
30.0
176
     1
 62
     7
176
     1
 90
        1
176
     1
 90
        4
176
     1
 62
     7
176
     1
 62
   257
176
     1
 90
        1
176
     1
 90
        1
176
     1
 40
1.0
176
     1
 90
        0
176
     1
 62
   257
176
     1
 40
1.0
176
     1
 90
        1
176
     1
 90
        6
176
     1
 90
        2
176
     1
 62
     7
176
     1
 90
        5
176
     1
 90
        0
176
     1
 90
        0
176
     1
290
     0
176
     1
 90
       13
176
     1
 40
0.0
176
     1
 90
        0
176
     1
290
     0
176
     1
290
     1
176
     1
290
     1
176
     1
290
     0
176
     1
290
     0
176
     1
290
     0
176
     1
290
     0
176
     1
290
     0
176
     1
290
     0
176
     1
 90
       50
176
     1
 40
0.0
176
     1
 40
1.0
176
     1
 90
        0
176
     1
 62
    18
176
     1
 90
       50
176
     1
 90
        3
176
     1
 62
     5
420
      255
176
     1
290
     0
176
     1
 90
       50
176
     1
 90
       50
176
     1
 90
       50
176
     1
290
     0
176
     1
 90
       50
176
     1
 62
   256
176
     0
 40
1.0
176
     0
 90
        2
176
     1
  1
strokes_ogs.tif
176
     1
290
     0
176
     1
 40
1.0
176
     1
 40
1.0
176
     1
1001
ACAD
1000
AcDbSavedByObjectVersion
1070
     0
  0
VISUALSTYLE
  5
716
102
{ACAD_REACTORS
330
2A
102
}
330
2A
100
AcDbVisualStyle
  2
Hidden
 70
     6
177
     3
291
     0
 70
    58
 90
        1
176
     1
 90
        2
176
     1
 90
        2
176
     1
 90
        0
176
     1
 40
0.6
176
     1
 40
30.0
176
     1
 62
     7
420
 16777215
176
     1
 90
        2
176
     1
 90
        2
176
     1
 62
     7
176
     1
 62
   257
176
     1
 90
        2
176
     1
 90
        1
176
     1
 40
40.0
176
     1
 90
        0
176
     1
 62
   257
176
     1
 40
1.0
176
     1
 90
        1
176
     1
 90
        6
176
     1
 90
        2
176
     1
 62
     7
176
     1
 90
        3
176
     1
 90
        0
176
     1
 90
        0
176
     1
290
     0
176
     1
 90
        1
176
     1
 40
0.0
176
     1
 90
        0
176
     1
290
     0
176
     1
290
     1
176
     1
290
     1
176
     1
290
     0
176
     1
290
     0
176
     1
290
     0
176
     1
290
     0
176
     1
290
     0
176
     1
290
     0
176
     1
 90
       50
176
     1
 40
0.0
176
     1
 40
1.0
176
     1
 90
        0
176
     1
 62
    18
176
     1
 90
       50
176
     1
 90
        3
176
     1
 62
     5
420
      255
176
     1
290
     0
176
     1
 90
       50
176
     1
 90
       50
176
     1
 90
       50
176
     1
290
     0
176
     1
 90
       50
176
     1
 62
   256
176
     0
 40
1.0
176
     0
 90
        2
176
     1
  1
strokes_ogs.tif
176
     1
290
     0
176
     1
 40
1.0
176
     1
 40
1.0
176
     1
1001
ACAD
1000
AcDbSavedByObjectVersion
1070
     0
  0
VISUALSTYLE
  5
71C
102
{ACAD_REACTORS
330
2A
102
}
330
2A
100
AcDbVisualStyle
  2
JitterOff
 70
    20
177
     3
291
     1
 70
    58
 90
        2
176
     0
 90
        2
176
     0
 90
        0
176
     0
 90
        0
176
     0
 40
0.6
176
     0
 40
30.0
176
     0
 62
     7
420
 16777215
176
     0
 90
        1
176
     0
 90
        4
176
     0
 62
     7
176
     0
 62
   257
176
     0
 90
        1
176
     0
 90
        1
176
     0
 40
1.0
176
     0
 90
       10
176
     2
 62
     7
176
     0
 40
1.0
176
     0
 90
        1
176
     0
 90
        6
176
     0
 90
        2
176
     0
 62
     7
176
     0
 90
        5
176
     0
 90
        0
176
     0
 90
        0
176
     0
290
     0
176
     0
 90
        1
176
     0
 40
0.0
176
     0
 90
        0
176
     0
290
     0
176
     1
290
     1
176
     1
290
     1
176
     1
290
     0
176
     1
290
     0
176
     1
290
     0
176
     1
290
     0
176
     1
290
     0
176
     1
290
     0
176
     1
 90
       50
176
     0
 40
0.0
176
     0
 40
1.0
176
     0
 90
        0
176
     0
 62
    18
176
     0
 90
       50
176
     0
 90
        3
176
     0
 62
     5
420
      255
176
     0
290
     0
176
     1
 90
       50
176
     0
 90
       50
176
     0
 90
       50
176
     0
290
     0
176
     1
 90
       50
176
     0
 62
   256
176
     0
 40
1.0
176
     0
 90
        2
176
     0
  1
strokes_ogs.tif
176
     0
290
     0
176
     1
 40
1.0
176
     0
 40
1.0
176
     0
1001
ACAD
1000
AcDbSavedByObjectVersion
1070
     0
  0
VISUALSTYLE
  5
38
102
{ACAD_REACTORS
330
2A
102
}
330
2A
100
AcDbVisualStyle
  2

 70
    14
177
     3
291
     1
 70
    58
 90
        2
176
     1
 90
        2
176
     1
 90
        0
176
     1
 90
        0
176
     1
 40
0.6
176
     1
 40
30.0
176
     1
 62
     7
176
     1
 90
        1
176
     1
 90
        4
176
     1
 62
     7
176
     1
 62
   257
176
     1
 90
        7
176
     1
 90
        7
176
     1
 40
1.0
176
     1
 90
        8
176
     1
 62
     7
176
     1
 40
1.0
176
     1
 90
        1
176
     1
 90
        6
176
     1
 90
        2
176
     1
 62
     7
176
     1
 90
        5
176
     1
 90
        0
176
     1
 90
        0
176
     1
290
     0
176
     1
 90
        1
176
     1
 40
0.0
176
     1
 90
        0
176
     1
290
     0
176
     1
290
     1
176
     1
290
     1
176
     1
290
     0
176
     1
290
     0
176
     1
290
     0
176
     1
290
     0
176
     1
290
     0
176
     1
290
     0
176
     1
 90
       50
176
     1
 40
0.0
176
     1
 40
1.0
176
     1
 90
        0
176
     1
 62
    18
176
     1
 90
       50
176
     1
 90
        3
176
     1
 62
     5
420
      255
176
     1
290
     0
176
     1
 90
       50
176
     1
 90
       50
176
     1
 90
       50
176
     1
290
     0
176
     1
 90
       50
176
     1
 62
   256
176
     0
 40
1.0
176
     0
 90
        2
176
     1
  1
strokes_ogs.tif
176
     1
290
     0
176
     1
 40
1.0
176
     1
 40
1.0
176
     1
1001
ACAD
1000
AcDbSavedByObjectVersion
1070
     0
  0
VISUALSTYLE
  5
71D
102
{ACAD_REACTORS
330
2A
102
}
330
2A
100
AcDbVisualStyle
  2
OverhangOff
 70
    21
177
     3
291
     1
 70
    58
 90
        2
176
     0
 90
        2
176
     0
 90
        0
176
     0
 90
        0
176
     0
 40
0.6
176
     0
 40
30.0
176
     0
 62
     7
420
 16777215
176
     0
 90
        1
176
     0
 90
        4
176
     0
 62
     7
176
     0
 62
   257
176
     0
 90
        1
176
     0
 90
        1
176
     0
 40
1.0
176
     0
 90
        9
176
     2
 62
     7
176
     0
 40
1.0
176
     0
 90
        1
176
     0
 90
        6
176
     0
 90
        2
176
     0
 62
     7
176
     0
 90
        5
176
     0
 90
        0
176
     0
 90
        0
176
     0
290
     0
176
     0
 90
        1
176
     0
 40
0.0
176
     0
 90
        0
176
     0
290
     0
176
     1
290
     1
176
     1
290
     1
176
     1
290
     0
176
     1
290
     0
176
     1
290
     0
176
     1
290
     0
176
     1
290
     0
176
     1
290
     0
176
     1
 90
       50
176
     0
 40
0.0
176
     0
 40
1.0
176
     0
 90
        0
176
     0
 62
    18
176
     0
 90
       50
176
     0
 90
        3
176
     0
 62
     5
420
      255
176
     0
290
     0
176
     1
 90
       50
176
     0
 90
       50
176
     0
 90
       50
176
     0
290
     0
176
     1
 90
       50
176
     0
 62
   256
176
     0
 40
1.0
176
     0
 90
        2
176
     0
  1
strokes_ogs.tif
176
     0
290
     0
176
     1
 40
1.0
176
     0
 40
1.0
176
     0
1001
ACAD
1000
AcDbSavedByObjectVersion
1070
     0
  0
VISUALSTYLE
  5
33
102
{ACAD_REACTORS
330
2A
102
}
330
2A
100
AcDbVisualStyle
  2

 70
     8
177
     3
291
     0
 70
    58
 90
        2
176
     1
 90
        2
176
     1
 90
        0
176
     1
 90
        0
176
     1
 40
0.6
176
     1
 40
30.0
176
     1
 62
     7
176
     1
 90
        1
176
     1
 90
        0
176
     1
 62
     7
176
     1
 62
   257
176
     1
 90
        1
176
     1
 90
        1
176
     1
 40
1.0
176
     1
 90
        8
176
     1
 62
     8
176
     1
 40
1.0
176
     1
 90
        1
176
     1
 90
        6
176
     1
 90
        2
176
     1
 62
     7
176
     1
 90
        5
176
     1
 90
        0
176
     1
 90
        0
176
     1
290
     0
176
     1
 90
       13
176
     1
 40
0.0
176
     1
 90
        0
176
     1
290
     0
176
     1
290
     1
176
     1
290
     1
176
     1
290
     0
176
     1
290
     0
176
     1
290
     0
176
     1
290
     0
176
     1
290
     0
176
     1
290
     0
176
     1
 90
       50
176
     1
 40
0.0
176
     1
 40
1.0
176
     1
 90
        0
176
     1
 62
    18
176
     1
 90
       50
176
     1
 90
        3
176
     1
 62
     5
420
      255
176
     1
290
     0
176
     1
 90
       50
176
     1
 90
       50
176
     1
 90
       50
176
     1
290
     0
176
     1
 90
       50
176
     1
 62
   256
176
     0
 40
1.0
176
     0
 90
        2
176
     1
  1
strokes_ogs.tif
176
     1
290
     0
176
     1
 40
1.0
176
     1
 40
1.0
176
     1
1001
ACAD
1000
AcDbSavedByObjectVersion
1070
     0
  0
VISUALSTYLE
  5
71B
102
{ACAD_REACTORS
330
2A
102
}
330
2A
100
AcDbVisualStyle
  2
Shaded
 70
    27
177
     3
291
     0
 70
    58
 90
        2
176
     1
 90
        2
176
     1
 90
        1
176
     1
 90
        2
176
     1
 40
0.6
176
     1
 40
30.0
176
     1
 62
     7
420
 16777215
176
     1
 90
        0
176
     1
 90
        4
176
     1
 62
     7
176
     1
 62
   257
176
     1
 90
        1
176
     1
 90
        1
176
     1
 40
1.0
176
     1
 90
        8
176
     1
 62
   257
176
     1
 40
1.0
176
     1
 90
        1
176
     1
 90
        6
176
     1
 90
        2
176
     1
 62
     8
420
  7895160
176
     1
 90
        3
176
     1
 90
        0
176
     1
 90
        0
176
     1
290
     0
176
     1
 90
        5
176
     1
 40
0.0
176
     1
 90
        0
176
     1
290
     0
176
     1
290
     1
176
     1
290
     1
176
     1
290
     0
176
     1
290
     0
176
     1
290
     0
176
     1
290
     0
176
     1
290
     0
176
     1
290
     0
176
     1
 90
       50
176
     1
 40
0.0
176
     1
 40
1.0
176
     1
 90
        0
176
     1
 62
    18
176
     1
 90
       50
176
     1
 90
        3
176
     1
 62
     5
420
      255
176
     1
290
     0
176
     1
 90
       50
176
     1
 90
       50
176
     1
 90
       50
176
     1
290
     0
176
     1
 90
       50
176
     1
 62
   256
176
     0
 40
1.0
176
     0
 90
        2
176
     1
  1
strokes_ogs.tif
176
     1
290
     0
176
     1
 40
1.0
176
     1
 40
1.0
176
     1
1001
ACAD
1000
AcDbSavedByObjectVersion
1070
     0
  0
VISUALSTYLE
  5
71A
102
{ACAD_REACTORS
330
2A
102
}
330
2A
100
AcDbVisualStyle
  2
Shaded with edges
 70
    26
177
     3
291
     0
 70
    58
 90
        2
176
     1
 90
        2
176
     1
 90
        1
176
     1
 90
        2
176
     1
 40
0.6
176
     1
 40
30.0
176
     1
 62
     7
420
 16777215
176
     1
 90
        1
176
     1
 90
        2
176
     1
 62
     7
176
     1
 62
   257
176
     1
 90
        2
176
     1
 90
        1
176
     1
 40
1.0
176
     1
 90
        8
176
     1
 62
   257
176
     1
 40
1.0
176
     1
 90
        1
176
     1
 90
        6
176
     1
 90
        2
176
     1
 62
     7
176
     1
 90
        3
176
     1
 90
        0
176
     1
 90
        0
176
     1
290
     0
176
     1
 90
        5
176
     1
 40
0.0
176
     1
 90
        0
176
     1
290
     0
176
     1
290
     1
176
     1
290
     1
176
     1
290
     0
176
     1
290
     0
176
     1
290
     0
176
     1
290
     0
176
     1
290
     0
176
     1
290
     0
176
     1
 90
       50
176
     1
 40
0.0
176
     1
 40
1.0
176
     1
 90
        0
176
     1
 62
    18
176
     1
 90
       50
176
     1
 90
        3
176
     1
 62
     5
420
      255
176
     1
290
     0
176
     1
 90
       50
176
     1
 90
       50
176
     1
 90
       50
176
     1
290
     0
176
     1
 90
       50
176
     1
 62
   256
176
     0
 40
1.0
176
     0
 90
        2
176
     1
  1
strokes_ogs.tif
176
     1
290
     0
176
     1
 40
1.0
176
     1
 40
1.0
176
     1
1001
ACAD
1000
AcDbSavedByObjectVersion
1070
     0
  0
VISUALSTYLE
  5
717
102
{ACAD_REACTORS
330
2A
102
}
330
2A
100
AcDbVisualStyle
  2
Shades of Gray
 70
    23
177
     3
291
     0
 70
    58
 90
        2
176
     1
 90
        2
176
     1
 90
        3
176
     1
 90
        0
176
     1
 40
0.6
176
     1
 40
30.0
176
     1
 62
     7
420
 16777215
176
     1
 90
        2
176
     1
 90
        2
176
     1
 62
     7
176
     1
 62
     7
176
     1
 90
        1
176
     1
 90
        1
176
     1
 40
40.0
176
     1
 90
        8
176
     1
 62
     7
176
     1
 40
1.0
176
     1
 90
        1
176
     1
 90
        6
176
     1
 90
        2
176
     1
 62
     7
176
     1
 90
        3
176
     1
 90
        0
176
     1
 90
        0
176
     1
290
     0
176
     1
 90
        1
176
     1
 40
0.0
176
     1
 90
        0
176
     1
290
     0
176
     1
290
     1
176
     1
290
     1
176
     1
290
     0
176
     1
290
     0
176
     1
290
     0
176
     1
290
     0
176
     1
290
     0
176
     1
290
     0
176
     1
 90
       50
176
     1
 40
0.0
176
     1
 40
1.0
176
     1
 90
        0
176
     1
 62
    18
176
     1
 90
       50
176
     1
 90
        3
176
     1
 62
     5
420
      255
176
     1
290
     0
176
     1
 90
       50
176
     1
 90
       50
176
     1
 90
       50
176
     1
290
     0
176
     1
 90
       50
176
     1
 62
   256
176
     0
 40
1.0
176
     0
 90
        2
176
     1
  1
strokes_ogs.tif
176
     1
290
     0
176
     1
 40
1.0
176
     1
 40
1.0
176
     1
1001
ACAD
1000
AcDbSavedByObjectVersion
1070
     0
  0
VISUALSTYLE
  5
718
102
{ACAD_REACTORS
330
2A
102
}
330
2A
100
AcDbVisualStyle
  2
Sketchy
 70
    24
177
     3
291
     0
 70
    58
 90
        1
176
     1
 90
        2
176
     1
 90
        2
176
     1
 90
        0
176
     1
 40
0.6
176
     1
 40
30.0
176
     1
 62
     7
420
 16777215
176
     1
 90
        2
176
     1
 90
        2
176
     1
 62
     7
176
     1
 62
     7
176
     1
 90
        1
176
     1
 90
        1
176
     1
 40
40.0
176
     1
 90
       11
176
     1
 62
     7
176
     1
 40
1.0
176
     1
 90
        1
176
     1
 90
        6
176
     1
 90
        2
176
     1
 62
     7
176
     1
 90
        6
176
     1
 90
        0
176
     1
 90
        0
176
     1
290
     0
176
     1
 90
        1
176
     1
 40
0.0
176
     1
 90
        0
176
     1
290
     0
176
     1
290
     1
176
     1
290
     1
176
     1
290
     0
176
     1
290
     0
176
     1
290
     0
176
     1
290
     0
176
     1
290
     0
176
     1
290
     0
176
     1
 90
       50
176
     1
 40
0.0
176
     1
 40
1.0
176
     1
 90
        0
176
     1
 62
    18
176
     1
 90
       50
176
     1
 90
        3
176
     1
 62
     5
420
      255
176
     1
290
     0
176
     1
 90
       50
176
     1
 90
       50
176
     1
 90
       50
176
     1
290
     0
176
     1
 90
       50
176
     1
 62
   256
176
     0
 40
1.0
176
     0
 90
        2
176
     1
  1
strokes_ogs.tif
176
     1
290
     0
176
     1
 40
1.0
176
     1
 40
1.0
176
     1
1001
ACAD
1000
AcDbSavedByObjectVersion
1070
     0
  0
VISUALSTYLE
  5
37
102
{ACAD_REACTORS
330
2A
102
}
330
2A
100
AcDbVisualStyle
  2

 70
    13
177
     3
291
     1
 70
    58
 90
        2
176
     1
 90
        2
176
     1
 90
        0
176
     1
 90
        0
176
     1
 40
0.6
176
     1
 40
30.0
176
     1
 62
     7
176
     1
 90
        1
176
     1
 90
        4
176
     1
 62
     7
176
     1
 62
   257
176
     1
 90
        1
176
     1
 90
        1
176
     1
 40
1.0
176
     1
 90
       12
176
     1
 62
     7
176
     1
 40
1.0
176
     1
 90
        1
176
     1
 90
        6
176
     1
 90
        2
176
     1
 62
     7
176
     1
 90
        5
176
     1
 90
        0
176
     1
 90
        0
176
     1
290
     0
176
     1
 90
        1
176
     1
 40
0.0
176
     1
 90
        0
176
     1
290
     0
176
     1
290
     1
176
     1
290
     1
176
     1
290
     0
176
     1
290
     0
176
     1
290
     0
176
     1
290
     0
176
     1
290
     0
176
     1
290
     0
176
     1
 90
       50
176
     1
 40
0.0
176
     1
 40
1.0
176
     1
 90
        0
176
     1
 62
    18
176
     1
 90
       50
176
     1
 90
        3
176
     1
 62
     5
420
      255
176
     1
290
     0
176
     1
 90
       50
176
     1
 90
       50
176
     1
 90
       50
176
     1
290
     0
176
     1
 90
       50
176
     1
 62
   256
176
     0
 40
1.0
176
     0
 90
        2
176
     1
  1
strokes_ogs.tif
176
     1
290
     0
176
     1
 40
1.0
176
     1
 40
1.0
176
     1
1001
ACAD
1000
AcDbSavedByObjectVersion
1070
     0
  0
VISUALSTYLE
  5
715
102
{ACAD_REACTORS
330
2A
102
}
330
2A
100
AcDbVisualStyle
  2
Wireframe
 70
     5
177
     3
291
     0
 70
    58
 90
        0
176
     1
 90
        2
176
     1
 90
        0
176
     1
 90
        0
176
     1
 40
0.6
176
     1
 40
30.0
176
     1
 62
     7
420
 16777215
176
     1
 90
        1
176
     1
 90
        4
176
     1
 62
     7
176
     1
 62
   257
176
     1
 90
        1
176
     1
 90
        1
176
     1
 40
1.0
176
     1
 90
        0
176
     1
 62
   257
176
     1
 40
1.0
176
     1
 90
        1
176
     1
 90
        6
176
     1
 90
        2
176
     1
 62
     7
176
     1
 90
        3
176
     1
 90
        0
176
     1
 90
        0
176
     1
290
     0
176
     1
 90
        1
176
     1
 40
0.0
176
     1
 90
        0
176
     1
290
     0
176
     1
290
     1
176
     1
290
     1
176
     1
290
     0
176
     1
290
     0
176
     1
290
     0
176
     1
290
     0
176
     1
290
     0
176
     1
290
     0
176
     1
 90
       50
176
     1
 40
0.0
176
     1
 40
1.0
176
     1
 90
        0
176
     1
 62
    18
176
     1
 90
       50
176
     1
 90
        3
176
     1
 62
     5
420
      255
176
     1
290
     0
176
     1
 90
       50
176
     1
 90
       50
176
     1
 90
       50
176
     1
290
     0
176
     1
 90
       50
176
     1
 62
   256
176
     0
 40
1.0
176
     0
 90
        2
176
     1
  1
strokes_ogs.tif
176
     1
290
     0
176
     1
 40
1.0
176
     1
 40
1.0
176
     1
1001
ACAD
1000
AcDbSavedByObjectVersion
1070
     0
  0
VISUALSTYLE
  5
719
102
{ACAD_REACTORS
330
2A
102
}
330
2A
100
AcDbVisualStyle
  2
X-Ray
 70
    25
177
     3
291
     0
 70
    58
 90
        2
176
     1
 90
        2
176
     1
 90
        1
176
     1
 90
        1
176
     1
 40
0.5
176
     1
 40
30.0
176
     1
 62
     7
420
 16777215
176
     1
 90
        1
176
     1
 90
        0
176
     1
 62
     7
176
     1
 62
   257
176
     1
 90
        1
176
     1
 90
        1
176
     1
 40
1.0
176
     1
 90
        8
176
     1
 62
     7
176
     1
 40
1.0
176
     1
 90
        1
176
     1
 90
        6
176
     1
 90
        2
176
     1
 62
     7
176
     1
 90
        3
176
     1
 90
        0
176
     1
 90
        0
176
     1
290
     0
176
     1
 90
       13
176
     1
 40
0.0
176
     1
 90
        0
176
     1
290
     0
176
     1
290
     1
176
     1
290
     1
176
     1
290
     0
176
     1
290
     0
176
     1
290
     0
176
     1
290
     0
176
     1
290
     0
176
     1
290
     0
176
     1
 90
       50
176
     1
 40
0.0
176
     1
 40
1.0
176
     1
 90
        0
176
     1
 62
    18
176
     1
 90
       50
176
     1
 90
        3
176
     1
 62
     5
420
      255
176
     1
290
     0
176
     1
 90
       50
176
     1
 90
       50
176
     1
 90
       50
176
     1
290
     0
176
     1
 90
       50
176
     1
 62
   256
176
     0
 40
1.0
176
     0
 90
        2
176
     1
  1
strokes_ogs.tif
176
     1
290
     0
176
     1
 40
1.0
176
     1
 40
1.0
176
     1
1001
ACAD
1000
AcDbSavedByObjectVersion
1070
     0
  0
DICTIONARYVAR
  5
8A3
102
{ACAD_REACTORS
330
6E1
102
}
330
6E1
100
DictionaryVariables
280
     0
  1
1:1
  0
DICTIONARYVAR
  5
89F
102
{ACAD_REACTORS
330
6E1
102
}
330
6E1
100
DictionaryVariables
280
     0
  1
STANDARD
  0
DICTIONARYVAR
  5
6E2
102
{ACAD_REACTORS
330
6E1
102
}
330
6E1
100
DictionaryVariables
280
     0
  1
STANDARD
  0
DICTIONARYVAR
  5
8A0
102
{ACAD_REACTORS
330
6E1
102
}
330
6E1
100
DictionaryVariables
280
     0
  1
Metric50
  0
DICTIONARYVAR
  5
8A1
102
{ACAD_REACTORS
330
6E1
102
}
330
6E1
100
DictionaryVariables
280
     0
  1
Metric50
  0
DICTIONARYVAR
  5
703
102
{ACAD_REACTORS
330
6E1
102
}
330
6E1
100
DictionaryVariables
280
     0
  1
1
  0
DICTIONARYVAR
  5
702
102
{ACAD_REACTORS
330
6E1
102
}
330
6E1
100
DictionaryVariables
280
     0
  1
0
  0
DICTIONARYVAR
  5
8A5
102
{ACAD_REACTORS
330
6E1
102
}
330
6E1
100
DictionaryVariables
280
     0
  1
1
  0
DICTIONARYVAR
  5
8A6
102
{ACAD_REACTORS
330
6E1
102
}
330
6E1
100
DictionaryVariables
280
     0
  1
15
  0
DICTIONARYVAR
  5
8A4
102
{ACAD_REACTORS
330
6E1
102
}
330
6E1
100
DictionaryVariables
280
     0
  1
0
  0
DICTIONARYVAR
  5
8A2
102
{ACAD_REACTORS
330
6E1
102
}
330
6E1
100
DictionaryVariables
280
     0
  1
0
  0
DICTIONARYVAR
  5
701
102
{ACAD_REACTORS
330
6E1
102
}
330
6E1
100
DictionaryVariables
280
     0
  1
127
  0
DICTIONARY
  5
9EF
330
997
100
AcDbDictionary
280
     1
281
     1
  3
ACAD_XREC_ROUNDTRIP
360
9F0
  0
DICTIONARY
  5
9EB
330
735
100
AcDbDictionary
280
     1
281
     1
  3
ACAD_XREC_ROUNDTRIP
360
9EC
  0
DICTIONARY
  5
70D
330
6DB
100
AcDbDictionary
280
     1
281
     1
  3
ACAD_XREC_ROUNDTRIP
360
70E
  0
DICTIONARY
  5
70B
330
6DA
100
AcDbDictionary
280
     1
281
     1
  3
ACAD_XREC_ROUNDTRIP
360
70C
  0
DICTIONARY
  5
70F
330
6DC
100
AcDbDictionary
280
     1
281
     1
  3
ACAD_XREC_ROUNDTRIP
360
710
  0
DICTIONARY
  5
9ED
330
996
100
AcDbDictionary
280
     1
281
     1
  3
ACAD_XREC_ROUNDTRIP
360
9EE
  0
DICTIONARY
  5
9E9
330
733
100
AcDbDictionary
280
     1
281
     1
  3
ACAD_XREC_ROUNDTRIP
360
9EA
  0
DICTIONARY
  5
977
330
6DE
100
AcDbDictionary
280
     1
281
     1
  3
ACAD_ROUNDTRIP_2008_TABLESTYLE_CELLSTYLEMAP
360
9E7
  0
XRECORD
  5
9F0
102
{ACAD_REACTORS
330
9EF
102
}
330
9EF
100
AcDbXrecord
280
     1
102
DISPLAYNAME
  1
Imperial24
102
FLAGS
 90
        0
  0
XRECORD
  5
9EC
102
{ACAD_REACTORS
330
9EB
102
}
330
9EB
100
AcDbXrecord
280
     1
102
DISPLAYNAME
  1
Metric50
102
FLAGS
 90
        0
  0
XRECORD
  5
70E
102
{ACAD_REACTORS
330
70D
102
}
330
70D
100
AcDbXrecord
280
     1
102
MATERIAL
148
0.0
149
0.0
149
0.0
 93
        0
 94
       63
282
     0
 72
     1
 77
     1
171
     1
175
     1
179
     1
273
     0
  0
XRECORD
  5
70C
102
{ACAD_REACTORS
330
70B
102
}
330
70B
100
AcDbXrecord
280
     1
102
MATERIAL
148
0.0
149
0.0
149
0.0
 93
        0
 94
       63
282
     0
 72
     1
 77
     1
171
     1
175
     1
179
     1
273
     0
  0
XRECORD
  5
710
102
{ACAD_REACTORS
330
70F
102
}
330
70F
100
AcDbXrecord
280
     1
102
MATERIAL
148
0.0
149
0.0
149
0.0
 93
        0
 94
       63
282
     0
 72
     1
 77
     1
171
     1
175
     1
179
     1
273
     0
  0
XRECORD
  5
9EE
102
{ACAD_REACTORS
330
9ED
102
}
330
9ED
100
AcDbXrecord
280
     1
102
DISPLAYNAME
  1
Imperial24
102
FLAGS
 90
        0
  0
XRECORD
  5
9EA
102
{ACAD_REACTORS
330
9E9
102
}
330
9E9
100
AcDbXrecord
280
     1
102
DISPLAYNAME
  1
Metric50
102
FLAGS
 90
        0
  0
CELLSTYLEMAP
  5
9E7
102
{ACAD_REACTORS
330
977
102
}
330
977
100
AcDbCellStyleMap
 90
        3
300
CELLSTYLE
  1
TABLEFORMAT_BEGIN
 90
        5
170
     1
 91
        0
 92
    32768
 62
   257
 93
        1
300
CONTENTFORMAT
  1
CONTENTFORMAT_BEGIN
 90
        0
 91
        0
 92
      512
 93
        0
300

 40
0.0
140
1.0
 94
        5
 62
     0
340
11
144
6.0
309
CONTENTFORMAT_END
171
     1
301
MARGIN
  1
CELLMARGIN_BEGIN
 40
1.5
 40
1.5
 40
1.5
 40
1.5
 40
0.18
 40
0.18
309
CELLMARGIN_END
 94
        6
 95
        1
302
GRIDFORMAT
  1
GRIDFORMAT_BEGIN
 90
        0
 91
        1
 62
     0
 92
       -2
340
0
 93
        0
 40
0.045
309
GRIDFORMAT_END
 95
        2
302
GRIDFORMAT
  1
GRIDFORMAT_BEGIN
 90
        0
 91
        1
 62
     0
 92
       -2
340
0
 93
        0
 40
0.045
309
GRIDFORMAT_END
 95
        4
302
GRIDFORMAT
  1
GRIDFORMAT_BEGIN
 90
        0
 91
        1
 62
     0
 92
       -2
340
0
 93
        0
 40
0.045
309
GRIDFORMAT_END
 95
        8
302
GRIDFORMAT
  1
GRIDFORMAT_BEGIN
 90
        0
 91
        1
 62
     0
 92
       -2
340
0
 93
        0
 40
0.045
309
GRIDFORMAT_END
 95
       16
302
GRIDFORMAT
  1
GRIDFORMAT_BEGIN
 90
        0
 91
        1
 62
     0
 92
       -2
340
0
 93
        0
 40
0.045
309
GRIDFORMAT_END
 95
       32
302
GRIDFORMAT
  1
GRIDFORMAT_BEGIN
 90
        0
 91
        1
 62
     0
 92
       -2
340
0
 93
        0
 40
0.045
309
GRIDFORMAT_END
309
TABLEFORMAT_END
  1
CELLSTYLE_BEGIN
 90
        1
 91
        1
300
_TITLE
309
CELLSTYLE_END
300
CELLSTYLE
  1
TABLEFORMAT_BEGIN
 90
        5
170
     1
 91
        0
 92
        0
 62
   257
 93
        1
300
CONTENTFORMAT
  1
CONTENTFORMAT_BEGIN
 90
        0
 91
        0
 92
      512
 93
        0
300

 40
0.0
140
1.0
 94
        5
 62
     0
340
11
144
4.5
309
CONTENTFORMAT_END
171
     1
301
MARGIN
  1
CELLMARGIN_BEGIN
 40
1.5
 40
1.5
 40
1.5
 40
1.5
 40
0.18
 40
0.18
309
CELLMARGIN_END
 94
        6
 95
        1
302
GRIDFORMAT
  1
GRIDFORMAT_BEGIN
 90
        0
 91
        1
 62
     0
 92
       -2
340
0
 93
        0
 40
0.045
309
GRIDFORMAT_END
 95
        2
302
GRIDFORMAT
  1
GRIDFORMAT_BEGIN
 90
        0
 91
        1
 62
     0
 92
       -2
340
0
 93
        0
 40
0.045
309
GRIDFORMAT_END
 95
        4
302
GRIDFORMAT
  1
GRIDFORMAT_BEGIN
 90
        0
 91
        1
 62
     0
 92
       -2
340
0
 93
        0
 40
0.045
309
GRIDFORMAT_END
 95
        8
302
GRIDFORMAT
  1
GRIDFORMAT_BEGIN
 90
        0
 91
        1
 62
     0
 92
       -2
340
0
 93
        0
 40
0.045
309
GRIDFORMAT_END
 95
       16
302
GRIDFORMAT
  1
GRIDFORMAT_BEGIN
 90
        0
 91
        1
 62
     0
 92
       -2
340
0
 93
        0
 40
0.045
309
GRIDFORMAT_END
 95
       32
302
GRIDFORMAT
  1
GRIDFORMAT_BEGIN
 90
        0
 91
        1
 62
     0
 92
       -2
340
0
 93
        0
 40
0.045
309
GRIDFORMAT_END
309
TABLEFORMAT_END
  1
CELLSTYLE_BEGIN
 90
        2
 91
        1
300
_HEADER
309
CELLSTYLE_END
300
CELLSTYLE
  1
TABLEFORMAT_BEGIN
 90
        5
170
     1
 91
        0
 92
        0
 62
   257
 93
        1
300
CONTENTFORMAT
  1
CONTENTFORMAT_BEGIN
 90
        0
 91
        0
 92
      512
 93
        0
300

 40
0.0
140
1.0
 94
        2
 62
     0
340
11
144
4.5
309
CONTENTFORMAT_END
171
     1
301
MARGIN
  1
CELLMARGIN_BEGIN
 40
1.5
 40
1.5
 40
1.5
 40
1.5
 40
0.18
 40
0.18
309
CELLMARGIN_END
 94
        6
 95
        1
302
GRIDFORMAT
  1
GRIDFORMAT_BEGIN
 90
        0
 91
        1
 62
     0
 92
       -2
340
0
 93
        0
 40
0.045
309
GRIDFORMAT_END
 95
        2
302
GRIDFORMAT
  1
GRIDFORMAT_BEGIN
 90
        0
 91
        1
 62
     0
 92
       -2
340
0
 93
        0
 40
0.045
309
GRIDFORMAT_END
 95
        4
302
GRIDFORMAT
  1
GRIDFORMAT_BEGIN
 90
        0
 91
        1
 62
     0
 92
       -2
340
0
 93
        0
 40
0.045
309
GRIDFORMAT_END
 95
        8
302
GRIDFORMAT
  1
GRIDFORMAT_BEGIN
 90
        0
 91
        1
 62
     0
 92
       -2
340
0
 93
        0
 40
0.045
309
GRIDFORMAT_END
 95
       16
302
GRIDFORMAT
  1
GRIDFORMAT_BEGIN
 90
        0
 91
        1
 62
     0
 92
       -2
340
0
 93
        0
 40
0.045
309
GRIDFORMAT_END
 95
       32
302
GRIDFORMAT
  1
GRIDFORMAT_BEGIN
 90
        0
 91
        1
 62
     0
 92
       -2
340
0
 93
        0
 40
0.045
309
GRIDFORMAT_END
309
TABLEFORMAT_END
  1
CELLSTYLE_BEGIN
 90
        3
 91
        2
300
_DATA
309
CELLSTYLE_END
  0
ENDSEC
  0
EOF
