  0
SECTION
  2
HEADER
  9
$ACADVER
  1
AC1015
  9
$ACADMAINTVER
 70
    20
  9
$DWGCODEPAGE
  3
ANSI_1252
  9
$INSBASE
 10
0.0
 20
0.0
 30
0.0
  9
$EXTMIN
 10
122.208357931222
 20
49.041831561058
 30
-184.213398
  9
$EXTMAX
 10
1533.917338690973
 20
951.3272064569919
 30
564.5021810000002
  9
$LIMMIN
 10
0.0
 20
0.0
  9
$LIMMAX
 10
420.0
 20
297.0
  9
$ORTHOMODE
 70
     0
  9
$REGENMODE
 70
     1
  9
$FILLMODE
 70
     1
  9
$QTEXTMODE
 70
     0
  9
$MIRRTEXT
 70
     0
  9
$LTSCALE
 40
1.0
  9
$ATTMODE
 70
     1
  9
$TEXTSIZE
 40
2.5
  9
$TRACEWID
 40
1.0
  9
$TEXTSTYLE
  7
Standard
  9
$CLAYER
  8
0
  9
$CELTYPE
  6
ByLayer
  9
$CECOLOR
 62
     1
  9
$CELTSCALE
 40
1.0
  9
$DISPSILH
 70
     0
  9
$DIMSCALE
 40
1.0
  9
$DIMASZ
 40
2.5
  9
$DIMEXO
 40
0.625
  9
$DIMDLI
 40
3.75
  9
$DIMRND
 40
0.0
  9
$DIMDLE
 40
0.0
  9
$DIMEXE
 40
1.25
  9
$DIMTP
 40
0.0
  9
$DIMTM
 40
0.0
  9
$DIMTXT
 40
2.5
  9
$DIMCEN
 40
2.5
  9
$DIMTSZ
 40
0.0
  9
$DIMTOL
 70
     0
  9
$DIMLIM
 70
     0
  9
$DIMTIH
 70
     0
  9
$DIMTOH
 70
     0
  9
$DIMSE1
 70
     0
  9
$DIMSE2
 70
     0
  9
$DIMTAD
 70
     1
  9
$DIMZIN
 70
     8
  9
$DIMBLK
  1

  9
$DIMASO
 70
     1
  9
$DIMSHO
 70
     1
  9
$DIMPOST
  1

  9
$DIMAPOST
  1

  9
$DIMALT
 70
     0
  9
$DIMALTD
 70
     3
  9
$DIMALTF
 40
0.03937007874016
  9
$DIMLFAC
 40
1.0
  9
$DIMTOFL
 70
     1
  9
$DIMTVP
 40
0.0
  9
$DIMTIX
 70
     0
  9
$DIMSOXD
 70
     0
  9
$DIMSAH
 70
     0
  9
$DIMBLK1
  1

  9
$DIMBLK2
  1

  9
$DIMSTYLE
  2
ISO-25
  9
$DIMCLRD
 70
     0
  9
$DIMCLRE
 70
     0
  9
$DIMCLRT
 70
     0
  9
$DIMTFAC
 40
1.0
  9
$DIMGAP
 40
0.625
  9
$DIMJUST
 70
     0
  9
$DIMSD1
 70
     0
  9
$DIMSD2
 70
     0
  9
$DIMTOLJ
 70
     0
  9
$DIMTZIN
 70
     8
  9
$DIMALTZ
 70
     0
  9
$DIMALTTZ
 70
     0
  9
$DIMUPT
 70
     0
  9
$DIMDEC
 70
     2
  9
$DIMTDEC
 70
     2
  9
$DIMALTU
 70
     2
  9
$DIMALTTD
 70
     3
  9
$DIMTXSTY
  7
Standard
  9
$DIMAUNIT
 70
     0
  9
$DIMADEC
 70
     0
  9
$DIMALTRND
 40
0.0
  9
$DIMAZIN
 70
     0
  9
$DIMDSEP
 70
    44
  9
$DIMATFIT
 70
     3
  9
$DIMFRAC
 70
     0
  9
$DIMLDRBLK
  1

  9
$DIMLUNIT
 70
     2
  9
$DIMLWD
 70
    -2
  9
$DIMLWE
 70
    -2
  9
$DIMTMOVE
 70
     0
  9
$LUNITS
 70
     2
  9
$LUPREC
 70
     4
  9
$SKETCHINC
 40
1.0
  9
$FILLETRAD
 40
0.0
  9
$AUNITS
 70
     0
  9
$AUPREC
 70
     0
  9
$MENU
  1
.
  9
$ELEVATION
 40
0.0
  9
$PELEVATION
 40
0.0
  9
$THICKNESS
 40
0.0
  9
$LIMCHECK
 70
     0
  9
$CHAMFERA
 40
0.0
  9
$CHAMFERB
 40
0.0
  9
$CHAMFERC
 40
0.0
  9
$CHAMFERD
 40
0.0
  9
$SKPOLY
 70
     0
  9
$TDCREATE
 40
2454768.552548658
  9
$TDUCREATE
 40
2454768.469215324
  9
$TDUPDATE
 40
2455733.476469815
  9
$TDUUPDATE
 40
2455733.393136481
  9
$TDINDWG
 40
0.0535383218
  9
$TDUSRTIMER
 40
0.0535374190
  9
$USRTIMER
 70
     1
  9
$ANGBASE
 50
0.0
  9
$ANGDIR
 70
     0
  9
$PDMODE
 70
     0
  9
$PDSIZE
 40
0.0
  9
$PLINEWID
 40
0.0
  9
$SPLFRAME
 70
     0
  9
$SPLINETYPE
 70
     6
  9
$SPLINESEGS
 70
     8
  9
$HANDSEED
  5
C11
  9
$SURFTAB1
 70
     6
  9
$SURFTAB2
 70
     6
  9
$SURFTYPE
 70
     6
  9
$SURFU
 70
     6
  9
$SURFV
 70
     6
  9
$UCSBASE
  2

  9
$UCSNAME
  2

  9
$UCSORG
 10
0.0
 20
0.0
 30
0.0
  9
$UCSXDIR
 10
1.0
 20
0.0
 30
0.0
  9
$UCSYDIR
 10
0.0
 20
1.0
 30
0.0
  9
$UCSORTHOREF
  2

  9
$UCSORTHOVIEW
 70
     0
  9
$UCSORGTOP
 10
0.0
 20
0.0
 30
0.0
  9
$UCSORGBOTTOM
 10
0.0
 20
0.0
 30
0.0
  9
$UCSORGLEFT
 10
0.0
 20
0.0
 30
0.0
  9
$UCSORGRIGHT
 10
0.0
 20
0.0
 30
0.0
  9
$UCSORGFRONT
 10
0.0
 20
0.0
 30
0.0
  9
$UCSORGBACK
 10
0.0
 20
0.0
 30
0.0
  9
$PUCSBASE
  2

  9
$PUCSNAME
  2

  9
$PUCSORG
 10
0.0
 20
0.0
 30
0.0
  9
$PUCSXDIR
 10
1.0
 20
0.0
 30
0.0
  9
$PUCSYDIR
 10
0.0
 20
1.0
 30
0.0
  9
$PUCSORTHOREF
  2

  9
$PUCSORTHOVIEW
 70
     0
  9
$PUCSORGTOP
 10
0.0
 20
0.0
 30
0.0
  9
$PUCSORGBOTTOM
 10
0.0
 20
0.0
 30
0.0
  9
$PUCSORGLEFT
 10
0.0
 20
0.0
 30
0.0
  9
$PUCSORGRIGHT
 10
0.0
 20
0.0
 30
0.0
  9
$PUCSORGFRONT
 10
0.0
 20
0.0
 30
0.0
  9
$PUCSORGBACK
 10
0.0
 20
0.0
 30
0.0
  9
$USERI1
 70
     0
  9
$USERI2
 70
     0
  9
$USERI3
 70
     0
  9
$USERI4
 70
     0
  9
$USERI5
 70
     0
  9
$USERR1
 40
0.0
  9
$USERR2
 40
0.0
  9
$USERR3
 40
0.0
  9
$USERR4
 40
0.0
  9
$USERR5
 40
0.0
  9
$WORLDVIEW
 70
     1
  9
$SHADEDGE
 70
     3
  9
$SHADEDIF
 70
    70
  9
$TILEMODE
 70
     1
  9
$MAXACTVP
 70
    64
  9
$PINSBASE
 10
0.0
 20
0.0
 30
0.0
  9
$PLIMCHECK
 70
     0
  9
$PEXTMIN
 10
0.0
 20
0.0
 30
0.0
  9
$PEXTMAX
 10
0.0
 20
0.0
 30
0.0
  9
$PLIMMIN
 10
0.0
 20
0.0
  9
$PLIMMAX
 10
12.0
 20
9.0
  9
$UNITMODE
 70
     0
  9
$VISRETAIN
 70
     1
  9
$PLINEGEN
 70
     0
  9
$PSLTSCALE
 70
     1
  9
$TREEDEPTH
 70
  3020
  9
$CMLSTYLE
  2
Standard
  9
$CMLJUST
 70
     0
  9
$CMLSCALE
 40
20.0
  9
$PROXYGRAPHICS
 70
     1
  9
$MEASUREMENT
 70
     1
  9
$CELWEIGHT
370
    -1
  9
$ENDCAPS
280
     0
  9
$JOINSTYLE
280
     0
  9
$LWDISPLAY
290
     0
  9
$INSUNITS
 70
     4
  9
$HYPERLINKBASE
  1

  9
$STYLESHEET
  1

  9
$XEDIT
290
     1
  9
$CEPSNTYPE
380
     0
  9
$PSTYLEMODE
290
     1
  9
$FINGERPRINTGUID
  2
{A9F5D530-972F-4813-857A-78B9B08CAD27}
  9
$VERSIONGUID
  2
{8B4C9E3E-FC29-4889-8458-4D27630F2592}
  9
$EXTNAMES
290
     1
  9
$PSVPSCALE
 40
0.0
  9
$OLESTARTUP
290
     0
  0
ENDSEC
  0
SECTION
  2
CLASSES
  0
CLASS
  1
ACDBDICTIONARYWDFLT
  2
AcDbDictionaryWithDefault
  3
ObjectDBX Classes
 90
        0
280
     0
281
     0
  0
CLASS
  1
DICTIONARYVAR
  2
AcDbDictionaryVar
  3
ObjectDBX Classes
 90
        0
280
     0
281
     0
  0
CLASS
  1
TABLESTYLE
  2
AcDbTableStyle
  3
ObjectDBX Classes
 90
     4095
280
     0
281
     0
  0
CLASS
  1
MATERIAL
  2
AcDbMaterial
  3
ObjectDBX Classes
 90
     1024
280
     0
281
     0
  0
CLASS
  1
VISUALSTYLE
  2
AcDbVisualStyle
  3
ObjectDBX Classes
 90
     4095
280
     0
281
     0
  0
CLASS
  1
SORTENTSTABLE
  2
AcDbSortentsTable
  3
ObjectDBX Classes
 90
        0
280
     0
281
     0
  0
CLASS
  1
DIMASSOC
  2
AcDbDimAssoc
  3
"AcDbDimAssoc|Product Desc:     AcDim ARX App For Dimension|Company:          Autodesk, Inc.|WEB Address:      www.autodesk.com"
 90
        0
280
     0
281
     0
  0
CLASS
  1
ACDBPLACEHOLDER
  2
AcDbPlaceHolder
  3
ObjectDBX Classes
 90
        0
280
     0
281
     0
  0
CLASS
  1
LAYOUT
  2
AcDbLayout
  3
ObjectDBX Classes
 90
        0
280
     0
281
     0
  0
ENDSEC
  0
SECTION
  2
TABLES
  0
TABLE
  2
VPORT
  5
8
330
0
100
AcDbSymbolTable
 70
     1
  0
VPORT
  5
EA
330
8
100
AcDbSymbolTableRecord
100
AcDbViewportTableRecord
  2
*Active
 70
     0
 10
0.0
 20
0.0
 11
1.0
 21
1.0
 12
967.6611442911143
 22
410.9844225650386
 13
0.0
 23
0.0
 14
10.0
 24
10.0
 15
10.0
 25
10.0
 16
0.0
 26
0.0
 36
1.0
 17
0.0
 27
0.0
 37
0.0
 40
1337.121908316907
 41
1.875766871165644
 42
50.0
 43
0.0
 44
0.0
 50
0.0
 51
0.0
 71
     0
 72
  1000
 73
     1
 74
     3
 75
     0
 76
     0
 77
     0
 78
     0
281
     0
 65
     1
110
0.0
120
0.0
130
0.0
111
1.0
121
0.0
131
0.0
112
0.0
122
1.0
132
0.0
 79
     0
146
0.0
  0
ENDTAB
  0
TABLE
  2
LTYPE
  5
5
330
0
100
AcDbSymbolTable
 70
     1
  0
LTYPE
  5
14
330
5
100
AcDbSymbolTableRecord
100
AcDbLinetypeTableRecord
  2
ByBlock
 70
     0
  3

 72
    65
 73
     0
 40
0.0
  0
LTYPE
  5
15
330
5
100
AcDbSymbolTableRecord
100
AcDbLinetypeTableRecord
  2
ByLayer
 70
     0
  3

 72
    65
 73
     0
 40
0.0
  0
LTYPE
  5
16
330
5
100
AcDbSymbolTableRecord
100
AcDbLinetypeTableRecord
  2
Continuous
 70
     0
  3
Solid line
 72
    65
 73
     0
 40
0.0
  0
ENDTAB
  0
TABLE
  2
LAYER
  5
2
102
{ACAD_XDICTIONARY
360
141
102
}
330
0
100
AcDbSymbolTable
 70
     3
  0
LAYER
  5
10
330
2
100
AcDbSymbolTableRecord
100
AcDbLayerTableRecord
  2
0
 70
     0
 62
     7
  6
Continuous
370
    -3
390
F
  0
LAYER
  5
124
330
2
100
AcDbSymbolTableRecord
100
AcDbLayerTableRecord
  2
Defpoints
 70
     0
 62
     7
  6
Continuous
290
     0
370
    -3
390
F
  0
LAYER
  5
13E
330
2
100
AcDbSymbolTableRecord
100
AcDbLayerTableRecord
  2
Hewi
 70
     0
 62
     7
  6
Continuous
370
    -3
390
F
  0
ENDTAB
  0
TABLE
  2
STYLE
  5
3
330
0
100
AcDbSymbolTable
 70
     1
  0
STYLE
  5
11
330
3
100
AcDbSymbolTableRecord
100
AcDbTextStyleTableRecord
  2
Standard
 70
     0
 40
0.0
 41
1.0
 50
0.0
 71
     0
 42
2.5
  3
txt
  4

  0
ENDTAB
  0
TABLE
  2
VIEW
  5
6
330
0
100
AcDbSymbolTable
 70
     0
  0
ENDTAB
  0
TABLE
  2
UCS
  5
7
330
0
100
AcDbSymbolTable
 70
     0
  0
ENDTAB
  0
TABLE
  2
APPID
  5
9
330
0
100
AcDbSymbolTable
 70
     3
  0
APPID
  5
12
330
9
100
AcDbSymbolTableRecord
100
AcDbRegAppTableRecord
  2
ACAD
 70
     0
  0
APPID
  5
9E
330
9
100
AcDbSymbolTableRecord
100
AcDbRegAppTableRecord
  2
ACAD_PSEXT
 70
     0
  0
APPID
  5
212
330
9
100
AcDbSymbolTableRecord
100
AcDbRegAppTableRecord
  2
ACAD_EXEMPT_FROM_CAD_STANDARDS
 70
     0
  0
ENDTAB
  0
TABLE
  2
DIMSTYLE
  5
A
330
0
100
AcDbSymbolTable
 70
     2
100
AcDbDimStyleTable
 71
     1
340
27
  0
DIMSTYLE
105
27
102
{ACAD_REACTORS
330
AF2
330
B52
330
B97
330
BD3
102
}
330
A
100
AcDbSymbolTableRecord
100
AcDbDimStyleTableRecord
  2
ISO-25
 70
     0
 41
2.5
 42
0.625
 43
3.75
 44
1.25
 73
     0
 74
     0
 77
     1
 78
     8
140
2.5
141
2.5
143
0.03937007874016
147
0.625
171
     3
172
     1
271
     2
272
     2
274
     3
278
    44
283
     0
284
     8
340
11
  0
DIMSTYLE
105
263
330
A
100
AcDbSymbolTableRecord
100
AcDbDimStyleTableRecord
  2
Standard
 70
     0
340
11
  0
ENDTAB
  0
TABLE
  2
BLOCK_RECORD
  5
1
330
0
100
AcDbSymbolTable
 70
     5
  0
BLOCK_RECORD
  5
1F
102
{ACAD_XDICTIONARY
360
116
102
}
330
1
100
AcDbSymbolTableRecord
100
AcDbBlockTableRecord
  2
*Model_Space
340
22
  0
BLOCK_RECORD
  5
D2
330
1
100
AcDbSymbolTableRecord
100
AcDbBlockTableRecord
  2
*Paper_Space
340
D3
  0
BLOCK_RECORD
  5
D6
330
1
100
AcDbSymbolTableRecord
100
AcDbBlockTableRecord
  2
*Paper_Space0
340
D7
  0
BLOCK_RECORD
  5
AF3
330
1
100
AcDbSymbolTableRecord
100
AcDbBlockTableRecord
  2
*D1
340
0
  0
BLOCK_RECORD
  5
B53
330
1
100
AcDbSymbolTableRecord
100
AcDbBlockTableRecord
  2
*D2
340
0
  0
BLOCK_RECORD
  5
B98
330
1
100
AcDbSymbolTableRecord
100
AcDbBlockTableRecord
  2
*D3
340
0
  0
BLOCK_RECORD
  5
BD4
330
1
100
AcDbSymbolTableRecord
100
AcDbBlockTableRecord
  2
*D4
340
0
  0
ENDTAB
  0
ENDSEC
  0
SECTION
  2
BLOCKS
  0
BLOCK
  5
20
330
1F
100
AcDbEntity
  8
0
100
AcDbBlockBegin
  2
*Model_Space
 70
     0
 10
0.0
 20
0.0
 30
0.0
  3
*Model_Space
  1

  0
ENDBLK
  5
21
330
1F
100
AcDbEntity
  8
0
100
AcDbBlockEnd
  0
BLOCK
  5
D4
330
D2
100
AcDbEntity
 67
     1
  8
0
100
AcDbBlockBegin
  2
*Paper_Space
 70
     0
 10
0.0
 20
0.0
 30
0.0
  3
*Paper_Space
  1

  0
ENDBLK
  5
D5
330
D2
100
AcDbEntity
 67
     1
  8
0
100
AcDbBlockEnd
  0
BLOCK
  5
D8
330
D6
100
AcDbEntity
 67
     1
  8
0
100
AcDbBlockBegin
  2
*Paper_Space0
 70
     0
 10
0.0
 20
0.0
 30
0.0
  3
*Paper_Space0
  1

  0
ENDBLK
  5
D9
330
D6
100
AcDbEntity
 67
     1
  8
0
100
AcDbBlockEnd
  0
BLOCK
  5
AFD
330
AF3
100
AcDbEntity
  8
0
 62
     1
100
AcDbBlockBegin
  2
*D1
 70
     1
 10
0.0
 20
0.0
 30
0.0
  3
*D1
  1

  0
LINE
  5
B7C
330
AF3
100
AcDbEntity
  8
0
 62
     0
370
    -2
100
AcDbLine
 10
465.6107827445697
 20
669.7451439754716
 30
0.0
 11
465.6107827445697
 21
929.5772064569918
 31
0.0
  0
LINE
  5
B7D
330
AF3
100
AcDbEntity
  8
0
 62
     0
370
    -2
100
AcDbLine
 10
1115.615144744569
 20
669.7451439754711
 30
0.0
 11
1115.615144744569
 21
929.5772064569918
 31
0.0
  0
LINE
  5
B7E
330
AF3
100
AcDbEntity
  8
0
 62
     0
370
    -2
100
AcDbLine
 10
475.6107827445696
 20
928.3272064569919
 30
0.0
 11
1105.615144744569
 21
928.3272064569919
 31
0.0
  0
SOLID
  5
B7F
330
AF3
100
AcDbEntity
  8
0
 62
     0
100
AcDbTrace
 10
475.6107827445696
 20
929.9938731236585
 30
0.0
 11
475.6107827445696
 21
926.6605397903253
 31
0.0
 12
465.6107827445697
 22
928.3272064569919
 32
0.0
 13
465.6107827445697
 23
928.3272064569919
 33
0.0
  0
SOLID
  5
B80
330
AF3
100
AcDbEntity
  8
0
 62
     0
100
AcDbTrace
 10
1105.615144744569
 20
929.9938731236585
 30
0.0
 11
1105.615144744569
 21
926.6605397903253
 31
0.0
 12
1115.615144744569
 22
928.3272064569919
 32
0.0
 13
1115.615144744569
 23
928.3272064569919
 33
0.0
  0
MTEXT
  5
B81
330
AF3
100
AcDbEntity
  8
0
 62
     0
100
AcDbMText
 10
790.6129637445692
 20
943.8272064569918
 30
0.0
 40
15.0
 41
0.0
 71
     5
 72
     1
  1
650 (700)
 73
     1
 44
1.0
1001
ACAD
1000
MTEXTBEGIN
1070
    73
1070
     1
1070
    44
1040
1.0
1070
    74
1070
     0
1000
MTEXTEND
  0
POINT
  5
B82
330
AF3
100
AcDbEntity
  8
Defpoints
 62
     0
100
AcDbPoint
 10
465.6107827445697
 20
669.1201439754715
 30
-0.0000000000000104
  0
POINT
  5
B83
330
AF3
100
AcDbEntity
  8
Defpoints
 62
     0
100
AcDbPoint
 10
1115.615144744569
 20
669.1201439754711
 30
-0.0000000000000104
  0
POINT
  5
B84
330
AF3
100
AcDbEntity
  8
Defpoints
 62
     0
100
AcDbPoint
 10
1115.615144744569
 20
928.3272064569919
 30
0.0
  0
ENDBLK
  5
AFE
330
AF3
100
AcDbEntity
  8
0
 62
     1
100
AcDbBlockEnd
  0
BLOCK
  5
B5D
330
B53
100
AcDbEntity
  8
0
 62
     1
100
AcDbBlockBegin
  2
*D2
 70
     1
 10
0.0
 20
0.0
 30
0.0
  3
*D2
  1

  0
LINE
  5
B8E
330
B53
100
AcDbEntity
  8
0
 62
     0
370
    -2
100
AcDbLine
 10
615.6129637445697
 20
813.0408535604948
 30
0.0
 11
615.6129637445697
 21
876.1847341852462
 31
0.0
  0
LINE
  5
B8F
330
B53
100
AcDbEntity
  8
0
 62
     0
370
    -2
100
AcDbLine
 10
965.6129637445706
 20
812.93392763534
 30
0.0
 11
965.6129637445706
 21
876.1847341852462
 31
0.0
  0
LINE
  5
B90
330
B53
100
AcDbEntity
  8
0
 62
     0
370
    -2
100
AcDbLine
 10
625.6129637445698
 20
874.9347341852462
 30
0.0
 11
955.6129637445705
 21
874.9347341852462
 31
0.0
  0
SOLID
  5
B91
330
B53
100
AcDbEntity
  8
0
 62
     0
100
AcDbTrace
 10
625.6129637445698
 20
876.6014008519128
 30
0.0
 11
625.6129637445698
 21
873.2680675185797
 31
0.0
 12
615.6129637445697
 22
874.9347341852462
 32
0.0
 13
615.6129637445697
 23
874.9347341852462
 33
0.0
  0
SOLID
  5
B92
330
B53
100
AcDbEntity
  8
0
 62
     0
100
AcDbTrace
 10
955.6129637445705
 20
876.6014008519128
 30
0.0
 11
955.6129637445705
 21
873.2680675185797
 31
0.0
 12
965.6129637445706
 22
874.9347341852462
 32
0.0
 13
965.6129637445706
 23
874.9347341852462
 33
0.0
  0
MTEXT
  5
B93
330
B53
100
AcDbEntity
  8
0
 62
     0
100
AcDbMText
 10
790.6129637445701
 20
890.4347341852462
 30
0.0
 40
15.0
 41
0.0
 71
     5
 72
     1
  1
350
 73
     1
 44
1.0
1001
ACAD
1000
MTEXTBEGIN
1070
    73
1070
     1
1070
    44
1040
1.0
1070
    74
1070
     0
1000
MTEXTEND
  0
POINT
  5
B94
330
B53
100
AcDbEntity
  8
Defpoints
 62
     0
100
AcDbPoint
 10
615.6129637445697
 20
812.4158535604946
 30
138.9738018157038
  0
POINT
  5
B95
330
B53
100
AcDbEntity
  8
Defpoints
 62
     0
100
AcDbPoint
 10
965.6129637445706
 20
812.30892763534
 30
129.7631636096727
  0
POINT
  5
B96
330
B53
100
AcDbEntity
  8
Defpoints
 62
     0
100
AcDbPoint
 10
965.6129637445706
 20
874.9347341852462
 30
0.0
  0
ENDBLK
  5
B5E
330
B53
100
AcDbEntity
  8
0
 62
     1
100
AcDbBlockEnd
  0
BLOCK
  5
BA2
330
B98
100
AcDbEntity
  8
0
 62
     1
100
AcDbBlockBegin
  2
*D3
 70
     1
 10
0.0
 20
0.0
 30
0.0
  3
*D3
  1

  0
LINE
  5
BCA
330
B98
100
AcDbEntity
  8
0
 62
     0
370
    -2
100
AcDbLine
 10
1470.128447845
 20
809.6107968705782
 30
0.0
 11
1533.500672024306
 21
809.6107968705782
 31
0.0
  0
LINE
  5
BCB
330
B98
100
AcDbEntity
  8
0
 62
     0
370
    -2
100
AcDbLine
 10
1479.055657327263
 20
419.6718836165348
 30
0.0
 11
1533.500672024306
 21
419.6718836165348
 31
0.0
  0
LINE
  5
BCC
330
B98
100
AcDbEntity
  8
0
 62
     0
370
    -2
100
AcDbLine
 10
1532.250672024306
 20
799.6107968705782
 30
0.0
 11
1532.250672024306
 21
429.6718836165348
 31
0.0
  0
SOLID
  5
BCD
330
B98
100
AcDbEntity
  8
0
 62
     0
100
AcDbTrace
 10
1530.58400535764
 20
799.6107968705782
 30
0.0
 11
1533.917338690973
 21
799.6107968705782
 31
0.0
 12
1532.250672024306
 22
809.6107968705782
 32
0.0
 13
1532.250672024306
 23
809.6107968705782
 33
0.0
  0
SOLID
  5
BCE
330
B98
100
AcDbEntity
  8
0
 62
     0
100
AcDbTrace
 10
1530.58400535764
 20
429.6718836165348
 30
0.0
 11
1533.917338690973
 21
429.6718836165348
 31
0.0
 12
1532.250672024306
 22
419.6718836165348
 32
0.0
 13
1532.250672024306
 23
419.6718836165348
 33
0.0
  0
MTEXT
  5
BCF
330
B98
100
AcDbEntity
  8
0
 62
     0
100
AcDbMText
 10
1516.750672024306
 20
614.6413402435568
 30
0.0
 40
15.0
 41
0.0
 71
     5
 72
     1
  1
390
 11
0.0000000000000001
 21
1.0
 31
0.0
 73
     1
 44
1.0
1001
ACAD
1000
MTEXTBEGIN
1070
    73
1070
     1
1070
    44
1040
1.0
1070
    74
1070
     0
1000
MTEXTEND
  0
POINT
  5
BD0
330
B98
100
AcDbEntity
  8
Defpoints
 62
     0
100
AcDbPoint
 10
1469.503447845
 20
809.6107968705782
 30
219.502181
  0
POINT
  5
BD1
330
B98
100
AcDbEntity
  8
Defpoints
 62
     0
100
AcDbPoint
 10
1478.430657327263
 20
419.6718836165348
 30
219.502181
  0
POINT
  5
BD2
330
B98
100
AcDbEntity
  8
Defpoints
 62
     0
100
AcDbPoint
 10
1532.250672024306
 20
419.6718836165348
 30
0.0
  0
ENDBLK
  5
BA3
330
B98
100
AcDbEntity
  8
0
 62
     1
100
AcDbBlockEnd
  0
BLOCK
  5
BDE
330
BD4
100
AcDbEntity
  8
0
 62
     1
100
AcDbBlockBegin
  2
*D4
 70
     1
 10
0.0
 20
0.0
 30
0.0
  3
*D4
  1

  0
LINE
  5
BFD
330
BD4
100
AcDbEntity
  8
0
 62
     0
370
    -2
100
AcDbLine
 10
1192.449013725655
 20
49.07366760431401
 30
0.0
 11
1221.166853986999
 21
49.07366760431401
 31
0.0
  0
LINE
  5
BFE
330
BD4
100
AcDbEntity
  8
0
 62
     0
370
    -2
100
AcDbLine
 10
1193.660331124913
 20
197.5736676043141
 30
0.0
 11
1221.166853986999
 21
197.573667604314
 31
0.0
  0
LINE
  5
BFF
330
BD4
100
AcDbEntity
  8
0
 62
     0
370
    -2
100
AcDbLine
 10
1219.916853987
 20
59.07366760431401
 30
0.0
 11
1219.916853987
 21
187.573667604314
 31
0.0
  0
SOLID
  5
C00
330
BD4
100
AcDbEntity
  8
0
 62
     0
100
AcDbTrace
 10
1218.250187320333
 20
59.07366760431401
 30
0.0
 11
1221.583520653666
 21
59.07366760431401
 31
0.0
 12
1219.916853987
 22
49.07366760431401
 32
0.0
 13
1219.916853987
 23
49.07366760431401
 33
0.0
  0
SOLID
  5
C01
330
BD4
100
AcDbEntity
  8
0
 62
     0
100
AcDbTrace
 10
1218.250187320333
 20
187.573667604314
 30
0.0
 11
1221.583520653666
 21
187.573667604314
 31
0.0
 12
1219.916853987
 22
197.573667604314
 32
0.0
 13
1219.916853987
 23
197.573667604314
 33
0.0
  0
MTEXT
  5
C02
330
BD4
100
AcDbEntity
  8
0
 62
     0
100
AcDbMText
 10
1203.166853986999
 20
123.3236676043142
 30
0.0
 40
15.0
 41
0.0
 71
     5
 72
     1
  1
148,5
 11
0.0000000000000001
 21
1.0
 31
0.0
 73
     1
 44
1.0
1001
ACAD
1000
MTEXTBEGIN
1070
    73
1070
     1
1070
    44
1040
1.0
1070
    74
1070
     0
1000
MTEXTEND
  0
POINT
  5
C03
330
BD4
100
AcDbEntity
  8
Defpoints
 62
     0
100
AcDbPoint
 10
1191.824013725655
 20
49.07366760431401
 30
51.24019299999996
  0
POINT
  5
C04
330
BD4
100
AcDbEntity
  8
Defpoints
 62
     0
100
AcDbPoint
 10
1193.035331124913
 20
197.5736676043141
 30
-4.983218361783634
  0
POINT
  5
C05
330
BD4
100
AcDbEntity
  8
Defpoints
 62
     0
100
AcDbPoint
 10
1219.916853987
 20
197.573667604314
 30
0.0
  0
ENDBLK
  5
BDF
330
BD4
100
AcDbEntity
  8
0
 62
     1
100
AcDbBlockEnd
  0
ENDSEC
  0
SECTION
  2
ENTITIES
  0
LINE
  5
284
330
1F
100
AcDbEntity
  8
Hewi
100
AcDbLine
 10
615.6129637445697
 20
625.1593710910142
 30
143.236319711461
 11
406.1297683217174
 21
625.1593710910143
 31
3.351485842260784
  0
LINE
  5
285
330
1F
100
AcDbEntity
  8
Hewi
100
AcDbLine
 10
401.1107827445696
 20
619.874363823492
 30
0.0000000000000017
 11
401.1107827445696
 21
450.4593710910174
 31
0.0000000000000001
  0
LINE
  5
286
330
1F
100
AcDbEntity
  8
Hewi
100
AcDbLine
 10
406.4107827445696
 20
445.1593710910176
 30
3.443223461929761
 11
615.6129637445697
 21
445.1593710910173
 31
139.3545174064725
  0
CIRCLE
  5
287
330
1F
100
AcDbEntity
  8
Hewi
100
AcDbCircle
 10
465.6107827445697
 20
460.6593710910176
 30
-0.0000000000000104
 40
5.5
  0
CIRCLE
  5
288
330
1F
100
AcDbEntity
  8
Hewi
100
AcDbCircle
 10
512.6107827445696
 20
473.6593710910177
 30
-0.000000000000018
 40
5.5
  0
CIRCLE
  5
289
330
1F
100
AcDbEntity
  8
Hewi
100
AcDbCircle
 10
512.6107827445697
 20
596.6593710910176
 30
-0.000000000000018
 40
5.5
  0
CIRCLE
  5
28A
330
1F
100
AcDbEntity
  8
Hewi
100
AcDbCircle
 10
465.6107827445697
 20
609.6593710910176
 30
-0.0000000000000104
 40
5.5
  0
CIRCLE
  5
28B
330
1F
100
AcDbEntity
  8
Hewi
100
AcDbCircle
 10
418.6107827445696
 20
596.6593710910176
 30
-0.0000000000000028
 40
5.5
  0
CIRCLE
  5
28C
330
1F
100
AcDbEntity
  8
Hewi
100
AcDbCircle
 10
418.6107827445696
 20
473.6593710910177
 30
-0.0000000000000028
 40
5.5
  0
LINE
  5
28E
330
1F
100
AcDbEntity
  8
Hewi
100
AcDbLine
 10
615.6129637445697
 20
445.1593710910173
 30
140.3562623558584
 11
615.588425836564
 21
423.927091298449
 31
140.3562623558585
  0
LINE
  5
290
330
1F
100
AcDbEntity
  8
Hewi
100
AcDbLine
 10
653.5352354528665
 20
418.6191780910173
 30
134.1048453640533
 11
653.5352354528665
 21
413.5191780910173
 31
133.7312159999998
  0
LINE
  5
291
330
1F
100
AcDbEntity
  8
Hewi
100
AcDbLine
 10
653.5352354528665
 20
413.5191780910173
 30
133.7312159999998
 11
676.6906920362727
 21
413.5191780910173
 31
133.7312159999998
  0
LINE
  5
292
330
1F
100
AcDbEntity
  8
Hewi
100
AcDbLine
 10
676.6906920362727
 20
418.6191780910173
 30
134.1048453640537
 11
676.6906920362727
 21
413.5191780910173
 31
133.7312159999998
  0
LINE
  5
293
330
1F
100
AcDbEntity
  8
Hewi
100
AcDbLine
 10
620.1320600380453
 20
418.621086400515
 30
125.23878698526
 11
904.5352354528663
 21
418.6191780910173
 31
134.1048453640536
  0
LINE
  5
294
330
1F
100
AcDbEntity
  8
Hewi
100
AcDbLine
 10
904.5352354528663
 20
418.6191780910173
 30
134.1048453640536
 11
904.5353450623393
 21
413.5191780596798
 31
134.1048446362031
  0
LINE
  5
295
330
1F
100
AcDbEntity
  8
Hewi
100
AcDbLine
 10
927.690692036273
 20
413.5125578203557
 30
133.9510839278683
 11
904.5352354528663
 21
413.5191780910175
 31
134.1048453640536
  0
LINE
  5
296
330
1F
100
AcDbEntity
  8
Hewi
100
AcDbLine
 10
927.690692036273
 20
418.6191780910173
 30
134.1048453640542
 11
927.690692036273
 21
413.5191780910175
 31
133.9512832656438
  0
LINE
  5
297
330
1F
100
AcDbEntity
  8
Hewi
100
AcDbLine
 10
904.5352354528663
 20
418.6191780910173
 30
134.1048453640536
 11
961.1129637445699
 21
418.619178090987
 31
134.1048453640532
  0
LINE
  5
298
330
1F
100
AcDbEntity
  8
Hewi
100
AcDbLine
 10
965.6129637445699
 20
803.5736936201265
 30
129.6359240152196
 11
965.6129637445696
 21
423.5807259885556
 31
134.0472469558562
  0
LINE
  5
299
330
1F
100
AcDbEntity
  8
Hewi
100
AcDbLine
 10
960.61296374457
 20
808.5727690910173
 30
129.7102339999999
 11
960.61296374457
 21
808.5727690910173
 31
129.7102339999999
  0
LINE
  5
29A
330
1F
100
AcDbEntity
  8
Hewi
100
AcDbLine
 10
960.61296374457
 20
808.5727690910173
 30
129.7102339999999
 11
620.6129637445696
 21
808.5727690910177
 31
138.9564369752627
  0
LINE
  5
29B
330
1F
100
AcDbEntity
  8
Hewi
100
AcDbLine
 10
615.6129637445697
 20
445.1593710910173
 30
139.3545174064725
 11
615.6129637445697
 21
803.5663931153075
 31
138.9619209236206
  0
LINE
  5
29D
330
1F
100
AcDbEntity
  8
Hewi
100
AcDbLine
 10
620.1129637445697
 20
803.0674679631186
 30
125.2952570036932
 11
620.1132098105597
 21
803.5666424286944
 31
125.2388417296699
  0
LINE
  5
29E
330
1F
100
AcDbEntity
  8
Hewi
100
AcDbLine
 10
620.1132098105597
 20
803.5666424286944
 30
125.2388417296699
 11
961.1129637445699
 21
803.3965271021752
 31
125.2209466587711
  0
LINE
  5
29F
330
1F
100
AcDbEntity
  8
Hewi
100
AcDbLine
 10
620.1129637445697
 20
803.0674797427661
 30
125.2952551609805
 11
620.1320722021005
 21
423.1310864004393
 31
125.2387873359158
  0
ARC
  5
2BB
330
1F
100
AcDbEntity
  8
Hewi
100
AcDbCircle
 10
406.4107827445696
 20
450.4593710910174
 30
0.0
 40
5.299999999999998
100
AcDbArc
 50
180.0
 51
270.0
  0
ARC
  5
2BC
330
1F
100
AcDbEntity
  8
Hewi
100
AcDbCircle
 10
406.4107773842551
 20
619.8668259653898
 30
0.0000000000000017
 40
5.299999999999998
100
AcDbArc
 50
90.08148822679114
 51
180.0814882267976
  0
LINE
  5
2BD
330
1F
100
AcDbEntity
  8
Hewi
100
AcDbLine
 10
965.6129637445696
 20
625.1593710910142
 30
143.236319711461
 11
1175.096159167422
 21
625.1593710910141
 31
3.351485842260784
  0
LINE
  5
2BE
330
1F
100
AcDbEntity
  8
Hewi
100
AcDbLine
 10
1180.115144744569
 20
619.8743638234916
 30
0.0000000000000017
 11
1180.115144744569
 21
450.4593710910169
 31
0.0000000000000001
  0
LINE
  5
2BF
330
1F
100
AcDbEntity
  8
Hewi
100
AcDbLine
 10
1174.815144744569
 20
445.1593710910173
 30
3.443223461929761
 11
965.6129637445696
 21
445.1593710910171
 31
139.3545174064725
  0
CIRCLE
  5
2C0
330
1F
100
AcDbEntity
  8
Hewi
100
AcDbCircle
 10
1115.615144744569
 20
460.6593710910173
 30
-0.0000000000000104
 40
5.5
  0
CIRCLE
  5
2C1
330
1F
100
AcDbEntity
  8
Hewi
100
AcDbCircle
 10
1068.615144744569
 20
473.6593710910173
 30
-0.000000000000018
 40
5.5
  0
CIRCLE
  5
2C2
330
1F
100
AcDbEntity
  8
Hewi
100
AcDbCircle
 10
1068.615144744569
 20
596.6593710910172
 30
-0.000000000000018
 40
5.5
  0
CIRCLE
  5
2C3
330
1F
100
AcDbEntity
  8
Hewi
100
AcDbCircle
 10
1115.615144744569
 20
609.6593710910171
 30
-0.0000000000000104
 40
5.5
  0
CIRCLE
  5
2C4
330
1F
100
AcDbEntity
  8
Hewi
100
AcDbCircle
 10
1162.615144744569
 20
596.6593710910172
 30
-0.0000000000000028
 40
5.5
  0
CIRCLE
  5
2C5
330
1F
100
AcDbEntity
  8
Hewi
100
AcDbCircle
 10
1162.615144744569
 20
473.6593710910173
 30
-0.0000000000000028
 40
5.5
  0
ARC
  5
2C6
330
1F
100
AcDbEntity
  8
Hewi
100
AcDbCircle
 10
1174.815144744569
 20
450.4593710910169
 30
0.0
 40
5.299999999999998
100
AcDbArc
 50
270.0
 51
0.0
  0
ARC
  5
2C7
330
1F
100
AcDbEntity
  8
Hewi
100
AcDbCircle
 10
1174.815150104884
 20
619.8668259653896
 30
0.0000000000000017
 40
5.299999999999998
100
AcDbArc
 50
359.9185117732023
 51
89.91851177320885
  0
ARC
  5
2F0
330
1F
100
AcDbEntity
  8
Hewi
100
AcDbCircle
 10
620.6129637445696
 20
803.5727690910174
 30
129.7102343601417
 40
5.0
100
AcDbArc
 50
90.0
 51
185.6287907791987
  0
LINE
  5
2F2
330
1F
100
AcDbEntity
  8
Hewi
100
AcDbLine
 10
961.1129637445699
 20
803.0683924922273
 30
125.2209466587711
 11
961.1129637445699
 21
803.0683879652199
 31
125.2209466587711
  0
LINE
  5
2F3
330
1F
100
AcDbEntity
  8
Hewi
100
AcDbLine
 10
961.1129637445699
 20
803.0684042718746
 30
125.2209448160584
 11
961.1129637445699
 21
423.1291780909843
 31
125.2209448160584
  0
ARC
  5
2F5
330
1F
100
AcDbEntity
  8
Hewi
100
AcDbCircle
 10
960.6129637445699
 20
803.5736936201265
 30
129.6359240152196
 40
5.0
100
AcDbArc
 50
354.3712092207883
 51
90.0
  0
ARC
  5
2FB
330
1F
100
AcDbEntity
  8
Hewi
100
AcDbCircle
 10
620.5884258365641
 20
423.6191761938266
 30
134.1048453640538
 40
5.0
100
AcDbArc
 50
174.3212968565235
 51
269.9500876357319
  0
ARC
  5
2FD
330
1F
100
AcDbEntity
  8
Hewi
100
AcDbCircle
 10
960.6131064911417
 20
423.6185075362128
 30
134.0472469558556
 40
5.0
100
AcDbArc
 50
269.9500876357319
 51
0.4329487650025667
  0
LINE
  5
31A
330
1F
100
AcDbEntity
  8
Hewi
100
AcDbLine
 10
620.1320600380453
 20
423.1310864005149
 30
125.23878698526
 11
927.690692036273
 21
423.1291780909843
 31
134.1048453640532
  0
LINE
  5
31B
330
1F
100
AcDbEntity
  8
Hewi
100
AcDbLine
 10
927.690692036273
 20
423.1291780909843
 30
134.1048453640532
 11
961.1129637445699
 21
423.1291780909843
 31
134.1048453640532
  0
LINE
  5
633
330
1F
100
AcDbEntity
  8
Hewi
100
AcDbLine
 10
961.1086007445695
 20
49.07366760431401
 30
51.24019299999996
 11
620.1086007445695
 21
49.07366760431401
 31
51.24019299999996
210
-1.0
220
0.0000000000000001
230
0.0
  0
LINE
  5
6BC
330
1F
100
AcDbEntity
  8
Hewi
100
AcDbLine
 10
401.1107827445696
 20
197.573667604314
 30
0.0
 11
401.1107827445696
 21
194.573667604314
 31
0.0
  0
LINE
  5
6BD
330
1F
100
AcDbEntity
  8
Hewi
100
AcDbLine
 10
401.1107827445696
 20
194.573667604314
 30
0.0
 11
646.1107827445697
 21
194.573667604314
 31
-5.300000000000012
  0
LINE
  5
6BF
330
1F
100
AcDbEntity
  8
Hewi
100
AcDbLine
 10
401.1107827445696
 20
197.573667604314
 30
0.0
 11
647.1107827445697
 21
197.573667604314
 31
-5.300000000000012
  0
LINE
  5
6C0
330
1F
100
AcDbEntity
  8
Hewi
100
AcDbLine
 10
652.1107827445697
 20
192.573667604314
 30
-5.300000000000012
 11
652.1107827445697
 21
99.573667604314
 31
-5.300000000000012
  0
LINE
  5
6C1
330
1F
100
AcDbEntity
  8
Hewi
100
AcDbLine
 10
649.1107827445699
 20
191.573667604314
 30
-5.300000000000012
 11
649.1107827445699
 21
98.573667604314
 31
174.7
  0
LINE
  5
6C2
330
1F
100
AcDbEntity
  8
Hewi
100
AcDbLine
 10
655.1107827445697
 20
96.57366760431393
 30
-5.300000000000012
 11
703.8178895257561
 21
96.57366760431404
 31
174.4071067811865
  0
LINE
  5
6C3
330
1F
100
AcDbEntity
  8
Hewi
100
AcDbLine
 10
704.1107827445697
 20
96.57366760431402
 30
-4.300000000000011
 11
704.1107827445697
 21
93.57366760431395
 31
-5.300000000000012
  0
LINE
  5
6C4
330
1F
100
AcDbEntity
  8
Hewi
100
AcDbLine
 10
704.1107827445697
 20
93.57366760431395
 30
-5.300000000000012
 11
654.1107827445697
 21
93.57366760431395
 31
-5.300000000000012
  0
LINE
  5
76D
330
1F
100
AcDbEntity
  8
Hewi
100
AcDbLine
 10
145.4981239312228
 20
804.0802654572564
 30
559.502182
 11
145.4981239312228
 21
804.0802654572564
 31
219.502182
  0
LINE
  5
799
330
1F
100
AcDbEntity
  8
Hewi
100
AcDbLine
 10
144.1801039312226
 20
807.2622454572563
 30
559.502182
 11
144.1801039312226
 21
807.2622454572563
 31
219.502182
  0
LINE
  5
79C
330
1F
100
AcDbEntity
  8
Hewi
100
AcDbLine
 10
128.5889259312227
 20
419.9446934572563
 30
219.502182
 11
128.5889259312227
 21
419.9446934572563
 31
559.502182
  0
LINE
  5
7B3
330
1F
100
AcDbEntity
  8
Hewi
100
AcDbLine
 10
270.7083579312227
 20
625.1668674572531
 30
0.0
 11
270.7083579312227
 21
445.1668674572563
 31
0.0
210
-1.0
220
0.0000000000000001
230
0.0
  0
CIRCLE
  5
7B6
330
1F
100
AcDbEntity
  8
Hewi
100
AcDbCircle
 10
-473.6668674572563
 20
111.5
 30
-270.7083579312227
 40
5.5
210
-1.0
220
0.0000000000000001
230
0.0
  0
CIRCLE
  5
7B7
330
1F
100
AcDbEntity
  8
Hewi
100
AcDbCircle
 10
-596.6668674572562
 20
111.5
 30
-270.7083579312227
 40
5.5
210
-1.0
220
0.0000000000000001
230
0.0
  0
CIRCLE
  5
7B8
330
1F
100
AcDbEntity
  8
Hewi
100
AcDbCircle
 10
-609.6668674572562
 20
64.5
 30
-270.7083579312227
 40
5.5
210
-1.0
220
0.0000000000000001
230
0.0
  0
CIRCLE
  5
7B9
330
1F
100
AcDbEntity
  8
Hewi
100
AcDbCircle
 10
-596.6668674572562
 20
17.49999999999999
 30
-270.7083579312227
 40
5.5
210
-1.0
220
0.0000000000000001
230
0.0
  0
CIRCLE
  5
7BA
330
1F
100
AcDbEntity
  8
Hewi
100
AcDbCircle
 10
-473.6668674572563
 20
17.49999999999999
 30
-270.7083579312227
 40
5.5
210
-1.0
220
0.0000000000000001
230
0.0
  0
LINE
  5
7CD
330
1F
100
AcDbEntity
  8
Hewi
100
AcDbLine
 10
145.4131009275295
 20
803.0749643293573
 30
219.002181
 11
145.4131009275295
 21
803.0749598023499
 31
219.002181
210
-1.0
220
0.0000000000000001
230
0.0
  0
LINE
  5
7CE
330
1F
100
AcDbEntity
  8
Hewi
100
AcDbLine
 10
145.4695424277654
 20
803.5738894815462
 30
219.502181
 11
145.4695419312229
 21
803.5738894572563
 31
229.4061459873858
210
-1.0
220
0.0000000000000001
230
0.0
  0
LINE
  5
7E8
330
1F
100
AcDbEntity
  8
Hewi
100
AcDbLine
 10
166.7083579312226
 20
445.1668674572561
 30
160.0825523217941
 11
270.7083579312227
 21
445.1668674572561
 31
0.0
  0
LINE
  5
7E9
330
1F
100
AcDbEntity
  8
Hewi
100
AcDbLine
 10
270.7083579312227
 20
445.1668674572561
 30
0.0
 11
270.7083579312227
 21
625.1668674572562
 31
-0.0000000000000071
  0
LINE
  5
7EA
330
1F
100
AcDbEntity
  8
Hewi
100
AcDbLine
 10
270.7083579312227
 20
625.1668674572562
 30
-0.0000000000000071
 11
166.708357931222
 21
625.1668674572562
 31
522.7065440000001
  0
LINE
  5
7EB
330
1F
100
AcDbEntity
  8
Hewi
100
AcDbLine
 10
136.603512567169
 20
418.6266744572608
 30
564.5021810000002
 11
137.0090653634584
 21
413.5092131916378
 31
564.4980248582827
  0
LINE
  5
7EC
330
1F
100
AcDbEntity
  8
Hewi
100
AcDbLine
 10
137.0090653634584
 20
413.5092131916378
 30
564.4980248582827
 11
166.7083579312226
 21
415.5743994572563
 31
254.501067
  0
LINE
  5
7ED
330
1F
100
AcDbEntity
  8
Hewi
100
AcDbLine
 10
166.7083579312226
 20
415.5743994572563
 30
254.501067
 11
166.7083579312226
 21
779.2850657082033
 31
254.5014956723262
  0
LINE
  5
7EE
330
1F
100
AcDbEntity
  8
Hewi
100
AcDbLine
 10
166.7083579312226
 20
779.2850657082033
 30
254.5014956723262
 11
142.9891561573781
 21
780.528136361752
 31
253.2584250955042
  0
ARC
  5
7F7
330
1F
100
AcDbEntity
  8
Hewi
100
AcDbCircle
 10
131.7709069312227
 20
423.1266744572563
 30
559.5021809999999
 40
4.5
100
AcDbArc
 50
183.9855080000002
 51
270.0
  0
SPLINE
  5
7F9
330
1F
100
AcDbEntity
  8
Hewi
100
AcDbSpline
 70
     0
 71
     3
 72
     8
 73
     4
 74
     0
 42
0.0000000001
 43
0.0000000001
 40
0.0
 40
0.0
 40
0.0
 40
0.0
 40
1.0
 40
1.0
 40
1.0
 40
1.0
 10
127.2493489898829
 20
423.2802654572512
 30
560.0009795625959
 10
127.2485467795704
 20
423.2918165721923
 30
560.0017800521658
 10
127.247742272066
 20
423.3034021515966
 30
560.0021809999999
 10
127.2469383390562
 20
423.3149808507048
 30
560.0021809999999
  0
LINE
  5
7FA
330
1F
100
AcDbEntity
  8
Hewi
100
AcDbLine
 10
127.2493489312228
 20
423.2802654572562
 30
560.00098
 11
127.2493489312228
 21
423.2802654572562
 31
219.003382
210
0.0
220
1.0
230
0.0
  0
LINE
  5
7FB
330
1F
100
AcDbEntity
  8
Hewi
100
AcDbLine
 10
135.5202889312227
 20
804.5863994572563
 30
559.5021809999999
 11
135.5202889312227
 21
804.5863994572563
 31
219.502181
210
0.0
220
1.0
230
0.0
  0
LINE
  5
7FC
330
1F
100
AcDbEntity
  8
Hewi
100
AcDbLine
 10
142.0455559312227
 20
781.0802654572563
 30
527.202181
 11
143.0455559312227
 21
781.0802654572563
 31
527.202181
210
0.0
220
1.0
230
0.0
  0
LINE
  5
804
330
1F
100
AcDbEntity
  8
Hewi
100
AcDbLine
 10
139.9917349312227
 20
808.5802654572564
 30
219.502181
 11
140.9981239312228
 21
808.5802654572564
 31
219.502181
210
0.0
220
1.0
230
0.0
  0
ARC
  5
806
330
1F
100
AcDbEntity
  8
Hewi
100
AcDbCircle
 10
140.9981239312228
 20
804.0802654572564
 30
219.502181
 40
4.5
100
AcDbArc
 50
353.538936000002
 51
90.0
  0
ARC
  5
807
330
1F
100
AcDbEntity
  8
Hewi
100
AcDbCircle
 10
2220.108392931223
 20
568.6266774572564
 30
219.002181
 40
2087.900035337399
100
AcDbArc
 50
183.9727409999988
 51
184.0597489999999
  0
ARC
  5
808
330
1F
100
AcDbEntity
  8
Hewi
100
AcDbCircle
 10
-2220.108357931223
 20
568.6266744572564
 30
-219.002181
 40
2097.900000000001
210
0.0
220
0.0
230
-1.0
100
AcDbArc
 50
356.0282099999988
 51
6.444193000002013
  0
ARC
  5
809
330
1F
100
AcDbEntity
  8
Hewi
100
AcDbCircle
 10
-164.8944808311243
 20
-310.6983980623247
 30
620.6353310534451
 40
2.0
210
-0.0118283058499577
220
0.1666550071878119
230
0.985944318792877
100
AcDbArc
 50
85.99712688797056
 51
179.9999998879676
  0
ARC
  5
80A
330
1F
100
AcDbEntity
  8
Hewi
100
AcDbCircle
 10
140.9981239312228
 20
804.0802654572564
 30
559.5021809999999
 40
4.5
100
AcDbArc
 50
353.538936000002
 51
90.0
  0
SPLINE
  5
80C
330
1F
100
AcDbEntity
  8
Hewi
100
AcDbSpline
 70
     0
 71
     3
 72
    16
 73
    12
 74
     0
 42
0.0000000001
 43
0.0000000001
 40
0.0
 40
0.0
 40
0.0
 40
0.0
 40
0.2333249194952857
 40
0.2333249194952857
 40
0.4665778506701306
 40
0.4665778506701306
 40
0.6988308614011856
 40
0.6988308614011856
 40
0.92949182626087
 40
0.92949182626087
 40
1.0
 40
1.0
 40
1.0
 40
1.0
 10
135.469986166118
 20
804.1415765344972
 30
559.9990203087833
 10
135.4763042098095
 20
804.1975001139054
 30
559.9927158173167
 10
135.4825901004135
 20
804.2531178742278
 30
559.9766589554729
 10
135.4940563136474
 20
804.3545392310987
 30
559.927615701468
 10
135.4993950922392
 20
804.4017447818173
 30
559.8939524346611
 10
135.5083655856467
 20
804.481044003883
 30
559.8139939980836
 10
135.5121283516764
 20
804.5142967408125
 30
559.7666397771133
 10
135.517562229357
 20
804.5623122718733
 30
559.6652206043109
 10
135.5193222180426
 20
804.5778608389653
 30
559.609796126826
 10
135.5201861410876
 20
804.585493262812
 30
559.53688124071
 10
135.5202887292125
 20
804.5863995731929
 30
559.5195192219168
 10
135.5202887292125
 20
804.5863995731929
 30
559.5021809999999
  0
LINE
  5
80D
330
1F
100
AcDbEntity
  8
Hewi
100
AcDbLine
 10
139.9917349312227
 20
808.5802654572564
 30
559.5021809999999
 11
140.9981239312228
 21
808.5802654572564
 31
559.5021809999999
210
0.0
220
1.0
230
0.0
  0
LINE
  5
80E
330
1F
100
AcDbEntity
  8
Hewi
100
AcDbLine
 10
131.7709069312227
 20
418.6266744572563
 30
559.5021809999999
 11
131.7709069312227
 21
418.6266744572563
 31
219.502181
210
0.0
220
1.0
230
0.0
  0
LINE
  5
80F
330
1F
100
AcDbEntity
  8
Hewi
100
AcDbLine
 10
143.0455559312227
 20
781.0802654572563
 30
502.8021809999999
 11
143.0455559312227
 21
781.0802654572563
 31
527.202181
210
0.0
220
1.0
230
0.0
  0
ARC
  5
810
330
1F
100
AcDbEntity
  8
Hewi
100
AcDbCircle
 10
-2220.108357931223
 20
568.6266744572564
 30
-527.202181
 40
2087.899999505454
210
0.0
220
0.0
230
-1.0
100
AcDbArc
 50
356.0272590000012
 51
5.840221999998711
  0
ARC
  5
813
330
1F
100
AcDbEntity
  8
Hewi
100
AcDbCircle
 10
-2220.108357931223
 20
568.6266744572564
 30
-502.8021809999999
 40
2087.899999505454
210
0.0
220
0.0
230
-1.0
100
AcDbArc
 50
356.0272590000012
 51
5.840221999998711
  0
LINE
  5
814
330
1F
100
AcDbEntity
  8
Hewi
100
AcDbLine
 10
142.0455559312227
 20
781.0802654572563
 30
276.202181
 11
143.0455559312227
 21
781.0802654572563
 31
276.202181
210
0.0
220
1.0
230
0.0
  0
LINE
  5
816
330
1F
100
AcDbEntity
  8
Hewi
100
AcDbLine
 10
137.4503659312227
 20
420.7683084572563
 30
219.502181
 11
137.4503659312227
 21
420.7683084572563
 31
251.802181
210
0.0
220
1.0
230
0.0
  0
SPLINE
  5
818
330
1F
100
AcDbEntity
  8
Hewi
100
AcDbSpline
 70
     0
 71
     3
 72
    16
 73
    12
 74
     0
 42
0.0000000001
 43
0.0000000001
 40
0.0
 40
0.0
 40
0.0
 40
0.0
 40
0.2333249194952857
 40
0.2333249194952857
 40
0.4665778506701306
 40
0.4665778506701306
 40
0.6988308614011856
 40
0.6988308614011856
 40
0.92949182626087
 40
0.92949182626087
 40
1.0
 40
1.0
 40
1.0
 40
1.0
 10
135.469986166118
 20
804.1415765344972
 30
219.0053416912166
 10
135.4763042098095
 20
804.1975001139054
 30
219.0116461826833
 10
135.4825901004135
 20
804.2531178742278
 30
219.0277030445272
 10
135.4940563136474
 20
804.3545392310987
 30
219.0767462985319
 10
135.4993950922392
 20
804.4017447818173
 30
219.110409565339
 10
135.5083655856467
 20
804.481044003883
 30
219.1903680019164
 10
135.5121283516764
 20
804.5142967408125
 30
219.2377222228866
 10
135.517562229357
 20
804.5623122718733
 30
219.3391413956891
 10
135.5193222180426
 20
804.5778608389653
 30
219.3945658731739
 10
135.5201861410876
 20
804.585493262812
 30
219.46748075929
 10
135.5202887292125
 20
804.5863995731929
 30
219.4848427780831
 10
135.5202887292125
 20
804.5863995731929
 30
219.502181
  0
SPLINE
  5
81A
330
1F
100
AcDbEntity
  8
Hewi
100
AcDbSpline
 70
     0
 71
     3
 72
     8
 73
     4
 74
     0
 42
0.0000000001
 43
0.0000000001
 40
0.0
 40
0.0
 40
0.0
 40
0.0
 40
1.0
 40
1.0
 40
1.0
 40
1.0
 10
137.4473898062679
 20
420.8102282700881
 30
219.002181000042
 10
137.4493663013329
 20
420.7823804275511
 30
219.1670888724167
 10
137.4503654905954
 20
420.7683083167793
 30
219.3349266570434
 10
137.4503654905954
 20
420.7683083167793
 30
219.502181
  0
SPLINE
  5
81B
330
1F
100
AcDbEntity
  8
Hewi
100
AcDbSpline
 70
     0
 71
     3
 72
     8
 73
     4
 74
     0
 42
0.0000000001
 43
0.0000000001
 40
0.0
 40
0.0
 40
0.0
 40
0.0
 40
1.0
 40
1.0
 40
1.0
 40
1.0
 10
127.2493489898829
 20
423.2802654572512
 30
219.0033824374041
 10
127.2485467795704
 20
423.2918165721923
 30
219.0025819478342
 10
127.247742272066
 20
423.3034021515966
 30
219.002181
 10
127.2469383390562
 20
423.3149808507048
 30
219.002181
  0
ARC
  5
81C
330
1F
100
AcDbEntity
  8
Hewi
100
AcDbCircle
 10
2220.108392931223
 20
568.6266774572564
 30
560.0021809999999
 40
2087.900035337399
100
AcDbArc
 50
183.9727409999988
 51
184.0597489999999
  0
LINE
  5
820
330
1F
100
AcDbEntity
  8
Hewi
100
AcDbLine
 10
135.4699859312227
 20
804.1415764572562
 30
559.9990199999998
 11
135.4699859312227
 21
804.1415764572562
 31
219.005342
210
0.0
220
1.0
230
0.0
  0
LINE
  5
821
330
1F
100
AcDbEntity
  8
Hewi
100
AcDbLine
 10
139.9917349312227
 20
808.5802654572564
 30
219.502181
 11
139.9917349312227
 21
808.5802654572564
 31
559.5021809999999
210
0.0
220
1.0
230
0.0
  0
ARC
  5
825
330
1F
100
AcDbEntity
  8
Hewi
100
AcDbCircle
 10
-2220.108392931223
 20
568.6266774572564
 30
-502.8021809999999
 40
2087.900035337399
210
0.0
220
0.0
230
-1.0
100
AcDbArc
 50
355.9390980000009
 51
356.0272590000012
  0
ARC
  5
826
330
1F
100
AcDbEntity
  8
Hewi
100
AcDbCircle
 10
-2220.108357931223
 20
568.6266744572564
 30
-276.202181
 40
2087.899999505454
210
0.0
220
0.0
230
-1.0
100
AcDbArc
 50
356.0272590000012
 51
5.840221999998711
  0
SPLINE
  5
827
330
1F
100
AcDbEntity
  8
Hewi
100
AcDbSpline
 70
     3
 71
     3
 72
    22
 73
    18
 74
     0
 42
0.0000000001
 43
0.0000000001
 40
0.0
 40
0.0
 40
0.0
 40
0.0
 40
0.1250000000000001
 40
0.1250000000000001
 40
0.2500000000000001
 40
0.2500000000000001
 40
0.3750000000000001
 40
0.3750000000000001
 40
0.5000000000000001
 40
0.5000000000000001
 40
0.6250000000000001
 40
0.6250000000000001
 40
0.7500000000000002
 40
0.7500000000000002
 40
0.8750000000000001
 40
0.8750000000000001
 40
1.0
 40
1.0
 40
1.0
 40
1.0
 10
135.6954940486257
 20
431.8156788115998
 30
264.0021810000001
 10
135.6954550044781
 20
431.8162768314597
 30
262.7700187909741
 10
135.6621875352189
 20
432.3214147687957
 30
261.5488257134591
 10
135.5486902350542
 20
434.066681680418
 30
259.8072403358864
 10
135.47008807328
 20
435.2869431558965
 30
259.3038217501716
 10
135.3140174753553
 20
437.7485445379257
 30
259.3023028636806
 10
135.2379800303943
 20
438.9673727325347
 30
259.8068271597088
 10
135.1303892902212
 20
440.7091916473182
 30
261.5457170092245
 10
135.0993376812337
 20
441.2186210987941
 30
262.7724803608538
 10
135.0993624466821
 20
441.218205160171
 30
265.2418507488722
 10
135.1303119272261
 20
440.7104218569661
 30
266.4591524472307
 10
135.2380721198074
 20
438.965904234916
 30
268.1972651007411
 10
135.3141436008211
 20
437.7465458799346
 30
268.7021864486589
 10
135.4703414127912
 20
435.2829566896248
 30
268.7004119198753
 10
135.5488726817752
 20
434.0638587297827
 30
268.194560045444
 10
135.662243340791
 20
432.3205724580365
 30
266.4544353982242
 10
135.6955330927733
 20
431.8150807917398
 30
265.234343209026
 10
135.6954940486257
 20
431.8156788115998
 30
264.0021810000001
  0
SPLINE
  5
828
330
1F
100
AcDbEntity
  8
Hewi
100
AcDbSpline
 70
     3
 71
     3
 72
    44
 73
    40
 74
     0
 42
0.0000000001
 43
0.0000000001
 40
0.0
 40
0.0
 40
0.0
 40
0.0
 40
0.0535720415919496
 40
0.0535720415919496
 40
0.1071412080804746
 40
0.1071412080804746
 40
0.1607560831340352
 40
0.1607560831340352
 40
0.2144709663796475
 40
0.2144709663796475
 40
0.2682828278171583
 40
0.2682828278171583
 40
0.3221464479768693
 40
0.3221464479768693
 40
0.3759923734649718
 40
0.3759923734649718
 40
0.4297571037147034
 40
0.4297571037147034
 40
0.483412477416339
 40
0.483412477416339
 40
0.5369796858972263
 40
0.5369796858972263
 40
0.5905201441065491
 40
0.5905201441065491
 40
0.6441073099110623
 40
0.6441073099110623
 40
0.6977931240926855
 40
0.6977931240926855
 40
0.7515848604190803
 40
0.7515848604190803
 40
0.8054427052343335
 40
0.8054427052343335
 40
0.8592985379513196
 40
0.8592985379513196
 40
0.9130866446469532
 40
0.9130866446469532
 40
0.9667720534391596
 40
0.9667720534391596
 40
1.0
 40
1.0
 40
1.0
 40
1.0
 10
135.2498406621482
 20
438.7802654572563
 30
264.001353564219
 10
135.2498406621482
 20
438.7802654572563
 30
264.248057058533
 10
135.2524811053475
 20
438.7378713577954
 30
264.4973235386188
 10
135.2626161538751
 20
438.5753729325377
 30
264.9613326607568
 10
135.2702505110665
 20
438.4530382391629
 30
265.1824698067307
 10
135.2894280796617
 20
438.1464033985176
 30
265.5666860076012
 10
135.301239231522
 20
437.9578354979687
 30
265.7350069807349
 10
135.3274089250706
 20
437.5411674854753
 30
265.996491800853
 10
135.3421332458963
 20
437.307260061546
 30
266.0931207695397
 10
135.3724607740373
 20
436.8269064761847
 30
266.2021658235123
 10
135.3884840392882
 20
436.573816577887
 30
266.2159361946134
 10
135.4195927092357
 20
436.0838514699942
 30
266.1595960136507
 10
135.4351064476341
 20
435.8402277167265
 30
266.0886258134874
 10
135.4634375229627
 20
435.3964038416696
 30
265.8728325051445
 10
135.4766462916771
 20
435.1900586214702
 30
265.7250469136688
 10
135.4988977635582
 20
434.8430521251885
 30
265.3743503416228
 10
135.5082528535381
 20
434.6975020090766
 30
265.1666715079628
 10
135.52182069408
 20
434.4865875647093
 30
264.7212813469593
 10
135.5262300522026
 20
434.418153961957
 30
264.4774803554256
 10
135.5295503590623
 20
434.3666162701532
 30
263.9880959185702
 10
135.5285157866028
 20
434.3826632805641
 30
263.735769107238
 10
135.5212398084215
 20
434.4956403227435
 30
263.2573909997671
 10
135.5149014838516
 20
434.5940824278472
 30
263.0247393894385
 10
135.4979003019373
 20
434.8586350552107
 30
262.610631347484
 10
135.4870010017471
 20
435.0284396193335
 30
262.423517783459
 10
135.4622383279274
 20
435.4152042161905
 30
262.1198436673959
 10
135.448029891184
 20
435.6375707999458
 30
261.9992277077102
 10
135.4183364359153
 20
436.1036241152566
 30
261.840343115214
 10
135.4024403996893
 20
436.3537743089982
 30
261.8000436459894
 10
135.371200286535
 20
436.8468244568852
 30
261.8045007835186
 10
135.3554257160822
 20
437.0965202652623
 30
261.8494238076204
 10
135.3261858749281
 20
437.5605713222188
 30
262.0172690233487
 10
135.3123159809008
 20
437.7813376710866
 30
262.1425114679517
 10
135.2883609345165
 20
438.1633975126209
 30
262.4547686891983
 10
135.2779392678685
 20
438.3300407873086
 30
262.6460257196262
 10
135.2619051528243
 20
438.5867280063236
 30
263.0669006578159
 10
135.2560615333022
 20
438.6804572205069
 30
263.3022597729303
 10
135.2508571864587
 20
438.7639486702765
 30
263.6936492614058
 10
135.2498406621482
 20
438.7802654572563
 30
263.848336238729
 10
135.2498406621482
 20
438.7802654572563
 30
264.001353564219
  0
LINE
  5
829
330
1F
100
AcDbEntity
  8
Hewi
100
AcDbLine
 10
142.0455559312227
 20
781.0802654572563
 30
251.802181
 11
143.0455559312227
 21
781.0802654572563
 31
251.802181
210
0.0
220
1.0
230
0.0
  0
ARC
  5
833
330
1F
100
AcDbEntity
  8
Hewi
100
AcDbCircle
 10
-2220.108357931223
 20
568.6266744572564
 30
-560.0021809999999
 40
2097.900000000001
210
0.0
220
0.0
230
-1.0
100
AcDbArc
 50
356.0282099999988
 51
6.444193000002013
  0
LINE
  5
834
330
1F
100
AcDbEntity
  8
Hewi
100
AcDbLine
 10
127.2817889312227
 20
422.8139064572563
 30
219.502181
 11
127.2817889312227
 21
422.8139064572563
 31
559.5021809999999
210
0.0
220
1.0
230
0.0
  0
LINE
  5
835
330
1F
100
AcDbEntity
  8
Hewi
100
AcDbLine
 10
137.4503659312227
 20
420.7683084572563
 30
559.5021809999999
 11
137.4503659312227
 21
420.7683084572563
 31
527.202181
210
0.0
220
1.0
230
0.0
  0
ARC
  5
836
330
1F
100
AcDbEntity
  8
Hewi
100
AcDbCircle
 10
-2220.108392931223
 20
568.6266774572564
 30
-527.202181
 40
2087.900035337399
210
0.0
220
0.0
230
-1.0
100
AcDbArc
 50
355.9390980000009
 51
356.0272590000012
  0
SPLINE
  5
838
330
1F
100
AcDbEntity
  8
Hewi
100
AcDbSpline
 70
     3
 71
     3
 72
    44
 73
    40
 74
     0
 42
0.0000000001
 43
0.0000000001
 40
0.0
 40
0.0
 40
0.0
 40
0.0
 40
0.0535720415919496
 40
0.0535720415919496
 40
0.1071412080804746
 40
0.1071412080804746
 40
0.1607560831340352
 40
0.1607560831340352
 40
0.2144709663796475
 40
0.2144709663796475
 40
0.2682828278171583
 40
0.2682828278171583
 40
0.3221464479768693
 40
0.3221464479768693
 40
0.3759923734649718
 40
0.3759923734649718
 40
0.4297571037147034
 40
0.4297571037147034
 40
0.483412477416339
 40
0.483412477416339
 40
0.5369796858972263
 40
0.5369796858972263
 40
0.5905201441065491
 40
0.5905201441065491
 40
0.6441073099110623
 40
0.6441073099110623
 40
0.6977931240926855
 40
0.6977931240926855
 40
0.7515848604190803
 40
0.7515848604190803
 40
0.8054427052343335
 40
0.8054427052343335
 40
0.8592985379513196
 40
0.8592985379513196
 40
0.9130866446469532
 40
0.9130866446469532
 40
0.9667720534391596
 40
0.9667720534391596
 40
1.0
 40
1.0
 40
1.0
 40
1.0
 10
135.2498406621482
 20
438.7802654572563
 30
515.0030084357808
 10
135.2498406621482
 20
438.7802654572563
 30
514.7563049414668
 10
135.2524811053475
 20
438.7378713577954
 30
514.5070384613811
 10
135.2626161538751
 20
438.5753729325377
 30
514.043029339243
 10
135.2702505110665
 20
438.4530382391629
 30
513.8218921932693
 10
135.2894280796617
 20
438.1464033985176
 30
513.4376759923988
 10
135.301239231522
 20
437.9578354979687
 30
513.2693550192649
 10
135.3274089250706
 20
437.5411674854753
 30
513.0078701991471
 10
135.3421332458963
 20
437.307260061546
 30
512.9112412304603
 10
135.3724607740373
 20
436.8269064761847
 30
512.8021961764877
 10
135.3884840392882
 20
436.573816577887
 30
512.7884258053866
 10
135.4195927092357
 20
436.0838514699942
 30
512.8447659863493
 10
135.4351064476341
 20
435.8402277167265
 30
512.9157361865126
 10
135.4634375229627
 20
435.3964038416696
 30
513.1315294948555
 10
135.4766462916771
 20
435.1900586214702
 30
513.279315086331
 10
135.4988977635582
 20
434.8430521251885
 30
513.6300116583773
 10
135.5082528535381
 20
434.6975020090766
 30
513.8376904920371
 10
135.52182069408
 20
434.4865875647093
 30
514.2830806530406
 10
135.5262300522026
 20
434.418153961957
 30
514.5268816445742
 10
135.5295503590623
 20
434.3666162701532
 30
515.0162660814299
 10
135.5285157866028
 20
434.3826632805641
 30
515.2685928927618
 10
135.5212398084215
 20
434.4956403227435
 30
515.7469710002328
 10
135.5149014838516
 20
434.5940824278472
 30
515.9796226105615
 10
135.4979003019373
 20
434.8586350552107
 30
516.393730652516
 10
135.4870010017471
 20
435.0284396193335
 30
516.580844216541
 10
135.4622383279274
 20
435.4152042161905
 30
516.8845183326039
 10
135.448029891184
 20
435.6375707999458
 30
517.0051342922898
 10
135.4183364359153
 20
436.1036241152566
 30
517.1640188847858
 10
135.4024403996893
 20
436.3537743089982
 30
517.2043183540106
 10
135.371200286535
 20
436.8468244568852
 30
517.1998612164814
 10
135.3554257160822
 20
437.0965202652623
 30
517.1549381923796
 10
135.3261858749281
 20
437.5605713222188
 30
516.9870929766513
 10
135.3123159809008
 20
437.7813376710866
 30
516.8618505320481
 10
135.2883609345165
 20
438.1633975126209
 30
516.5495933108017
 10
135.2779392678685
 20
438.3300407873086
 30
516.3583362803738
 10
135.2619051528243
 20
438.5867280063236
 30
515.9374613421841
 10
135.2560615333022
 20
438.6804572205069
 30
515.7021022270697
 10
135.2508571864587
 20
438.7639486702765
 30
515.3107127385943
 10
135.2498406621482
 20
438.7802654572563
 30
515.1560257612709
 10
135.2498406621482
 20
438.7802654572563
 30
515.0030084357808
  0
ARC
  5
839
330
1F
100
AcDbEntity
  8
Hewi
100
AcDbCircle
 10
135.4553869312226
 20
420.6266744572563
 30
502.8021809999999
 40
2.0
100
AcDbArc
 50
304.169708000001
 51
4.060901999999118
  0
LINE
  5
83A
330
1F
100
AcDbEntity
  8
Hewi
100
AcDbLine
 10
142.0455559312227
 20
781.0802654572563
 30
251.802181
 11
142.0455559312227
 21
781.0802654572563
 31
276.202181
210
0.0
220
1.0
230
0.0
  0
ARC
  5
83D
330
1F
100
AcDbEntity
  8
Hewi
100
AcDbCircle
 10
-2220.108357931223
 20
568.6266744572564
 30
-251.802181
 40
2087.899999505454
210
0.0
220
0.0
230
-1.0
100
AcDbArc
 50
356.0272590000012
 51
5.840221999998711
  0
ARC
  5
83E
330
1F
100
AcDbEntity
  8
Hewi
100
AcDbCircle
 10
139.9917349312227
 20
804.0802654572564
 30
219.502181
 40
4.5
100
AcDbArc
 50
90.0
 51
173.5420350000012
  0
LINE
  5
83F
330
1F
100
AcDbEntity
  8
Hewi
100
AcDbLine
 10
135.4553869312226
 20
418.6266744572563
 30
219.502181
 11
131.7709069312227
 21
418.6266744572563
 31
219.502181
210
0.0
220
1.0
230
0.0
  0
ARC
  5
840
330
1F
100
AcDbEntity
  8
Hewi
100
AcDbCircle
 10
164.8944808311243
 20
440.8499564628216
 30
147.4195939753245
 40
2.0
210
0.0118283058499577
220
-0.1666550071878119
230
0.985944318792877
100
AcDbArc
 50
265.9971268879706
 51
359.9999998879676
  0
SPLINE
  5
841
330
1F
100
AcDbEntity
  8
Hewi
100
AcDbSpline
 70
     0
 71
     3
 72
     8
 73
     4
 74
     0
 42
0.0000000001
 43
0.0000000001
 40
0.0
 40
0.0
 40
0.0
 40
0.0
 40
1.0
 40
1.0
 40
1.0
 40
1.0
 10
135.4636318135131
 20
804.0853247666102
 30
219.002181
 10
135.4657529765556
 20
804.1041045878213
 30
219.002181
 10
135.467877684533
 20
804.1229135047379
 30
219.0032377323347
 10
135.469986166119
 20
804.1415765344963
 30
219.0053416912233
  0
ARC
  5
842
330
1F
100
AcDbEntity
  8
Hewi
100
AcDbCircle
 10
2220.108357931223
 20
568.6266744572564
 30
560.0021809999999
 40
2087.899999505454
100
AcDbArc
 50
173.5527139999996
 51
183.9727409999988
  0
LINE
  5
844
330
1F
100
AcDbEntity
  8
Hewi
100
AcDbLine
 10
135.4553869312226
 20
418.6266744572563
 30
559.5021809999999
 11
131.7709069312227
 21
418.6266744572563
 31
559.5021809999999
210
0.0
220
1.0
230
0.0
  0
ARC
  5
846
330
1F
100
AcDbEntity
  8
Hewi
100
AcDbCircle
 10
135.4553869312226
 20
420.6266744572563
 30
559.5021809999999
 40
2.0
100
AcDbArc
 50
270.0
 51
4.060901999999118
  0
LINE
  5
847
330
1F
100
AcDbEntity
  8
Hewi
100
AcDbLine
 10
145.4695419312227
 20
803.5738894572563
 30
219.502181
 11
145.4695419312227
 21
803.5738894572563
 31
559.5021809999999
210
0.0
220
1.0
230
0.0
  0
LINE
  5
84B
330
1F
100
AcDbEntity
  8
Hewi
100
AcDbLine
 10
137.2253199312226
 20
423.9730844572563
 30
502.8021809999999
 11
137.2253199312226
 21
423.9730844572563
 31
276.202181
210
0.0
220
1.0
230
0.0
  0
ARC
  5
84C
330
1F
100
AcDbEntity
  8
Hewi
100
AcDbCircle
 10
135.4553869312226
 20
420.6266744572563
 30
276.202181
 40
2.0
100
AcDbArc
 50
304.169708000001
 51
4.060901999999118
  0
SPLINE
  5
84D
330
1F
100
AcDbEntity
  8
Hewi
100
AcDbSpline
 70
     3
 71
     3
 72
    22
 73
    18
 74
     0
 42
0.0000000001
 43
0.0000000001
 40
0.0
 40
0.0
 40
0.0
 40
0.0
 40
0.125
 40
0.125
 40
0.2499999999999999
 40
0.2499999999999999
 40
0.3749999999999999
 40
0.3749999999999999
 40
0.5
 40
0.5
 40
0.625
 40
0.625
 40
0.75
 40
0.75
 40
0.8750000000000001
 40
0.8750000000000001
 40
1.0
 40
1.0
 40
1.0
 40
1.0
 10
136.6924655727168
 20
432.8802654572561
 30
264.0021810000001
 10
136.6925045981816
 20
432.8797948126902
 30
264.9723629677625
 10
136.6592307762475
 20
433.2776192279706
 30
265.9330411821451
 10
136.5459143683365
 20
434.6495940534691
 30
267.3031834451961
 10
136.4674206780391
 20
435.6090301223073
 30
267.701481943046
 10
136.3112976125016
 20
437.5478868527862
 30
267.7028791744838
 10
136.2352625331548
 20
438.5075278531552
 30
267.3053133568895
 10
136.1275539067972
 20
439.880471758803
 30
265.9367552993891
 10
136.0966192364747
 20
440.2800997028151
 30
264.9782742544839
 10
136.096594482877
 20
440.2804270485502
 30
263.0339372398556
 10
136.1276312327634
 20
439.8795035778999
 30
262.068006262636
 10
136.2351704878176
 20
438.5086835678579
 30
260.6988362550211
 10
136.3111715476334
 20
437.5494598033876
 30
260.3015830689205
 10
136.4671674595151
 20
435.6121674937875
 30
260.3027790122994
 10
136.5457320089144
 20
434.651815729517
 30
260.6991615831147
 10
136.6591749973868
 20
433.2782821305761
 30
262.0704539986491
 10
136.6924265472521
 20
432.8807361018222
 30
263.0319990322376
 10
136.6924655727168
 20
432.8802654572561
 30
264.0021810000001
  0
ARC
  5
84F
330
1F
100
AcDbEntity
  8
Hewi
100
AcDbCircle
 10
-2220.108392931223
 20
568.6266774572564
 30
-251.802181
 40
2087.900035337399
210
0.0
220
0.0
230
-1.0
100
AcDbArc
 50
355.9390980000009
 51
356.0272590000012
  0
SPLINE
  5
852
330
1F
100
AcDbEntity
  8
Hewi
100
AcDbSpline
 70
     0
 71
     3
 72
    16
 73
    12
 74
     0
 42
0.0000000001
 43
0.0000000001
 40
0.0
 40
0.0
 40
0.0
 40
0.0
 40
0.2239963859337362
 40
0.2239963859337362
 40
0.4480742375907942
 40
0.4480742375907942
 40
0.6725448293293395
 40
0.6725448293293395
 40
0.8976761135811377
 40
0.8976761135811377
 40
1.0
 40
1.0
 40
1.0
 40
1.0
 10
127.2817892725486
 20
422.8139060442702
 30
219.502181
 10
127.2817892725486
 20
422.8139060442702
 30
219.446316303306
 10
127.281116700635
 20
422.8235585009988
 30
219.3896789006086
 10
127.2785403980617
 20
422.8605429184103
 30
219.2842556939603
 10
127.2766008206429
 20
422.8883899654376
 30
219.2340161650812
 10
127.2717423149595
 20
422.9581758810676
 30
219.1467105769787
 10
127.2687549898364
 20
423.0010979617833
 30
219.1084630153008
 10
127.2621570514541
 20
423.0959503955747
 30
219.049010305802
 10
127.2584540289351
 20
423.1492100461418
 30
219.0270351152756
 10
127.2529129043103
 20
423.2289551803109
 30
219.0089349436584
 10
127.2511328500823
 20
423.2545794571146
 30
219.0051624712347
 10
127.2493489898836
 20
423.280265457252
 30
219.0033824374127
  0
SPLINE
  5
856
330
1F
100
AcDbEntity
  8
Hewi
100
AcDbSpline
 70
     0
 71
     3
 72
    16
 73
    12
 74
     0
 42
0.0000000001
 43
0.0000000001
 40
0.0
 40
0.0
 40
0.0
 40
0.0
 40
0.2134577291023125
 40
0.2134577291023125
 40
0.4267854692201147
 40
0.4267854692201147
 40
0.6405715050836122
 40
0.6405715050836122
 40
0.8555284401686311
 40
0.8555284401686311
 40
1.0
 40
1.0
 40
1.0
 40
1.0
 10
145.4695420640173
 20
803.5738894497054
 30
559.5021809999999
 10
145.4695420640173
 20
803.5738894497054
 30
559.5578753728033
 10
145.468460429488
 20
803.5643388892097
 30
559.6143351451281
 10
145.4643172962735
 20
803.5277496618025
 30
559.7194292769853
 10
145.4612004968664
 20
803.5002223270133
 30
559.7695085637733
 10
145.4533870191601
 20
803.4311953132792
 30
559.8566580443914
 10
145.448580395353
 20
803.3887238545599
 30
559.8948942442881
 10
145.4379418071157
 20
803.294688566263
 30
559.9545523571342
 10
145.4319584531024
 20
803.2417860139757
 30
559.9767030669128
 10
145.4216601099783
 20
803.1506975106381
 30
559.9978334730995
 10
145.4173665043549
 20
803.1127117186411
 30
560.0021809999999
 10
145.4131009585824
 20
803.0749647699121
 30
560.0021809999999
  0
SPLINE
  5
857
330
1F
100
AcDbEntity
  8
Hewi
100
AcDbSpline
 70
     0
 71
     3
 72
     8
 73
     4
 74
     0
 42
0.0000000001
 43
0.0000000001
 40
0.0
 40
0.0
 40
0.0
 40
0.0
 40
1.0
 40
1.0
 40
1.0
 40
1.0
 10
135.4636318135131
 20
804.0853247666102
 30
560.0021809999999
 10
135.4657529765556
 20
804.1041045878213
 30
560.0021809999999
 10
135.467877684533
 20
804.1229135047379
 30
560.0011242676653
 10
135.469986166119
 20
804.1415765344963
 30
559.9990203087767
  0
LINE
  5
85A
330
1F
100
AcDbEntity
  8
Hewi
100
AcDbLine
 10
137.2253199312226
 20
423.9730844572563
 30
560.0021809999999
 11
137.2253199312226
 21
423.9730844572563
 31
527.202181
210
0.0
220
1.0
230
0.0
  0
ARC
  5
85C
330
1F
100
AcDbEntity
  8
Hewi
100
AcDbCircle
 10
135.4553869312226
 20
420.6266744572563
 30
527.202181
 40
2.0
100
AcDbArc
 50
304.169708000001
 51
4.060901999999118
  0
LINE
  5
85F
330
1F
100
AcDbEntity
  8
Hewi
100
AcDbLine
 10
142.0455559312227
 20
781.0802654572563
 30
502.8021809999999
 11
143.0455559312227
 21
781.0802654572563
 31
502.8021809999999
210
0.0
220
1.0
230
0.0
  0
ARC
  5
863
330
1F
100
AcDbEntity
  8
Hewi
100
AcDbCircle
 10
135.4553869312226
 20
420.6266744572563
 30
251.802181
 40
2.0
100
AcDbArc
 50
304.169708000001
 51
4.060901999999118
  0
SPLINE
  5
866
330
1F
100
AcDbEntity
  8
Hewi
100
AcDbSpline
 70
     0
 71
     3
 72
    16
 73
    12
 74
     0
 42
0.0000000001
 43
0.0000000001
 40
0.0
 40
0.0
 40
0.0
 40
0.0
 40
0.2134577291023125
 40
0.2134577291023125
 40
0.4267854692201147
 40
0.4267854692201147
 40
0.6405715050836122
 40
0.6405715050836122
 40
0.8555284401686311
 40
0.8555284401686311
 40
1.0
 40
1.0
 40
1.0
 40
1.0
 10
145.4695420640173
 20
803.5738894497054
 30
219.502181
 10
145.4695420640173
 20
803.5738894497054
 30
219.4464866271967
 10
145.468460429488
 20
803.5643388892097
 30
219.3900268548717
 10
145.4643172962735
 20
803.5277496618025
 30
219.2849327230145
 10
145.4612004968664
 20
803.5002223270133
 30
219.2348534362266
 10
145.4533870191601
 20
803.4311953132792
 30
219.1477039556085
 10
145.448580395353
 20
803.3887238545599
 30
219.1094677557119
 10
145.4379418071157
 20
803.294688566263
 30
219.0498096428656
 10
145.4319584531024
 20
803.2417860139757
 30
219.027658933087
 10
145.4216601099783
 20
803.1506975106381
 30
219.0065285269004
 10
145.4173665043549
 20
803.1127117186411
 30
219.002181
 10
145.4131009585824
 20
803.0749647699121
 30
219.002181
  0
ARC
  5
867
330
1F
100
AcDbEntity
  8
Hewi
100
AcDbCircle
 10
2220.108357931223
 20
568.6266744572564
 30
219.002181
 40
2087.899999505454
100
AcDbArc
 50
173.5527139999996
 51
183.9727409999988
  0
SPLINE
  5
869
330
1F
100
AcDbEntity
  8
Hewi
100
AcDbSpline
 70
     0
 71
     3
 72
    16
 73
    12
 74
     0
 42
0.0000000001
 43
0.0000000001
 40
0.0
 40
0.0
 40
0.0
 40
0.0
 40
0.2239963859337362
 40
0.2239963859337362
 40
0.4480742375907942
 40
0.4480742375907942
 40
0.6725448293293395
 40
0.6725448293293395
 40
0.8976761135811377
 40
0.8976761135811377
 40
1.0
 40
1.0
 40
1.0
 40
1.0
 10
127.2817892725486
 20
422.8139060442702
 30
559.5021809999999
 10
127.2817892725486
 20
422.8139060442702
 30
559.5580456966938
 10
127.281116700635
 20
422.8235585009988
 30
559.6146830993914
 10
127.2785403980617
 20
422.8605429184103
 30
559.7201063060396
 10
127.2766008206429
 20
422.8883899654376
 30
559.7703458349188
 10
127.2717423149595
 20
422.9581758810676
 30
559.8576514230213
 10
127.2687549898364
 20
423.0010979617833
 30
559.8958989846992
 10
127.2621570514541
 20
423.0959503955747
 30
559.955351694198
 10
127.2584540289351
 20
423.1492100461418
 30
559.9773268847243
 10
127.2529129043103
 20
423.2289551803109
 30
559.9954270563416
 10
127.2511328500823
 20
423.2545794571146
 30
559.9991995287653
 10
127.2493489898836
 20
423.280265457252
 30
560.0009795625871
  0
ARC
  5
86B
330
1F
100
AcDbEntity
  8
Hewi
100
AcDbCircle
 10
139.9917349312227
 20
804.0802654572564
 30
559.5021809999999
 40
4.5
100
AcDbArc
 50
90.0
 51
173.5420350000012
  0
SPLINE
  5
86C
330
1F
100
AcDbEntity
  8
Hewi
100
AcDbSpline
 70
     0
 71
     3
 72
     8
 73
     4
 74
     0
 42
0.0000000001
 43
0.0000000001
 40
0.0
 40
0.0
 40
0.0
 40
0.0
 40
1.0
 40
1.0
 40
1.0
 40
1.0
 10
137.4473898062679
 20
420.8102282700881
 30
560.002180999958
 10
137.4493663013329
 20
420.7823804275511
 30
559.8372731275833
 10
137.4503654905954
 20
420.7683083167793
 30
559.6694353429565
 10
137.4503654905954
 20
420.7683083167793
 30
559.5021809999999
  0
LINE
  5
86D
330
1F
100
AcDbEntity
  8
Hewi
100
AcDbLine
 10
140.9981239312228
 20
808.5802654572564
 30
559.5021809999999
 11
140.9981239312228
 21
808.5802654572564
 31
219.502181
210
0.0
220
1.0
230
0.0
  0
LINE
  5
86E
330
1F
100
AcDbEntity
  8
Hewi
100
AcDbLine
 10
142.0455559312227
 20
781.0802654572563
 30
527.202181
 11
142.0455559312227
 21
781.0802654572563
 31
502.8021809999999
210
0.0
220
1.0
230
0.0
  0
SPLINE
  5
86F
330
1F
100
AcDbEntity
  8
Hewi
100
AcDbSpline
 70
     3
 71
     3
 72
    15
 73
    11
 74
     0
 42
0.0000000001
 43
0.0000000001
 40
0.0
 40
0.0
 40
0.0
 40
0.0
 40
0.125
 40
0.25
 40
0.375
 40
0.5
 40
0.625
 40
0.75
 40
0.875
 40
1.0
 40
1.0
 40
1.0
 40
1.0
 10
136.6923683996922
 20
432.876744179236
 30
515.0021804855117
 10
136.6924054149863
 20
432.8767442383972
 30
514.0307680846468
 10
136.6233270380996
 20
433.6828051252881
 30
512.0980880286544
 10
136.3840292760178
 20
436.5794757523794
 30
510.8990755366098
 10
136.1743349545395
 20
439.4781352463935
 30
512.0981570869156
 10
136.0588912969788
 20
440.6865629999248
 30
515.0021764475979
 10
136.1743439522204
 20
439.4781407185845
 30
517.9062023006131
 10
136.3839968778077
 20
436.5794743227732
 30
519.1052867015719
 10
136.6233704805563
 20
433.6828062702093
 30
517.906275459016
 10
136.6923313843983
 20
432.8767441200747
 30
515.9735928863765
 10
136.6923683996922
 20
432.876744179236
 30
515.0021804855117
  0
LINE
  5
871
330
1F
100
AcDbEntity
  8
Hewi
100
AcDbLine
 10
137.4503659312227
 20
420.7683084572563
 30
502.8021809999999
 11
137.4503659312227
 21
420.7683084572563
 31
276.202181
210
0.0
220
1.0
230
0.0
  0
ARC
  5
872
330
1F
100
AcDbEntity
  8
Hewi
100
AcDbCircle
 10
-2220.108392931223
 20
568.6266774572564
 30
-276.202181
 40
2087.900035337399
210
0.0
220
0.0
230
-1.0
100
AcDbArc
 50
355.9390980000009
 51
356.0272590000012
  0
LINE
  5
873
330
1F
100
AcDbEntity
  8
Hewi
100
AcDbLine
 10
143.0455559312227
 20
781.0802654572563
 30
276.202181
 11
143.0455559312227
 21
781.0802654572563
 31
251.802181
210
0.0
220
1.0
230
0.0
  0
LINE
  5
875
330
1F
100
AcDbEntity
  8
Hewi
100
AcDbLine
 10
137.2253199312226
 20
423.9730844572563
 30
219.002181
 11
137.2253199312226
 21
423.9730844572563
 31
251.802181
210
0.0
220
1.0
230
0.0
  0
ARC
  5
878
330
1F
100
AcDbEntity
  8
Hewi
100
AcDbCircle
 10
131.7709069312227
 20
423.1266744572563
 30
219.502181
 40
4.5
100
AcDbArc
 50
183.9855080000002
 51
270.0
  0
ARC
  5
879
330
1F
100
AcDbEntity
  8
Hewi
100
AcDbCircle
 10
135.4553869312226
 20
420.6266744572563
 30
219.502181
 40
2.0
100
AcDbArc
 50
270.0
 51
4.060901999999118
  0
LINE
  5
87C
330
1F
100
AcDbEntity
  8
Hewi
100
AcDbLine
 10
1435.734110057815
 20
805.1020752433752
 30
559.502182
 11
1435.734110057815
 21
805.1020752433752
 31
219.502182
  0
LINE
  5
881
330
1F
100
AcDbEntity
  8
Hewi
100
AcDbLine
 10
1437.047088433062
 20
808.2861388776221
 30
559.502182
 11
1437.047088433062
 21
808.2861388776221
 31
219.502182
  0
LINE
  5
882
330
1F
100
AcDbEntity
  8
Hewi
100
AcDbLine
 10
1453.251723202509
 20
420.9937677538296
 30
219.502182
 11
1453.251723202509
 21
420.9937677538296
 31
559.502182
  0
ARC
  5
883
330
1F
100
AcDbEntity
  8
Hewi
100
AcDbCircle
 10
1450.064706220915
 20
424.1707047893648
 30
559.5021809999999
 40
4.5
100
AcDbArc
 50
270.0907514231534
 51
356.1052434231493
  0
SPLINE
  5
884
330
1F
100
AcDbEntity
  8
Hewi
100
AcDbSpline
 70
     0
 71
     3
 72
     8
 73
     4
 74
     0
 42
0.0000000001
 43
0.0000000001
 40
0.0
 40
0.0
 40
0.0
 40
0.0
 40
1.0
 40
1.0
 40
1.0
 40
1.0
 10
1454.586015216078
 20
424.3314573396727
 30
560.0009795625959
 10
1454.586799129452
 20
424.3430097107537
 30
560.0017800521658
 10
1454.587585285427
 20
424.3545965498929
 30
560.0021809999999
 10
1454.588370877806
 20
424.3661765078352
 30
560.0021809999999
  0
LINE
  5
885
330
1F
100
AcDbEntity
  8
Hewi
100
AcDbLine
 10
1454.586015274738
 20
424.3314573397706
 30
560.00098
 11
1454.586015274738
 21
424.3314573397706
 31
219.003382
210
-0.0015839104725547
220
0.9999987456130208
230
0.0
  0
LINE
  5
886
330
1F
100
AcDbEntity
  8
Hewi
100
AcDbLine
 10
1445.711130870805
 20
805.6240126058373
 30
559.5021809999999
 11
1445.711130870805
 21
805.6240126058373
 31
219.502181
210
-0.0015839104725547
220
0.9999987456130208
230
0.0
  0
LINE
  5
887
330
1F
100
AcDbEntity
  8
Hewi
100
AcDbLine
 10
1439.223103667827
 20
782.1075726528881
 30
527.202181
 11
1438.223104922214
 21
782.1059887424156
 31
527.202181
210
-0.0015839104725547
220
0.9999987456130208
230
0.0
  0
LINE
  5
888
330
1F
100
AcDbEntity
  8
Hewi
100
AcDbLine
 10
1441.233364553546
 20
809.610791225837
 30
219.502181
 11
1440.226976815947
 21
809.6091971957601
 31
219.502181
210
-0.0015839104725547
220
0.9999987456130208
230
0.0
  0
ARC
  5
889
330
1F
100
AcDbEntity
  8
Hewi
100
AcDbCircle
 10
1440.234104413073
 20
805.1092028405017
 30
219.502181
 40
4.5
100
AcDbArc
 50
90.09075142315341
 51
186.5518154231477
  0
ARC
  5
88A
330
1F
100
AcDbEntity
  8
Hewi
100
AcDbCircle
 10
-638.5006191742425
 20
566.3627856617516
 30
219.002181
 40
2087.900035337399
100
AcDbArc
 50
356.0310024231498
 51
356.1180104231513
  0
ARC
  5
88B
330
1F
100
AcDbEntity
  8
Hewi
100
AcDbCircle
 10
638.5005841695349
 20
566.3627827171924
 30
-219.002181
 40
2097.900000000001
210
0.0
220
0.0
230
-1.0
100
AcDbArc
 50
173.4650555768484
 51
183.8810385768512
  0
ARC
  5
88C
330
1F
100
AcDbEntity
  8
Hewi
100
AcDbCircle
 10
-1413.729010878761
 20
-419.9272844677639
 30
639.1448273469379
 40
2.0
210
0.0115643244014964
220
0.1666735331154491
230
0.985944318792877
100
AcDbArc
 50
0.0000001120327293
 51
94.00287311202403
  0
ARC
  5
88D
330
1F
100
AcDbEntity
  8
Hewi
100
AcDbCircle
 10
1440.234104413073
 20
805.1092028405017
 30
559.5021809999999
 40
4.5
100
AcDbArc
 50
90.09075142315341
 51
186.5518154231477
  0
SPLINE
  5
88E
330
1F
100
AcDbEntity
  8
Hewi
100
AcDbSpline
 70
     0
 71
     3
 72
    16
 73
    12
 74
     0
 42
0.0000000001
 43
0.0000000001
 40
0.0
 40
0.0
 40
0.0
 40
0.0
 40
0.2333249194952857
 40
0.2333249194952857
 40
0.4665778506701306
 40
0.4665778506701306
 40
0.6988308614011856
 40
0.6988308614011856
 40
0.92949182626087
 40
0.92949182626087
 40
1.0
 40
1.0
 40
1.0
 40
1.0
 10
1445.762138132497
 20
805.1792699161348
 30
559.9990203087833
 10
1445.755731518787
 20
805.2351834181774
 30
559.9927158173167
 10
1445.749357542515
 20
805.2907911524457
 30
559.9766589554729
 10
1445.737730701315
 20
805.39219422064
 30
559.927615701468
 10
1445.732317160054
 20
805.4393912559968
 30
559.8939524346611
 10
1445.723221075031
 20
805.5186761701325
 30
559.8139939980836
 10
1445.719405644363
 20
805.5519229054654
 30
559.7666397771133
 10
1445.713895721196
 20
805.5999297695207
 30
559.6652206043109
 10
1445.71211110718
 20
805.6154755294443
 30
559.609796126826
 10
1445.711235096142
 20
805.6231065753401
 30
559.53688124071
 10
1445.711131072632
 20
805.6240127220938
 30
559.5195192219168
 10
1445.711131072632
 20
805.6240127220938
 30
559.5021809999999
  0
LINE
  5
88F
330
1F
100
AcDbEntity
  8
Hewi
100
AcDbLine
 10
1441.233364553546
 20
809.610791225837
 30
559.5021809999999
 11
1440.226976815947
 21
809.6091971957601
 31
559.5021809999999
210
-0.0015839104725547
220
0.9999987456130208
230
0.0
  0
LINE
  5
890
330
1F
100
AcDbEntity
  8
Hewi
100
AcDbLine
 10
1450.071833818041
 20
419.6707104341062
 30
559.5021809999999
 11
1450.071833818041
 21
419.6707104341062
 31
219.502181
210
-0.0015839104725547
220
0.9999987456130208
230
0.0
  0
LINE
  5
891
330
1F
100
AcDbEntity
  8
Hewi
100
AcDbLine
 10
1438.223104922214
 20
782.1059887424156
 30
502.8021809999999
 11
1438.223104922214
 21
782.1059887424156
 31
527.202181
210
-0.0015839104725547
220
0.9999987456130208
230
0.0
  0
ARC
  5
892
330
1F
100
AcDbEntity
  8
Hewi
100
AcDbCircle
 10
638.5005841695349
 20
566.3627827171924
 30
-527.202181
 40
2087.899999505454
210
0.0
220
0.0
230
-1.0
100
AcDbArc
 50
174.0690265768519
 51
183.8819895768486
  0
ARC
  5
893
330
1F
100
AcDbEntity
  8
Hewi
100
AcDbCircle
 10
638.5005841695349
 20
566.3627827171924
 30
-502.8021809999999
 40
2087.899999505454
210
0.0
220
0.0
230
-1.0
100
AcDbArc
 50
174.0690265768519
 51
183.8819895768486
  0
LINE
  5
894
330
1F
100
AcDbEntity
  8
Hewi
100
AcDbLine
 10
1439.223103667827
 20
782.1075726528881
 30
276.202181
 11
1438.223104922214
 21
782.1059887424156
 31
276.202181
210
-0.0015839104725547
220
0.9999987456130208
230
0.0
  0
LINE
  5
895
330
1F
100
AcDbEntity
  8
Hewi
100
AcDbLine
 10
1444.38898978576
 20
421.8033459930799
 30
219.502181
 11
1444.38898978576
 21
421.8033459930799
 31
251.802181
210
-0.0015839104725547
220
0.9999987456130208
230
0.0
  0
SPLINE
  5
896
330
1F
100
AcDbEntity
  8
Hewi
100
AcDbSpline
 70
     0
 71
     3
 72
    16
 73
    12
 74
     0
 42
0.0000000001
 43
0.0000000001
 40
0.0
 40
0.0
 40
0.0
 40
0.0
 40
0.2333249194952857
 40
0.2333249194952857
 40
0.4665778506701306
 40
0.4665778506701306
 40
0.6988308614011856
 40
0.6988308614011856
 40
0.92949182626087
 40
0.92949182626087
 40
1.0
 40
1.0
 40
1.0
 40
1.0
 10
1445.762138132497
 20
805.1792699161348
 30
219.0053416912166
 10
1445.755731518787
 20
805.2351834181774
 30
219.0116461826833
 10
1445.749357542515
 20
805.2907911524457
 30
219.0277030445272
 10
1445.737730701315
 20
805.39219422064
 30
219.0767462985319
 10
1445.732317160054
 20
805.4393912559968
 30
219.110409565339
 10
1445.723221075031
 20
805.5186761701325
 30
219.1903680019164
 10
1445.719405644363
 20
805.5519229054654
 30
219.2377222228866
 10
1445.713895721196
 20
805.5999297695207
 30
219.3391413956891
 10
1445.71211110718
 20
805.6154755294443
 30
219.3945658731739
 10
1445.711235096142
 20
805.6231065753401
 30
219.46748075929
 10
1445.711131072632
 20
805.6240127220938
 30
219.4848427780831
 10
1445.711131072632
 20
805.6240127220938
 30
219.502181
  0
SPLINE
  5
897
330
1F
100
AcDbEntity
  8
Hewi
100
AcDbSpline
 70
     0
 71
     3
 72
     8
 73
     4
 74
     0
 42
0.0000000001
 43
0.0000000001
 40
0.0
 40
0.0
 40
0.0
 40
0.0
 40
1.0
 40
1.0
 40
1.0
 40
1.0
 10
1444.391899509751
 20
421.8452704672435
 30
219.002181000042
 10
1444.389967125655
 20
421.8174195290472
 30
219.1670888724167
 10
1444.388990226609
 20
421.8033458533011
 30
219.3349266570434
 10
1444.388990226609
 20
421.8033458533011
 30
219.502181
  0
SPLINE
  5
898
330
1F
100
AcDbEntity
  8
Hewi
100
AcDbSpline
 70
     0
 71
     3
 72
     8
 73
     4
 74
     0
 42
0.0000000001
 43
0.0000000001
 40
0.0
 40
0.0
 40
0.0
 40
0.0
 40
1.0
 40
1.0
 40
1.0
 40
1.0
 10
1454.586015216078
 20
424.3314573396727
 30
219.0033824374041
 10
1454.586799129452
 20
424.3430097107537
 30
219.0025819478342
 10
1454.587585285427
 20
424.3545965498929
 30
219.002181
 10
1454.588370877806
 20
424.3661765078352
 30
219.002181
  0
ARC
  5
899
330
1F
100
AcDbEntity
  8
Hewi
100
AcDbCircle
 10
-638.5006191742425
 20
566.3627856617516
 30
560.0021809999999
 40
2087.900035337399
100
AcDbArc
 50
356.0310024231498
 51
356.1180104231513
  0
LINE
  5
89A
330
1F
100
AcDbEntity
  8
Hewi
100
AcDbLine
 10
1445.762138367514
 20
805.1792698392658
 30
559.9990199999998
 11
1445.762138367514
 21
805.1792698392658
 31
219.005342
210
-0.0015839104725547
220
0.9999987456130208
230
0.0
  0
LINE
  5
89B
330
1F
100
AcDbEntity
  8
Hewi
100
AcDbLine
 10
1441.233364553546
 20
809.610791225837
 30
219.502181
 11
1441.233364553546
 21
809.610791225837
 31
559.5021809999999
210
-0.0015839104725547
220
0.9999987456130208
230
0.0
  0
ARC
  5
89C
330
1F
100
AcDbEntity
  8
Hewi
100
AcDbCircle
 10
638.5006191742425
 20
566.3627856617516
 30
-502.8021809999999
 40
2087.900035337399
210
0.0
220
0.0
230
-1.0
100
AcDbArc
 50
183.8819895768486
 51
183.9701505768497
  0
ARC
  5
89D
330
1F
100
AcDbEntity
  8
Hewi
100
AcDbCircle
 10
638.5005841695349
 20
566.3627827171924
 30
-276.202181
 40
2087.899999505454
210
0.0
220
0.0
230
-1.0
100
AcDbArc
 50
174.0690265768519
 51
183.8819895768486
  0
SPLINE
  5
89E
330
1F
100
AcDbEntity
  8
Hewi
100
AcDbSpline
 70
     3
 71
     3
 72
    22
 73
    18
 74
     0
 42
0.0000000001
 43
0.0000000001
 40
0.0
 40
0.0
 40
0.0
 40
0.0
 40
0.1250000000000001
 40
0.1250000000000001
 40
0.2500000000000001
 40
0.2500000000000001
 40
0.3750000000000001
 40
0.3750000000000001
 40
0.5000000000000001
 40
0.5000000000000001
 40
0.6250000000000001
 40
0.6250000000000001
 40
0.7500000000000002
 40
0.7500000000000002
 40
0.8750000000000001
 40
0.8750000000000001
 40
1.0
 40
1.0
 40
1.0
 40
1.0
 10
1446.12636142147
 20
432.8534820496988
 30
264.0021810000001
 10
1446.126399518359
 20
432.854080130651
 30
262.7700187909741
 10
1446.158866852619
 20
433.3592701270413
 30
261.5488257134591
 10
1446.269599663875
 20
435.1047146189859
 30
259.8072403358864
 10
1446.346268942121
 20
436.3250990625716
 30
259.3038217501716
 10
1446.498440388065
 20
438.7869445586544
 30
259.3023028636806
 10
1446.572547222904
 20
440.0058916608866
 30
259.8068271597088
 10
1446.677378942896
 20
441.7478788048553
 30
261.5457170092245
 10
1446.707623622289
 20
442.2573568002784
 30
262.7724803608538
 10
1446.707599515682
 20
442.2569408229507
 30
265.2418507488722
 10
1446.677454357252
 20
441.7491091354961
 30
266.4591524472307
 10
1446.572457459575
 20
440.0044230192486
 30
268.1972651007411
 10
1446.498317428453
 20
438.7849457033991
 30
268.7021864486589
 10
1446.346021917134
 20
436.3211122000333
 30
268.7004119198753
 10
1446.269421688684
 20
435.1018913829125
 30
268.194560045444
 10
1446.158812381261
 20
433.3584277289476
 30
266.4544353982242
 10
1446.126323324581
 20
432.8528839687464
 30
265.234343209026
 10
1446.12636142147
 20
432.8534820496988
 30
264.0021810000001
  0
SPLINE
  5
89F
330
1F
100
AcDbEntity
  8
Hewi
100
AcDbSpline
 70
     3
 71
     3
 72
    44
 73
    40
 74
     0
 42
0.0000000001
 43
0.0000000001
 40
0.0
 40
0.0
 40
0.0
 40
0.0
 40
0.0535720415919496
 40
0.0535720415919496
 40
0.1071412080804746
 40
0.1071412080804746
 40
0.1607560831340352
 40
0.1607560831340352
 40
0.2144709663796475
 40
0.2144709663796475
 40
0.2682828278171583
 40
0.2682828278171583
 40
0.3221464479768693
 40
0.3221464479768693
 40
0.3759923734649718
 40
0.3759923734649718
 40
0.4297571037147034
 40
0.4297571037147034
 40
0.483412477416339
 40
0.483412477416339
 40
0.5369796858972263
 40
0.5369796858972263
 40
0.5905201441065491
 40
0.5905201441065491
 40
0.6441073099110623
 40
0.6441073099110623
 40
0.6977931240926855
 40
0.6977931240926855
 40
0.7515848604190803
 40
0.7515848604190803
 40
0.8054427052343335
 40
0.8054427052343335
 40
0.8592985379513196
 40
0.8592985379513196
 40
0.9130866446469532
 40
0.9130866446469532
 40
0.9667720534391596
 40
0.9667720534391596
 40
1.0
 40
1.0
 40
1.0
 40
1.0
 10
1446.5609829672
 20
439.8187658341343
 30
264.001353564219
 10
1446.5609829672
 20
439.8187658341343
 30
264.248057058533
 10
1446.558409675771
 20
439.7763676056263
 30
264.4973235386188
 10
1446.548532022915
 20
439.6138533311949
 30
264.9613326607568
 10
1446.541091442502
 20
439.4915066991369
 30
265.1824698067307
 10
1446.522399580098
 20
439.1848418675788
 30
265.5666860076012
 10
1446.510887117726
 20
438.99625549576
 30
265.7350069807349
 10
1446.485377421833
 20
438.5795465554776
 30
265.996491800853
 10
1446.471023607896
 20
438.3456161029529
 30
266.0931207695397
 10
1446.441456954871
 20
437.8652150840514
 30
266.2021658235123
 10
1446.42583458146
 20
437.6121001238088
 30
266.2159361946134
 10
1446.395502011401
 20
437.1220863571738
 30
266.1595960136507
 10
1446.380374170677
 20
436.8784383371318
 30
266.0886258134874
 10
1446.35274610817
 20
436.4345701449148
 30
265.8728325051445
 10
1446.339864188379
 20
436.2282042620449
 30
265.7250469136688
 10
1446.318162371634
 20
435.8811629567044
 30
265.3743503416228
 10
1446.309037831742
 20
435.7355982055437
 30
265.1666715079628
 10
1446.295804077817
 20
435.5246625355001
 30
264.7212813469593
 10
1446.291503117925
 20
435.4562220345616
 30
264.4774803554256
 10
1446.28826444632
 20
435.4046791483371
 30
263.9880959185702
 10
1446.289273600454
 20
435.4207277772889
 30
263.735769107238
 10
1446.296370623988
 20
435.5337162022496
 30
263.2573909997671
 10
1446.302553017126
 20
435.6321682232074
 30
263.0247393894385
 10
1446.319135150037
 20
435.8967474470696
 30
262.610631347484
 10
1446.329765481328
 20
436.0665690617075
 30
262.423517783459
 10
1446.353915523591
 20
436.4533723952702
 30
262.1198436673959
 10
1446.367771733751
 20
436.6757612049837
 30
261.9992277077102
 10
1446.396726965045
 20
437.1418609674581
 30
261.840343115214
 10
1446.41222676582
 20
437.3920360253126
 30
261.8000436459894
 10
1446.442685892494
 20
437.8851350362665
 30
261.8045007835186
 10
1446.458064947354
 20
438.1348555169356
 30
261.8494238076204
 10
1446.4865697365
 20
438.5989523050834
 30
262.0172690233487
 10
1446.500089938998
 20
438.819740345695
 30
262.1425114679517
 10
1446.523439806749
 20
439.201837650627
 30
262.4547686891983
 10
1446.533597512297
 20
439.3684972232668
 30
262.6460257196262
 10
1446.549225037653
 20
439.6252095168994
 30
263.0669006578159
 10
1446.554920191161
 20
439.71894786928
 30
263.3022597729303
 10
1446.559992288495
 20
439.8024474575386
 30
263.6936492614058
 10
1446.5609829672
 20
439.8187658341343
 30
263.848336238729
 10
1446.5609829672
 20
439.8187658341343
 30
264.001353564219
  0
LINE
  5
8A0
330
1F
100
AcDbEntity
  8
Hewi
100
AcDbLine
 10
1439.223103667827
 20
782.1075726528881
 30
251.802181
 11
1438.223104922214
 21
782.1059887424156
 31
251.802181
210
-0.0015839104725547
220
0.9999987456130208
230
0.0
  0
ARC
  5
8A1
330
1F
100
AcDbEntity
  8
Hewi
100
AcDbCircle
 10
638.5005841695349
 20
566.3627827171924
 30
-560.0021809999999
 40
2097.900000000001
210
0.0
220
0.0
230
-1.0
100
AcDbArc
 50
173.4650555768484
 51
183.8810385768512
  0
LINE
  5
8A2
330
1F
100
AcDbEntity
  8
Hewi
100
AcDbLine
 10
1454.554313986334
 20
423.8650475427096
 30
219.502181
 11
1454.554313986334
 21
423.8650475427096
 31
559.5021809999999
210
-0.0015839104725547
220
0.9999987456130208
230
0.0
  0
LINE
  5
8A3
330
1F
100
AcDbEntity
  8
Hewi
100
AcDbLine
 10
1444.38898978576
 20
421.8033459930799
 30
559.5021809999999
 11
1444.38898978576
 21
421.8033459930799
 31
527.202181
210
-0.0015839104725547
220
0.9999987456130208
230
0.0
  0
ARC
  5
8A4
330
1F
100
AcDbEntity
  8
Hewi
100
AcDbCircle
 10
638.5006191742425
 20
566.3627856617516
 30
-527.202181
 40
2087.900035337399
210
0.0
220
0.0
230
-1.0
100
AcDbArc
 50
183.8819895768486
 51
183.9701505768497
  0
SPLINE
  5
8A5
330
1F
100
AcDbEntity
  8
Hewi
100
AcDbSpline
 70
     3
 71
     3
 72
    44
 73
    40
 74
     0
 42
0.0000000001
 43
0.0000000001
 40
0.0
 40
0.0
 40
0.0
 40
0.0
 40
0.0535720415919496
 40
0.0535720415919496
 40
0.1071412080804746
 40
0.1071412080804746
 40
0.1607560831340352
 40
0.1607560831340352
 40
0.2144709663796475
 40
0.2144709663796475
 40
0.2682828278171583
 40
0.2682828278171583
 40
0.3221464479768693
 40
0.3221464479768693
 40
0.3759923734649718
 40
0.3759923734649718
 40
0.4297571037147034
 40
0.4297571037147034
 40
0.483412477416339
 40
0.483412477416339
 40
0.5369796858972263
 40
0.5369796858972263
 40
0.5905201441065491
 40
0.5905201441065491
 40
0.6441073099110623
 40
0.6441073099110623
 40
0.6977931240926855
 40
0.6977931240926855
 40
0.7515848604190803
 40
0.7515848604190803
 40
0.8054427052343335
 40
0.8054427052343335
 40
0.8592985379513196
 40
0.8592985379513196
 40
0.9130866446469532
 40
0.9130866446469532
 40
0.9667720534391596
 40
0.9667720534391596
 40
1.0
 40
1.0
 40
1.0
 40
1.0
 10
1446.5609829672
 20
439.8187658341343
 30
515.0030084357808
 10
1446.5609829672
 20
439.8187658341343
 30
514.7563049414668
 10
1446.558409675771
 20
439.7763676056263
 30
514.5070384613811
 10
1446.548532022915
 20
439.6138533311949
 30
514.043029339243
 10
1446.541091442502
 20
439.4915066991369
 30
513.8218921932693
 10
1446.522399580098
 20
439.1848418675788
 30
513.4376759923988
 10
1446.510887117726
 20
438.99625549576
 30
513.2693550192649
 10
1446.485377421833
 20
438.5795465554776
 30
513.0078701991471
 10
1446.471023607896
 20
438.3456161029529
 30
512.9112412304603
 10
1446.441456954871
 20
437.8652150840514
 30
512.8021961764877
 10
1446.42583458146
 20
437.6121001238088
 30
512.7884258053866
 10
1446.395502011401
 20
437.1220863571738
 30
512.8447659863493
 10
1446.380374170677
 20
436.8784383371318
 30
512.9157361865126
 10
1446.35274610817
 20
436.4345701449148
 30
513.1315294948555
 10
1446.339864188379
 20
436.2282042620449
 30
513.279315086331
 10
1446.318162371634
 20
435.8811629567044
 30
513.6300116583773
 10
1446.309037831742
 20
435.7355982055437
 30
513.8376904920371
 10
1446.295804077817
 20
435.5246625355001
 30
514.2830806530406
 10
1446.291503117925
 20
435.4562220345616
 30
514.5268816445742
 10
1446.28826444632
 20
435.4046791483371
 30
515.0162660814299
 10
1446.289273600454
 20
435.4207277772889
 30
515.2685928927618
 10
1446.296370623988
 20
435.5337162022496
 30
515.7469710002328
 10
1446.302553017126
 20
435.6321682232074
 30
515.9796226105615
 10
1446.319135150037
 20
435.8967474470696
 30
516.393730652516
 10
1446.329765481328
 20
436.0665690617075
 30
516.580844216541
 10
1446.353915523591
 20
436.4533723952702
 30
516.8845183326039
 10
1446.367771733751
 20
436.6757612049837
 30
517.0051342922898
 10
1446.396726965045
 20
437.1418609674581
 30
517.1640188847858
 10
1446.41222676582
 20
437.3920360253126
 30
517.2043183540106
 10
1446.442685892494
 20
437.8851350362665
 30
517.1998612164814
 10
1446.458064947354
 20
438.1348555169356
 30
517.1549381923796
 10
1446.4865697365
 20
438.5989523050834
 30
516.9870929766513
 10
1446.500089938998
 20
438.819740345695
 30
516.8618505320481
 10
1446.523439806749
 20
439.201837650627
 30
516.5495933108017
 10
1446.533597512297
 20
439.3684972232668
 30
516.3583362803738
 10
1446.549225037653
 20
439.6252095168994
 30
515.9374613421841
 10
1446.554920191161
 20
439.71894786928
 30
515.7021022270697
 10
1446.559992288495
 20
439.8024474575386
 30
515.3107127385943
 10
1446.5609829672
 20
439.8187658341343
 30
515.1560257612709
 10
1446.5609829672
 20
439.8187658341343
 30
515.0030084357808
  0
ARC
  5
8A6
330
1F
100
AcDbEntity
  8
Hewi
100
AcDbCircle
 10
1446.38419061886
 20
421.6648720388743
 30
502.8021809999999
 40
2.0
100
AcDbArc
 50
176.0298494231502
 51
235.9210434231464
  0
LINE
  5
8A7
330
1F
100
AcDbEntity
  8
Hewi
100
AcDbLine
 10
1439.223103667827
 20
782.1075726528881
 30
251.802181
 11
1439.223103667827
 21
782.1075726528881
 31
276.202181
210
-0.0015839104725547
220
0.9999987456130208
230
0.0
  0
ARC
  5
8A8
330
1F
100
AcDbEntity
  8
Hewi
100
AcDbCircle
 10
638.5005841695349
 20
566.3627827171924
 30
-251.802181
 40
2087.899999505454
210
0.0
220
0.0
230
-1.0
100
AcDbArc
 50
174.0690265768519
 51
183.8819895768486
  0
ARC
  5
8A9
330
1F
100
AcDbEntity
  8
Hewi
100
AcDbCircle
 10
1441.240492150672
 20
805.1107968705782
 30
219.502181
 40
4.5
100
AcDbArc
 50
6.548716423148594
 51
90.09075142315341
  0
LINE
  5
8AA
330
1F
100
AcDbEntity
  8
Hewi
100
AcDbLine
 10
1446.387358439805
 20
419.6648745476482
 30
219.502181
 11
1450.071833818041
 21
419.6707104341062
 31
219.502181
210
-0.0015839104725547
220
0.9999987456130208
230
0.0
  0
ARC
  5
8AB
330
1F
100
AcDbEntity
  8
Hewi
100
AcDbCircle
 10
1413.729010878761
 20
550.0788428682608
 30
128.910097681832
 40
2.0
210
-0.0115643244014964
220
-0.1666735331154491
230
0.985944318792877
100
AcDbArc
 50
180.0000001120327
 51
274.002873112024
  0
SPLINE
  5
8AC
330
1F
100
AcDbEntity
  8
Hewi
100
AcDbSpline
 70
     0
 71
     3
 72
     8
 73
     4
 74
     0
 42
0.0000000001
 43
0.0000000001
 40
0.0
 40
0.0
 40
0.0
 40
0.0
 40
1.0
 40
1.0
 40
1.0
 40
1.0
 10
1445.768581574895
 20
805.1230282835346
 30
219.002181
 10
1445.766430668958
 20
805.1418047214562
 30
219.002181
 10
1445.764276172005
 20
805.160610249432
 30
219.0032377323347
 10
1445.762138132496
 20
805.1792699161339
 30
219.0053416912233
  0
ARC
  5
8AD
330
1F
100
AcDbEntity
  8
Hewi
100
AcDbCircle
 10
-638.5005841695349
 20
566.3627827171924
 30
560.0021809999999
 40
2087.899999505454
100
AcDbArc
 50
356.1180104231513
 51
6.538037423149882
  0
LINE
  5
8AE
330
1F
100
AcDbEntity
  8
Hewi
100
AcDbLine
 10
1446.387358439805
 20
419.6648745476482
 30
559.5021809999999
 11
1450.071833818041
 21
419.6707104341062
 31
559.5021809999999
210
-0.0015839104725547
220
0.9999987456130208
230
0.0
  0
ARC
  5
8AF
330
1F
100
AcDbEntity
  8
Hewi
100
AcDbCircle
 10
1446.38419061886
 20
421.6648720388743
 30
559.5021809999999
 40
2.0
100
AcDbArc
 50
176.0298494231502
 51
270.0907514231534
  0
LINE
  5
8B0
330
1F
100
AcDbEntity
  8
Hewi
100
AcDbLine
 10
1435.763494076211
 20
804.595745149896
 30
219.502181
 11
1435.763494076211
 21
804.595745149896
 31
559.5021809999999
210
-0.0015839104725547
220
0.9999987456130208
230
0.0
  0
LINE
  5
8B1
330
1F
100
AcDbEntity
  8
Hewi
100
AcDbLine
 10
1444.608959425196
 20
425.0084744257668
 30
502.8021809999999
 11
1444.608959425196
 21
425.0084744257668
 31
276.202181
210
-0.0015839104725547
220
0.9999987456130208
230
0.0
  0
ARC
  5
8B2
330
1F
100
AcDbEntity
  8
Hewi
100
AcDbCircle
 10
1446.38419061886
 20
421.6648720388743
 30
276.202181
 40
2.0
100
AcDbArc
 50
176.0298494231502
 51
235.9210434231464
  0
SPLINE
  5
8B3
330
1F
100
AcDbEntity
  8
Hewi
100
AcDbSpline
 70
     3
 71
     3
 72
    22
 73
    18
 74
     0
 42
0.0000000001
 43
0.0000000001
 40
0.0
 40
0.0
 40
0.0
 40
0.0
 40
0.125
 40
0.125
 40
0.2499999999999999
 40
0.2499999999999999
 40
0.3749999999999999
 40
0.3749999999999999
 40
0.5
 40
0.5
 40
0.625
 40
0.625
 40
0.75
 40
0.75
 40
0.8750000000000001
 40
0.8750000000000001
 40
1.0
 40
1.0
 40
1.0
 40
1.0
 10
1445.12770493803
 20
433.9164882463136
 30
264.0021810000001
 10
1445.127666658073
 20
433.916017540525
 30
264.9723629677625
 10
1445.160310320011
 20
434.3138941595348
 30
265.9330411821451
 10
1445.271453500485
 20
435.6860467470911
 30
267.3031834451961
 10
1445.348427431484
 20
436.6456059394035
 30
267.701481943046
 10
1445.501479325703
 20
438.5847075227641
 30
267.7028791744838
 10
1445.575994324242
 20
439.5444677521305
 30
267.3053133568895
 10
1445.681528195261
 20
440.9175805363965
 30
265.9367552993891
 10
1445.711829851893
 20
441.3172569768689
 30
264.9782742544839
 10
1445.711854086974
 20
441.3175843614006
 30
263.0339372398556
 10
1445.681452402903
 20
440.9166122342305
 30
262.068006262636
 10
1445.576084538915
 20
439.5456236111748
 30
260.6988362550211
 10
1445.501602899
 20
438.5862806710679
 30
260.3015830689205
 10
1445.348675680375
 20
436.6487437080235
 30
260.3027790122994
 10
1445.271632340743
 20
435.6882687091932
 30
260.6991615831147
 10
1445.160365048824
 20
434.3145571496576
 30
262.0704539986491
 10
1445.127743217987
 20
433.9169589521023
 30
263.0319990322376
 10
1445.12770493803
 20
433.9164882463136
 30
264.0021810000001
  0
ARC
  5
8B4
330
1F
100
AcDbEntity
  8
Hewi
100
AcDbCircle
 10
638.5006191742425
 20
566.3627856617516
 30
-251.802181
 40
2087.900035337399
210
0.0
220
0.0
230
-1.0
100
AcDbArc
 50
183.8819895768486
 51
183.9701505768497
  0
SPLINE
  5
8B5
330
1F
100
AcDbEntity
  8
Hewi
100
AcDbSpline
 70
     0
 71
     3
 72
    16
 73
    12
 74
     0
 42
0.0000000001
 43
0.0000000001
 40
0.0
 40
0.0
 40
0.0
 40
0.0
 40
0.2239963859337362
 40
0.2239963859337362
 40
0.4480742375907942
 40
0.4480742375907942
 40
0.6725448293293395
 40
0.6725448293293395
 40
0.8976761135811377
 40
0.8976761135811377
 40
1.0
 40
1.0
 40
1.0
 40
1.0
 10
1454.554313645663
 20
423.8650471291832
 30
219.502181
 10
1454.554313645663
 20
423.8650471291832
 30
219.446316303306
 10
1454.554970928105
 20
423.8747006390979
 30
219.3896789006086
 10
1454.557488647441
 20
423.9116890907492
 30
219.2842556939603
 10
1454.559384115198
 20
423.9395391749624
 30
219.2340161650812
 10
1454.564132080144
 20
424.0093326984919
 30
219.1467105769787
 10
1454.567051416787
 20
424.0522594570223
 30
219.1084630153008
 10
1454.573499109129
 20
424.1471222223758
 30
219.049010305802
 10
1454.577117768485
 20
424.2003876713908
 30
219.0270351152756
 10
1454.582532577006
 20
424.2801414821739
 30
219.0089349436584
 10
1454.584272042441
 20
424.3057685462814
 30
219.0051624712347
 10
1454.586015216077
 20
424.3314573396735
 30
219.0033824374127
  0
SPLINE
  5
8B6
330
1F
100
AcDbEntity
  8
Hewi
100
AcDbSpline
 70
     0
 71
     3
 72
    16
 73
    12
 74
     0
 42
0.0000000001
 43
0.0000000001
 40
0.0
 40
0.0
 40
0.0
 40
0.0
 40
0.2134577291023125
 40
0.2134577291023125
 40
0.4267854692201147
 40
0.4267854692201147
 40
0.6405715050836122
 40
0.6405715050836122
 40
0.8555284401686311
 40
0.8555284401686311
 40
1.0
 40
1.0
 40
1.0
 40
1.0
 10
1435.763493943429
 20
804.5957451421346
 30
559.5021809999999
 10
1435.763493943429
 20
804.5957451421346
 30
559.5578753728033
 10
1435.764590703834
 20
804.5861963068311
 30
559.6143351451281
 10
1435.768791785912
 20
804.5496136876732
 30
559.7194292769853
 10
1435.771952182243
 20
804.522091324145
 30
559.7695085637733
 10
1435.779874982759
 20
804.4530767728467
 30
559.8566580443914
 10
1435.784748871524
 20
804.410612980665
 30
559.8948942442881
 10
1435.795536389895
 20
804.316594660896
 30
559.9545523571342
 10
1435.801603529309
 20
804.2637016520657
 30
559.9767030669128
 10
1435.81204613555
 20
804.1726295746425
 30
559.9978334730995
 10
1435.816399901881
 20
804.134650630981
 30
560.0021809999999
 10
1435.82072523009
 20
804.096910485844
 30
560.0021809999999
  0
SPLINE
  5
8B7
330
1F
100
AcDbEntity
  8
Hewi
100
AcDbSpline
 70
     0
 71
     3
 72
     8
 73
     4
 74
     0
 42
0.0000000001
 43
0.0000000001
 40
0.0
 40
0.0
 40
0.0
 40
0.0
 40
1.0
 40
1.0
 40
1.0
 40
1.0
 10
1445.768581574895
 20
805.1230282835346
 30
560.0021809999999
 10
1445.766430668958
 20
805.1418047214562
 30
560.0021809999999
 10
1445.764276172005
 20
805.160610249432
 30
560.0011242676653
 10
1445.762138132496
 20
805.1792699161339
 30
559.9990203087767
  0
LINE
  5
8B8
330
1F
100
AcDbEntity
  8
Hewi
100
AcDbLine
 10
1444.608959425196
 20
425.0084744257668
 30
560.0021809999999
 11
1444.608959425196
 21
425.0084744257668
 31
527.202181
210
-0.0015839104725547
220
0.9999987456130208
230
0.0
  0
ARC
  5
8B9
330
1F
100
AcDbEntity
  8
Hewi
100
AcDbCircle
 10
1446.38419061886
 20
421.6648720388743
 30
527.202181
 40
2.0
100
AcDbArc
 50
176.0298494231502
 51
235.9210434231464
  0
LINE
  5
8BA
330
1F
100
AcDbEntity
  8
Hewi
100
AcDbLine
 10
1439.223103667827
 20
782.1075726528881
 30
502.8021809999999
 11
1438.223104922214
 21
782.1059887424156
 31
502.8021809999999
210
-0.0015839104725547
220
0.9999987456130208
230
0.0
  0
ARC
  5
8BB
330
1F
100
AcDbEntity
  8
Hewi
100
AcDbCircle
 10
1446.38419061886
 20
421.6648720388743
 30
251.802181
 40
2.0
100
AcDbArc
 50
176.0298494231502
 51
235.9210434231464
  0
SPLINE
  5
8BC
330
1F
100
AcDbEntity
  8
Hewi
100
AcDbSpline
 70
     0
 71
     3
 72
    16
 73
    12
 74
     0
 42
0.0000000001
 43
0.0000000001
 40
0.0
 40
0.0
 40
0.0
 40
0.0
 40
0.2134577291023125
 40
0.2134577291023125
 40
0.4267854692201147
 40
0.4267854692201147
 40
0.6405715050836122
 40
0.6405715050836122
 40
0.8555284401686311
 40
0.8555284401686311
 40
1.0
 40
1.0
 40
1.0
 40
1.0
 10
1435.763493943429
 20
804.5957451421346
 30
219.502181
 10
1435.763493943429
 20
804.5957451421346
 30
219.4464866271967
 10
1435.764590703834
 20
804.5861963068311
 30
219.3900268548717
 10
1435.768791785912
 20
804.5496136876732
 30
219.2849327230145
 10
1435.771952182243
 20
804.522091324145
 30
219.2348534362266
 10
1435.779874982759
 20
804.4530767728467
 30
219.1477039556085
 10
1435.784748871524
 20
804.410612980665
 30
219.1094677557119
 10
1435.795536389895
 20
804.316594660896
 30
219.0498096428656
 10
1435.801603529309
 20
804.2637016520657
 30
219.027658933087
 10
1435.81204613555
 20
804.1726295746425
 30
219.0065285269004
 10
1435.816399901881
 20
804.134650630981
 30
219.002181
 10
1435.82072523009
 20
804.096910485844
 30
219.002181
  0
ARC
  5
8BD
330
1F
100
AcDbEntity
  8
Hewi
100
AcDbCircle
 10
-638.5005841695349
 20
566.3627827171924
 30
219.002181
 40
2087.899999505454
100
AcDbArc
 50
356.1180104231513
 51
6.538037423149882
  0
SPLINE
  5
8BE
330
1F
100
AcDbEntity
  8
Hewi
100
AcDbSpline
 70
     0
 71
     3
 72
    16
 73
    12
 74
     0
 42
0.0000000001
 43
0.0000000001
 40
0.0
 40
0.0
 40
0.0
 40
0.0
 40
0.2239963859337362
 40
0.2239963859337362
 40
0.4480742375907942
 40
0.4480742375907942
 40
0.6725448293293395
 40
0.6725448293293395
 40
0.8976761135811377
 40
0.8976761135811377
 40
1.0
 40
1.0
 40
1.0
 40
1.0
 10
1454.554313645663
 20
423.8650471291832
 30
559.5021809999999
 10
1454.554313645663
 20
423.8650471291832
 30
559.5580456966938
 10
1454.554970928105
 20
423.8747006390979
 30
559.6146830993914
 10
1454.557488647441
 20
423.9116890907492
 30
559.7201063060396
 10
1454.559384115198
 20
423.9395391749624
 30
559.7703458349188
 10
1454.564132080144
 20
424.0093326984919
 30
559.8576514230213
 10
1454.567051416787
 20
424.0522594570223
 30
559.8958989846992
 10
1454.573499109129
 20
424.1471222223758
 30
559.955351694198
 10
1454.577117768485
 20
424.2003876713908
 30
559.9773268847243
 10
1454.582532577006
 20
424.2801414821739
 30
559.9954270563416
 10
1454.584272042441
 20
424.3057685462814
 30
559.9991995287653
 10
1454.586015216077
 20
424.3314573396735
 30
560.0009795625871
  0
ARC
  5
8BF
330
1F
100
AcDbEntity
  8
Hewi
100
AcDbCircle
 10
1441.240492150672
 20
805.1107968705782
 30
559.5021809999999
 40
4.5
100
AcDbArc
 50
6.548716423148594
 51
90.09075142315341
  0
SPLINE
  5
8C0
330
1F
100
AcDbEntity
  8
Hewi
100
AcDbSpline
 70
     0
 71
     3
 72
     8
 73
     4
 74
     0
 42
0.0000000001
 43
0.0000000001
 40
0.0
 40
0.0
 40
0.0
 40
0.0
 40
1.0
 40
1.0
 40
1.0
 40
1.0
 10
1444.391899509751
 20
421.8452704672435
 30
560.002180999958
 10
1444.389967125655
 20
421.8174195290472
 30
559.8372731275833
 10
1444.388990226609
 20
421.8033458533011
 30
559.6694353429565
 10
1444.388990226609
 20
421.8033458533011
 30
559.5021809999999
  0
LINE
  5
8C1
330
1F
100
AcDbEntity
  8
Hewi
100
AcDbLine
 10
1440.226976815947
 20
809.6091971957601
 30
559.5021809999999
 11
1440.226976815947
 21
809.6091971957601
 31
219.502181
210
-0.0015839104725547
220
0.9999987456130208
230
0.0
  0
LINE
  5
8C2
330
1F
100
AcDbEntity
  8
Hewi
100
AcDbLine
 10
1439.223103667827
 20
782.1075726528881
 30
527.202181
 11
1439.223103667827
 21
782.1075726528881
 31
502.8021809999999
210
-0.0015839104725547
220
0.9999987456130208
230
0.0
  0
SPLINE
  5
8C3
330
1F
100
AcDbEntity
  8
Hewi
100
AcDbSpline
 70
     3
 71
     3
 72
    15
 73
    11
 74
     0
 42
0.0000000001
 43
0.0000000001
 40
0.0
 40
0.0
 40
0.0
 40
0.0
 40
0.125
 40
0.25
 40
0.375
 40
0.5
 40
0.625
 40
0.75
 40
0.875
 40
1.0
 40
1.0
 40
1.0
 40
1.0
 10
1445.127807688322
 20
433.9129671266237
 30
515.0021804855117
 10
1445.12777067298
 20
433.9129671271559
 30
514.0307680846468
 10
1445.195572234936
 20
434.7191364168993
 30
512.0980880286544
 10
1445.430281629904
 20
437.6161824366761
 30
510.8990755366098
 10
1445.635384471215
 20
440.5151704316812
 30
512.0981570869156
 10
1445.748913942591
 20
441.7237795217948
 30
515.0021764475979
 10
1445.635375464878
 20
440.5151758896137
 30
517.9062023006131
 10
1445.430314030337
 20
437.6161810583877
 30
519.1052867015719
 10
1445.19552879072
 20
434.7191374930101
 30
517.906275459016
 10
1445.127844703663
 20
433.9129671260918
 30
515.9735928863765
 10
1445.127807688322
 20
433.9129671266237
 30
515.0021804855117
  0
LINE
  5
8C4
330
1F
100
AcDbEntity
  8
Hewi
100
AcDbLine
 10
1444.38898978576
 20
421.8033459930799
 30
502.8021809999999
 11
1444.38898978576
 21
421.8033459930799
 31
276.202181
210
-0.0015839104725547
220
0.9999987456130208
230
0.0
  0
ARC
  5
8C5
330
1F
100
AcDbEntity
  8
Hewi
100
AcDbCircle
 10
638.5006191742425
 20
566.3627856617516
 30
-276.202181
 40
2087.900035337399
210
0.0
220
0.0
230
-1.0
100
AcDbArc
 50
183.8819895768486
 51
183.9701505768497
  0
LINE
  5
8C6
330
1F
100
AcDbEntity
  8
Hewi
100
AcDbLine
 10
1438.223104922214
 20
782.1059887424156
 30
276.202181
 11
1438.223104922214
 21
782.1059887424156
 31
251.802181
210
-0.0015839104725547
220
0.9999987456130208
230
0.0
  0
LINE
  5
8C7
330
1F
100
AcDbEntity
  8
Hewi
100
AcDbLine
 10
1444.608959425196
 20
425.0084744257668
 30
219.002181
 11
1444.608959425196
 21
425.0084744257668
 31
251.802181
210
-0.0015839104725547
220
0.9999987456130208
230
0.0
  0
ARC
  5
8C8
330
1F
100
AcDbEntity
  8
Hewi
100
AcDbCircle
 10
1450.064706220915
 20
424.1707047893648
 30
219.502181
 40
4.5
100
AcDbArc
 50
270.0907514231534
 51
356.1052434231493
  0
ARC
  5
8C9
330
1F
100
AcDbEntity
  8
Hewi
100
AcDbCircle
 10
1446.38419061886
 20
421.6648720388743
 30
219.502181
 40
2.0
100
AcDbArc
 50
176.0298494231502
 51
270.0907514231534
  0
LINE
  5
8CA
330
1F
100
AcDbEntity
  8
Hewi
100
AcDbLine
 10
1310.807415924675
 20
625.9905798691051
 30
0.0
 11
1311.092519809734
 21
445.9908056587646
 31
0.0
210
0.9999987456130208
220
0.0015839104725548
230
0.0
  0
CIRCLE
  5
8CB
330
1F
100
AcDbEntity
  8
Hewi
100
AcDbCircle
 10
472.4135930410904
 20
111.5
 30
1311.797284700095
 40
5.5
210
0.9999987456130208
220
0.0015839104725548
230
0.0
  0
CIRCLE
  5
8CC
330
1F
100
AcDbEntity
  8
Hewi
100
AcDbCircle
 10
595.4135930410905
 20
111.5
 30
1311.797284700096
 40
5.5
210
0.9999987456130208
220
0.0015839104725548
230
0.0
  0
CIRCLE
  5
8CD
330
1F
100
AcDbEntity
  8
Hewi
100
AcDbCircle
 10
608.4135930410905
 20
64.50000000000001
 30
1311.797284700095
 40
5.5
210
0.9999987456130208
220
0.0015839104725548
230
0.0
  0
CIRCLE
  5
8CE
330
1F
100
AcDbEntity
  8
Hewi
100
AcDbCircle
 10
595.4135930410905
 20
17.5
 30
1311.797284700096
 40
5.5
210
0.9999987456130208
220
0.0015839104725548
230
0.0
  0
CIRCLE
  5
8CF
330
1F
100
AcDbEntity
  8
Hewi
100
AcDbCircle
 10
472.4135930410904
 20
17.5
 30
1311.797284700095
 40
5.5
210
0.9999987456130208
220
0.0015839104725548
230
0.0
  0
LINE
  5
8D0
330
1F
100
AcDbEntity
  8
Hewi
100
AcDbLine
 10
1435.820725261841
 20
804.0969100453391
 30
219.002181
 11
1435.820725269011
 21
804.0969055183371
 31
219.002181
210
0.9999987456130208
220
0.0015839104725548
230
0.0
  0
LINE
  5
8D1
330
1F
100
AcDbEntity
  8
Hewi
100
AcDbLine
 10
1435.763493579631
 20
804.5957451733992
 30
219.502181
 11
1435.763494076211
 21
804.5957451498958
 31
229.4061459873858
210
0.9999987456130208
220
0.0015839104725548
230
0.0
  0
LINE
  5
8D2
330
1F
100
AcDbEntity
  8
Hewi
100
AcDbLine
 10
1415.092389353489
 20
446.1555323479101
 30
160.0825523217941
 11
1311.092519809734
 21
445.9908056587646
 31
0.0
  0
LINE
  5
8D3
330
1F
100
AcDbEntity
  8
Hewi
100
AcDbLine
 10
1311.092519809734
 20
445.9908056587646
 30
0.0
 11
1310.807415924675
 21
625.9905798691085
 31
-0.0000000000000071
  0
LINE
  5
8D4
330
1F
100
AcDbEntity
  8
Hewi
100
AcDbLine
 10
1310.807415924675
 20
625.9905798691085
 30
-0.0000000000000071
 11
1414.80728546843
 21
626.1553065582541
 31
522.7065440000001
  0
LINE
  5
8D5
330
1F
100
AcDbEntity
  8
Hewi
100
AcDbLine
 10
1445.239234244053
 20
419.6630560194343
 30
564.5021810000002
 11
1444.841787556975
 21
414.5449588137668
 31
564.4980248582827
  0
LINE
  5
8D6
330
1F
100
AcDbEntity
  8
Hewi
100
AcDbLine
 10
1444.841787556975
 20
414.5449588137668
 30
564.4980248582827
 11
1415.139261173463
 21
416.563101468317
 31
254.501067
  0
LINE
  5
8D7
330
1F
100
AcDbEntity
  8
Hewi
100
AcDbLine
 10
1415.139261173463
 20
416.563101468317
 30
254.501067
 11
1414.563176040208
 21
780.2733114853398
 31
254.5014956723262
  0
LINE
  5
8D8
330
1F
100
AcDbEntity
  8
Hewi
100
AcDbLine
 10
1414.563176040208
 20
780.2733114853398
 30
254.5014956723262
 11
1438.280379148368
 21
781.5539496716873
 31
253.2584250955042
  0
LINE
  5
8F1
330
1F
100
AcDbEntity
  8
Hewi
100
AcDbLine
 10
655.1086014936227
 20
93.57366760431409
 30
-158.9188833276736
 11
653.9970201910847
 21
72.363433604314
 31
-160.0304645534849
  0
LINE
  5
8F2
330
1F
100
AcDbEntity
  8
Hewi
100
AcDbLine
 10
675.1086019955168
 20
93.57366760431409
 30
-158.9188833276736
 11
676.220182669287
 21
72.363433604314
 31
205.2539312953717
  0
LINE
  5
8F3
330
1F
100
AcDbEntity
  8
Hewi
100
AcDbLine
 10
906.1086014936227
 20
93.57366760431409
 30
-158.9188833276736
 11
904.9970201910847
 21
72.363433604314
 31
-160.0304645534849
  0
LINE
  5
8F4
330
1F
100
AcDbEntity
  8
Hewi
100
AcDbLine
 10
926.1086017445697
 20
93.57366760431414
 30
174.7
 11
927.2201826692873
 21
72.363433604314
 31
205.2539312953717
  0
ARC
  5
915
330
1F
100
AcDbEntity
  8
Hewi
100
AcDbCircle
 10
655.1107827445702
 20
99.57366760431437
 30
-5.300000000000012
 40
3.0
100
AcDbArc
 50
180.0
 51
270.0
  0
ARC
  5
916
330
1F
100
AcDbEntity
  8
Hewi
100
AcDbCircle
 10
654.1107827445697
 20
98.573667604314
 30
174.7
 40
5.0
100
AcDbArc
 50
180.0
 51
270.0
  0
ARC
  5
917
330
1F
100
AcDbEntity
  8
Hewi
100
AcDbCircle
 10
646.1107827445697
 20
191.573667604314
 30
-5.300000000000012
 40
3.0
100
AcDbArc
 50
0.0
 51
90.0
  0
ARC
  5
918
330
1F
100
AcDbEntity
  8
Hewi
100
AcDbCircle
 10
647.1107827445702
 20
192.5736676043143
 30
174.7
 40
5.0
100
AcDbArc
 50
0.0
 51
90.0
  0
LINE
  5
9AB
330
1F
100
AcDbEntity
  8
Hewi
100
AcDbLine
 10
653.9970201910847
 20
72.363433604314
 30
-160.0304645534849
 11
620.6086017445698
 21
72.36343360428802
 31
-184.2133826790968
  0
LINE
  5
9AC
330
1F
100
AcDbEntity
  8
Hewi
100
AcDbLine
 10
615.6086135960435
 20
67.81713292290939
 30
-183.7122378630945
 11
615.6086007445695
 21
53.57366760431401
 31
51.24019300000004
  0
LINE
  5
9AD
330
1F
100
AcDbEntity
  8
Hewi
100
AcDbLine
 10
620.1086017445698
 20
49.0736676043868
 30
51.24074940156788
 11
961.1086017445696
 21
49.07366760438671
 31
51.24074910486825
  0
LINE
  5
9AE
330
1F
100
AcDbEntity
  8
Hewi
100
AcDbLine
 10
965.6086017445696
 20
67.80687230710305
 30
-183.7134093642738
 11
965.6086017445696
 21
54.06090279097888
 31
6.076945979845959
  0
LINE
  5
9AF
330
1F
100
AcDbEntity
  8
Hewi
100
AcDbLine
 10
960.6086007445695
 20
72.363433604314
 30
-184.213398
 11
904.9970201910847
 21
72.363433604314
 31
-160.0304645534849
  0
LINE
  5
9B0
330
1F
100
AcDbEntity
  8
Hewi
100
AcDbLine
 10
653.9970201910847
 20
72.363433604314
 30
-160.0304645534849
 11
904.9970201910847
 21
72.363433604314
 31
-160.0304645534849
  0
LINE
  5
9B1
330
1F
100
AcDbEntity
  8
Hewi
100
AcDbLine
 10
620.1086017445698
 20
62.31962769550435
 30
167.6186352767144
 11
961.026733100444
 21
62.31994912244964
 31
201.2226477624682
  0
ARC
  5
A72
330
1F
100
AcDbEntity
  8
Hewi
100
AcDbCircle
 10
620.1086017445698
 20
53.57366760438678
 30
51.24074940156788
 40
4.5
100
AcDbArc
 50
170.2625592417779
 51
279.6645730230253
  0
ARC
  5
A73
330
1F
100
AcDbEntity
  8
Hewi
100
AcDbCircle
 10
620.1086017445698
 20
67.88862045831564
 30
51.24074940156788
 40
4.5
100
AcDbArc
 50
83.62062979155702
 51
180.9102458593591
  0
LWPOLYLINE
  5
AA8
330
1F
100
AcDbEntity
  8
0
 62
     5
100
AcDbPolyline
 90
        4
 70
     1
 43
0.0
 10
413.1107827445696
 20
194.5736676043139
 10
424.1107827445696
 20
194.5736676043139
 10
424.1107827445696
 20
197.5736676043139
 10
413.1107827445696
 20
197.5736676043139
  0
LWPOLYLINE
  5
AA9
330
1F
100
AcDbEntity
  8
0
 62
     5
100
AcDbPolyline
 90
        4
 70
     1
 43
0.0
 10
460.1107827445696
 20
194.573667604314
 10
471.1107827445696
 20
194.573667604314
 10
471.1107827445696
 20
197.573667604314
 10
460.1107827445696
 20
197.573667604314
  0
LWPOLYLINE
  5
AAA
330
1F
100
AcDbEntity
  8
0
 62
     5
100
AcDbPolyline
 90
        4
 70
     1
 43
0.0
 10
507.1107827445694
 20
194.573667604314
 10
518.1107827445694
 20
194.573667604314
 10
518.1107827445694
 20
197.573667604314
 10
507.1107827445694
 20
197.573667604314
  0
LINE
  5
AAB
330
1F
100
AcDbEntity
  8
Hewi
100
AcDbLine
 10
1180.024552100444
 20
197.573667604314
 30
0.0
 11
1180.024552100444
 21
194.573667604314
 31
0.0
  0
LINE
  5
AAC
330
1F
100
AcDbEntity
  8
Hewi
100
AcDbLine
 10
1180.024552100444
 20
194.573667604314
 30
0.0
 11
935.024552100444
 21
194.573667604314
 31
-5.300000000000012
  0
LINE
  5
AAD
330
1F
100
AcDbEntity
  8
Hewi
100
AcDbLine
 10
1180.024552100444
 20
197.573667604314
 30
0.0
 11
934.024552100444
 21
197.573667604314
 31
-5.300000000000012
  0
LINE
  5
AAE
330
1F
100
AcDbEntity
  8
Hewi
100
AcDbLine
 10
929.024552100444
 20
192.573667604314
 30
-5.300000000000012
 11
929.024552100444
 21
99.573667604314
 31
-5.300000000000012
  0
LINE
  5
AAF
330
1F
100
AcDbEntity
  8
Hewi
100
AcDbLine
 10
932.0245521004439
 20
191.573667604314
 30
-5.300000000000012
 11
932.0245521004439
 21
98.573667604314
 31
174.7
  0
LINE
  5
AB0
330
1F
100
AcDbEntity
  8
Hewi
100
AcDbLine
 10
926.024552100444
 20
96.57366760431393
 30
-5.300000000000012
 11
877.3174453192575
 21
96.57366760431404
 31
174.4071067811865
  0
LINE
  5
AB1
330
1F
100
AcDbEntity
  8
Hewi
100
AcDbLine
 10
877.024552100444
 20
96.57366760431402
 30
-4.300000000000011
 11
877.024552100444
 21
93.57366760431395
 31
-5.300000000000012
  0
LINE
  5
AB2
330
1F
100
AcDbEntity
  8
Hewi
100
AcDbLine
 10
877.024552100444
 20
93.57366760431395
 30
-5.300000000000012
 11
927.024552100444
 21
93.57366760431395
 31
-5.300000000000012
  0
ARC
  5
AB3
330
1F
100
AcDbEntity
  8
Hewi
100
AcDbCircle
 10
926.0245521004435
 20
99.57366760431437
 30
-5.300000000000012
 40
3.0
100
AcDbArc
 50
270.0
 51
0.000000000000007
  0
ARC
  5
AB4
330
1F
100
AcDbEntity
  8
Hewi
100
AcDbCircle
 10
927.024552100444
 20
98.573667604314
 30
174.7
 40
5.0
100
AcDbArc
 50
270.0
 51
0.000000000000007
  0
ARC
  5
AB5
330
1F
100
AcDbEntity
  8
Hewi
100
AcDbCircle
 10
935.024552100444
 20
191.573667604314
 30
-5.300000000000012
 40
3.0
100
AcDbArc
 50
90.0
 51
180.0
  0
ARC
  5
AB6
330
1F
100
AcDbEntity
  8
Hewi
100
AcDbCircle
 10
934.0245521004435
 20
192.5736676043143
 30
174.7
 40
5.0
100
AcDbArc
 50
90.0
 51
180.0
  0
LWPOLYLINE
  5
AB7
330
1F
100
AcDbEntity
  8
0
 62
     5
100
AcDbPolyline
 90
        4
 70
     1
 43
0.0
 10
1168.024552100444
 20
194.5736676043139
 10
1157.024552100444
 20
194.5736676043139
 10
1157.024552100444
 20
197.5736676043139
 10
1168.024552100444
 20
197.5736676043139
  0
LWPOLYLINE
  5
AB8
330
1F
100
AcDbEntity
  8
0
 62
     5
100
AcDbPolyline
 90
        4
 70
     1
 43
0.0
 10
1121.024552100444
 20
194.573667604314
 10
1110.024552100444
 20
194.573667604314
 10
1110.024552100444
 20
197.573667604314
 10
1121.024552100444
 20
197.573667604314
  0
LWPOLYLINE
  5
AB9
330
1F
100
AcDbEntity
  8
0
 62
     5
100
AcDbPolyline
 90
        4
 70
     1
 43
0.0
 10
1074.024552100444
 20
194.573667604314
 10
1063.024552100444
 20
194.573667604314
 10
1063.024552100444
 20
197.573667604314
 10
1074.024552100444
 20
197.573667604314
  0
LINE
  5
ABA
330
1F
100
AcDbEntity
  8
Hewi
100
AcDbLine
 10
1314.092516046573
 20
445.9955573901823
 30
0.0
 11
1313.807412161514
 21
625.9953316005261
 31
-0.0000000000000071
  0
LINE
  5
ABB
330
1F
100
AcDbEntity
  8
Hewi
100
AcDbLine
 10
267.7083579312228
 20
445.1668674572561
 30
0.0
 11
267.7083579312228
 21
625.1668674572562
 31
-0.0000000000000071
  0
ARC
  5
AD4
330
1F
100
AcDbEntity
  8
Hewi
100
AcDbCircle
 10
960.604692464234
 20
67.33994912244964
 30
201.2226477624682
 40
5.019999999999998
100
AcDbArc
 50
271.1021648988225
 51
88.89783510117748
  0
ARC
  5
AD6
330
1F
100
AcDbEntity
  8
Hewi
100
AcDbCircle
 10
620.5306423807797
 20
67.33994912244964
 30
201.2226477624682
 40
5.019999999999998
100
AcDbArc
 50
91.10216489882336
 51
268.8978351011766
  0
ARC
  5
AD9
330
1F
100
AcDbEntity
  8
Hewi
100
AcDbCircle
 10
960.5886017445696
 20
54.06090279097888
 30
6.076945979845959
 40
5.019999999999998
100
AcDbArc
 50
271.1021648988225
 51
0.0
  0
DIMENSION
  5
AF2
330
1F
100
AcDbEntity
  8
0
100
AcDbDimension
  2
*D1
 10
1115.615144744569
 20
928.3272064569919
 30
0.0
 11
790.6129637445692
 21
943.8272064569918
 31
0.0
 70
    32
  1
650 (700)
 71
     5
 42
650.0043619999992
  3
ISO-25
100
AcDbAlignedDimension
 13
465.6107827445697
 23
669.1201439754715
 33
-0.0000000000000104
 14
1115.615144744569
 24
669.1201439754711
 34
-0.0000000000000104
100
AcDbRotatedDimension
1001
ACAD
1000
DSTYLE
1002
{
1070
    41
1040
10.0
1070
   147
1040
8.0
1070
   140
1040
15.0
1002
}
  0
DIMENSION
  5
B52
330
1F
100
AcDbEntity
  8
0
100
AcDbDimension
  2
*D2
 10
965.6129637445706
 20
874.9347341852462
 30
0.0
 11
790.6129637445701
 21
890.4347341852462
 31
0.0
 70
    32
 71
     5
 42
350.0000000000008
  3
ISO-25
100
AcDbAlignedDimension
 13
615.6129637445697
 23
812.4158535604946
 33
138.9738018157038
 14
965.6129637445706
 24
812.30892763534
 34
129.7631636096727
100
AcDbRotatedDimension
1001
ACAD
1000
DSTYLE
1002
{
1070
    41
1040
10.0
1070
   140
1040
15.0
1070
   147
1040
8.0
1002
}
  0
DIMENSION
  5
B97
330
1F
100
AcDbEntity
  8
0
100
AcDbDimension
  2
*D3
 10
1532.250672024306
 20
419.6718836165348
 30
0.0
 11
1516.750672024306
 21
614.6413402435568
 31
0.0
 70
    32
  1
390
 71
     5
 42
389.9389132540434
  3
ISO-25
100
AcDbAlignedDimension
 13
1469.503447845
 23
809.6107968705782
 33
219.502181
 14
1478.430657327263
 24
419.6718836165348
 34
219.502181
 50
90.0
100
AcDbRotatedDimension
1001
ACAD
1000
DSTYLE
1002
{
1070
    41
1040
10.0
1070
   140
1040
15.0
1070
   147
1040
8.0
1002
}
  0
DIMENSION
  5
BD3
330
1F
100
AcDbEntity
  8
0
100
AcDbDimension
  2
*D4
 10
1219.916853987
 20
197.573667604314
 30
0.0
 11
1203.166853986999
 21
123.3236676043142
 31
0.0
 70
    32
 71
     5
 42
148.5000000000001
  3
ISO-25
100
AcDbAlignedDimension
 13
1191.824013725655
 23
49.07366760431401
 33
51.24019299999996
 14
1193.035331124913
 24
197.5736676043141
 34
-4.983218361783634
 50
90.0
100
AcDbRotatedDimension
1001
ACAD
1000
DSTYLE
1002
{
1070
    41
1040
10.0
1070
   140
1040
15.0
1070
   147
1040
8.0
1002
}
  0
ENDSEC
  0
SECTION
  2
OBJECTS
  0
DICTIONARY
  5
C
330
0
100
AcDbDictionary
281
     1
  3
ACAD_COLOR
350
6B
  3
ACAD_GROUP
350
D
  3
ACAD_LAYOUT
350
1A
  3
ACAD_MATERIAL
350
6A
  3
ACAD_MLINESTYLE
350
17
  3
ACAD_PLOTSETTINGS
350
19
  3
ACAD_PLOTSTYLENAME
350
E
  3
ACAD_TABLESTYLE
350
7E
  3
ACAD_VISUALSTYLE
350
EF
  3
AcDbVariableDictionary
350
5E
  3
DWGPROPS
350
C08
  0
DICTIONARY
  5
141
330
2
100
AcDbDictionary
280
     1
281
     1
  3
ACAD_LAYERSTATES
360
142
  0
DICTIONARY
  5
116
330
1F
100
AcDbDictionary
280
     1
281
     1
  3
ACAD_SORTENTS
360
117
  0
DICTIONARY
  5
6B
102
{ACAD_REACTORS
330
C
102
}
330
C
100
AcDbDictionary
281
     1
  0
DICTIONARY
  5
D
102
{ACAD_REACTORS
330
C
102
}
330
C
100
AcDbDictionary
281
     1
  0
DICTIONARY
  5
1A
102
{ACAD_REACTORS
330
C
102
}
330
C
100
AcDbDictionary
281
     1
  3
Layout1
350
D3
  3
Layout2
350
D7
  3
Model
350
22
  0
DICTIONARY
  5
6A
102
{ACAD_REACTORS
330
C
102
}
330
C
100
AcDbDictionary
281
     1
  3
ByBlock
350
ED
  3
ByLayer
350
EC
  3
Global
350
EE
  0
DICTIONARY
  5
17
102
{ACAD_REACTORS
330
C
102
}
330
C
100
AcDbDictionary
281
     1
  3
Standard
350
18
  0
DICTIONARY
  5
19
102
{ACAD_REACTORS
330
C
102
}
330
C
100
AcDbDictionary
281
     1
  0
ACDBDICTIONARYWDFLT
  5
E
102
{ACAD_REACTORS
330
C
102
}
330
C
100
AcDbDictionary
281
     1
  3
Normal
350
F
100
AcDbDictionaryWithDefault
340
F
  0
DICTIONARY
  5
7E
102
{ACAD_REACTORS
330
C
102
}
330
C
100
AcDbDictionary
281
     1
  3
Standard
350
7F
  0
DICTIONARY
  5
EF
102
{ACAD_REACTORS
330
C
102
}
330
C
100
AcDbDictionary
281
     1
  3
2dWireframe
350
F5
  3
3D Hidden
350
F7
  3
3dWireframe
350
F6
  3
Basic
350
F4
  3
Brighten
350
FB
  3
ColorChange
350
FF
  3
Conceptual
350
F8
  3
Dim
350
FA
  3
Facepattern
350
FE
  3
Flat
350
F0
  3
FlatWithEdges
350
F1
  3
Gouraud
350
F2
  3
GouraudWithEdges
350
F3
  3
Linepattern
350
FD
  3
Realistic
350
F9
  3
Thicken
350
FC
  0
DICTIONARY
  5
5E
102
{ACAD_REACTORS
330
C
102
}
330
C
100
AcDbDictionary
281
     1
  3
CTABLESTYLE
350
84
  3
DIMASSOC
350
5F
  3
HIDETEXT
350
63
  3
INDEXCTL
350
243
  3
PSOLHEIGHT
350
C07
  3
PSOLWIDTH
350
C06
  3
SORTENTS
350
242
  0
XRECORD
  5
C08
102
{ACAD_REACTORS
330
C
102
}
330
C
100
AcDbXrecord
280
     1
  1
DWGPROPS COOKIE
  2

  3

  4

  6

  7

  8
kaschu
  9

300
=
301
=
302
=
303
=
304
=
305
=
306
=
307
=
308
=
309
=
 40
0.0535383217592593
 41
2454768.552548658
 42
2455733.476469815
  1

 90
        0
  0
DICTIONARY
  5
142
102
{ACAD_REACTORS
330
141
102
}
330
141
100
AcDbDictionary
281
     1
  0
SORTENTSTABLE
  5
117
102
{ACAD_REACTORS
330
116
102
}
330
116
100
AcDbSortentsTable
330
1F
331
6C3
  5
799
331
2BC
  5
2BC
331
86E
  5
85F
331
8AD
  5
8B5
331
8B5
  5
8BD
331
83F
  5
831
331
2C4
  5
2C4
331
8BD
  5
8C5
331
808
  5
7F6
331
847
  5
83D
331
886
  5
88E
331
ABB
  5
87E
331
8F4
  5
9AE
331
9AC
  5
9EA
331
810
  5
802
331
84F
  5
849
331
88E
  5
896
331
285
  5
285
331
7B9
  5
877
331
818
  5
80C
331
820
  5
819
331
857
  5
84F
331
896
  5
89E
331
828
  5
81F
331
85F
  5
853
331
295
  5
295
331
6BC
  5
6C4
331
7E9
  5
87D
331
89E
  5
8A6
331
8A6
  5
8AE
331
867
  5
857
331
8C5
  5
8CD
331
8CD
  5
8D5
331
AAC
  5
AAE
331
8D5
  5
916
331
AB4
  5
AB6
331
6C4
  5
79C
331
29D
  5
29D
331
86F
  5
861
331
8AE
  5
8B6
331
7F9
  5
7EE
331
838
  5
827
331
2BD
  5
2BD
331
8B6
  5
8BE
331
2C5
  5
2C5
331
79C
  5
7EC
331
840
  5
832
331
2F5
  5
2F5
331
809
  5
7F9
331
8BE
  5
8C6
331
887
  5
88F
331
915
  5
9AF
331
9AD
  5
9EB
331
2FD
  5
2FD
331
88F
  5
897
331
286
  5
286
331
7BA
  5
878
331
897
  5
89F
331
821
  5
81A
331
28E
  5
28E
331
89F
  5
8A7
331
296
  5
296
331
6BD
  5
76D
331
7EA
  5
87F
331
829
  5
820
331
8A7
  5
8AF
331
8C6
  5
8CE
331
8CE
  5
8D6
331
8D6
  5
917
331
AAD
  5
AAF
331
AB5
  5
AB7
331
29E
  5
29E
331
839
  5
828
331
2BE
  5
2BE
331
76D
  5
7BF
331
7FA
  5
7EF
331
8AF
  5
8B7
331
8B7
  5
8BF
331
841
  5
833
331
2C6
  5
2C6
331
878
  5
867
331
80A
  5
7FA
331
8BF
  5
8C7
331
916
  5
9B0
331
9AE
  5
9EC
331
7B3
  5
873
331
888
  5
890
331
890
  5
898
331
287
  5
287
331
81A
  5
80D
331
898
  5
8A0
331
8A0
  5
8A8
331
297
  5
297
331
7EB
  5
880
331
8C7
  5
8CF
331
8CF
  5
8D7
331
AAE
  5
AB0
331
8D7
  5
918
331
AB6
  5
AB8
331
8A8
  5
8B0
331
29F
  5
29F
331
869
  5
858
331
871
  5
863
331
8B0
  5
8B8
331
2BF
  5
2BF
331
7FB
  5
7F0
331
83A
  5
82A
331
842
  5
835
331
2C7
  5
2C7
331
879
  5
872
331
8B8
  5
8C0
331
881
  5
889
331
917
  5
9E7
331
9AF
  5
9ED
331
813
  5
806
331
889
  5
891
331
891
  5
899
331
81B
  5
80E
331
288
  5
288
331
852
  5
84C
331
899
  5
8A1
331
290
  5
290
331
85A
  5
851
331
6BF
  5
771
331
7EC
  5
881
331
8A1
  5
8A9
331
8C0
  5
8C8
331
8C8
  5
8D0
331
8D0
  5
8D8
331
8D8
  5
919
331
AAF
  5
AB1
331
AB7
  5
AB9
331
298
  5
298
331
833
  5
823
331
8A9
  5
8B1
331
8B1
  5
8B9
331
872
  5
864
331
2C0
  5
2C0
331
7FC
  5
7F2
331
804
  5
7F3
331
8B9
  5
8C1
331
2F0
  5
2F0
331
882
  5
88A
331
80C
  5
7FC
331
918
  5
9E8
331
84B
  5
840
331
88A
  5
892
331
814
  5
807
331
892
  5
89A
331
289
  5
289
331
81C
  5
80F
331
291
  5
291
331
7CD
  5
879
331
89A
  5
8A2
331
8A2
  5
8AA
331
7ED
  5
882
331
863
  5
854
331
8C1
  5
8C9
331
9B0
  5
A72
331
8C9
  5
8D1
331
8D1
  5
8F1
331
AA8
  5
AAA
331
AB0
  5
AB2
331
299
  5
299
331
6C0
  5
774
331
8AA
  5
8B2
331
834
  5
824
331
86B
  5
859
331
2C1
  5
2C1
331
873
  5
865
331
8B2
  5
8BA
331
844
  5
838
331
8BA
  5
8C2
331
883
  5
88B
331
80D
  5
7FE
331
8F1
  5
9AB
331
AB8
  5
ABA
331
84C
  5
842
331
7B6
  5
874
331
88B
  5
893
331
893
  5
89B
331
28A
  5
28A
331
85C
  5
852
331
89B
  5
8A3
331
7CE
  5
87A
331
825
  5
81B
331
292
  5
292
331
7EE
  5
883
331
8A3
  5
8AB
331
9B1
  5
A73
331
8C2
  5
8CA
331
8CA
  5
8D2
331
8D2
  5
8F2
331
AA9
  5
AAB
331
AB1
  5
AB3
331
29A
  5
29A
331
6C1
  5
777
331
835
  5
825
331
86C
  5
85B
331
8AB
  5
8B3
331
8B3
  5
8BB
331
83D
  5
82C
331
2C2
  5
2C2
331
799
  5
7EA
331
8BB
  5
8C3
331
806
  5
7F4
331
2F2
  5
2F2
331
87C
  5
884
331
884
  5
88C
331
80E
  5
800
331
8F2
  5
9AC
331
AB9
  5
ABB
331
84D
  5
845
331
88C
  5
894
331
31A
  5
31A
331
7B7
  5
875
331
816
  5
80B
331
28B
  5
28B
331
894
  5
89C
331
826
  5
81C
331
293
  5
293
331
89C
  5
8A4
331
8A4
  5
8AC
331
8C3
  5
8CB
331
8CB
  5
8D3
331
A72
  5
A7C
331
AAA
  5
AAC
331
8D3
  5
8F3
331
AB2
  5
AB4
331
6C2
  5
77A
331
29B
  5
29B
331
86D
  5
85E
331
8AC
  5
8B4
331
7F7
  5
7ED
331
836
  5
826
331
2BB
  5
2BB
331
875
  5
866
331
8B4
  5
8BC
331
2C3
  5
2C3
331
83E
  5
82D
331
846
  5
83C
331
2F3
  5
2F3
331
807
  5
7F5
331
8BC
  5
8C4
331
80F
  5
801
331
885
  5
88D
331
8F3
  5
9AD
331
ABA
  5
8F4
331
9AB
  5
9E9
331
2FB
  5
2FB
331
284
  5
284
331
31B
  5
31B
331
7B8
  5
876
331
88D
  5
895
331
895
  5
89D
331
633
  5
633
331
28C
  5
28C
331
856
  5
84D
331
89D
  5
8A5
331
7E8
  5
87C
331
827
  5
81E
331
294
  5
294
331
866
  5
855
331
8A5
  5
8AD
331
8C4
  5
8CC
331
A73
  5
AA8
331
8CC
  5
8D4
331
8D4
  5
915
331
AAB
  5
AAD
331
AB3
  5
AB5
  0
LAYOUT
  5
D3
102
{ACAD_XDICTIONARY
360
C0D
102
}
102
{ACAD_REACTORS
330
1A
102
}
330
1A
100
AcDbPlotSettings
  1

  2
C:\Documents and Settings\basas\Application Data\Autodesk\AutoCAD 2005\R16.1\enu\plotters\Default Windows System Printer.pc3
  4

  6

 40
0.0
 41
0.0
 42
0.0
 43
0.0
 44
0.0
 45
0.0
 46
0.0
 47
0.0
 48
0.0
 49
0.0
140
0.0
141
0.0
142
1.0
143
1.0
 70
   688
 72
     0
 73
     0
 74
     5
  7

 75
    16
147
1.0
148
0.0
149
0.0
100
AcDbLayout
  1
Layout1
 70
     1
 71
     1
 10
0.0
 20
0.0
 11
12.0
 21
9.0
 12
0.0
 22
0.0
 32
0.0
 14
0.0
 24
0.0
 34
0.0
 15
0.0
 25
0.0
 35
0.0
146
0.0
 13
0.0
 23
0.0
 33
0.0
 16
1.0
 26
0.0
 36
0.0
 17
0.0
 27
1.0
 37
0.0
 76
     0
330
D2
  0
LAYOUT
  5
D7
102
{ACAD_XDICTIONARY
360
C0F
102
}
102
{ACAD_REACTORS
330
1A
102
}
330
1A
100
AcDbPlotSettings
  1

  2
C:\Documents and Settings\basas\Application Data\Autodesk\AutoCAD 2005\R16.1\enu\plotters\Default Windows System Printer.pc3
  4

  6

 40
0.0
 41
0.0
 42
0.0
 43
0.0
 44
0.0
 45
0.0
 46
0.0
 47
0.0
 48
0.0
 49
0.0
140
0.0
141
0.0
142
1.0
143
1.0
 70
   688
 72
     0
 73
     0
 74
     5
  7

 75
    16
147
1.0
148
0.0
149
0.0
100
AcDbLayout
  1
Layout2
 70
     1
 71
     2
 10
0.0
 20
0.0
 11
12.0
 21
9.0
 12
0.0
 22
0.0
 32
0.0
 14
0.0
 24
0.0
 34
0.0
 15
0.0
 25
0.0
 35
0.0
146
0.0
 13
0.0
 23
0.0
 33
0.0
 16
1.0
 26
0.0
 36
0.0
 17
0.0
 27
1.0
 37
0.0
 76
     0
330
D6
  0
LAYOUT
  5
22
102
{ACAD_XDICTIONARY
360
C09
102
}
102
{ACAD_REACTORS
330
1A
102
}
330
1A
100
AcDbPlotSettings
  1

  2
none_device
  4
ISO_A4_(210.00_x_297.00_MM)
  6

 40
7.5
 41
20.0
 42
7.5
 43
20.0
 44
210.0
 45
297.0
 46
11.54999923706054
 47
-13.65000009536743
 48
0.0
 49
0.0
140
0.0
141
0.0
142
1.0
143
8.704084754739808
 70
 11952
 72
     1
 73
     0
 74
     0
  7

 75
     0
147
0.1148885871608098
148
0.0
149
0.0
100
AcDbLayout
  1
Model
 70
     1
 71
     0
 10
0.0
 20
0.0
 11
12.0
 21
9.0
 12
0.0
 22
0.0
 32
0.0
 14
0.0
 24
0.0
 34
0.0
 15
0.0
 25
0.0
 35
0.0
146
0.0
 13
0.0
 23
0.0
 33
0.0
 16
1.0
 26
0.0
 36
0.0
 17
0.0
 27
1.0
 37
0.0
 76
     0
330
1F
331
EA
1001
ACAD_PSEXT
1000
None
1000
None
1000
Not applicable
1000
The layout will not be plotted unless a new plotter configuration name is selected.
1070
     0
  0
MATERIAL
  5
ED
102
{ACAD_XDICTIONARY
360
251
102
}
102
{ACAD_REACTORS
330
6A
102
}
330
6A
100
AcDbMaterial
  1
ByBlock
  0
MATERIAL
  5
EC
102
{ACAD_XDICTIONARY
360
24F
102
}
102
{ACAD_REACTORS
330
6A
102
}
330
6A
100
AcDbMaterial
  1
ByLayer
  0
MATERIAL
  5
EE
102
{ACAD_XDICTIONARY
360
253
102
}
102
{ACAD_REACTORS
330
6A
102
}
330
6A
100
AcDbMaterial
  1
Global
  0
MLINESTYLE
  5
18
102
{ACAD_REACTORS
330
17
102
}
330
17
100
AcDbMlineStyle
  2
STANDARD
 70
     0
  3

 62
   256
 51
90.0
 52
90.0
 71
     2
 49
0.5
 62
   256
  6
BYLAYER
 49
-0.5
 62
   256
  6
BYLAYER
  0
ACDBPLACEHOLDER
  5
F
102
{ACAD_REACTORS
330
E
102
}
330
E
  0
TABLESTYLE
  5
7F
102
{ACAD_XDICTIONARY
360
C0B
102
}
102
{ACAD_REACTORS
330
7E
102
}
330
7E
100
AcDbTableStyle
  3
Standard
 70
     0
 71
     0
 40
1.5
 41
1.5
280
     0
281
     0
  7
Standard
140
4.5
170
     2
 62
     0
 63
     7
283
     0
274
    -2
284
     1
 64
     0
275
    -2
285
     1
 65
     0
276
    -2
286
     1
 66
     0
277
    -2
287
     1
 67
     0
278
    -2
288
     1
 68
     0
279
    -2
289
     1
 69
     0
  7
Standard
140
6.0
170
     5
 62
     0
 63
     7
283
     0
274
    -2
284
     1
 64
     0
275
    -2
285
     1
 65
     0
276
    -2
286
     1
 66
     0
277
    -2
287
     1
 67
     0
278
    -2
288
     1
 68
     0
279
    -2
289
     1
 69
     0
  7
Standard
140
4.5
170
     5
 62
     0
 63
     7
283
     0
274
    -2
284
     1
 64
     0
275
    -2
285
     1
 65
     0
276
    -2
286
     1
 66
     0
277
    -2
287
     1
 67
     0
278
    -2
288
     1
 68
     0
279
    -2
289
     1
 69
     0
  0
VISUALSTYLE
  5
F5
102
{ACAD_REACTORS
330
EF
102
}
330
EF
100
AcDbVisualStyle
  2
2dWireframe
 70
     4
 71
     0
 72
     2
 73
     1
 90
        0
 40
-0.6
 41
-30.0
 62
     5
 63
     7
 74
     1
 91
        4
 64
     7
 65
   257
 75
     1
175
     1
 42
1.0
 92
        0
 66
   257
 43
1.0
 76
     1
 77
     6
 78
     2
 67
     7
 79
     5
170
     0
171
     0
290
     0
174
     0
 93
        1
 44
0.0
173
     0
291
     0
 45
0.0
1001
ACAD
1000
AcDbSavedByObjectVersion
1070
     0
1000
AcDbSavedByObjectVersion
1070
     0
1000
AcDbSavedByObjectVersion
1070
     0
  0
VISUALSTYLE
  5
F7
102
{ACAD_REACTORS
330
EF
102
}
330
EF
100
AcDbVisualStyle
  2
3D Hidden
 70
     6
 71
     1
 72
     2
 73
     2
 90
        0
 40
-0.6
 41
-30.0
 62
     5
 63
     7
 74
     2
 91
        2
 64
     7
 65
   257
 75
     2
175
     1
 42
40.0
 92
        0
 66
   257
 43
1.0
 76
     1
 77
     6
 78
     2
 67
     7
 79
     3
170
     0
171
     0
290
     0
174
     0
 93
        1
 44
0.0
173
     0
291
     0
 45
0.0
1001
ACAD
1000
AcDbSavedByObjectVersion
1070
     0
1000
AcDbSavedByObjectVersion
1070
     0
1000
AcDbSavedByObjectVersion
1070
     0
  0
VISUALSTYLE
  5
F6
102
{ACAD_REACTORS
330
EF
102
}
330
EF
100
AcDbVisualStyle
  2
3dWireframe
 70
     5
 71
     0
 72
     2
 73
     1
 90
        0
 40
-0.6
 41
-30.0
 62
     5
 63
     7
 74
     1
 91
        4
 64
     7
 65
   257
 75
     1
175
     1
 42
1.0
 92
        0
 66
   257
 43
1.0
 76
     1
 77
     6
 78
     2
 67
     7
 79
     5
170
     0
171
     0
290
     0
174
     0
 93
        1
 44
0.0
173
     0
291
     0
 45
0.0
1001
ACAD
1000
AcDbSavedByObjectVersion
1070
     0
1000
AcDbSavedByObjectVersion
1070
     0
1000
AcDbSavedByObjectVersion
1070
     0
  0
VISUALSTYLE
  5
F4
102
{ACAD_REACTORS
330
EF
102
}
330
EF
100
AcDbVisualStyle
  2
Basic
 70
     7
 71
     1
 72
     0
 73
     1
 90
        0
 40
-0.6
 41
-30.0
 62
     5
 63
     7
 74
     0
 91
        4
 64
     7
 65
   257
 75
     1
175
     1
 42
1.0
 92
        8
 66
     7
 43
1.0
 76
     1
 77
     6
 78
     2
 67
     7
 79
     5
170
     0
171
     0
290
     0
174
     0
 93
        1
 44
0.0
173
     0
291
     1
 45
0.0
1001
ACAD
1000
AcDbSavedByObjectVersion
1070
     0
1000
AcDbSavedByObjectVersion
1070
     0
1000
AcDbSavedByObjectVersion
1070
     0
  0
VISUALSTYLE
  5
FB
102
{ACAD_REACTORS
330
EF
102
}
330
EF
100
AcDbVisualStyle
  2
Brighten
 70
    12
 71
     2
 72
     2
 73
     1
 90
        0
 40
-0.6
 41
-30.0
 62
     5
 63
     7
 74
     1
 91
        4
 64
     7
 65
   257
 75
     1
175
     1
 42
1.0
 92
        8
 66
     7
 43
1.0
 76
     1
 77
     6
 78
     2
 67
     7
 79
     5
170
     0
171
     0
290
     0
174
     0
 93
        1
 44
50.0
173
     0
291
     1
 45
0.0
1001
ACAD
1000
AcDbSavedByObjectVersion
1070
     0
1000
AcDbSavedByObjectVersion
1070
     0
1000
AcDbSavedByObjectVersion
1070
     0
  0
VISUALSTYLE
  5
FF
102
{ACAD_REACTORS
330
EF
102
}
330
EF
100
AcDbVisualStyle
  2
ColorChange
 70
    16
 71
     2
 72
     2
 73
     3
 90
        0
 40
-0.6
 41
-30.0
 62
     5
 63
     8
 74
     1
 91
        4
 64
     7
 65
   257
 75
     1
175
     1
 42
1.0
 92
        8
 66
     8
 43
1.0
 76
     1
 77
     6
 78
     2
 67
     7
 79
     5
170
     0
171
     0
290
     0
174
     0
 93
        1
 44
0.0
173
     0
291
     1
 45
0.0
1001
ACAD
1000
AcDbSavedByObjectVersion
1070
     0
1000
AcDbSavedByObjectVersion
1070
     0
1000
AcDbSavedByObjectVersion
1070
     0
  0
VISUALSTYLE
  5
F8
102
{ACAD_REACTORS
330
EF
102
}
330
EF
100
AcDbVisualStyle
  2
Conceptual
 70
     9
 71
     3
 72
     2
 73
     1
 90
        0
 40
-0.6
 41
-30.0
 62
     5
 63
     7
 74
     2
 91
        2
 64
     7
 65
   257
 75
     1
175
     1
 42
40.0
 92
        8
 66
     7
 43
1.0
 76
     1
 77
     6
 78
     2
 67
     7
 79
     3
170
     0
171
     0
290
     0
174
     0
 93
        1
 44
0.0
173
     0
291
     0
 45
0.0
1001
ACAD
1000
AcDbSavedByObjectVersion
1070
     0
1000
AcDbSavedByObjectVersion
1070
     0
1000
AcDbSavedByObjectVersion
1070
     0
  0
VISUALSTYLE
  5
FA
102
{ACAD_REACTORS
330
EF
102
}
330
EF
100
AcDbVisualStyle
  2
Dim
 70
    11
 71
     2
 72
     2
 73
     1
 90
        0
 40
-0.6
 41
-30.0
 62
     5
 63
     7
 74
     1
 91
        4
 64
     7
 65
   257
 75
     1
175
     1
 42
1.0
 92
        8
 66
     7
 43
1.0
 76
     1
 77
     6
 78
     2
 67
     7
 79
     5
170
     0
171
     0
290
     0
174
     0
 93
        1
 44
-50.0
173
     0
291
     1
 45
0.0
1001
ACAD
1000
AcDbSavedByObjectVersion
1070
     0
1000
AcDbSavedByObjectVersion
1070
     0
1000
AcDbSavedByObjectVersion
1070
     0
  0
VISUALSTYLE
  5
FE
102
{ACAD_REACTORS
330
EF
102
}
330
EF
100
AcDbVisualStyle
  2
Facepattern
 70
    15
 71
     2
 72
     2
 73
     1
 90
        0
 40
-0.6
 41
-30.0
 62
     5
 63
     7
 74
     1
 91
        4
 64
     7
 65
   257
 75
     1
175
     1
 42
1.0
 92
        8
 66
     7
 43
1.0
 76
     1
 77
     6
 78
     2
 67
     7
 79
     5
170
     0
171
     0
290
     0
174
     0
 93
        1
 44
0.0
173
     0
291
     1
 45
0.0
1001
ACAD
1000
AcDbSavedByObjectVersion
1070
     0
1000
AcDbSavedByObjectVersion
1070
     0
1000
AcDbSavedByObjectVersion
1070
     0
  0
VISUALSTYLE
  5
F0
102
{ACAD_REACTORS
330
EF
102
}
330
EF
100
AcDbVisualStyle
  2
Flat
 70
     0
 71
     2
 72
     1
 73
     1
 90
        2
 40
-0.6
 41
30.0
 62
     5
 63
     7
 74
     0
 91
        4
 64
     7
 65
   257
 75
     1
175
     1
 42
1.0
 92
        8
 66
     7
 43
1.0
 76
     1
 77
     6
 78
     2
 67
     7
 79
     5
170
     0
171
     0
290
     0
174
     0
 93
       13
 44
0.0
173
     0
291
     1
 45
0.0
1001
ACAD
1000
AcDbSavedByObjectVersion
1070
     0
1000
AcDbSavedByObjectVersion
1070
     0
1000
AcDbSavedByObjectVersion
1070
     0
  0
VISUALSTYLE
  5
F1
102
{ACAD_REACTORS
330
EF
102
}
330
EF
100
AcDbVisualStyle
  2
FlatWithEdges
 70
     1
 71
     2
 72
     1
 73
     1
 90
        2
 40
-0.6
 41
30.0
 62
     5
 63
     7
 74
     1
 91
        4
 64
     7
 65
   257
 75
     1
175
     1
 42
1.0
 92
        0
 66
   257
 43
1.0
 76
     1
 77
     6
 78
     2
 67
     7
 79
     5
170
     0
171
     0
290
     0
174
     0
 93
       13
 44
0.0
173
     0
291
     1
 45
0.0
1001
ACAD
1000
AcDbSavedByObjectVersion
1070
     0
1000
AcDbSavedByObjectVersion
1070
     0
1000
AcDbSavedByObjectVersion
1070
     0
  0
VISUALSTYLE
  5
F2
102
{ACAD_REACTORS
330
EF
102
}
330
EF
100
AcDbVisualStyle
  2
Gouraud
 70
     2
 71
     2
 72
     2
 73
     1
 90
        2
 40
-0.6
 41
30.0
 62
     5
 63
     7
 74
     0
 91
        4
 64
     7
 65
   257
 75
     1
175
     1
 42
1.0
 92
        0
 66
     7
 43
1.0
 76
     1
 77
     6
 78
     2
 67
     7
 79
     5
170
     0
171
     0
290
     0
174
     0
 93
       13
 44
0.0
173
     0
291
     1
 45
0.0
1001
ACAD
1000
AcDbSavedByObjectVersion
1070
     0
1000
AcDbSavedByObjectVersion
1070
     0
1000
AcDbSavedByObjectVersion
1070
     0
  0
VISUALSTYLE
  5
F3
102
{ACAD_REACTORS
330
EF
102
}
330
EF
100
AcDbVisualStyle
  2
GouraudWithEdges
 70
     3
 71
     2
 72
     2
 73
     1
 90
        2
 40
-0.6
 41
30.0
 62
     5
 63
     7
 74
     1
 91
        4
 64
     7
 65
   257
 75
     1
175
     1
 42
1.0
 92
        0
 66
   257
 43
1.0
 76
     1
 77
     6
 78
     2
 67
     7
 79
     5
170
     0
171
     0
290
     0
174
     0
 93
       13
 44
0.0
173
     0
291
     1
 45
0.0
1001
ACAD
1000
AcDbSavedByObjectVersion
1070
     0
1000
AcDbSavedByObjectVersion
1070
     0
1000
AcDbSavedByObjectVersion
1070
     0
  0
VISUALSTYLE
  5
FD
102
{ACAD_REACTORS
330
EF
102
}
330
EF
100
AcDbVisualStyle
  2
Linepattern
 70
    14
 71
     2
 72
     2
 73
     1
 90
        0
 40
-0.6
 41
-30.0
 62
     5
 63
     7
 74
     1
 91
        4
 64
     7
 65
   257
 75
     7
175
     7
 42
1.0
 92
        8
 66
     7
 43
1.0
 76
     1
 77
     6
 78
     2
 67
     7
 79
     5
170
     0
171
     0
290
     0
174
     0
 93
        1
 44
0.0
173
     0
291
     1
 45
0.0
1001
ACAD
1000
AcDbSavedByObjectVersion
1070
     0
1000
AcDbSavedByObjectVersion
1070
     0
1000
AcDbSavedByObjectVersion
1070
     0
  0
VISUALSTYLE
  5
F9
102
{ACAD_REACTORS
330
EF
102
}
330
EF
100
AcDbVisualStyle
  2
Realistic
 70
     8
 71
     2
 72
     2
 73
     1
 90
        0
 40
-0.6
 41
-30.0
 62
     5
 63
     7
 74
     1
 91
        0
 64
     7
 65
   257
 75
     1
175
     1
 42
1.0
 92
        8
 66
     8
 43
1.0
 76
     1
 77
     6
 78
     2
 67
     7
 79
     5
170
     0
171
     0
290
     0
174
     0
 93
       13
 44
0.0
173
     0
291
     0
 45
0.0
1001
ACAD
1000
AcDbSavedByObjectVersion
1070
     0
1000
AcDbSavedByObjectVersion
1070
     0
1000
AcDbSavedByObjectVersion
1070
     0
  0
VISUALSTYLE
  5
FC
102
{ACAD_REACTORS
330
EF
102
}
330
EF
100
AcDbVisualStyle
  2
Thicken
 70
    13
 71
     2
 72
     2
 73
     1
 90
        0
 40
-0.6
 41
-30.0
 62
     5
 63
     7
 74
     1
 91
        4
 64
     7
 65
   257
 75
     1
175
     1
 42
1.0
 92
       12
 66
     7
 43
1.0
 76
     1
 77
     6
 78
     2
 67
     7
 79
     5
170
     0
171
     0
290
     0
174
     0
 93
        1
 44
0.0
173
     0
291
     1
 45
0.0
1001
ACAD
1000
AcDbSavedByObjectVersion
1070
     0
1000
AcDbSavedByObjectVersion
1070
     0
1000
AcDbSavedByObjectVersion
1070
     0
  0
DICTIONARYVAR
  5
84
102
{ACAD_REACTORS
330
5E
102
}
330
5E
100
DictionaryVariables
280
     0
  1
STANDARD
  0
DICTIONARYVAR
  5
5F
102
{ACAD_REACTORS
330
5E
102
}
330
5E
100
DictionaryVariables
280
     0
  1
2
  0
DICTIONARYVAR
  5
63
102
{ACAD_REACTORS
330
5E
102
}
330
5E
100
DictionaryVariables
280
     0
  1
1
  0
DICTIONARYVAR
  5
243
102
{ACAD_REACTORS
330
5E
102
}
330
5E
100
DictionaryVariables
280
     0
  1
0
  0
DICTIONARYVAR
  5
C07
102
{ACAD_REACTORS
330
5E
102
}
330
5E
100
DictionaryVariables
280
     0
  1
80.000000
  0
DICTIONARYVAR
  5
C06
102
{ACAD_REACTORS
330
5E
102
}
330
5E
100
DictionaryVariables
280
     0
  1
5.000000
  0
DICTIONARYVAR
  5
242
102
{ACAD_REACTORS
330
5E
102
}
330
5E
100
DictionaryVariables
280
     0
  1
127
  0
DICTIONARY
  5
C0D
330
D3
100
AcDbDictionary
280
     1
281
     1
  3
ACAD_XREC_ROUNDTRIP
360
C0E
  0
DICTIONARY
  5
C0F
330
D7
100
AcDbDictionary
280
     1
281
     1
  3
ACAD_XREC_ROUNDTRIP
360
C10
  0
DICTIONARY
  5
C09
330
22
100
AcDbDictionary
280
     1
281
     1
  3
ACAD_XREC_ROUNDTRIP
360
C0A
  0
DICTIONARY
  5
251
330
ED
100
AcDbDictionary
280
     1
281
     1
  3
ACAD_XREC_ROUNDTRIP
360
252
  0
DICTIONARY
  5
24F
330
EC
100
AcDbDictionary
280
     1
281
     1
  3
ACAD_XREC_ROUNDTRIP
360
250
  0
DICTIONARY
  5
253
330
EE
100
AcDbDictionary
280
     1
281
     1
  3
ACAD_XREC_ROUNDTRIP
360
254
  0
DICTIONARY
  5
C0B
330
7F
100
AcDbDictionary
280
     1
281
     1
  3
ACAD_XREC_ROUNDTRIP
360
C0C
  0
XRECORD
  5
C0E
102
{ACAD_REACTORS
330
C0D
102
}
330
C0D
100
AcDbXrecord
280
     1
102
SHADEPLOT
 70
     0
102
SHADEPLOTRESLEVEL
 70
     2
102
SHADEPLOTCUSTOMDPI
 70
   300
  0
XRECORD
  5
C10
102
{ACAD_REACTORS
330
C0F
102
}
330
C0F
100
AcDbXrecord
280
     1
102
SHADEPLOT
 70
     0
102
SHADEPLOTRESLEVEL
 70
     2
102
SHADEPLOTCUSTOMDPI
 70
   300
  0
XRECORD
  5
C0A
102
{ACAD_REACTORS
330
C09
102
}
330
C09
100
AcDbXrecord
280
     1
102
SHADEPLOT
 70
     0
102
SHADEPLOTRESLEVEL
 70
     2
102
SHADEPLOTCUSTOMDPI
 70
   300
  0
XRECORD
  5
252
102
{ACAD_REACTORS
330
251
102
}
330
251
100
AcDbXrecord
280
     1
102
MATERIAL
148
0.0
149
0.0
149
0.0
 93
        0
 94
       63
282
     0
 72
     1
 77
     1
171
     1
175
     1
179
     1
273
     0
  0
XRECORD
  5
250
102
{ACAD_REACTORS
330
24F
102
}
330
24F
100
AcDbXrecord
280
     1
102
MATERIAL
148
0.0
149
0.0
149
0.0
 93
        0
 94
       63
282
     0
 72
     1
 77
     1
171
     1
175
     1
179
     1
273
     0
  0
XRECORD
  5
254
102
{ACAD_REACTORS
330
253
102
}
330
253
100
AcDbXrecord
280
     1
102
MATERIAL
148
0.0
149
0.0
149
0.0
 93
        0
 94
       63
282
     0
 72
     1
 77
     1
171
     1
175
     1
179
     1
273
     0
  0
XRECORD
  5
C0C
102
{ACAD_REACTORS
330
C0B
102
}
330
C0B
100
AcDbXrecord
280
     1
102
ACAD_ROUNDTRIP_PRE2007_TABLESTYLE
 90
      512
 91
        0
  1

 92
      512
 93
        0
  2

 94
      512
 95
        0
  3

  0
ENDSEC
  0
EOF
